osu file format v14

[General]
AudioFilename: audio.mp3
AudioLeadIn: 0
PreviewTime: -1
Countdown: 1
SampleSet: None
StackLeniency: 0.7
Mode: 0
LetterboxInBreaks: 0
WidescreenStoryboard: 0

[Editor]
Bookmarks: 13728,38756,45613,57956,188925
DistanceSpacing: 0.8
BeatDivisor: 4
GridSize: 8
TimelineZoom: 3.400004

[Metadata]
Title:Cherry Pop
TitleUnicode:Cherry Pop
Artist:S3RL feat. Gl!tch
ArtistUnicode:S3RL feat. Gl!tch
Creator:CookieManMan
Version:Cherry Popper
Source:
Tags:
BeatmapID:1994478
BeatmapSetID:955022

[Difficulty]
HPDrainRate:4
CircleSize:4
OverallDifficulty:10
ApproachRate:10
SliderMultiplier:2.39999990463257
SliderTickRate:1

[Events]
//Background and Video events
//Break Periods
//Storyboard Layer 0 (Background)
//Storyboard Layer 1 (Fail)
//Storyboard Layer 2 (Pass)
//Storyboard Layer 3 (Foreground)
//Storyboard Sound Samples

[TimingPoints]
3100.08423623933,342.857142857143,4,1,0,100,1,0
23671,-50,4,3,0,100,0,0
24356,-66.6666666666667,4,3,0,100,0,0
35499,-66.6666666666667,4,3,0,100,0,0
36013,-645.161290322581,4,3,0,100,0,0
45956,-645.161290322581,4,2,0,5,0,0
46470,-100,4,3,0,100,0,0
60356,-66.6666666666667,4,3,0,100,0,0
60699,-100,4,3,0,100,0,0
61384,-80,4,3,0,100,0,0
62070,-66.6666666666667,4,3,0,100,0,0
62413,-100,4,3,0,100,0,0
62756,-66.6666666666667,4,3,0,100,0,0
63098,-25,4,3,0,100,0,0
65670,-66.6666666666667,4,3,0,100,0,0
66013,-66.6666666666667,4,3,0,100,0,0
79212,-50,4,3,0,100,0,0
79898,-66.6666666666667,4,3,0,100,0,0
82127,-50,4,3,0,100,0,0
82641,-66.6666666666667,4,3,0,100,0,0
84870,-50,4,3,0,100,0,0
85384,-66.6666666666667,4,3,0,100,0,0
87599,-66.6666666666667,4,3,0,100,0,0
87612,-50,4,3,0,100,0,0
88127,-66.6666666666667,4,3,0,100,0,0
90184,-50,4,3,0,100,0,0
93098,-50,4,3,0,100,0,0
94984,-66.6666666666667,4,3,0,100,0,0
95841,-50,4,3,0,100,0,0
96355,-66.6666666666667,4,3,0,100,0,0
98584,-50,4,3,0,100,0,0
99098,-66.6666666666667,4,3,0,100,0,0
102183,-100,4,3,0,100,0,0
107326,-66.6666666666667,4,3,0,100,0,0
112812,-50,4,3,0,100,0,0
122412,-66.6666666666667,4,3,0,100,0,0
123097,-50,4,3,0,100,0,0
131669,-100,4,3,0,100,0,0
147954,-66.6666666666667,4,3,0,100,0,0
148468,-100,4,3,0,100,0,0
150697,-66.6666666666667,4,3,0,100,0,0
151211,-100,4,3,0,100,0,0
153440,-66.6666666666667,4,3,0,100,0,0
153783,-100,4,3,0,100,0,0
156354,-66.6666666666667,4,3,0,100,0,0
167668,-50,4,3,0,100,0,0
176925,-200,4,3,0,100,0,0
177268,-400,4,3,0,100,0,0
178125,-50,4,3,0,100,0,0

[Colours]
Combo1 : 0,255,0
Combo2 : 255,0,0

[HitObjects]
183,93,3100,22,0,L|161:341,1,239.999990463257
329,93,3785,2,0,L|351:341,1,239.999990463257
91,87,4471,6,0,L|69:335,1,239.999990463257
421,87,5157,2,0,L|443:335,1,239.999990463257
64,68,5842,5,0,0:0:0:0:
448,68,6185,1,0,0:0:0:0:
64,316,6528,1,0,0:0:0:0:
448,316,6871,1,0,0:0:0:0:
407,181,7042,1,0,0:0:0:0:
366,47,7214,5,0,0:0:0:0:
256,356,7557,1,0,0:0:0:0:
146,47,7899,1,0,0:0:0:0:
146,192,8071,1,0,0:0:0:0:
146,337,8242,1,0,0:0:0:0:
201,182,8414,1,0,0:0:0:0:
256,28,8585,5,0,0:0:0:0:
311,182,8757,2,0,L|348:287,2,59.9999976158143
256,28,9099,1,0,0:0:0:0:
187,264,9271,2,0,L|302:182,1,119.999995231629
378,119,9528,1,0,0:0:0:0:
378,119,9614,1,0,0:0:0:0:
139,125,9785,1,0,0:0:0:0:
194,384,9957,5,0,0:0:0:0:
247,162,10128,1,0,0:0:0:0:
247,162,10214,1,0,0:0:0:0:
247,162,10299,1,0,0:0:0:0:
329,384,10471,1,0,0:0:0:0:
218,88,10642,1,0,0:0:0:0:
112,196,10814,1,0,0:0:0:0:
151,255,10899,1,0,0:0:0:0:
217,282,10985,2,0,P|287:283|345:252,1,119.999995231629
444,192,11328,5,0,0:0:0:0:
67,191,11499,1,0,0:0:0:0:
389,325,11671,1,0,0:0:0:0:
122,58,11842,1,0,0:0:0:0:
255,380,12014,1,0,0:0:0:0:
256,3,12185,1,0,0:0:0:0:
122,325,12357,1,0,0:0:0:0:
389,58,12528,1,0,0:0:0:0:
67,191,12699,5,0,0:0:0:0:
104,192,12871,1,0,0:0:0:0:
140,192,13042,1,0,0:0:0:0:
176,192,13214,2,0,L|227:192,4,29.9999988079071
228,192,13557,1,0,0:0:0:0:
256,192,13728,1,0,0:0:0:0:
512,139,14071,5,0,0:0:0:0:
490,384,14242,1,0,0:0:0:0:
408,93,14414,5,0,0:0:0:0:
386,338,14585,1,0,0:0:0:0:
304,47,14757,5,0,0:0:0:0:
282,292,14928,1,0,0:0:0:0:
200,1,15099,5,0,0:0:0:0:
178,246,15270,1,0,0:0:0:0:
301,65,15442,5,0,0:0:0:0:
383,237,15614,1,0,0:0:0:0:
211,319,15785,1,0,0:0:0:0:
129,147,15956,1,0,0:0:0:0:
301,65,16128,1,0,0:0:0:0:
435,216,16299,1,0,0:0:0:0:
417,286,16385,1,0,0:0:0:0:
354,321,16471,1,0,0:0:0:0:
135,315,16642,1,0,0:0:0:0:
413,178,16814,5,0,0:0:0:0:
274,247,16985,1,0,0:0:0:0:
332,132,17157,5,0,0:0:0:0:
191,254,17327,1,0,0:0:0:0:
244,96,17500,5,0,0:0:0:0:
119,280,17670,1,0,0:0:0:0:
144,60,17842,5,0,0:0:0:0:
56,312,18013,1,0,0:0:0:0:
210,101,18185,5,0,0:0:0:0:
362,253,18356,1,0,0:0:0:0:
286,177,18528,1,0,0:0:0:0:
438,329,18699,1,0,0:0:0:0:
210,101,18871,1,0,0:0:0:0:
362,253,19042,1,0,0:0:0:0:
286,177,19214,1,0,0:0:0:0:
438,329,19385,1,0,0:0:0:0:
438,329,19556,6,0,L|451:183,1,119.999995231629
378,39,19899,2,0,L|365:185,1,119.999995231629
288,349,20242,2,0,L|301:203,1,119.999995231629
228,59,20585,2,0,L|215:205,1,119.999995231629
208,346,20928,5,0,0:0:0:0:
403,259,21099,1,0,0:0:0:0:
149,157,21271,2,0,L|295:170,1,119.999995231629
448,175,21614,1,0,0:0:0:0:
208,268,21785,1,0,0:0:0:0:
147,229,21871,1,0,0:0:0:0:
149,157,21956,2,0,P|228:138|295:170,1,119.999995231629
370,256,22300,5,0,0:0:0:0:
171,23,22471,1,0,0:0:0:0:
187,327,22642,1,0,0:0:0:0:
171,23,22814,1,0,0:0:0:0:
327,358,22985,5,0,0:0:0:0:
94,159,23157,1,0,0:0:0:0:
398,157,23328,1,0,0:0:0:0:
94,159,23500,1,0,0:0:0:0:
320,332,23671,2,0,B|384:352|384:352|420:324|419:257|419:257|328:231,1,239.999990463257
164,178,24014,2,0,B|137:95|137:95|153:30,1,119.999995231629
271,147,24185,2,0,B|278:178|278:178|251:261,1,119.999995231629
214,341,24357,2,0,B|123:326|126:307|126:307|123:325|30:313,3,179.999999713898
63,136,25042,6,0,L|255:124,1,179.999999713898
96,196,25385,2,0,L|288:184,1,179.999999713898
458,179,25728,2,0,B|491:130|491:130|484:53,1,89.9999998569489
361,10,25900,2,0,B|302:22|302:22|252:81,1,89.9999998569489
308,190,26071,2,0,B|292:248|292:248|269:266,1,89.9999998569489,0|0,0:0|0:0,0:3:0:0:
118,329,26242,2,0,B|92:274|92:274|109:199,1,89.9999998569489
201,161,26414,6,0,L|381:150,1,179.999999713898
168,101,26757,2,0,L|348:90,1,179.999999713898
135,41,27100,2,0,B|197:27|197:27|257:35,1,89.9999998569489
353,103,27271,2,0,B|415:117|415:117|475:109,2,89.9999998569489
353,103,27785,6,0,P|275:57|244:134,1,179.999999713898
239,117,28128,2,0,P|303:166|352:102,1,179.999999713898
353,28,28471,2,0,B|291:12|291:12|197:11,1,89.9999998569489
169,91,28642,2,0,B|143:90|143:90|81:74,1,89.9999998569489
5,67,28814,2,0,L|27:267,1,179.999999713898
115,361,29157,6,0,L|95:182,1,179.999999713898
194,354,29500,2,0,L|174:175,1,179.999999713898
165,93,29842,2,0,P|214:28|278:78,1,179.999999713898
278,77,30185,2,0,B|228:141|228:141|105:195,1,179.999999713898
57,263,30528,5,0,0:0:0:0:
216,143,30700,1,0,0:0:0:0:
138,308,30871,5,0,0:0:0:0:
284,118,31042,1,0,0:0:0:0:
244,353,31214,5,0,0:0:0:0:
354,87,31385,1,0,0:0:0:0:
483,71,31557,2,0,L|500:265,1,179.999999713898
457,350,31900,5,0,0:0:0:0:
398,159,32071,1,0,0:0:0:0:
365,338,32242,5,0,0:0:0:0:
358,99,32414,1,0,0:0:0:0:
252,312,32585,5,0,0:0:0:0:
320,33,32757,1,0,0:0:0:0:
97,308,32928,2,0,L|144:243,4,44.9999999284745
207,45,33271,5,0,0:0:0:0:
488,173,33442,1,0,0:0:0:0:
172,325,33614,1,0,0:0:0:0:
372,53,33785,1,0,0:0:0:0:
374,361,33957,1,0,0:0:0:0:
103,138,34128,1,0,0:0:0:0:
289,225,34300,1,0,0:0:0:0:
256,239,34471,1,0,0:0:0:0:
222,225,34642,5,0,0:0:0:0:
208,192,34814,1,0,0:0:0:0:
222,158,34985,1,0,0:0:0:0:
256,144,35157,1,0,0:0:0:0:
289,158,35328,1,0,0:0:0:0:
358,263,35500,1,0,0:0:0:0:
244,288,35671,1,0,0:0:0:0:
244,288,35757,1,0,0:0:0:0:
244,288,35842,1,0,0:0:0:0:
359,169,36014,6,0,B|446:122|608:182|599:441|346:507|197:285|345:176|345:176|325:96|361:57|361:57|448:48|467:-21|467:-21|346:-23|358:51,1,1078.79991433327
137,201,46471,6,0,P|127:303|137:357,2,119.999995231629
162,109,46985,5,0,0:0:0:0:
162,109,47328,2,0,P|227:84|305:85,1,119.999995231629
400,111,47671,1,0,0:0:0:0:
400,111,48014,2,0,P|335:86|257:87,1,119.999995231629
162,113,48357,1,0,0:0:0:0:
162,113,48700,2,0,P|227:138|305:137,1,119.999995231629
400,111,49042,1,0,0:0:0:0:
436,273,49728,5,0,0:0:0:0:
436,273,50071,2,0,L|314:266,1,119.999995231629
190,259,50414,2,0,L|325:240,1,119.999995231629
448,223,50757,1,0,0:0:0:0:
312,152,50928,1,0,0:0:0:0:
458,132,51100,5,0,0:0:0:0:
384,40,51271,1,0,0:0:0:0:
387,188,51442,1,0,0:0:0:0:
430,98,51614,1,0,0:0:0:0:
260,157,51785,2,0,P|238:203|237:271,1,119.999995231629
301,384,52128,2,0,L|315:251,1,119.999995231629
333,78,52471,5,0,0:0:0:0:
173,87,52814,2,0,P|125:170|139:229,1,119.999995231629
195,358,53157,1,0,0:0:0:0:
219,266,53328,1,0,0:0:0:0:
108,300,53500,1,0,0:0:0:0:
264,339,53671,1,0,0:0:0:0:
206,158,53842,5,0,0:0:0:0:
73,217,54014,1,0,0:0:0:0:
185,247,54185,1,0,0:0:0:0:
115,108,54357,1,0,0:0:0:0:
99,282,54528,1,0,0:0:0:0:
212,184,54700,1,0,0:0:0:0:
147,110,54871,1,0,0:0:0:0:
276,112,55042,1,0,0:0:0:0:
434,61,55214,5,0,0:0:0:0:
402,156,55385,1,0,0:0:0:0:
402,156,55471,1,0,0:0:0:0:
402,156,55557,1,0,0:0:0:0:
351,73,55728,1,0,0:0:0:0:
298,228,55900,1,0,0:0:0:0:
120,145,56242,2,0,P|206:112|267:113,1,119.999995231629
413,145,56585,5,0,0:0:0:0:
286,252,56757,1,0,0:0:0:0:
120,145,56928,2,0,P|206:112|267:113,1,119.999995231629
482,169,57271,1,0,0:0:0:0:
166,85,57957,6,0,L|153:236,3,119.999995231629
149,282,58642,2,0,L|300:295,3,119.999995231629
346,299,59328,2,0,L|359:148,3,119.999995231629
363,102,60014,2,0,L|212:89,1,119.999995231629
166,85,60357,2,0,P|147:149|152:170,1,89.9999998569489
151,169,60528,2,0,P|170:233|165:254,1,89.9999998569489
165,253,60700,6,0,P|189:334|231:342,1,119.999995231629
307,299,61042,2,0,P|283:218|241:210,1,119.999995231629
134,222,61385,2,0,P|156:338|236:337,1,149.999994039536
331,310,61728,2,0,P|309:194|229:195,1,149.999994039536
190,145,62071,2,0,P|125:106|122:59,1,89.9999998569489
121,97,62242,2,0,P|95:132|52:144,1,89.9999998569489
52,144,62414,6,0,P|99:234|76:285,1,119.999995231629
220,294,62757,2,0,P|278:261|287:238,1,89.9999998569489
285,243,62928,2,0,P|309:279|351:293,1,89.9999998569489
351,293,63100,2,0,L|424:308,12,59.9999976158143
351,293,63442,5,0,0:0:0:0:
243,335,63614,1,0,0:0:0:0:
379,236,63785,5,0,0:0:0:0:
238,250,63957,1,0,0:0:0:0:
429,184,64128,5,0,0:0:0:0:
261,156,64300,1,0,0:0:0:0:
494,140,64471,5,0,0:0:0:0:
307,55,64642,1,0,0:0:0:0:
429,184,64814,5,0,0:0:0:0:
185,143,64985,1,0,0:0:0:0:
379,236,65157,5,0,0:0:0:0:
83,264,65328,1,0,0:0:0:0:
351,293,65500,5,0,0:0:0:0:
53,381,65671,2,0,P|23:334|96:282,1,89.9999998569489
31,304,65842,2,0,P|88:256|147:263,1,89.9999998569489
100,253,66014,1,0,0:0:0:0:
406,273,66185,5,0,0:0:0:0:
165,117,66357,1,0,0:0:0:0:
257,335,66528,1,0,0:0:0:0:
400,85,66700,1,0,0:0:0:0:
112,84,66871,5,0,0:0:0:0:
112,373,67042,1,0,0:0:0:0:
400,373,67214,1,0,0:0:0:0:
400,85,67385,1,0,0:0:0:0:
194,368,67557,5,0,0:0:0:0:
194,19,67728,1,0,0:0:0:0:
400,302,67900,1,0,0:0:0:0:
67,193,68071,1,0,0:0:0:0:
400,85,68242,5,0,0:0:0:0:
194,368,68414,2,0,L|151:308,4,44.9999999284745
160,0,68928,5,0,0:0:0:0:
256,88,69100,1,0,0:0:0:0:
352,0,69271,1,0,0:0:0:0:
256,88,69442,1,0,0:0:0:0:
160,0,69614,5,0,0:0:0:0:
256,172,69785,1,0,0:0:0:0:
352,0,69957,1,0,0:0:0:0:
256,172,70128,1,0,0:0:0:0:
160,0,70300,5,0,0:0:0:0:
256,276,70471,1,0,0:0:0:0:
352,0,70642,1,0,0:0:0:0:
256,276,70814,1,0,0:0:0:0:
160,0,70985,5,0,0:0:0:0:
256,384,71157,1,0,0:0:0:0:
352,0,71328,1,0,0:0:0:0:
128,316,71500,1,0,0:0:0:0:
128,316,71585,1,0,0:0:0:0:
128,316,71671,5,0,0:0:0:0:
400,273,71842,1,0,0:0:0:0:
100,225,72014,1,0,0:0:0:0:
430,172,72185,1,0,0:0:0:0:
67,113,72357,5,0,0:0:0:0:
466,48,72528,1,0,0:0:0:0:
22,45,72700,1,0,0:0:0:0:
502,125,72871,1,0,0:0:0:0:
22,205,73042,5,0,0:0:0:0:
502,285,73214,1,0,0:0:0:0:
22,365,73385,1,0,0:0:0:0:
508,362,73557,1,0,0:0:0:0:
28,282,73728,5,0,0:0:0:0:
508,202,73900,1,0,0:0:0:0:
28,122,74071,1,0,0:0:0:0:
377,64,74242,1,0,0:0:0:0:
447,77,74328,1,0,0:0:0:0:
503,122,74414,5,0,0:0:0:0:
433,139,74500,1,0,0:0:0:0:
364,161,74585,1,0,0:0:0:0:
299,193,74671,1,0,0:0:0:0:
258,252,74757,1,0,0:0:0:0:
253,324,74842,1,0,0:0:0:0:
297,381,74928,1,0,0:0:0:0:
369,377,75014,1,0,0:0:0:0:
402,313,75100,5,0,0:0:0:0:
356,257,75185,1,0,0:0:0:0:
288,232,75271,1,0,0:0:0:0:
221,258,75357,1,0,0:0:0:0:
164,303,75442,1,0,0:0:0:0:
91,298,75528,1,0,0:0:0:0:
46,241,75614,1,0,0:0:0:0:
56,170,75700,1,0,0:0:0:0:
77,100,75785,5,0,0:0:0:0:
104,166,75871,1,0,0:0:0:0:
152,217,75957,1,0,0:0:0:0:
223,208,76042,1,0,0:0:0:0:
280,164,76128,1,0,0:0:0:0:
321,105,76214,1,0,0:0:0:0:
357,43,76300,1,0,0:0:0:0:
426,23,76385,1,0,0:0:0:0:
498,23,76471,5,0,0:0:0:0:
444,70,76557,1,0,0:0:0:0:
398,125,76642,1,0,0:0:0:0:
405,196,76728,1,0,0:0:0:0:
433,262,76814,1,0,0:0:0:0:
374,221,76900,1,0,0:0:0:0:
307,193,76985,1,0,0:0:0:0:
234,196,77071,1,0,0:0:0:0:
170,227,77157,6,0,L|147:239,2,22.4999999642372
291,278,77500,6,0,L|303:301,2,22.4999999642372
342,157,77842,6,0,L|365:145,2,22.4999999642372
221,106,78185,6,0,L|209:83,2,22.4999999642372
167,71,79214,6,0,B|295:71|295:71|429:112,1,239.999990463257
462,203,79557,1,0,0:0:0:0:
389,289,79728,1,0,0:0:0:0:
137,97,79900,6,0,P|114:184|144:281,1,179.999999713898
191,347,80242,1,0,0:0:0:0:
280,316,80414,1,0,0:0:0:0:
463,371,80585,2,0,L|469:191,1,179.999999713898
423,26,80928,1,0,0:0:0:0:
303,56,81100,1,0,0:0:0:0:
69,73,81271,6,0,L|248:79,1,179.999999713898
123,247,81614,1,0,0:0:0:0:
387,250,81785,1,0,0:0:0:0:
92,153,81957,1,0,0:0:0:0:
282,91,82128,2,0,B|282:219|282:219|241:353,1,239.999990463257
80,288,82471,1,0,0:0:0:0:
183,153,82642,6,0,L|414:167,1,179.999999713898
410,319,82985,1,0,0:0:0:0:
284,256,83157,1,0,0:0:0:0:
296,87,83328,2,0,L|475:97,1,179.999999713898
478,213,83671,2,0,P|434:316|351:319,1,179.999999713898
304,327,83928,1,0,0:0:0:0:
232,325,84014,6,0,P|151:285|138:168,1,179.999999713898
177,42,84357,1,0,0:0:0:0:
259,185,84528,1,0,0:0:0:0:
431,46,84700,1,0,0:0:0:0:
317,306,84871,2,0,B|281:182|281:182|284:42,1,239.999990463257
175,72,85385,6,0,P|108:151|136:263,1,179.999999713898
194,321,85728,1,0,0:0:0:0:
334,319,85900,1,0,0:0:0:0:
378,138,86071,2,0,P|313:63|222:52,1,179.999999713898
127,95,86414,1,0,0:0:0:0:
83,216,86585,1,0,0:0:0:0:
257,304,86757,6,0,P|175:222|198:138,1,179.999999713898
314,30,87100,1,0,0:0:0:0:
309,248,87271,1,0,0:0:0:0:
475,29,87442,1,0,0:0:0:0:
302,115,87614,2,0,B|301:244|301:244|343:377,1,239.999990463257
447,276,87957,1,0,0:0:0:0:
271,154,88128,6,0,L|42:146,1,179.999999713898
42,248,88471,1,0,0:0:0:0:
124,343,88642,1,0,0:0:0:0:
252,314,88814,2,0,L|263:120,1,179.999999713898
411,303,89157,1,0,0:0:0:0:
272,60,89414,1,0,0:0:0:0:
272,60,89500,5,0,0:0:0:0:
136,15,89671,1,0,0:0:0:0:
38,117,89842,1,0,0:0:0:0:
120,246,90014,1,0,0:0:0:0:
263,212,90185,2,0,P|343:130|423:24,3,239.999990463257
418,30,90871,5,0,0:0:0:0:
475,236,91042,1,0,0:0:0:0:
323,87,91214,5,0,0:0:0:0:
475,236,91385,1,0,0:0:0:0:
269,183,91557,5,0,0:0:0:0:
475,236,91728,1,0,0:0:0:0:
275,298,91900,5,0,0:0:0:0:
479,240,92071,1,0,0:0:0:0:
275,298,92242,5,0,0:0:0:0:
37,236,92414,1,0,0:0:0:0:
309,167,92585,5,0,0:0:0:0:
37,236,92757,1,0,0:0:0:0:
258,20,92928,5,0,0:0:0:0:
37,236,93100,2,0,B|166:236|166:236|299:194,1,239.999990463257
328,116,93442,1,0,0:0:0:0:
275,6,93614,5,0,0:0:0:0:
109,116,93785,1,0,0:0:0:0:
192,61,93957,5,0,0:0:0:0:
121,245,94128,1,0,0:0:0:0:
157,154,94300,5,0,0:0:0:0:
207,344,94471,1,0,0:0:0:0:
183,249,94642,5,0,0:0:0:0:
354,83,94900,1,0,0:0:0:0:
354,83,94985,6,0,P|399:169|369:315,1,179.999999713898
317,338,95328,1,0,0:0:0:0:
186,244,95500,1,0,0:0:0:0:
56,338,95671,1,0,0:0:0:0:
56,338,95842,2,0,B|56:209|56:209|98:76,1,239.999990463257
288,67,96357,6,0,P|373:152|380:214,1,179.999999713898
346,340,96700,1,0,0:0:0:0:
258,274,96871,1,0,0:0:0:0:
284,84,97042,2,0,P|369:169|376:231,1,179.999999713898
260,334,97385,1,0,0:0:0:0:
146,258,97557,1,0,0:0:0:0:
204,108,97728,6,0,L|383:121,1,179.999999713898
498,202,98071,1,0,0:0:0:0:
284,269,98242,1,0,0:0:0:0:
482,340,98414,1,0,0:0:0:0:
482,340,98585,2,0,B|482:211|482:211|440:78,1,239.999990463257
322,164,98928,1,0,0:0:0:0:
325,308,99100,5,0,0:0:0:0:
394,288,99185,1,0,0:0:0:0:
444,237,99271,1,0,0:0:0:0:
459,166,99357,1,0,0:0:0:0:
417,107,99442,1,0,0:0:0:0:
355,71,99528,1,0,0:0:0:0:
288,98,99614,1,0,0:0:0:0:
272,168,99700,1,0,0:0:0:0:
286,238,99785,5,0,0:0:0:0:
233,189,99871,1,0,0:0:0:0:
166,159,99957,1,0,0:0:0:0:
93,160,100042,1,0,0:0:0:0:
47,214,100128,1,0,0:0:0:0:
56,285,100214,1,0,0:0:0:0:
120,317,100300,1,0,0:0:0:0:
190,302,100385,1,0,0:0:0:0:
252,268,100471,5,0,0:0:0:0:
399,33,100642,1,0,0:0:0:0:
419,313,100814,1,0,0:0:0:0:
238,98,100985,1,0,0:0:0:0:
512,165,101157,1,0,0:0:0:0:
252,268,101328,1,0,0:0:0:0:
150,173,101500,2,0,L|75:102,2,89.9999998569489
150,173,101842,5,0,0:0:0:0:
172,271,102185,2,0,L|305:278,1,119.999995231629
392,284,102528,1,0,0:0:0:0:
420,131,102871,2,0,P|341:100|279:114,1,119.999995231629
213,143,103214,5,0,0:0:0:0:
87,242,103557,2,0,P|163:218|229:228,1,119.999995231629
301,256,103900,1,0,0:0:0:0:
412,132,104071,1,0,0:0:0:0:
412,132,104242,2,0,L|283:120,1,119.999995231629
229,193,104585,6,0,L|358:205,1,119.999995231629
422,208,104928,2,0,L|434:79,1,119.999995231629
437,15,105271,2,0,L|308:3,1,119.999995231629
244,0,105614,2,0,L|232:129,1,119.999995231629
223,243,105957,6,0,P|251:298|319:327,1,119.999995231629
423,219,106300,2,0,P|395:164|327:135,1,119.999995231629
214,137,106642,2,0,L|72:144,1,119.999995231629
92,283,106985,1,0,0:0:0:0:
96,283,107328,6,0,L|194:298,1,89.9999998569489
142,217,107500,2,0,L|240:232,1,89.9999998569489
302,235,107671,2,0,L|391:222,1,89.9999998569489
345,156,107842,2,0,L|256:169,1,89.9999998569489
175,180,108014,2,0,P|111:151|79:95,1,89.9999998569489
104,60,108185,2,0,P|168:89|200:145,1,89.9999998569489
205,175,108357,2,0,P|236:218|273:235,1,89.9999998569489
345,243,108528,2,0,P|396:227|414:190,1,89.9999998569489
419,117,108700,6,0,P|403:66|366:48,1,89.9999998569489
287,42,108871,2,0,P|236:58|218:95,1,89.9999998569489
210,164,109042,2,0,L|203:260,1,89.9999998569489
323,232,109214,2,0,L|329:142,1,89.9999998569489
337,41,109385,2,0,L|241:34,1,89.9999998569489
269,154,109557,2,0,L|358:160,1,89.9999998569489
450,164,109728,1,0,0:0:0:0:
450,164,109814,1,0,0:0:0:0:
450,164,109900,1,0,0:0:0:0:
450,164,109985,1,0,0:0:0:0:
450,164,110071,5,0,0:0:0:0:
457,235,110157,1,0,0:0:0:0:
448,305,110242,1,0,0:0:0:0:
388,346,110328,1,0,0:0:0:0:
315,351,110414,1,0,0:0:0:0:
245,332,110500,1,0,0:0:0:0:
188,288,110585,1,0,0:0:0:0:
149,226,110671,1,0,0:0:0:0:
161,154,110757,5,0,0:0:0:0:
212,222,110842,1,0,0:0:0:0:
279,275,110928,1,0,0:0:0:0:
365,278,111014,1,0,0:0:0:0:
435,227,111100,1,0,0:0:0:0:
463,145,111185,1,0,0:0:0:0:
434,62,111271,1,0,0:0:0:0:
359,22,111357,1,0,0:0:0:0:
273,24,111442,5,0,0:0:0:0:
65,41,112471,5,0,0:0:0:0:
65,41,112814,6,0,L|93:318,1,239.999990463257
447,41,113157,2,0,L|419:318,1,239.999990463257
0,132,113500,2,0,L|28:409,1,239.999990463257
512,132,113842,2,0,L|484:409,1,239.999990463257
246,228,114185,6,0,P|221:138|357:172,2,239.999990463257
388,351,114700,1,0,0:0:0:0:
111,230,114871,1,0,0:0:0:0:
207,95,115042,1,0,0:0:0:0:
207,95,115128,1,0,0:0:0:0:
207,95,115214,2,0,L|245:339,1,239.999990463257
53,205,115557,6,0,L|297:167,1,239.999990463257
83,114,115900,2,0,L|327:76,1,239.999990463257
466,312,116242,2,0,L|228:348,1,239.999990463257
435,220,116585,2,0,L|197:256,1,239.999990463257
39,269,116928,5,0,0:0:0:0:
201,72,117100,1,0,0:0:0:0:
290,310,117271,1,0,0:0:0:0:
39,269,117442,1,0,0:0:0:0:
201,72,117614,2,0,P|338:42|406:145,1,239.999990463257
446,286,117957,2,0,L|145:236,1,239.999990463257
50,232,118300,5,0,0:0:0:0:
60,69,118471,1,0,0:0:0:0:
244,0,118642,1,0,0:0:0:0:
430,61,118814,1,0,0:0:0:0:
430,225,118985,2,0,P|389:331|261:358,1,239.999990463257
101,253,119328,1,0,0:0:0:0:
127,92,119500,1,0,0:0:0:0:
184,384,119671,5,0,0:0:0:0:
413,237,119842,1,0,0:0:0:0:
266,8,120014,1,0,0:0:0:0:
37,155,120185,1,0,0:0:0:0:
184,384,120357,1,0,0:0:0:0:
188,191,120528,1,0,0:0:0:0:
235,107,120614,1,0,0:0:0:0:
324,73,120700,2,0,P|453:103|467:220,1,239.999990463257
309,355,121042,5,0,0:0:0:0:
212,57,121214,1,0,0:0:0:0:
400,277,121385,1,0,0:0:0:0:
121,135,121557,1,0,0:0:0:0:
410,157,121728,1,0,0:0:0:0:
112,254,121900,1,0,0:0:0:0:
332,66,122071,1,0,0:0:0:0:
190,346,122242,1,0,0:0:0:0:
212,57,122414,6,0,B|239:125|239:125|326:195,1,179.999999713898
332,288,122757,2,0,B|303:326|303:326|268:348,1,89.9999998569489
230,203,122928,2,0,B|201:241|201:241|132:262,1,89.9999998569489
205,96,123100,2,0,P|265:0|375:23,3,239.999990463257
374,22,123785,5,0,0:0:0:0:
391,183,123957,1,0,0:0:0:0:
215,114,124128,1,0,0:0:0:0:
431,93,124300,1,0,0:0:0:0:
289,286,124471,5,0,0:0:0:0:
353,103,124642,1,0,0:0:0:0:
509,267,124814,1,0,0:0:0:0:
264,180,124985,1,0,0:0:0:0:
410,116,125157,5,0,0:0:0:0:
248,283,125328,1,0,0:0:0:0:
162,26,125500,1,0,0:0:0:0:
384,245,125671,1,0,0:0:0:0:
98,160,125842,5,0,0:0:0:0:
415,220,126014,1,0,0:0:0:0:
415,220,126100,1,0,0:0:0:0:
415,220,126185,1,0,0:0:0:0:
175,55,126357,1,0,0:0:0:0:
219,303,126528,5,0,0:0:0:0:
298,174,126700,1,0,0:0:0:0:
318,372,126871,1,0,0:0:0:0:
390,269,127042,1,0,0:0:0:0:
194,343,127214,5,0,2:0:0:0:
215,162,127385,1,0,2:0:0:0:
337,368,127557,1,0,2:0:0:0:
364,219,127728,1,0,2:0:0:0:
110,379,127900,5,0,2:0:0:0:
41,171,128071,1,0,2:0:0:0:
278,333,128242,1,0,2:0:0:0:
232,157,128414,1,0,2:0:0:0:
139,0,128585,2,0,B|93:89|93:89|95:255,1,239.999990463257
94,228,128928,1,0,0:0:0:0:
94,228,129099,1,0,0:0:0:0:
94,228,129271,5,0,0:0:0:0:
385,73,129442,1,0,0:0:0:0:
241,370,129614,1,0,0:0:0:0:
183,44,129785,1,0,0:0:0:0:
421,274,129957,1,0,0:0:0:0:
421,274,130129,1,0,0:0:0:0:
103,50,130300,2,0,L|71:292,1,239.999990463257
75,323,130557,1,0,0:0:0:0:
106,340,130642,5,0,0:0:0:0:
388,135,130814,1,0,0:0:0:0:
39,135,130985,1,0,0:0:0:0:
323,341,131156,1,0,0:0:0:0:
214,9,131328,1,0,0:0:0:0:
106,340,131499,1,0,0:0:0:0:
106,340,131585,1,0,0:0:0:0:
106,340,131671,2,0,P|198:343|248:307,2,119.999995231629
157,265,132186,5,0,0:0:0:0:
206,182,132357,2,0,P|148:171|92:191,1,119.999995231629
92,191,132700,2,0,L|35:129,8,59.9999976158143
92,191,133471,2,0,L|103:235,28,29.9999988079071
92,191,134757,6,0,P|191:167|227:178,1,119.999995231629
308,218,135100,1,0,0:0:0:0:
308,218,135271,1,0,0:0:0:0:
408,288,135442,2,0,P|440:218|427:169,1,119.999995231629
367,68,135785,1,0,0:0:0:0:
367,68,135957,1,0,0:0:0:0:
266,75,136128,6,0,L|139:88,1,119.999995231629
56,172,136471,2,0,L|176:160,1,119.999995231629
314,212,136814,1,0,0:0:0:0:
387,317,137500,6,0,P|409:246|406:187,1,119.999995231629
369,112,137842,1,0,0:0:0:0:
282,70,138014,1,0,0:0:0:0:
187,88,138185,2,0,P|126:122|104:188,1,119.999995231629
147,252,138528,1,0,0:0:0:0:
240,272,138700,1,0,0:0:0:0:
327,232,138872,5,0,0:0:0:0:
370,146,139043,1,0,0:0:0:0:
282,185,139214,1,0,0:0:0:0:
185,192,139386,1,0,0:0:0:0:
106,137,139557,1,0,0:0:0:0:
321,47,139900,1,0,0:0:0:0:
321,47,140243,6,0,L|340:216,1,119.999995231629
332,262,140586,1,0,0:0:0:0:
269,334,140757,1,0,0:0:0:0:
172,338,140928,2,0,L|21:323,1,119.999995231629
142,239,141270,1,0,0:0:0:0:
237,225,141442,1,0,0:0:0:0:
301,154,141613,6,0,P|326:98|323:29,1,119.999995231629
167,109,141956,1,0,0:0:0:0:
149,203,142128,1,0,0:0:0:0:
197,285,142300,2,0,P|267:296|319:248,1,119.999995231629
416,91,142986,6,0,P|421:150|407:208,1,119.999995231629
337,274,143329,1,0,0:0:0:0:
242,292,143500,1,0,0:0:0:0:
154,252,143670,2,0,P|184:202|241:192,1,119.999995231629
335,211,144013,1,0,0:0:0:0:
240,192,144185,1,0,0:0:0:0:
165,252,144357,6,0,P|185:331|237:366,1,119.999995231629
266,275,144700,1,0,0:0:0:0:
247,181,144871,1,0,0:0:0:0:
157,145,145043,1,0,0:0:0:0:
395,109,145214,1,0,0:0:0:0:
183,282,145386,1,0,0:0:0:0:
306,27,145557,1,0,0:0:0:0:
409,339,145729,6,0,L|290:321,1,119.999995231629
103,45,146071,2,0,L|221:62,1,119.999995231629
398,190,146414,2,0,P|403:257|362:318,1,119.999995231629
115,190,146757,2,0,P|110:123|151:62,1,119.999995231629
438,56,147099,6,0,L|459:207,1,119.999995231629
303,132,147442,2,0,L|324:283,1,119.999995231629
168,208,147786,1,0,0:0:0:0:
194,335,147957,2,0,B|147:314|147:314|116:180,1,179.999999713898
184,111,148300,1,0,0:0:0:0:
370,154,148471,6,0,L|493:180,1,119.999995231629
200,116,148814,2,0,L|306:182,1,119.999995231629
46,19,149157,2,0,L|123:117,1,119.999995231629
197,190,149500,2,0,P|213:277|167:322,1,119.999995231629
152,312,149756,1,0,0:0:0:0:
104,307,149842,6,0,P|73:247|109:177,1,119.999995231629
217,94,150185,2,0,L|339:50,2,119.999995231629
112,189,150700,2,0,B|91:241|91:241|111:369,1,179.999999713898
368,327,151214,6,0,P|426:257|423:204,1,119.999995231629
366,101,151557,1,0,0:0:0:0:
228,59,151728,1,0,0:0:0:0:
257,200,151900,2,0,P|316:232|374:212,1,119.999995231629
442,97,152242,1,0,0:0:0:0:
302,130,152414,1,0,0:0:0:0:
224,251,152585,6,0,L|287:120,1,119.999995231629
421,61,152928,1,0,0:0:0:0:
362,227,153100,1,0,0:0:0:0:
264,63,153271,1,0,0:0:0:0:
133,276,153442,2,0,B|185:297|185:297|313:277,1,179.999999713898
432,181,153785,1,0,0:0:0:0:
344,73,153957,6,0,L|176:66,1,119.999995231629
66,142,154300,1,0,0:0:0:0:
328,221,154471,1,0,0:0:0:0:
37,262,154642,2,0,L|156:257,1,119.999995231629
433,227,154985,2,0,P|382:152|312:139,1,119.999995231629
284,137,155242,1,0,0:0:0:0:
284,137,155328,6,0,L|120:129,1,119.999995231629
201,297,155671,1,0,0:0:0:0:
310,48,155843,1,0,0:0:0:0:
374,176,156014,1,0,0:0:0:0:
398,218,156357,1,0,0:0:0:0:
374,259,156700,6,0,P|300:298|246:229,1,179.999992847443
247,198,157042,2,0,P|183:120|116:169,1,179.999999713898
114,181,157385,2,0,P|178:259|245:210,1,179.999999713898
251,198,157728,2,0,L|313:22,1,179.999999713898
298,185,158071,6,0,L|122:123,1,179.999999713898
257,68,158414,2,0,L|197:237,1,179.999999713898
85,119,158757,2,0,L|254:178,1,179.999999713898
424,119,159100,2,0,L|254:178,1,179.999999713898
83,182,159442,6,0,L|222:296,1,179.999999713898
429,182,159785,2,0,L|289:296,1,179.999999713898
97,70,160128,2,0,L|188:224,1,179.999999713898
414,67,160471,2,0,L|322:221,1,179.999999713898
44,194,160814,6,0,L|198:102,1,179.999999713898
468,190,161157,2,0,L|313:281,1,179.999999713898
44,190,161500,2,0,L|198:281,1,179.999999713898
456,192,161842,2,0,B|416:152|376:192|376:192|336:232|298:194,1,179.999999713898
158,53,162185,5,0,0:0:0:0:
241,270,162357,1,0,0:0:0:0:
241,270,162442,1,0,0:0:0:0:
241,270,162528,1,0,0:0:0:0:
241,270,162614,1,0,0:0:0:0:
241,270,162700,1,0,0:0:0:0:
241,270,162785,1,0,0:0:0:0:
241,270,162871,5,0,0:0:0:0:
241,270,162957,1,0,0:0:0:0:
283,327,163042,1,0,0:0:0:0:
348,356,163128,1,0,0:0:0:0:
419,350,163214,1,0,0:0:0:0:
478,310,163300,1,0,0:0:0:0:
511,247,163385,1,0,0:0:0:0:
509,176,163471,1,0,0:0:0:0:
473,114,163557,5,0,0:0:0:0:
397,163,163642,1,0,0:0:0:0:
343,233,163728,1,0,0:0:0:0:
344,318,163814,1,0,0:0:0:0:
405,253,163900,1,0,0:0:0:0:
369,172,163985,1,0,0:0:0:0:
289,136,164071,1,0,0:0:0:0:
224,189,164157,1,0,0:0:0:0:
221,279,164242,6,0,L|273:227,1,44.9999999284745
316,324,164328,2,0,L|323:251,1,44.9999999284745
420,300,164414,2,0,L|383:248,1,44.9999999284745
486,218,164500,2,0,L|416:195,1,44.9999999284745
487,112,164585,2,0,L|419:133,1,44.9999999284745
422,28,164671,2,0,L|386:80,1,44.9999999284745
320,2,164757,2,0,L|322:70,1,44.9999999284745
223,46,164842,2,0,L|258:101,1,44.9999999284745
174,140,164928,6,0,L|245:164,28,44.9999999284745
255,192,166985,5,0,0:0:0:0:
253,192,167157,2,0,P|253:134|255:192,2,179.999999713898
136,73,167671,6,0,B|105:141|126:207|126:207|194:162|296:201,1,239.999990463257
146,49,168014,2,0,B|115:117|136:183|136:183|204:138|306:177,1,239.999990463257
156,25,168357,2,0,B|125:93|146:159|146:159|214:114|316:153,1,239.999990463257
415,157,168700,1,0,0:0:0:0:
197,282,168871,1,0,0:0:0:0:
403,58,169042,6,0,P|476:100|475:242,1,239.999990463257
310,313,169385,2,0,B|198:335|198:335|156:305|156:305|33:326,2,239.999990463257
489,146,169900,1,0,0:0:0:0:
291,104,170071,1,0,0:0:0:0:
174,141,170242,1,0,0:0:0:0:
110,220,170414,6,0,B|67:277|114:302|154:361|269:274,1,239.999990463257
399,220,170757,2,0,B|442:277|395:302|355:361|240:274,1,239.999990463257
23,166,171100,2,0,B|-20:223|27:248|67:307|182:220,1,239.999990463257
489,166,171442,2,0,B|532:223|485:248|445:307|330:220,1,239.999990463257
260,164,171700,1,0,0:0:0:0:
260,164,171785,6,0,P|147:240|263:247,1,239.999990463257
273,302,172128,2,0,L|512:323,2,239.999990463257
64,184,172642,1,0,0:0:0:0:
289,90,172814,1,0,0:0:0:0:
388,157,172985,1,0,0:0:0:0:
289,90,173157,5,0,0:0:0:0:
169,95,173328,1,0,0:0:0:0:
86,182,173500,2,0,P|72:324|234:371,1,239.999990463257
284,306,173842,1,0,0:0:0:0:
343,164,174014,1,0,0:0:0:0:
86,182,174185,2,0,P|72:324|234:371,1,239.999990463257
419,289,174528,5,0,0:0:0:0:
478,147,174700,1,0,0:0:0:0:
86,182,174871,2,0,P|72:324|234:371,1,239.999990463257
258,374,175214,1,0,0:0:0:0:
395,123,175385,1,0,0:0:0:0:
174,293,175557,1,0,0:0:0:0:
176,173,175728,1,0,0:0:0:0:
263,91,175900,6,0,P|405:119|409:255,1,239.999990463257
327,384,176242,1,0,0:0:0:0:
326,173,176414,1,0,0:0:0:0:
249,293,176585,2,0,P|107:265|103:129,1,239.999990463257
166,149,176928,2,0,L|179:223,1,59.9999976158143
184,243,177185,1,0,0:0:0:0:
189,260,177271,6,0,L|198:302,1,29.9999988079071
203,324,177614,2,0,L|210:359,2,29.9999988079071
166,149,178128,1,0,0:0:0:0:
166,149,178300,1,0,0:0:0:0:
166,149,178471,1,0,0:0:0:0:
320,261,178642,5,0,0:0:0:0:
166,149,178814,1,0,0:0:0:0:
278,0,178985,1,0,0:0:0:0:
166,149,179157,1,0,0:0:0:0:
17,37,179328,1,0,0:0:0:0:
166,149,179500,1,0,0:0:0:0:
169,305,179671,1,0,0:0:0:0:
294,175,179842,1,0,0:0:0:0:
477,89,180014,5,0,0:0:0:0:
322,257,180185,1,0,0:0:0:0:
376,33,180357,1,0,0:0:0:0:
472,225,180528,1,0,0:0:0:0:
237,12,180700,1,0,0:0:0:0:
303,331,180871,1,0,0:0:0:0:
168,89,181042,1,0,0:0:0:0:
112,268,181214,1,0,0:0:0:0:
301,78,181385,5,0,0:0:0:0:
360,191,181557,1,0,0:0:0:0:
260,0,181728,1,0,0:0:0:0:
420,306,181900,1,0,0:0:0:0:
260,0,182071,1,0,0:0:0:0:
413,71,182242,1,0,0:0:0:0:
489,221,182414,1,0,0:0:0:0:
65,260,182671,1,0,0:0:0:0:
65,260,182757,5,0,0:0:0:0:
141,110,182928,1,0,0:0:0:0:
293,38,183100,1,0,0:0:0:0:
457,74,183271,1,0,0:0:0:0:
216,134,183442,1,0,0:0:0:0:
487,359,183614,1,0,0:0:0:0:
216,134,183785,1,0,0:0:0:0:
57,110,183957,1,0,0:0:0:0:
284,96,184128,6,0,L|411:78,1,119.999995231629
183,218,184300,2,0,L|56:200,1,119.999995231629
307,106,184471,2,0,L|435:122,1,119.999995231629
178,198,184642,2,0,L|60:147,1,119.999995231629
328,122,184814,2,0,L|447:170,1,119.999995231629
179,178,184985,2,0,L|78:98,1,119.999995231629
353,168,185157,2,0,L|432:269,1,119.999995231629
196,141,185328,2,0,L|149:22,1,119.999995231629
355,194,185500,5,0,0:0:0:0:
337,286,185585,1,0,0:0:0:0:
264,345,185671,1,0,0:0:0:0:
170,345,185757,1,0,0:0:0:0:
98,284,185842,1,0,0:0:0:0:
81,192,185928,1,0,0:0:0:0:
127,110,186014,1,0,0:0:0:0:
215,76,186100,1,0,0:0:0:0:
304,105,186185,5,0,0:0:0:0:
215,28,186271,1,0,0:0:0:0:
98,31,186357,1,0,0:0:0:0:
14,113,186442,1,0,0:0:0:0:
8,230,186528,1,0,0:0:0:0:
83,320,186614,1,0,0:0:0:0:
199,336,186700,1,0,0:0:0:0:
295,268,186785,1,0,0:0:0:0:
320,153,186871,6,0,L|293:223,1,59.9999976158143
250,146,186957,2,0,L|283:242,1,59.9999976158143
191,186,187042,2,0,L|280:250,1,59.9999976158143
173,254,187128,2,0,L|272:245,1,59.9999976158143
204,318,187214,2,0,L|269:258,1,59.9999976158143
268,347,187300,2,0,L|278:253,1,59.9999976158143
336,327,187385,2,0,L|290:253,1,59.9999976158143
374,268,187471,2,0,L|297:245,1,59.9999976158143
365,198,187557,6,0,L|288:188,1,59.9999976158143
334,249,187642,2,0,L|287:188,1,59.9999976158143
278,262,187728,2,0,L|288:181,1,59.9999976158143
226,234,187814,2,0,L|286:189,1,59.9999976158143
207,178,187900,2,0,L|288:188,1,59.9999976158143
232,125,187985,2,0,L|286:189,1,59.9999976158143
286,103,188071,2,0,L|286:189,1,59.9999976158143
341,124,188157,2,0,L|285:190,1,59.9999976158143
366,177,188242,5,0,0:0:0:0:
109,0,188414,1,0,0:0:0:0:
215,384,188585,1,0,0:0:0:0:
459,35,188757,1,0,0:0:0:0:
0,232,188928,1,0,0:0:0:0:
