osu file format v14

[General]
AudioFilename: audio.mp3
AudioLeadIn: 0
PreviewTime: 83732
Countdown: 0
SampleSet: Soft
StackLeniency: 0.3
Mode: 0
LetterboxInBreaks: 0
WidescreenStoryboard: 0

[Editor]
Bookmarks: 36670,42670,48670,54670,57670,60670,71170,72670,81670,84670,96670,107170,108295
DistanceSpacing: 1.1
BeatDivisor: 4
GridSize: 4
TimelineZoom: 1.8

[Metadata]
Title:Tell Me What You Want
TitleUnicode:Tell Me What You Want
Artist:S3RL feat Tamika
ArtistUnicode:S3RL feat Tamika
Creator:Lumael
Version:Shadren's Insane
Source:
Tags:UK hardcore techno female vocal cut short version girl Poggo shadren mkguh
BeatmapID:1381994
BeatmapSetID:651692

[Difficulty]
HPDrainRate:6
CircleSize:4
OverallDifficulty:7
ApproachRate:8.8
SliderMultiplier:1.6
SliderTickRate:1

[Events]
//Background and Video events
0,0,"BG.jpg",0,0
//Break Periods
//Storyboard Layer 0 (Background)
//Storyboard Layer 1 (Fail)
//Storyboard Layer 2 (Pass)
//Storyboard Layer 3 (Foreground)
//Storyboard Sound Samples

[TimingPoints]
24670,375,4,2,1,50,1,0
25513,-100,4,2,1,10,0,0
25607,-100,4,2,1,50,0,0
25701,-100,4,2,1,10,0,0
25795,-100,4,2,1,50,0,0
25888,-100,4,2,1,10,0,0
25982,-100,4,2,1,50,0,0
26076,-100,4,2,1,10,0,0
26170,-100,4,2,1,50,0,0
26451,-100,4,2,1,10,0,0
26545,-100,4,2,1,50,0,0
27951,-100,4,2,1,10,0,0
28045,-100,4,2,1,50,0,0
28513,-100,4,2,1,10,0,0
28607,-100,4,2,1,50,0,0
28701,-100,4,2,1,10,0,0
28795,-100,4,2,1,50,0,0
28888,-100,4,2,1,10,0,0
28982,-100,4,2,1,50,0,0
29076,-100,4,2,1,10,0,0
29170,-100,4,2,1,50,0,0
29451,-100,4,2,1,10,0,0
29545,-100,4,2,1,50,0,0
30951,-100,4,2,1,10,0,0
31045,-100,4,2,1,50,0,0
31513,-100,4,2,1,10,0,0
31607,-100,4,2,1,50,0,0
31701,-100,4,2,1,10,0,0
31795,-100,4,2,1,50,0,0
31888,-100,4,2,1,10,0,0
31982,-100,4,2,1,50,0,0
32076,-100,4,2,1,10,0,0
32170,-100,4,2,1,50,0,0
32451,-100,4,2,1,10,0,0
32545,-100,4,2,1,50,0,0
33951,-100,4,2,1,10,0,0
34045,-100,4,2,1,50,0,0
36670,-100,4,2,1,50,0,0
48670,-100,4,1,1,50,0,0
60670,-90.9090909090909,4,1,1,60,0,0
66576,-90.9090909090909,4,1,1,10,0,0
66670,-90.9090909090909,4,1,0,60,0,0
67045,-90.9090909090909,4,1,1,60,0,0
78576,-90.9090909090909,4,1,1,10,0,0
78670,-90.9090909090909,4,1,1,60,0,0
84295,-90.9090909090909,4,1,1,10,0,0
84670,-90.9090909090909,4,1,1,60,0,1
85513,-90.9090909090909,4,1,1,10,0,1
85607,-90.9090909090909,4,1,1,60,0,1
85701,-90.9090909090909,4,1,1,10,0,1
85795,-90.9090909090909,4,1,1,60,0,1
85888,-90.9090909090909,4,1,1,10,0,1
85982,-90.9090909090909,4,1,1,60,0,1
86076,-90.9090909090909,4,1,1,10,0,1
86170,-90.9090909090909,4,1,1,60,0,1
86451,-90.9090909090909,4,1,1,10,0,1
86545,-90.9090909090909,4,1,1,60,0,1
88513,-90.9090909090909,4,1,1,10,0,1
88607,-90.9090909090909,4,1,1,60,0,1
88701,-90.9090909090909,4,1,1,10,0,1
88795,-90.9090909090909,4,1,1,60,0,1
88888,-90.9090909090909,4,1,1,10,0,1
88982,-90.9090909090909,4,1,1,60,0,1
89076,-90.9090909090909,4,1,1,10,0,1
89170,-90.9090909090909,4,1,1,60,0,1
91513,-90.9090909090909,4,1,1,10,0,1
91607,-90.9090909090909,4,1,1,60,0,1
91701,-90.9090909090909,4,1,1,10,0,1
91795,-90.9090909090909,4,1,1,60,0,1
91888,-90.9090909090909,4,1,1,10,0,1
91982,-90.9090909090909,4,1,1,60,0,1
92076,-90.9090909090909,4,1,1,10,0,1
92170,-90.9090909090909,4,1,1,60,0,1
92451,-90.9090909090909,4,1,1,10,0,1
92545,-90.9090909090909,4,1,1,60,0,1
97513,-90.9090909090909,4,1,1,10,0,1
97607,-90.9090909090909,4,1,1,60,0,1
97701,-90.9090909090909,4,1,1,10,0,1
97795,-90.9090909090909,4,1,1,60,0,1
97888,-90.9090909090909,4,1,1,10,0,1
97982,-90.9090909090909,4,1,1,60,0,1
98076,-90.9090909090909,4,1,1,10,0,1
98170,-90.9090909090909,4,1,1,60,0,1
98451,-90.9090909090909,4,1,1,10,0,1
98545,-90.9090909090909,4,1,1,60,0,1
100513,-90.9090909090909,4,1,1,10,0,1
100607,-90.9090909090909,4,1,1,60,0,1
100701,-90.9090909090909,4,1,1,10,0,1
100795,-90.9090909090909,4,1,1,60,0,1
100888,-90.9090909090909,4,1,1,10,0,1
100982,-90.9090909090909,4,1,1,60,0,1
101076,-90.9090909090909,4,1,1,10,0,1
101170,-90.9090909090909,4,1,1,60,0,1
103513,-90.9090909090909,4,1,1,10,0,1
103607,-90.9090909090909,4,1,1,60,0,1
103701,-90.9090909090909,4,1,1,10,0,1
103795,-90.9090909090909,4,1,1,60,0,1
103888,-90.9090909090909,4,1,1,10,0,1
103982,-90.9090909090909,4,1,1,60,0,1
104076,-90.9090909090909,4,1,1,10,0,1
104170,-90.9090909090909,4,1,1,60,0,1
104451,-90.9090909090909,4,1,1,10,0,1
104545,-90.9090909090909,4,1,1,60,0,1
107170,-90.9090909090909,4,1,1,50,0,0

[Colours]
Combo1 : 147,213,249
Combo2 : 241,165,180
Combo3 : 83,83,255
Combo4 : 255,165,74

[HitObjects]
241,183,23920,6,0,P|286:185|337:209,1,80
414,275,24295,2,0,P|438:220|438:176,1,80
428,84,24670,6,0,P|376:104|332:100,1,80
288,44,25045,1,0,0:0:0:0:
256,168,25232,2,0,P|192:172|132:188,1,120,2|0,0:0|0:0,0:0:0:0:
116,180,25607,2,0,P|108:160|104:128,1,40,2|0,0:0|0:0,0:0:0:0:
96,268,25795,2,0,P|76:259|50:239,1,40,2|0,0:0|0:0,0:0:0:0:
140,344,25982,2,0,P|120:352|87:355,1,40,2|0,0:0|0:0,0:0:0:0:
224,356,26170,6,0,P|280:332|356:340,1,120,2|0,0:0|0:0,0:0:0:0:
356,344,26545,2,0,L|352:252,1,80
208,188,26920,1,0,0:0:0:0:
270,251,27107,1,0,0:0:0:0:
216,92,27295,1,0,0:0:0:0:
140,132,27482,1,0,0:0:0:0:
300,160,27670,6,0,P|368:168|428:132,1,120,2|0,0:0|0:0,0:0:0:0:
452,84,28045,1,0,0:0:0:0:
252,92,28232,2,0,P|216:148|228:204,1,120,2|0,0:0|0:0,0:0:0:0:
228,220,28607,2,0,L|180:216,1,40,2|0,0:0|0:0,0:0:0:0:
144,284,28795,2,0,L|88:276,1,40,2|0,0:0|0:0,0:0:0:0:
54,340,28982,2,0,L|2:336,1,40,2|0,0:0|0:0,0:0:0:0:
132,372,29170,6,0,L|256:368,1,120,2|0,0:0|0:0,0:0:0:0:
272,356,29545,2,0,P|276:312|260:268,1,80
136,168,29920,1,0,0:0:0:0:
168,248,30107,1,0,0:0:0:0:
264,96,30295,1,0,0:0:0:0:
176,88,30482,1,0,0:0:0:0:
300,204,30670,6,0,P|368:208|424:184,1,120,2|0,0:0|0:0,0:0:0:0:
476,152,31045,1,0,0:0:0:0:
464,324,31232,2,0,P|412:300|340:296,1,120,2|0,0:0|0:0,0:0:0:0:
328,304,31607,2,0,L|276:300,1,40,2|0,0:0|0:0,0:0:0:0:
192,248,31795,2,0,L|248:244,1,40,2|0,0:0|0:0,0:0:0:0:
320,180,31982,2,0,L|264:176,1,40,2|0,0:0|0:0,0:0:0:0:
200,104,32170,6,0,B|244:108|244:108|280:100|280:100|336:104,1,120,2|0,0:0|0:0,0:0:0:0:
344,104,32545,1,0,0:0:0:0:
412,48,32732,1,0,0:0:0:0:
488,180,32920,2,0,P|496:248|476:280,1,80
352,264,33295,2,0,P|406:223|444:224,1,80
428,308,33670,6,0,P|392:344|308:336,1,120
268,304,34045,2,0,P|228:292|180:292,1,80
336,232,34420,2,0,P|384:228|432:212,1,80
492,136,34795,2,0,P|456:116|412:108,1,80
248,108,35170,5,0,0:0:0:0:
224,112,35263,1,0,0:0:0:0:
200,116,35357,1,0,0:0:0:0:
136,56,35545,1,0,0:0:0:0:
356,40,35732,1,0,0:0:0:0:
324,284,36107,1,0,0:0:0:0:
352,200,36295,2,0,P|348:156|316:112,1,80,8|0,0:0|0:0,0:0:0:0:
448,240,36670,6,0,P|428:280|428:340,1,80,8|0,0:0|0:0,0:0:0:0:
500,168,37045,2,0,L|504:80,1,80,8|0,0:0|0:0,0:0:0:0:
336,40,37420,1,8,0:0:0:0:
420,16,37607,1,0,0:0:0:0:
384,176,37795,1,8,0:0:0:0:
316,120,37982,1,0,0:0:0:0:
140,292,38357,5,0,0:0:0:0:
280,248,38545,2,0,P|320:256|364:288,1,80,8|0,0:0|0:0,0:0:0:0:
200,180,38920,2,0,P|152:200|104:204,1,80,8|0,0:0|0:0,0:0:0:0:
48,76,39295,1,8,0:0:0:0:
12,156,39482,1,8,0:0:0:0:
172,84,39670,6,0,L|260:80,1,80,8|0,0:0|0:0,0:0:0:0:
424,140,40045,1,8,0:0:0:0:
344,184,40232,1,0,0:0:0:0:
316,20,40420,1,8,0:0:0:0:
400,52,40607,1,0,0:0:0:0:
256,168,40795,2,0,P|216:188|164:196,1,80,8|0,0:0|0:0,0:0:0:0:
400,52,41357,5,0,0:0:0:0:
464,112,41545,2,0,L|468:200,1,80,8|0,0:0|0:0,0:0:0:0:
388,316,41920,2,0,L|392:236,1,80,8|0,0:0|0:0,0:0:0:0:
256,152,42295,2,0,P|204:164|176:184,1,80,8|0,0:0|0:0,0:0:0:0:
168,196,42576,1,0,0:0:0:0:
152,216,42670,6,0,P|88:224|32:200,2,120,8|0|0,0:0|0:0|0:0,0:0:0:0:
216,80,43420,1,8,0:0:0:0:
296,116,43607,1,0,0:0:0:0:
319,108,43701,1,0,0:0:0:0:
342,100,43795,2,0,L|388:104,2,40
248,236,44170,5,8,0:0:0:0:
332,304,44357,1,0,0:0:0:0:
332,304,44451,1,0,0:0:0:0:
332,304,44545,2,0,P|376:300|416:284,1,80
240,348,44920,2,0,P|204:328|156:320,1,80,8|0,0:0|0:0,0:0:0:0:
164,296,45201,1,0,0:0:0:0:
162,271,45295,1,0,0:0:0:0:
161,247,45388,1,0,0:0:0:0:
159,223,45482,1,0,0:0:0:0:
320,160,45670,5,8,0:0:0:0:
276,236,45857,1,0,0:0:0:0:
272,56,46045,1,8,0:0:0:0:
356,80,46232,1,0,0:0:0:0:
184,176,46420,1,8,0:0:0:0:
192,88,46607,1,0,0:0:0:0:
276,236,46795,1,8,0:0:0:0:
192,264,46982,1,0,0:0:0:0:
288,116,47357,6,0,P|332:120|380:144,1,80
448,248,47732,1,0,0:0:0:0:
444,272,47826,1,0,0:0:0:0:
440,296,47920,2,0,L|480:292,2,40
276,284,48295,2,0,P|264:240|272:188,1,80,8|0,0:0|0:0,0:0:0:0:
392,108,48670,5,4,0:0:0:0:
132,72,49232,1,4,0:0:0:0:
292,148,49607,1,0,0:0:0:0:
232,212,49795,1,4,0:0:0:0:
144,196,49982,1,0,0:0:0:0:
304,260,50170,6,0,P|304:308|284:344,1,80,4|0,0:0|0:0,0:0:0:0:
416,248,50545,2,0,P|396:212|396:152,1,80,0|4,0:0|0:0,0:0:0:0:
468,44,50920,1,0,0:0:0:0:
504,124,51107,1,0,0:0:0:0:
316,76,51295,1,4,0:0:0:0:
388,24,51482,1,0,0:0:0:0:
307,169,51670,2,0,P|261:155|225:119,1,80,4|0,0:0|0:0,0:0:0:0:
424,152,52045,1,0,0:0:0:0:
380,228,52232,1,4,0:0:0:0:
316,44,52420,1,0,0:0:0:0:
400,68,52607,1,0,0:0:0:0:
232,97,52795,2,0,P|219:50|231:-9,1,80,4|0,0:0|0:0,0:0:0:0:
314,139,53170,5,4,0:0:0:0:
276,218,53357,1,0,0:0:0:0:
119,159,53545,1,0,0:0:0:0:
204,177,53732,1,4,0:0:0:0:
220,296,53920,2,4,P|171:292|126:259,1,80
310,277,54295,1,4,0:0:0:0:
290,362,54482,1,0,0:0:0:0:
312,176,54670,5,4,0:0:0:0:
344,172,54763,1,0,0:0:0:0:
376,168,54857,1,0,0:0:0:0:
408,164,54951,1,0,0:0:0:0:
440,164,55045,2,0,L|492:168,3,40
380,84,55420,6,0,L|340:87,3,40,4|0|0|0,0:0|0:0|0:0|0:0,0:0:0:0:
308,116,55795,1,0,0:0:0:0:
283,135,55888,1,0,0:0:0:0:
253,146,55982,1,0,0:0:0:0:
221,146,56076,1,0,0:0:0:0:
200,131,56170,6,0,L|160:131,3,40,4|0|0|0,0:0|0:0|0:0|0:0,0:0:0:0:
268,229,56545,2,0,L|308:229,3,40
185,296,56920,6,0,L|145:299,3,40,4|0|0|0,0:0|0:0|0:0|0:0,0:0:0:0:
249,364,57295,1,0,0:0:0:0:
280,361,57388,1,0,0:0:0:0:
312,359,57482,1,0,0:0:0:0:
344,357,57576,1,0,0:0:0:0:
377,356,57670,5,0,0:0:0:0:
256,192,57763,12,0,59170,0:0:0:0:
352,116,59357,6,0,L|392:112,2,40
240,184,59732,1,0,0:0:0:0:
216,180,59826,1,0,0:0:0:0:
192,176,59920,2,0,L|148:180,1,40
72,116,60107,2,0,L|120:120,1,40
204,68,60295,5,4,0:0:0:0:
404,208,60670,6,0,P|424:248|424:304,1,88.000002685547,0|8,0:0|0:0,0:0:0:0:
320,168,61045,2,0,P|324:120|344:80,1,88.000002685547,0|8,0:0|0:0,0:0:0:0:
264,240,61420,2,0,P|216:252|164:248,1,88.000002685547,0|8,0:0|0:0,0:0:0:0:
104,88,61795,1,0,0:0:0:0:
36,156,61982,1,8,0:0:0:0:
33,180,62076,1,0,0:0:0:0:
31,204,62170,5,0,0:0:0:0:
96,276,62357,1,8,0:0:0:0:
232,168,62545,2,0,P|276:168|324:188,1,88.000002685547,0|8,0:0|0:0,0:0:0:0:
480,108,62920,2,0,P|436:124|380:124,1,88.000002685547,0|8,0:0|0:0,0:0:0:0:
248,52,63295,1,0,0:0:0:0:
336,12,63482,1,8,0:0:0:0:
248,176,63670,6,0,P|200:168|152:140,1,88.000002685547,0|8,0:0|0:0,0:0:0:0:
292,256,64045,2,0,P|336:240|396:240,1,88.000002685547,0|8,0:0|0:0,0:0:0:0:
254,337,64420,2,0,P|210:321|150:321,1,88.000002685547,0|8,0:0|0:0,0:0:0:0:
96,148,64795,1,0,0:0:0:0:
184,188,64982,1,8,0:0:0:0:
188,212,65076,1,0,0:0:0:0:
192,236,65170,5,0,0:0:0:0:
284,264,65357,1,8,0:0:0:0:
184,96,65545,1,0,0:0:0:0:
260,36,65732,1,8,0:0:0:0:
184,188,65920,2,0,B|141:194|141:194|97:186,1,88.000002685547,0|8,0:0|0:0,0:0:0:0:
184,276,66295,2,0,B|252:268|252:268|320:280,1,132.00000402832
384,296,66670,5,0,0:0:0:0:
276,76,66857,1,0,0:0:0:0:
356,128,67045,2,0,B|400:136|400:136|452:128,1,88.000002685547,0|8,0:0|0:0,0:0:0:0:
276,76,67420,2,0,B|232:68|232:68|180:76,1,88.000002685547,0|8,0:0|0:0,0:0:0:0:
160,228,67795,2,0,P|216:224|256:196,1,88.000002685547,0|8,0:0|0:0,0:0:0:0:
260,192,68076,1,0,0:0:0:0:
272,172,68170,5,0,0:0:0:0:
320,256,68357,1,8,0:0:0:0:
344,76,68545,1,0,0:0:0:0:
396,160,68732,1,8,0:0:0:0:
240,92,68920,2,0,P|192:88|144:104,1,88.000002685547,0|8,0:0|0:0,0:0:0:0:
309,159,69295,2,0,B|353:167|353:167|397:159,1,88.000002685547,0|8,0:0|0:0,0:0:0:0:
468,28,69670,5,0,0:0:0:0:
380,68,69857,1,0,0:0:0:0:
496,200,70045,1,0,0:0:0:0:
456,112,70232,1,0,0:0:0:0:
444,296,70420,2,0,P|404:312|344:308,1,88.000002685547
272,172,70795,5,0,0:0:0:0:
364,196,70982,1,0,0:0:0:0:
220,88,71170,2,0,P|172:88|124:104,1,88.000002685547,2|0,2:0|0:0,0:0:0:0:
68,136,71451,1,0,0:0:0:0:
60,152,71545,2,0,L|68:248,1,88.000002685547,2|0,2:0|0:0,0:0:0:0:
208,320,71920,6,0,B|240:326|257:346|257:346|286:341|286:341|299:351|315:375|324:344|344:348|344:348|367:354|373:330|373:330|388:336|407:322|407:322|432:294,1,264.000008056641,2|0,2:0|0:0,0:0:0:0:
348,132,72670,6,0,L|352:40,1,88.000002685547,0|8,0:0|0:0,0:0:0:0:
212,136,73045,2,0,L|216:240,1,88.000002685547,0|8,0:0|0:0,0:0:0:0:
372,320,73420,1,0,0:0:0:0:
436,248,73607,1,8,0:0:0:0:
248,320,73795,1,0,0:0:0:0:
288,232,73982,1,8,0:0:0:0:
312,228,74076,1,2,2:0:0:0:
128,296,74263,5,0,0:0:0:0:
104,292,74357,1,10,2:0:0:0:
156,188,74545,2,0,B|164:144|164:144|156:92,1,88.000002685547,0|8,0:0|0:0,0:0:0:0:
260,192,74920,2,0,B|252:236|252:236|260:288,1,88.000002685547,0|8,0:0|0:0,0:0:0:0:
416,344,75295,1,0,0:0:0:0:
320,360,75482,1,8,0:0:0:0:
360,200,75670,6,0,P|404:184|464:192,1,88.000002685547,0|8,0:0|0:0,0:0:0:0:
468,196,75951,1,0,0:0:0:0:
488,212,76045,2,0,L|484:116,1,88.000002685547,0|8,0:0|0:0,0:0:0:0:
364,44,76420,2,0,B|320:40|320:40|272:52,1,88.000002685547,0|8,0:0|0:0,0:0:0:0:
220,232,76795,1,0,0:0:0:0:
164,152,76982,1,8,0:0:0:0:
168,128,77076,1,2,2:0:0:0:
336,232,77263,5,0,0:0:0:0:
340,256,77357,1,10,2:0:0:0:
112,256,77545,1,0,0:0:0:0:
188,196,77732,1,8,0:0:0:0:
28,224,77920,2,0,P|24:272|56:324,1,88.000002685547,0|8,0:0|0:0,0:0:0:0:
188,196,78295,2,0,B|172:172|184:128|184:128|200:80|176:36,1,132.00000402832
128,28,78670,5,4,0:0:0:0:
380,232,79045,1,0,0:0:0:0:
376,256,79138,1,0,0:0:0:0:
372,280,79232,1,8,0:0:0:0:
452,152,79420,2,0,B|460:108|460:108|452:44,1,88.000002685547,0|8,0:0|0:0,0:0:0:0:
256,32,79795,1,0,0:0:0:0:
328,96,79982,2,0,L|376:92,2,44.0000013427735,8|0|0,0:0|0:0|0:0,0:0:0:0:
152,180,80357,6,0,L|100:176,2,44.0000013427735,8|0|0,0:0|0:0|0:0,0:0:0:0:
240,140,80732,1,8,0:0:0:0:
300,332,80920,2,0,P|348:332|392:316,1,88.000002685547,0|8,0:0|0:0,0:0:0:0:
448,144,81295,1,0,0:0:0:0:
500,224,81482,1,8,0:0:0:0:
296,124,81670,5,0,0:0:0:0:
380,76,81857,1,0,0:0:0:0:
348,268,82045,1,0,0:0:0:0:
264,220,82232,1,0,0:0:0:0:
448,144,82420,1,0,0:0:0:0:
380,76,82607,1,0,0:0:0:0:
420,292,82795,5,0,0:0:0:0:
256,192,82888,12,0,84295,0:0:0:0:
80,348,84670,6,0,P|64:288|72:240,1,88.000002685547,14|2,0:0|2:0,0:0:0:0:
228,212,85045,1,8,0:0:0:0:
132,196,85232,2,0,B|124:144|124:144|128:112|128:112|120:56,1,132.00000402832,2|0,2:0|0:0,0:0:0:0:
136,44,85607,2,0,P|160:36|204:28,1,44.0000013427735,2|0,2:0|0:0,0:0:0:0:
296,64,85795,2,0,P|264:64|240:56,1,44.0000013427735,2|0,2:0|0:0,0:0:0:0:
368,32,85982,2,0,L|424:28,1,44.0000013427735,10|0,2:0|0:0,0:0:0:0:
480,128,86170,6,0,P|416:108|340:120,1,132.00000402832,10|0,2:0|0:0,0:0:0:0:
292,156,86545,1,8,0:0:0:0:
368,216,86732,1,0,0:0:0:0:
180,156,86920,1,10,0:0:0:0:
240,80,87107,1,0,0:0:0:0:
208,276,87295,1,2,0:0:0:0:
120,236,87482,1,8,0:0:0:0:
312,224,87670,6,0,P|368:224|416:240,1,88.000002685547,14|0,0:0|0:0,0:0:0:0:
456,312,88045,1,8,0:0:0:0:
504,144,88232,2,0,P|444:152|368:144,1,132.00000402832,2|0,2:0|0:0,0:0:0:0:
348,136,88607,2,0,L|352:88,1,44.0000013427735,2|0,2:0|0:0,0:0:0:0:
260,56,88795,2,0,L|264:108,1,44.0000013427735,2|0,2:0|0:0,0:0:0:0:
180,136,88982,2,0,L|172:88,1,44.0000013427735,10|0,2:0|0:0,0:0:0:0:
88,60,89170,6,0,P|80:112|84:180,1,88.000002685547,10|0,2:0|0:0,0:0:0:0:
116,216,89451,1,0,0:0:0:0:
116,216,89545,2,0,B|160:224|160:224|204:216,1,88.000002685547,8|0,0:0|0:0,0:0:0:0:
260,48,89920,1,10,0:0:0:0:
168,76,90107,1,0,0:0:0:0:
372,108,90295,1,2,0:0:0:0:
348,16,90482,1,8,0:0:0:0:
280,184,90670,6,0,P|272:232|288:280,1,88.000002685547,14|0,0:0|0:0,0:0:0:0:
376,284,91045,1,8,0:0:0:0:
292,104,91232,2,0,P|236:112|200:192,1,132.00000402832,2|0,2:0|0:0,0:0:0:0:
196,196,91607,2,0,L|148:192,1,44.0000013427735,2|0,2:0|0:0,0:0:0:0:
96,276,91795,2,0,L|156:272,1,44.0000013427735,2|0,2:0|0:0,0:0:0:0:
192,336,91982,2,0,L|248:332,1,44.0000013427735,10|0,2:0|0:0,0:0:0:0:
308,268,92170,6,0,B|360:264|360:264|392:272|392:272|440:268,1,132.00000402832,10|0,2:0|0:0,0:0:0:0:
488,216,92545,2,0,P|492:168|480:124,1,88.000002685547,8|0,0:0|0:0,0:0:0:0:
272,88,92920,1,10,0:0:0:0:
352,36,93107,1,0,0:0:0:0:
340,236,93295,1,2,0:0:0:0:
268,172,93482,1,8,0:0:0:0:
200,328,93670,6,0,P|156:344|96:340,1,88.000002685547,14|0,0:0|0:0,0:0:0:0:
36,172,94045,1,8,0:0:0:0:
8,264,94232,1,0,0:0:0:0:
148,128,94420,1,8,0:0:0:0:
64,80,94607,1,0,0:0:0:0:
248,120,94795,1,8,0:0:0:0:
208,208,94982,1,0,0:0:0:0:
192,44,95170,6,0,P|232:28|292:36,1,88.000002685547,8|0,0:0|0:0,0:0:0:0:
340,192,95545,1,10,2:0:0:0:
408,124,95732,1,2,2:0:0:0:
432,120,95826,1,2,2:0:0:0:
456,116,95920,1,10,2:0:0:0:
352,52,96107,1,0,0:0:0:0:
432,208,96295,2,0,P|440:264|432:304,1,88.000002685547
280,344,96670,6,0,P|272:296|284:240,1,88.000002685547,14|0,0:0|0:0,0:0:0:0:
344,96,97045,1,8,0:0:0:0:
272,164,97232,2,0,P|208:176|112:168,1,132.00000402832,2|0,2:0|0:0,0:0:0:0:
120,164,97607,2,0,L|116:104,1,44.0000013427735,2|0,2:0|0:0,0:0:0:0:
192,104,97795,2,0,L|194:60,1,44.0000013427735,2|0,2:0|0:0,0:0:0:0:
276,72,97982,2,0,L|280:28,1,44.0000013427735,10|0,2:0|0:0,0:0:0:0:
348,116,98170,6,0,P|356:172|344:248,1,132.00000402832,10|0,2:0|0:0,0:0:0:0:
280,280,98545,2,0,P|236:272|184:276,1,88.000002685547,8|0,0:0|0:0,0:0:0:0:
24,344,98920,1,10,0:0:0:0:
116,368,99107,1,0,0:0:0:0:
64,176,99295,1,2,0:0:0:0:
12,256,99482,1,8,0:0:0:0:
192,212,99670,6,0,P|200:164|188:120,1,88.000002685547,14|0,0:0|0:0,0:0:0:0:
120,60,100045,1,8,0:0:0:0:
304,32,100232,2,0,P|284:84|280:160,1,132.00000402832,2|0,2:0|0:0,0:0:0:0:
288,184,100607,2,0,L|336:180,1,44.0000013427735,2|0,2:0|0:0,0:0:0:0:
296,264,100795,2,0,L|232:260,1,44.0000013427735,2|0,2:0|0:0,0:0:0:0:
296,340,100982,2,0,L|352:336,1,44.0000013427735,10|0,2:0|0:0,0:0:0:0:
220,368,101170,6,0,P|160:344|100:348,1,88.000002685547,10|0,2:0|0:0,0:0:0:0:
64,364,101451,1,0,0:0:0:0:
64,364,101545,2,0,L|60:268,1,88.000002685547,8|0,0:0|0:0,0:0:0:0:
160,136,101920,2,0,P|200:120|256:120,1,88.000002685547,10|0,0:0|0:0,0:0:0:0:
116,60,102295,2,0,P|68:56|8:28,1,88.000002685547,2|8,0:0|0:0,0:0:0:0:
208,28,102670,6,0,P|264:24|312:24,1,88.000002685547,14|0,0:0|0:0,0:0:0:0:
448,120,103045,1,8,0:0:0:0:
356,148,103232,2,0,P|336:208|348:296,1,132.00000402832,2|0,2:0|0:0,0:0:0:0:
352,296,103607,2,0,L|400:292,1,44.0000013427735,2|0,2:0|0:0,0:0:0:0:
292,352,103795,2,0,L|244:348,1,44.0000013427735,2|0,2:0|0:0,0:0:0:0:
184,300,103982,2,0,L|128:304,1,44.0000013427735,10|0,2:0|0:0,0:0:0:0:
64,264,104170,6,0,P|52:196|64:128,1,132.00000402832,10|0,2:0|0:0,0:0:0:0:
116,88,104545,2,0,P|160:80|204:52,1,88.000002685547,8|0,0:0|0:0,0:0:0:0:
256,160,104920,2,0,P|304:160|356:184,1,88.000002685547,10|0,0:0|0:0,0:0:0:0:
508,204,105295,2,0,P|460:224|416:228,1,88.000002685547,2|8,0:0|0:0,0:0:0:0:
228,348,105670,6,0,P|222:304|230:261,1,88.000002685547,14|0,0:0|0:0,0:0:0:0:
348,144,106045,2,0,P|355:100|350:57,1,88.000002685547,8|0,0:0|0:0,0:0:0:0:
160,32,106420,1,10,0:0:0:0:
256,12,106607,1,0,0:0:0:0:
128,124,106795,1,10,0:0:0:0:
64,52,106982,1,0,0:0:0:0:
248,104,107170,5,10,2:0:0:0:
272,100,107263,1,2,2:0:0:0:
296,96,107357,1,2,2:0:0:0:
216,232,107545,2,0,P|168:232|112:208,1,88.000002685547,10|0,0:0|0:0,0:0:0:0:
264,316,107920,2,0,P|308:292|360:284,1,88.000002685547,10|0,0:0|0:0,0:0:0:0:
504,336,108295,2,0,P|482:297|483:190,1,132.00000402832,8|0,0:0|0:0,0:0:0:0:
476,211,108670,5,2,0:0:0:0:
