osu file format v14

[General]
AudioFilename: audio.mp3
AudioLeadIn: 0
PreviewTime: 83732
Countdown: 0
SampleSet: Soft
StackLeniency: 0.7
Mode: 0
LetterboxInBreaks: 0
WidescreenStoryboard: 0

[Editor]
Bookmarks: 24668
DistanceSpacing: 1
BeatDivisor: 2
GridSize: 4
TimelineZoom: 1.4

[Metadata]
Title:Tell Me What You Want
TitleUnicode:Tell Me What You Want
Artist:S3RL feat Tamika
ArtistUnicode:S3RL feat Tamika
Creator:Lumael
Version:Mk's Normal
Source:
Tags:UK hardcore techno female vocal cut short version girl Poggo shadren mkguh
BeatmapID:1381992
BeatmapSetID:651692

[Difficulty]
HPDrainRate:3
CircleSize:3
OverallDifficulty:4
ApproachRate:5
SliderMultiplier:1.1
SliderTickRate:1

[Events]
//Background and Video events
0,0,"BG.jpg",0,0
//Break Periods
//Storyboard Layer 0 (Background)
//Storyboard Layer 1 (Fail)
//Storyboard Layer 2 (Pass)
//Storyboard Layer 3 (Foreground)
//Storyboard Sound Samples

[TimingPoints]
24670,375,4,2,1,60,1,0
48668,-100,4,1,1,70,0,0
59168,-100,4,1,1,60,0,0
60668,-100,4,1,1,70,0,0
66668,-100,4,1,0,70,0,0
67043,-100,4,1,1,70,0,0
84670,-90.9090909090909,4,1,1,80,0,1
96295,-100,4,1,1,80,0,0
96670,-90.9090909090909,4,1,1,80,0,1
108670,-100,4,1,1,60,0,0

[Colours]
Combo1 : 147,213,249
Combo2 : 241,165,180
Combo3 : 83,83,255
Combo4 : 255,165,74

[HitObjects]
135,201,23920,6,0,B|98:195|98:195|66:199|66:199|26:191,1,110
48,84,24670,6,0,B|88:92|88:92|120:88|120:88|165:95,1,110
239,163,25420,2,0,P|262:115|257:61,2,110,0|2|2,0:0|0:0|0:0,0:0:0:0:
147,224,26545,1,0,0:0:0:0:
202,317,26920,2,0,P|254:329|308:318,1,110,0|0,0:0|0:0,0:0:0:0:
408,270,27670,6,0,L|404:160,1,110,2|0,0:0|0:0,0:0:0:0:
360,57,28420,2,0,P|414:49|466:64,2,110,0|2|2,0:0|0:0|0:0,0:0:0:0:
258,97,29545,1,0,0:0:0:0:
154,60,29920,2,0,B|138:124|138:124|149:166,1,110,0|0,0:0|0:0,0:0:0:0:
196,264,30670,6,0,P|249:253|304:257,1,110,2|0,0:0|0:0,0:0:0:0:
410,287,31420,2,0,P|422:234|413:181,1,110,0|2,0:0|0:0,0:0:0:0:
391,72,32170,1,2,0:0:0:0:
288,30,32545,1,0,0:0:0:0:
185,70,32920,2,0,L|105:146,1,110
51,242,33670,6,0,P|34:293|49:345,1,110,0|0,0:0|0:0,0:0:0:0:
160,343,34420,2,0,P|176:292|161:240,1,110,0|0,0:0|0:0,0:0:0:0:
105,145,35170,2,0,P|185:134|254:183,1,165
338,246,36107,1,0,0:0:0:0:
338,246,36295,2,0,L|393:246,1,55,8|0,0:0|0:0,0:0:0:0:
448,246,36670,5,8,0:0:0:0:
492,145,37045,1,8,0:0:0:0:
414,65,37420,2,0,P|362:53|308:64,1,110,8|8,0:0|0:0,0:0:0:0:
205,27,38170,1,0,0:0:0:0:
106,75,38545,1,8,0:0:0:0:
179,156,38920,2,0,P|201:205|200:259,1,110,8|8,0:0|0:0,0:0:0:0:
159,367,39670,6,0,L|49:367,2,110,8|8|8,0:0|0:0|0:0,0:0:0:0:
256,316,40795,1,8,0:0:0:0:
353,367,41170,2,0,L|463:367,2,110,0|8|8,0:0|0:0|0:0,0:0:0:0:
256,316,42295,1,8,0:0:0:0:
157,264,42670,6,0,P|105:170|108:145,2,110,8|0|8,0:0|0:0|0:0,0:0:0:0:
255,214,43795,1,0,0:0:0:0:
346,153,44170,2,0,L|486:148,1,110,8|0,0:0|0:0,0:0:0:0:
504,247,44920,2,0,L|394:250,1,110,8|0,0:0|0:0,0:0:0:0:
358,355,45670,6,0,B|302:347|302:347|251:365,1,110,8|8,0:0|0:0,0:0:0:0:
156,309,46420,2,0,B|105:327|105:327|49:319,1,110,8|8,0:0|0:0,0:0:0:0:
9,280,46982,1,0,0:0:0:0:
17,170,47357,2,0,L|12:106,1,55
24,5,47920,1,0,0:0:0:0:
132,20,48295,1,8,0:0:0:0:
200,104,48670,6,0,B|172:156|172:156|132:188|132:188|107:236,2,165,4|4|4,0:0|0:0|0:0,0:0:0:0:
310,104,50170,2,0,B|338:156|338:156|378:188|378:188|402:236,2,165,4|4|4,0:0|0:0|0:0,0:0:0:0:
256,200,51670,6,0,L|256:365,2,165,4|4|4,0:0|0:0|0:0,0:0:0:0:
180,119,53170,2,0,P|255:90|331:119,2,165,4|4|4,0:0|0:0|0:0,0:0:0:0:
73,90,54670,5,4,0:0:0:0:
22,187,55045,1,0,0:0:0:0:
123,228,55420,2,0,P|124:282|100:331,1,110,4|0,0:0|0:0,0:0:0:0:
201,371,56170,1,4,0:0:0:0:
310,369,56545,1,0,0:0:0:0:
412,329,56920,2,0,P|389:281|389:226,1,110,4|0,0:0|0:0,0:0:0:0:
313,145,57670,5,0,0:0:0:0:
210,186,58045,1,0,0:0:0:0:
109,230,58420,1,0,0:0:0:0:
117,120,58795,1,0,0:0:0:0:
210,186,59170,6,0,P|279:265|255:369,1,220
176,291,60295,1,4,0:0:0:0:
84,229,60670,6,0,L|93:174,1,55,0|8,0:0|0:0,0:0:0:0:
126,130,61045,2,0,L|123:75,1,55,0|8,0:0|0:0,0:0:0:0:
158,32,61420,2,0,P|212:38|253:74,1,110
304,90,61982,2,0,P|341:130|395:138,1,110,8|8,0:0|0:0,0:0:0:0:
448,129,62545,1,0,0:0:0:0:
497,227,62920,1,0,0:0:0:0:
388,244,63295,1,0,0:0:0:0:
424,348,63670,6,0,L|369:345,1,55,0|8,0:0|0:0,0:0:0:0:
316,340,64045,2,0,L|261:342,1,55,0|8,0:0|0:0,0:0:0:0:
217,308,64420,2,0,B|190:266|190:266|202:204,1,110
245,173,64982,2,0,B|256:114|256:114|229:72,1,110
204,23,65545,1,0,0:0:0:0:
113,85,65920,1,0,0:0:0:0:
21,23,66295,1,0,0:0:0:0:
2,131,66670,6,0,P|-2:159|-1:186,1,55
29,231,67045,1,0,0:0:0:0:
132,192,67420,1,0,0:0:0:0:
218,259,67795,1,0,0:0:0:0:
217,259,67982,2,0,P|268:278|320:265,1,110,8|8,0:0|0:0,0:0:0:0:
368,238,68545,2,0,L|361:128,1,110
361,18,69295,2,0,L|296:34,1,55
254,46,69670,5,0,0:0:0:0:
148,80,70045,1,0,0:0:0:0:
44,112,70420,1,0,0:0:0:0:
128,184,70795,1,0,0:0:0:0:
132,292,71170,2,0,P|79:285|38:243,2,110,2|2|2,2:0|2:0|2:0,0:0:0:0:
240,268,72295,1,0,0:0:0:0:
344,308,72670,6,0,L|360:255,1,55,0|8,0:0|0:0,0:0:0:0:
396,212,73045,2,0,L|416:144,1,55
404,104,73420,2,0,P|349:113|296:102,1,110
256,64,73982,2,0,P|203:54|149:61,1,110,8|10,0:0|2:0,0:0:0:0:
100,92,74545,2,0,L|106:201,1,110
121,311,75295,2,0,L|189:315,1,55,0|8,0:0|0:0,0:0:0:0:
224,288,75670,6,0,P|278:295|310:338,2,110
160,196,76795,1,0,0:0:0:0:
159,196,76982,2,0,P|167:142|145:92,1,110,8|10,0:0|2:0,0:0:0:0:
124,44,77545,2,0,L|234:44,1,110,0|0,0:0|0:0,0:0:0:0:
344,44,78295,1,0,0:0:0:0:
451,27,78670,6,0,P|419:128|317:153,1,220,4|0,0:0|0:0,0:0:0:0:
212,124,79795,1,0,0:0:0:0:
112,172,80170,2,0,P|98:119|115:67,2,110,0|0|0,0:0|0:0|0:0,0:0:0:0:
172,264,81295,1,0,0:0:0:0:
272,220,81670,6,0,B|352:212|352:212|404:224|404:224|489:213,1,220
448,112,82795,2,0,L|454:57,1,55,0|2,0:0|2:0,0:0:0:0:
255,312,84670,6,0,P|201:336|141:336,1,121.000003692627,14|8,0:0|0:0,0:0:0:0:
57,251,85420,2,0,L|40:184,1,60.5000018463135,0|2,0:0|2:0,0:0:0:0:
78,144,85795,2,0,L|62:77,1,60.5000018463135,0|10,0:0|2:0,0:0:0:0:
109,44,86170,2,0,B|153:52|153:52|185:44|185:44|227:51,1,121.000003692627,10|8,2:0|0:0,0:0:0:0:
340,20,86920,2,0,B|348:64|348:64|340:96|340:96|347:138,1,121.000003692627,10|2,0:0|0:0,0:0:0:0:
364,196,87482,1,8,0:0:0:0:
376,256,87670,6,0,L|260:292,1,121.000003692627,14|8,0:0|0:0,0:0:0:0:
144,252,88420,2,0,P|140:222|143:192,1,60.5000018463135,0|2,0:0|2:0,0:0:0:0:
175,140,88795,2,0,P|179:110|176:80,1,60.5000018463135,2|10,2:0|2:0,0:0:0:0:
148,24,89170,2,0,P|205:39|265:30,1,121.000003692627,10|8,2:0|0:0,0:0:0:0:
359,108,89920,2,0,P|419:99|477:114,1,121.000003692627,10|2,0:0|0:0,0:0:0:0:
504,168,90482,1,8,0:0:0:0:
468,216,90670,6,0,L|468:337,1,121.000003692627,14|8,0:0|0:0,0:0:0:0:
357,318,91420,2,0,L|286:320,1,60.5000018463135,0|2,0:0|0:2,0:0:0:0:
244,287,91795,2,0,L|175:283,1,60.5000018463135,0|8,0:0|0:2,0:0:0:0:
131,314,92170,2,0,P|131:241|88:201,1,121.000003692627,10|8,2:0|0:0,0:0:0:0:
3,136,92920,2,0,L|9:75,1,60.5000018463135,10|0,0:0|0:0,0:0:0:0:
34,20,93295,2,0,L|97:25,1,60.5000018463135,2|8,0:0|0:0,0:0:0:0:
145,57,93670,6,0,B|205:85|205:85|319:69,1,181.500005538941,14|0,0:0|0:0,0:0:0:0:
378,58,94420,2,0,P|392:116|373:172,1,121.000003692627,8|8,0:0|0:0,0:0:0:0:
256,210,95170,2,0,P|242:268|261:324,1,121.000003692627,8|10,0:0|2:0,0:0:0:0:
374,367,95920,2,0,L|433:357,1,60.5000018463135,10|0,2:0|0:0,0:0:0:0:
474,319,96295,2,0,P|492:290|496:246,1,55
463,219,96670,6,0,P|440:165|450:106,1,121.000003692627,14|8,0:0|0:0,0:0:0:0:
425,49,97232,1,2,2:0:0:0:
306,74,97607,2,0,L|245:67,2,60.5000018463135,2|2|10,2:0|2:0|2:0,0:0:0:0:
310,134,98170,2,0,L|320:254,1,121.000003692627,10|8,2:0|0:0,0:0:0:0:
214,314,98920,2,0,L|224:193,1,121.000003692627,10|2,0:0|0:0,0:0:0:0:
198,138,99482,1,8,0:0:0:0:
138,125,99670,6,0,B|78:137|78:137|19:122,1,121.000003692627,14|8,0:0|0:0,0:0:0:0:
94,26,100420,2,0,L|163:20,1,60.5000018463135,0|2,0:2|0:2,0:0:0:0:
212,36,100795,2,0,L|272:40,1,60.5000018463135,2|10,2:0|2:0,0:0:0:0:
332,36,101170,2,0,P|354:91|351:151,1,121.000003692627,10|8,2:0|0:0,0:0:0:0:
246,192,101920,2,0,P|223:247|226:307,1,121.000003692627,10|2,0:0|0:0,0:0:0:0:
278,336,102482,1,8,0:0:0:0:
334,357,102670,6,0,L|452:332,1,121.000003692627,14|8,0:0|0:0,0:0:0:0:
496,219,103420,2,0,L|481:160,1,60.5000018463135,0|2,0:0|2:0,0:0:0:0:
424,137,103795,2,0,L|405:76,1,60.5000018463135,2|10,2:0|2:0,0:0:0:0:
351,51,104170,1,10,2:0:0:0:
255,125,104545,1,8,0:0:0:0:
160,49,104920,2,0,P|101:41|43:56,1,121.000003692627,10|2,0:0|0:0,0:0:0:0:
12,108,105482,1,8,0:0:0:0:
16,168,105670,6,0,P|39:223|19:307,1,121.000003692627,14|8,0:0|0:0,0:0:0:0:
152,308,106420,2,0,P|143:347|149:382,2,60.5000018463135,10|0|10,0:0|0:0|0:0,0:0:0:0:
256,192,107170,12,2,108670,0:0:0:0:
