osu file format v14

[General]
AudioFilename: audio.mp3
AudioLeadIn: 0
PreviewTime: -1
Countdown: 0
SampleSet: None
StackLeniency: 0.7
Mode: 0
LetterboxInBreaks: 1
WidescreenStoryboard: 1

[Editor]
Bookmarks: 31657
DistanceSpacing: 3.5
BeatDivisor: 4
GridSize: 4
TimelineZoom: 3.2

[Metadata]
Title:Candy (Nightcore Mix)
TitleUnicode:Candy (Nightcore Mix)
Artist:S3RL feat Sara
ArtistUnicode:S3RL feat Sara
Creator:I suck at names
Version:lsan ed it again
Source:
Tags:S3rl feat Sara Candy (Nightcore MIx)
BeatmapID:2547284
BeatmapSetID:979809

[Difficulty]
HPDrainRate:7
CircleSize:4
OverallDifficulty:9
ApproachRate:9
SliderMultiplier:2
SliderTickRate:1

[Events]
//Background and Video events
0,0,"99bafd4e6bad5f7cbf6d67db48557408.jpg",0,0
//Break Periods
2,125682,134444
//Storyboard Layer 0 (Background)
//Storyboard Layer 1 (Fail)
//Storyboard Layer 2 (Pass)
//Storyboard Layer 3 (Foreground)
//Storyboard Layer 4 (Overlay)
//Storyboard Sound Samples

[TimingPoints]
1200,596.409561752988,4,1,0,70,1,0
20285,-83.3333333333333,4,1,0,70,0,0
29865,298.804780876494,4,1,0,70,1,0
48988,-100,4,1,0,70,0,1
68112,-100,4,1,0,70,0,0
77982,-100,4,1,0,70,0,1
96657,-100,4,1,0,70,0,0
106359,-133.333333333333,4,1,0,70,0,0
117115,-100,4,1,0,70,0,0
135044,-83.3333333333333,4,1,0,70,0,0
164924,-83.3333333333333,4,1,0,70,0,1

[HitObjects]
90,148,1198,6,0,B|170:124|170:124|150:116|142:108,1,100
421,259,1796,2,0,B|341:235|341:235|361:227|369:219,1,100
81,348,2392,2,0,B|241:328|241:328|217:312|213:288,1,200
478,37,3585,6,0,B|406:84|406:84|430:85|446:101,1,100
130,168,4182,2,0,B|201:215|201:215|178:216|162:232,1,100
476,294,4778,2,0,B|409:347|409:347|432:346|449:360,1,100
34,348,5971,6,0,B|62:268|62:268|26:264,1,100
345,234,6567,2,0,B|317:154|317:154|353:150,1,100
33,115,7164,2,0,B|61:35|61:35|25:31,1,100
334,115,7760,2,0,B|306:35|306:35|342:31,1,100
91,225,8356,6,0,B|135:249|135:249|183:225,1,100
411,35,8953,1,0,0:0:0:0:
411,334,9251,1,0,0:0:0:0:
167,158,9549,2,0,B|211:134|211:134|259:158,1,100
76,28,10742,6,0,L|120:60,1,50
198,113,11040,1,0,0:0:0:0:
116,57,11189,1,0,0:0:0:0:
198,113,11338,2,0,L|158:165,1,50
141,249,11637,2,0,L|193:289,1,50
278,258,11935,2,0,B|326:194|326:194|338:218,1,100
309,308,12382,1,0,0:0:0:0:
415,287,12531,2,0,B|367:351|367:351|355:327,1,100
329,134,13128,5,0,0:0:0:0:
129,134,13426,1,0,0:0:0:0:
183,50,13575,1,0,0:0:0:0:
236,134,13724,1,0,0:0:0:0:
129,302,14022,1,0,0:0:0:0:
329,302,14321,1,0,0:0:0:0:
329,102,14619,2,0,B|377:38|377:38,1,50
267,102,14917,2,0,B|203:54|203:54,2,50
95,225,15513,6,0,B|167:225,1,50
139,127,15812,1,0,0:0:0:0:
215,225,15961,1,0,0:0:0:0:
139,127,16110,6,0,L|195:127,1,50
291,55,16408,1,0,0:0:0:0:
289,179,16557,1,0,0:0:0:0:
359,179,16706,6,0,L|419:179,1,50
441,58,17004,1,0,0:0:0:0:
480,176,17153,1,0,0:0:0:0:
441,295,17303,2,0,B|369:339|369:339|369:299,1,100
166,176,17899,6,0,L|90:160,1,50
291,169,18197,1,0,0:0:0:0:
117,165,18346,1,0,0:0:0:0:
205,316,18495,1,0,0:0:0:0:
408,169,18794,1,0,0:0:0:0:
224,338,19092,2,0,L|156:306,1,50
83,169,19390,1,0,0:0:0:0:
213,53,19539,1,0,0:0:0:0:
344,169,19688,1,0,0:0:0:0:
213,285,19837,6,0,L|129:273,1,50
289,285,20136,1,0,0:0:0:0:
83,169,20285,2,0,B|107:73|107:73|127:105,1,119.999996337891
83,267,20732,1,0,0:0:0:0:
260,296,20881,2,0,L|320:248,1,59.9999981689454
455,157,21179,2,0,B|457:60|457:60|431:85,1,119.999996337891
152,293,21776,6,0,L|92:341,1,59.9999981689454
283,349,22074,2,0,B|179:341|179:341|223:313,1,119.999996337891
436,68,22670,2,0,L|508:8,1,59.9999981689454
360,200,22968,1,0,0:0:0:0:
164,120,23118,1,0,0:0:0:0:
360,120,23267,2,0,B|428:56|428:56|424:104,1,119.999996337891
164,265,23863,2,0,B|96:329|96:329|100:281,1,119.999996337891
442,62,24459,1,0,0:0:0:0:
442,273,24609,1,0,0:0:0:0:
115,273,25056,6,0,B|35:309|35:309|43:273,1,119.999996337891
164,112,25503,1,0,0:0:0:0:
233,309,25652,2,0,B|153:273|153:273|161:309,1,119.999996337891
254,108,26100,1,0,0:0:0:0:
233,316,26249,2,0,P|257:272|297:268,1,59.9999981689454
127,108,26547,2,0,P|151:152|191:156,1,59.9999981689454
364,192,26845,2,0,L|440:192,2,59.9999981689454
152,208,27442,6,0,B|128:108|128:108|108:120,1,119.999996337891
302,208,27889,1,0,0:0:0:0:
475,89,28038,2,0,L|407:133,1,59.9999981689454
226,191,28336,1,0,0:0:0:0:
419,272,28485,1,0,0:0:0:0:
226,191,28634,2,0,L|170:267,1,59.9999981689454
112,64,28933,2,0,L|36:8,1,59.9999981689454
61,238,29231,1,0,0:0:0:0:
468,340,29529,1,0,0:0:0:0:
164,50,29827,6,0,P|104:50|56:26,1,100
216,177,30163,2,0,P|160:189|116:249,1,100
463,108,30462,2,0,P|439:60|387:32,1,100
130,260,30761,2,0,P|126:316|58:356,1,100
448,349,31060,5,0,0:0:0:0:
409,304,31134,1,0,0:0:0:0:
396,246,31209,1,0,0:0:0:0:
411,188,31284,1,0,0:0:0:0:
426,131,31359,2,0,P|424:77|400:16,1,100
125,235,31657,6,0,P|145:307|129:343,1,100
424,124,31956,2,0,P|460:64|452:16,1,100
252,320,32255,1,0,0:0:0:0:
125,36,32404,1,0,0:0:0:0:
364,320,32554,2,0,P|400:260|392:212,1,100
125,36,32853,2,0,P|145:108|129:144,1,100
481,190,33151,1,0,0:0:0:0:
129,190,33301,1,0,0:0:0:0:
447,43,33450,5,0,0:0:0:0:
484,84,33525,1,0,0:0:0:0:
496,137,33600,1,0,0:0:0:0:
481,190,33674,1,0,0:0:0:0:
468,243,33749,2,0,P|468:291|490:346,1,100
201,132,34048,1,0,0:0:0:0:
474,348,34197,1,0,0:0:0:0:
122,348,34347,6,0,P|66:344|14:316,1,100
317,132,34645,1,0,0:0:0:0:
26,325,34795,1,0,0:0:0:0:
358,219,34944,6,0,P|415:213|475:185,1,100
130,60,35243,1,0,0:0:0:0:
479,60,35392,1,0,0:0:0:0:
165,219,35542,2,0,P|109:214|53:182,1,100
39,170,35841,5,0,0:0:0:0:
80,206,35915,1,0,0:0:0:0:
133,218,35990,1,0,0:0:0:0:
186,204,36065,1,0,0:0:0:0:
237,183,36139,2,0,P|267:169|298:169,1,50
342,170,36289,2,0,P|381:178|412:209,1,50
439,214,36438,2,0,P|478:280|443:346,1,150
274,351,36737,6,0,P|226:371|150:375,1,100
172,376,37036,1,0,0:0:0:0:
28,248,37335,1,0,0:0:0:0:
172,133,37633,2,0,P|160:65|170:17,1,100
443,248,37932,2,0,P|451:318|465:350,1,100
172,133,38231,5,0,0:0:0:0:
194,178,38306,1,0,0:0:0:0:
237,207,38380,1,0,0:0:0:0:
288,213,38455,1,0,0:0:0:0:
335,193,38530,1,0,0:0:0:0:
443,248,38679,1,0,0:0:0:0:
91,248,38829,1,0,0:0:0:0:
278,29,38978,1,0,0:0:0:0:
211,105,39127,5,0,0:0:0:0:
311,226,39277,1,0,0:0:0:0:
158,183,39426,1,0,0:0:0:0:
304,130,39576,1,0,0:0:0:0:
218,256,39725,1,0,0:0:0:0:
278,29,39874,5,0,0:0:0:0:
295,327,40024,1,0,0:0:0:0:
111,91,40173,1,0,0:0:0:0:
391,174,40323,1,0,0:0:0:0:
119,270,40472,1,0,0:0:0:0:
391,28,40621,6,0,P|335:11|275:55,1,100
386,139,40920,2,0,P|454:164|515:105,1,150
357,319,41219,2,0,P|426:334|467:395,1,100
183,301,41518,2,0,P|147:355|82:377,1,100
188,150,41817,2,0,P|168:85|116:54,1,100
0,106,42115,2,0,P|22:176|80:212,1,100
186,277,42414,5,0,0:0:0:0:
395,326,42564,1,0,0:0:0:0:
328,132,42713,1,0,0:0:0:0:
126,89,42863,1,0,0:0:0:0:
190,4,43012,1,0,0:0:0:0:
257,189,43161,1,0,0:0:0:0:
390,37,43311,1,0,0:0:0:0:
457,224,43460,1,0,0:0:0:0:
257,189,43610,1,0,0:0:0:0:
324,384,43759,1,0,0:0:0:0:
162,353,43908,6,0,P|102:318|59:272,1,100
43,248,44132,1,0,0:0:0:0:
24,195,44207,1,0,0:0:0:0:
21,141,44282,1,0,0:0:0:0:
37,88,44357,1,0,0:0:0:0:
74,48,44431,1,0,0:0:0:0:
126,31,44506,1,0,0:0:0:0:
179,42,44581,1,0,0:0:0:0:
217,80,44655,1,0,0:0:0:0:
241,130,44730,1,0,0:0:0:0:
260,182,44805,5,0,0:0:0:0:
281,232,44879,1,0,0:0:0:0:
312,277,44954,1,0,0:0:0:0:
356,309,45029,1,0,0:0:0:0:
410,315,45104,1,0,0:0:0:0:
459,292,45178,1,0,0:0:0:0:
493,250,45253,1,0,0:0:0:0:
511,197,45328,1,0,0:0:0:0:
510,143,45402,6,0,P|502:112|489:90,1,50
454,52,45552,2,0,P|427:37|401:29,1,50
352,33,45701,2,0,P|326:46|304:68,1,50
269,108,45851,2,0,P|251:139|242:174,1,50
229,210,46000,5,0,0:0:0:0:
205,260,46075,1,0,0:0:0:0:
168,298,46149,1,0,0:0:0:0:
114,307,46224,1,0,0:0:0:0:
66,282,46299,1,0,0:0:0:0:
35,237,46373,1,0,0:0:0:0:
20,184,46448,1,0,0:0:0:0:
17,129,46523,1,0,0:0:0:0:
39,77,46598,5,0,0:0:0:0:
75,39,46672,1,0,0:0:0:0:
125,20,46747,1,0,0:0:0:0:
179,11,46822,1,0,0:0:0:0:
232,17,46896,1,0,0:0:0:0:
286,25,46971,1,0,0:0:0:0:
335,48,47046,1,0,0:0:0:0:
378,82,47120,1,0,0:0:0:0:
405,121,47195,6,0,P|414:152|418:187,1,50
416,228,47345,2,0,P|410:258|392:284,1,50
355,313,47494,2,0,P|326:324|295:324,1,50
251,311,47643,2,0,P|229:297|207:271,1,50
188,229,47793,6,0,P|155:131|279:45,1,250
336,58,48241,6,0,P|394:79|443:122,1,100
455,139,48465,1,0,0:0:0:0:
457,154,48540,1,0,0:0:0:0:
459,171,48615,1,0,0:0:0:0:
462,187,48689,1,0,0:0:0:0:
465,204,48764,1,0,0:0:0:0:
467,220,48839,1,0,0:0:0:0:
470,236,48913,1,0,0:0:0:0:
471,280,48988,6,0,P|436:350|432:403,1,100
348,192,49287,2,0,P|297:218|229:205,1,100
282,142,49586,2,0,P|228:142|186:177,1,100
242,27,49884,2,0,P|188:22|134:-13,1,100
494,63,50183,5,0,0:0:0:0:
452,99,50258,1,0,0:0:0:0:
432,150,50333,1,0,0:0:0:0:
434,206,50407,1,0,0:0:0:0:
447,258,50482,2,0,P|463:318|506:372,1,100
158,306,50781,2,0,P|208:331|298:324,1,150
290,233,51080,2,0,P|368:223|418:175,1,150
364,117,51378,1,0,0:0:0:0:
484,360,51677,1,0,0:0:0:0:
512,176,51976,6,0,P|479:122|443:87,1,100
261,59,52275,2,0,P|337:95|373:158,1,150
420,296,52574,5,0,0:0:0:0:
374,335,52648,1,0,0:0:0:0:
316,348,52723,1,0,0:0:0:0:
259,333,52798,1,0,0:0:0:0:
201,318,52872,2,0,P|148:318|88:342,1,100
10,187,53171,2,0,P|50:131|106:107,1,100
213,66,53470,1,0,0:0:0:0:
44,336,53769,1,0,0:0:0:0:
217,384,53918,1,0,0:0:0:0:
375,325,54068,6,0,B|375:182,1,100
256,233,54366,2,0,B|256:104,1,100
136,325,54665,2,0,B|136:169,1,150
156,88,54964,5,0,0:0:0:0:
199,50,55039,1,0,0:0:0:0:
254,37,55114,1,0,0:0:0:0:
312,46,55188,1,0,0:0:0:0:
365,66,55263,2,0,P|408:97|422:179,1,100
272,344,55562,2,0,P|204:360|160:342,1,100
56,184,55861,2,0,P|61:124|101:84,1,100
204,12,56159,5,0,0:0:0:0:
176,148,56309,1,0,0:0:0:0:
144,284,56458,2,0,P|224:296|256:284,1,100
312,320,56757,2,0,P|368:272|376:228,1,100
448,200,57056,2,0,P|416:152|368:120,1,100
216,28,57355,6,0,L|256:76,1,50
292,112,57504,2,0,L|256:72,1,50
216,132,57653,2,0,L|256:180,1,50
288,216,57803,2,0,L|252:176,1,50
216,240,57952,2,0,L|256:288,1,50
288,324,58102,2,0,L|252:284,1,50
216,348,58251,1,0,0:0:0:0:
336,272,58400,1,0,0:0:0:0:
476,360,58550,6,0,P|486:273|481:220,1,100
404,216,58849,2,0,P|400:144|376:86,1,100
282,64,59147,2,0,L|300:121,1,50
159,170,59297,2,0,L|141:115,1,50
220,117,59446,2,0,B|260:234,1,100
296,312,59745,5,0,0:0:0:0:
242,358,59820,1,0,0:0:0:0:
174,374,59894,1,0,0:0:0:0:
107,355,59969,1,0,0:0:0:0:
48,316,60044,2,0,P|22:285|2:213,1,100
120,52,60343,2,0,P|72:92|48:148,1,100
164,296,60641,2,0,P|120:244|120:184,1,100
284,96,60940,2,0,P|222:134|193:187,1,100
366,287,61239,2,0,P|298:244|282:149,1,150
88,77,61538,6,0,P|132:112|143:192,1,100
188,248,61837,2,0,P|228:212|244:141,1,100
292,40,62135,1,0,0:0:0:0:
362,45,62210,1,0,0:0:0:0:
422,82,62285,1,0,0:0:0:0:
456,143,62360,1,0,0:0:0:0:
470,212,62434,2,0,P|466:252|429:317,1,100
328,360,62733,5,0,0:0:0:0:
44,272,63032,1,0,0:0:0:0:
268,64,63331,1,0,0:0:0:0:
316,212,63480,1,0,0:0:0:0:
156,172,63629,1,0,0:0:0:0:
356,352,63928,1,0,0:0:0:0:
52,276,64227,1,0,0:0:0:0:
40,280,64526,5,0,0:0:0:0:
94,326,64601,1,0,0:0:0:0:
162,342,64675,1,0,0:0:0:0:
229,323,64750,1,0,0:0:0:0:
288,284,64825,2,0,P|314:253|368:232,1,100
432,164,65123,2,0,P|368:144|308:168,1,100
392,20,65422,2,0,P|332:36|260:8,1,100
80,32,65721,6,0,P|84:92|72:152,1,100
180,128,66020,2,0,P|168:184|124:256,1,100
256,232,66319,2,0,P|228:292|192:320,1,100
88,368,66617,1,0,0:0:0:0:
306,358,66916,5,0,0:0:0:0:
354,305,66991,1,0,0:0:0:0:
398,247,67066,1,0,0:0:0:0:
438,190,67140,1,0,0:0:0:0:
477,133,67215,2,0,L|477:23,1,100
336,190,67514,2,0,L|336:74,1,100
188,256,67813,2,0,L|188:128,1,100
142,201,68112,6,0,P|95:131|30:108,1,150
262,112,68410,2,0,P|271:37|322:-8,1,100
234,335,68709,2,0,P|182:376|103:376,1,100
386,230,69008,2,0,P|427:179|427:100,1,100
380,19,69307,1,0,0:0:0:0:
419,139,69456,1,0,0:0:0:0:
328,240,69606,1,0,0:0:0:0:
414,360,69755,1,0,0:0:0:0:
328,240,69904,6,0,P|260:235|179:244,1,150
188,110,70203,2,0,B|120:110|120:110|68:114,1,100
188,110,70502,2,0,P|168:46|160:-2,1,100
38,342,70801,1,0,0:0:0:0:
260,202,70950,1,0,0:0:0:0:
456,57,71100,6,0,P|504:85|508:141,1,100
260,202,71398,2,0,P|204:206|172:262,1,100
164,36,71697,2,0,P|56:76|24:192,1,200
0,288,72145,5,0,0:0:0:0:
132,344,72295,2,0,P|188:372|268:356,1,100
372,356,72594,1,0,0:0:0:0:
472,208,72743,1,0,0:0:0:0:
267,66,72892,5,0,0:0:0:0:
237,81,72966,1,0,0:0:0:0:
208,97,73041,1,0,0:0:0:0:
180,114,73116,1,0,0:0:0:0:
151,129,73190,1,0,0:0:0:0:
122,145,73265,1,0,0:0:0:0:
94,162,73340,1,0,0:0:0:0:
65,178,73414,1,0,0:0:0:0:
37,193,73489,5,0,0:0:0:0:
55,210,73564,1,0,0:0:0:0:
83,226,73639,1,0,0:0:0:0:
112,241,73713,1,0,0:0:0:0:
140,258,73788,1,0,0:0:0:0:
170,273,73863,1,0,0:0:0:0:
199,289,73937,1,0,0:0:0:0:
228,306,74012,1,0,0:0:0:0:
256,321,74087,1,0,0:0:0:0:
368,316,74237,5,0,0:0:0:0:
156,308,74386,1,0,0:0:0:0:
272,144,74536,1,0,0:0:0:0:
152,8,74685,6,0,P|64:16|12:124,1,200
0,272,75133,2,0,L|60:296,1,50
80,228,75283,2,0,L|140:248,1,50
156,180,75432,2,0,L|216:196,1,50
196,264,75582,2,0,L|260:284,1,50
228,344,75731,2,0,L|288:364,1,50
312,296,75880,2,0,L|372:316,1,50
388,252,76030,2,0,L|448:272,1,50
424,336,76179,2,0,L|484:356,1,50
484,208,76329,6,0,L|456:152,1,50
384,176,76478,2,0,L|328:64,1,100
256,144,76777,1,0,0:0:0:0:
144,112,76926,1,0,0:0:0:0:
7,182,77076,5,0,0:0:0:0:
22,235,77150,1,0,0:0:0:0:
48,282,77225,1,0,0:0:0:0:
87,318,77300,1,0,0:0:0:0:
137,338,77374,1,0,0:0:0:0:
189,345,77449,1,0,0:0:0:0:
244,345,77524,1,0,0:0:0:0:
296,343,77599,2,0,P|332:332|360:292,1,50
508,296,77823,1,0,0:0:0:0:
448,136,77972,6,0,L|448:8,1,100
268,248,78271,2,0,L|268:120,1,100
64,208,78570,2,0,L|64:76,1,100
248,48,78868,5,0,0:0:0:0:
284,89,78943,1,0,0:0:0:0:
296,142,79018,1,0,0:0:0:0:
282,195,79093,1,0,0:0:0:0:
268,248,79167,2,0,L|269:369,1,100
308,96,79466,2,0,L|308:224,1,100
32,184,79765,2,0,L|32:300,1,100
164,344,80064,1,0,0:0:0:0:
276,256,80213,1,0,0:0:0:0:
200,132,80363,1,0,0:0:0:0:
320,40,80512,1,0,0:0:0:0:
392,64,80661,6,0,L|416:120,1,50
300,164,80811,2,0,L|276:108,1,50
348,120,80960,2,0,L|400:248,1,100
482,308,81259,5,0,0:0:0:0:
443,341,81334,1,0,0:0:0:0:
394,352,81408,1,0,0:0:0:0:
345,339,81483,1,0,0:0:0:0:
296,327,81558,2,0,P|244:307|183:328,1,100
40,244,81857,2,0,P|92:228|148:232,1,100
192,120,82155,2,0,P|144:108|92:116,2,100
364,184,82604,1,0,0:0:0:0:
464,272,82753,2,0,P|496:228|492:176,1,100
456,40,83052,1,0,0:0:0:0:
260,148,83201,1,0,0:0:0:0:
84,40,83351,6,0,P|56:88|52:168,1,100
35,310,83649,1,0,0:0:0:0:
77,347,83724,1,0,0:0:0:0:
130,359,83799,1,0,0:0:0:0:
185,350,83873,1,0,0:0:0:0:
234,324,83948,2,0,P|289:303|333:232,1,100
415,288,84247,2,0,P|428:226|381:166,1,100
474,124,84546,2,0,P|393:56|369:58,1,100
365,129,84845,2,0,P|310:162|239:145,1,100
288,48,85143,6,0,P|228:24|176:44,1,100
188,204,85442,2,0,P|136:256|128:316,1,100
148,120,85741,2,0,P|88:108|36:72,1,100
256,148,86040,2,0,B|300:212|300:212|312:168,1,100
312,80,86339,2,0,B|348:12|348:12|316:12,1,100
224,64,86637,2,0,B|160:28|160:28|160:64,1,100
164,128,86936,1,0,0:0:0:0:
88,208,87086,1,0,0:0:0:0:
208,272,87235,1,0,0:0:0:0:
92,340,87384,1,0,0:0:0:0:
256,344,87534,6,0,L|300:240,1,100
428,216,87833,2,0,L|476:100,1,100
148,168,88131,2,0,L|192:68,1,100
57,15,88430,5,0,0:0:0:0:
21,57,88505,1,0,0:0:0:0:
9,110,88580,1,0,0:0:0:0:
18,165,88654,1,0,0:0:0:0:
40,214,88729,2,0,P|61:269|131:313,1,100
212,264,89028,2,0,P|296:276|320:272,1,100
336,184,89327,2,0,P|388:140|412:76,1,100
428,4,89625,5,0,0:0:0:0:
84,100,89924,1,0,0:0:0:0:
292,228,90223,1,0,0:0:0:0:
212,292,90372,1,0,0:0:0:0:
264,356,90522,2,0,P|320:368|364:360,1,100
459,268,90821,5,0,0:0:0:0:
494,228,90895,1,0,0:0:0:0:
505,177,90970,1,0,0:0:0:0:
497,124,91045,1,0,0:0:0:0:
480,73,91119,2,0,P|446:22|371:10,1,100
256,0,91418,5,0,0:0:0:0:
48,120,91568,1,0,0:0:0:0:
256,252,91717,1,0,0:0:0:0:
344,224,92016,2,0,L|344:344,1,100
168,224,92315,2,0,L|168:344,1,100
464,120,92614,1,0,0:0:0:0:
256,0,92763,1,0,0:0:0:0:
256,252,92912,1,0,0:0:0:0:
351,49,93211,5,0,0:0:0:0:
309,12,93286,1,0,0:0:0:0:
256,0,93361,1,0,0:0:0:0:
201,9,93435,1,0,0:0:0:0:
148,27,93510,2,0,P|95:57|38:115,1,100
72,220,93809,2,0,L|72:340,1,100
200,132,94108,2,0,L|200:260,1,100
304,272,94406,2,0,B|304:420,1,100
404,48,94705,2,0,B|404:172,1,100
468,192,95004,2,0,L|468:136,1,50
340,144,95153,2,0,L|340:212,1,50
404,216,95303,2,0,B|408:332,1,100
256,359,95602,5,0,0:0:0:0:
256,302,95676,1,0,0:0:0:0:
256,244,95751,1,0,0:0:0:0:
256,187,95826,1,0,0:0:0:0:
256,130,95900,2,0,L|256:11,1,100
160,192,96199,2,0,L|160:84,1,100
348,288,96498,2,0,L|348:160,1,100
356,21,96797,5,0,0:0:0:0:
446,190,96946,1,0,0:0:0:0:
254,192,97096,1,0,0:0:0:0:
152,21,97245,1,0,0:0:0:0:
62,190,97394,1,0,0:0:0:0:
254,192,97544,1,0,0:0:0:0:
164,349,97693,1,0,0:0:0:0:
355,349,97843,1,0,0:0:0:0:
255,192,97992,2,0,L|256:152,4,25
147,227,98291,5,0,0:0:0:0:
147,376,98440,1,0,0:0:0:0:
0,376,98590,1,0,0:0:0:0:
0,227,98739,1,0,0:0:0:0:
148,151,98888,1,0,0:0:0:0:
7,151,99038,1,0,0:0:0:0:
7,11,99187,1,0,0:0:0:0:
148,11,99337,1,0,0:0:0:0:
148,151,99486,1,0,0:0:0:0:
148,301,99635,1,0,0:0:0:0:
359,227,99785,5,0,0:0:0:0:
359,378,99934,1,0,0:0:0:0:
509,378,100084,1,0,0:0:0:0:
509,227,100233,1,0,0:0:0:0:
359,165,100382,1,0,0:0:0:0:
508,165,100532,1,0,0:0:0:0:
508,17,100681,1,0,0:0:0:0:
359,17,100831,1,0,0:0:0:0:
256,60,100980,6,0,L|255:96,4,25
208,128,101279,1,0,0:0:0:0:
304,128,101428,1,0,0:0:0:0:
256,176,101578,2,0,L|256:284,1,100
104,272,101876,1,0,0:0:0:0:
104,160,102026,1,0,0:0:0:0:
104,44,102175,1,0,0:0:0:0:
292,32,102325,6,0,L|292:148,1,100
420,108,102623,2,0,L|420:220,1,100
180,192,102922,2,0,L|180:312,1,100
344,236,103221,2,0,L|344:344,1,100
11,20,103520,2,0,L|11:159,1,100
11,198,103744,5,0,0:0:0:0:
11,255,103819,1,0,0:0:0:0:
11,313,103893,1,0,0:0:0:0:
11,370,103968,1,0,0:0:0:0:
272,336,104117,2,0,L|272:216,1,100
168,208,104416,2,0,L|168:96,1,100
368,132,104715,2,0,L|368:16,1,100
476,276,105014,2,0,L|476:156,1,100
344,124,105313,6,0,L|267:47,1,100
160,140,105612,2,0,L|83:63,1,100
192,332,105910,2,0,L|115:255,1,100
228,104,106359,6,0,B|99:71|99:71|116:96,1,150.000005722046
168,196,106807,1,0,0:0:0:0:
100,280,106956,2,0,B|228:312|228:312|212:288,1,150.000005722046
332,56,107554,6,0,B|388:28|388:28|384:44,1,75.0000028610231
372,124,107853,1,0,0:0:0:0:
352,200,108002,1,0,0:0:0:0:
332,272,108151,2,0,B|208:320|208:320|232:280,1,150.000005722046
20,52,108749,2,0,L|100:116,1,75.0000028610231
148,64,109048,1,0,0:0:0:0:
76,176,109197,1,0,0:0:0:0:
204,192,109347,2,0,L|140:140,2,75.0000028610231
412,320,109944,6,2,L|472:256,1,75.0000028610231
348,232,110243,2,2,L|288:176,1,75.0000028610231
136,160,110542,1,2,0:0:0:0:
352,104,110691,2,0,L|352:28,1,75.0000028610231
24,32,111139,6,0,L|100:76,1,75.0000028610231
172,40,111438,1,0,0:0:0:0:
108,160,111588,1,0,0:0:0:0:
192,128,111737,2,0,L|268:172,1,75.0000028610231
332,128,112036,1,0,0:0:0:0:
264,248,112185,1,0,0:0:0:0:
348,216,112335,2,0,B|434:267|434:267|372:284,1,150.000005722046
112,320,112932,6,0,B|64:332|64:332|100:244,1,112.500004291535
168,40,113530,1,0,0:0:0:0:
180,288,113829,1,0,0:0:0:0:
400,160,114127,2,0,L|488:168,1,75.0000028610231
316,272,114426,2,0,L|352:348,1,75.0000028610231
456,288,114725,2,0,L|316:184,1,150.000005722046
240,116,115173,1,0,0:0:0:0:
136,40,115323,2,0,B|100:16|100:16|84:140,1,150.000005722046
28,308,115920,6,0,B|84:356|84:356|192:332,1,150.000005722046
248,200,116368,1,0,0:0:0:0:
344,40,116518,2,0,B|420:24|420:24|492:76,1,150.000005722046
404,112,116966,1,0,0:0:0:0:
512,160,117115,2,0,L|420:224,1,100
292,112,117414,2,0,L|352:216,1,100
368,272,117713,2,0,B|292:264|292:264|344:352|344:352|256:340,1,250
64,296,118311,5,0,0:0:0:0:
180,56,118610,1,0,0:0:0:0:
284,60,118759,1,0,0:0:0:0:
372,104,118908,2,0,L|492:164,1,100
416,14,119207,2,0,L|356:134,1,100
348,331,119506,2,0,B|282:260|282:260|320:231|320:231|314:132,1,200
242,340,120104,1,0,0:0:0:0:
391,106,120253,1,0,0:0:0:0:
28,28,120701,6,0,L|52:140,1,100
0,216,121000,1,0,0:0:0:0:
132,172,121149,1,0,0:0:0:0:
108,352,121299,2,0,L|84:246,1,100
224,208,121598,1,0,0:0:0:0:
336,52,121747,2,0,B|363:132|363:132|397:149|397:149|423:227,1,200
432,336,122195,2,0,L|300:312,1,100
100,288,122494,1,0,0:0:0:0:
252,120,122643,1,0,0:0:0:0:
192,60,123092,6,0,L|120:148,1,100
324,80,123390,2,0,L|360:192,1,100
340,332,123689,1,0,0:0:0:0:
112,296,123839,1,0,0:0:0:0:
248,168,123988,1,0,0:0:0:0:
436,288,124287,6,0,L|436:176,1,100
348,232,124586,1,0,0:0:0:0:
232,224,124735,2,0,L|319:136,1,100
400,88,125034,1,0,0:0:0:0:
100,228,125333,1,0,0:0:0:0:
24,352,125482,1,0,0:0:0:0:
9,183,135044,6,0,P|-3:244|18:319,1,119.999996337891
80,148,135343,2,0,P|102:68|163:29,1,119.999996337891
146,236,135641,2,0,P|137:310|168:368,1,119.999996337891
224,116,135940,1,0,0:0:0:0:
284,276,136090,1,0,0:0:0:0:
340,64,136239,1,0,0:0:0:0:
404,344,136388,1,0,0:0:0:0:
448,24,136538,6,0,P|428:96|372:132,1,119.999996337891
448,360,136837,2,0,P|428:288|372:252,1,119.999996337891
284,312,137135,2,0,P|225:265|159:269,1,119.999996337891
32,300,137434,1,0,0:0:0:0:
92,132,137584,1,0,0:0:0:0:
212,336,137733,1,0,0:0:0:0:
256,76,137882,1,0,0:0:0:0:
424,232,138032,2,0,P|402:311|340:351,1,119.999996337891
252,263,138331,2,0,P|180:303|108:287,1,119.999996337891
125,193,138629,2,0,P|45:171|6:109,1,119.999996337891
96,88,138928,5,0,0:0:0:0:
284,32,139078,1,0,0:0:0:0:
505,28,139227,2,0,L|505:192,1,119.999996337891
251,115,139526,2,0,L|251:288,1,119.999996337891
380,196,139825,2,0,L|380:374,1,119.999996337891
136,43,140123,2,0,L|136:211,1,119.999996337891
35,162,140422,2,0,L|35:306,1,119.999996337891
136,344,140721,2,0,P|172:344|204:320,1,59.9999981689454
240,304,140870,2,0,P|252:272|260:216,1,59.9999981689454
260,200,141020,5,0,0:0:0:0:
268,141,141095,1,0,0:0:0:0:
305,94,141169,1,0,0:0:0:0:
360,71,141244,1,0,0:0:0:0:
419,78,141319,1,0,0:0:0:0:
467,112,141393,1,0,0:0:0:0:
492,166,141468,1,0,0:0:0:0:
487,225,141543,1,0,0:0:0:0:
476,239,141617,5,0,0:0:0:0:
455,247,141692,1,0,0:0:0:0:
