osu file format v14

[General]
AudioFilename: audio 1.300x.mp3
AudioLeadIn: 0
PreviewTime: 0
Countdown: 0
SampleSet: Normal
StackLeniency: 0.7
Mode: 0
LetterboxInBreaks: 1
WidescreenStoryboard: 1

[Editor]
Bookmarks: 31657
DistanceSpacing: 3.5
BeatDivisor: 4
GridSize: 4
TimelineZoom: 3.2

[Metadata]
Title:Candy (Nightcore Mix)
TitleUnicode:Candy (Nightcore Mix)
Artist:S3RL feat Sara
ArtistUnicode:S3RL feat Sara
Creator:I suck at names
Version:lsan ed it again 1.3x (261bpm) AR10 OD9
Source:
Tags:S3rl feat Sara Candy (Nightcore MIx) osutrainer
BeatmapID:2050550
BeatmapSetID:979809

[Difficulty]
HPDrainRate:2
CircleSize:4.2
OverallDifficulty:10
ApproachRate:10
SliderMultiplier:2
SliderTickRate:1

[Events]
//Background and Video events
0,0,"99bafd4e6bad5f7cbf6d67db48557408.jpg",0,0
//Break Periods
2,96724,103418
//Storyboard Layer 0 (Background)
//Storyboard Layer 1 (Fail)
//Storyboard Layer 2 (Pass)
//Storyboard Layer 3 (Foreground)
//Storyboard Layer 4 (Overlay)
//Storyboard Sound Samples

[TimingPoints]
923,458.776585963837,4,1,0,70,1,0
15603,-83.3333333333333,4,1,0,70,0,0
22973,229.849831443457,4,1,0,70,1,0
37683,-100,4,1,0,70,0,1
52393,-100,4,1,0,70,0,0
59986,-100,4,1,0,70,0,1
74351,-100,4,1,0,70,0,0
81814,-133.333333333333,4,1,0,70,0,0
90088,-100,4,1,0,70,0,0
103880,-83.3333333333333,4,1,0,70,0,0
126864,-83.3333333333333,4,1,0,70,0,1

[HitObjects]
90,148,921,6,0,B|170:124|170:124|150:116|142:108,1,100
421,259,1381,2,0,B|341:235|341:235|361:227|369:219,1,100
81,348,1840,2,0,B|241:328|241:328|217:312|213:288,1,200
478,37,2757,6,0,B|406:84|406:84|430:85|446:101,1,100
130,168,3216,2,0,B|201:215|201:215|178:216|162:232,1,100
476,294,3675,2,0,B|409:347|409:347|432:346|449:360,1,100
34,348,4593,6,0,B|62:268|62:268|26:264,1,100
345,234,5051,2,0,B|317:154|317:154|353:150,1,100
33,115,5510,2,0,B|61:35|61:35|25:31,1,100
334,115,5969,2,0,B|306:35|306:35|342:31,1,100
91,225,6427,6,0,B|135:249|135:249|183:225,1,100
411,35,6886,1,0,0:0:0:0:
411,334,7116,1,0,0:0:0:0:
167,158,7345,2,0,B|211:134|211:134|259:158,1,100
76,28,8263,6,0,L|120:60,1,50
198,113,8492,1,0,0:0:0:0:
116,57,8606,1,0,0:0:0:0:
198,113,8721,2,0,L|158:165,1,50
141,249,8951,2,0,L|193:289,1,50
278,258,9180,2,0,B|326:194|326:194|338:218,1,100
309,308,9524,1,0,0:0:0:0:
415,287,9639,2,0,B|367:351|367:351|355:327,1,100
329,134,10098,5,0,0:0:0:0:
129,134,10327,1,0,0:0:0:0:
183,50,10442,1,0,0:0:0:0:
236,134,10556,1,0,0:0:0:0:
129,302,10786,1,0,0:0:0:0:
329,302,11016,1,0,0:0:0:0:
329,102,11245,2,0,B|377:38|377:38,1,50
267,102,11474,2,0,B|203:54|203:54,2,50
95,225,11933,6,0,B|167:225,1,50
139,127,12163,1,0,0:0:0:0:
215,225,12277,1,0,0:0:0:0:
139,127,12392,6,0,L|195:127,1,50
291,55,12621,1,0,0:0:0:0:
289,179,12736,1,0,0:0:0:0:
359,179,12850,6,0,L|419:179,1,50
441,58,13080,1,0,0:0:0:0:
480,176,13194,1,0,0:0:0:0:
441,295,13310,2,0,B|369:339|369:339|369:299,1,100
166,176,13768,6,0,L|90:160,1,50
291,169,13997,1,0,0:0:0:0:
117,165,14112,1,0,0:0:0:0:
205,316,14226,1,0,0:0:0:0:
408,169,14456,1,0,0:0:0:0:
224,338,14686,2,0,L|156:306,1,50
83,169,14915,1,0,0:0:0:0:
213,53,15030,1,0,0:0:0:0:
344,169,15144,1,0,0:0:0:0:
213,285,15259,6,0,L|129:273,1,50
289,285,15489,1,0,0:0:0:0:
83,169,15603,2,0,B|107:73|107:73|127:105,1,119.999996337891
83,267,15947,1,0,0:0:0:0:
260,296,16062,2,0,L|320:248,1,59.9999981689454
455,157,16291,2,0,B|457:60|457:60|431:85,1,119.999996337891
152,293,16750,6,0,L|92:341,1,59.9999981689454
283,349,16980,2,0,B|179:341|179:341|223:313,1,119.999996337891
436,68,17438,2,0,L|508:8,1,59.9999981689454
360,200,17667,1,0,0:0:0:0:
164,120,17783,1,0,0:0:0:0:
360,120,17897,2,0,B|428:56|428:56|424:104,1,119.999996337891
164,265,18356,2,0,B|96:329|96:329|100:281,1,119.999996337891
442,62,18814,1,0,0:0:0:0:
442,273,18930,1,0,0:0:0:0:
115,273,19273,6,0,B|35:309|35:309|43:273,1,119.999996337891
164,112,19617,1,0,0:0:0:0:
233,309,19732,2,0,B|153:273|153:273|161:309,1,119.999996337891
254,108,20076,1,0,0:0:0:0:
233,316,20191,2,0,P|257:272|297:268,1,59.9999981689454
127,108,20420,2,0,P|151:152|191:156,1,59.9999981689454
364,192,20650,2,0,L|440:192,2,59.9999981689454
152,208,21109,6,0,B|128:108|128:108|108:120,1,119.999996337891
302,208,21453,1,0,0:0:0:0:
475,89,21567,2,0,L|407:133,1,59.9999981689454
226,191,21796,1,0,0:0:0:0:
419,272,21911,1,0,0:0:0:0:
226,191,22026,2,0,L|170:267,1,59.9999981689454
112,64,22256,2,0,L|36:8,1,59.9999981689454
61,238,22485,1,0,0:0:0:0:
468,340,22714,1,0,0:0:0:0:
164,50,22943,6,0,P|104:50|56:26,1,100
216,177,23202,2,0,P|160:189|116:249,1,100
463,108,23432,2,0,P|439:60|387:32,1,100
130,260,23662,2,0,P|126:316|58:356,1,100
448,349,23892,5,0,0:0:0:0:
409,304,23949,1,0,0:0:0:0:
396,246,24006,1,0,0:0:0:0:
411,188,24064,1,0,0:0:0:0:
426,131,24122,2,0,P|424:77|400:16,1,100
125,235,24351,6,0,P|145:307|129:343,1,100
424,124,24581,2,0,P|460:64|452:16,1,100
252,320,24811,1,0,0:0:0:0:
125,36,24926,1,0,0:0:0:0:
364,320,25041,2,0,P|400:260|392:212,1,100
125,36,25271,2,0,P|145:108|129:144,1,100
481,190,25500,1,0,0:0:0:0:
129,190,25616,1,0,0:0:0:0:
447,43,25730,5,0,0:0:0:0:
484,84,25788,1,0,0:0:0:0:
496,137,25846,1,0,0:0:0:0:
481,190,25903,1,0,0:0:0:0:
468,243,25960,2,0,P|468:291|490:346,1,100
201,132,26190,1,0,0:0:0:0:
474,348,26305,1,0,0:0:0:0:
122,348,26420,6,0,P|66:344|14:316,1,100
317,132,26650,1,0,0:0:0:0:
26,325,26765,1,0,0:0:0:0:
358,219,26880,6,0,P|415:213|475:185,1,100
130,60,27110,1,0,0:0:0:0:
479,60,27224,1,0,0:0:0:0:
165,219,27340,2,0,P|109:214|53:182,1,100
39,170,27570,5,0,0:0:0:0:
80,206,27626,1,0,0:0:0:0:
133,218,27684,1,0,0:0:0:0:
186,204,27742,1,0,0:0:0:0:
237,183,27799,2,0,P|267:169|298:169,1,50
342,170,27914,2,0,P|381:178|412:209,1,50
439,214,28029,2,0,P|478:280|443:346,1,150
274,351,28259,6,0,P|226:371|150:375,1,100
172,376,28489,1,0,0:0:0:0:
28,248,28719,1,0,0:0:0:0:
172,133,28948,2,0,P|160:65|170:17,1,100
443,248,29178,2,0,P|451:318|465:350,1,100
172,133,29408,5,0,0:0:0:0:
194,178,29466,1,0,0:0:0:0:
237,207,29523,1,0,0:0:0:0:
288,213,29580,1,0,0:0:0:0:
335,193,29638,1,0,0:0:0:0:
443,248,29753,1,0,0:0:0:0:
91,248,29868,1,0,0:0:0:0:
278,29,29983,1,0,0:0:0:0:
211,105,30097,5,0,0:0:0:0:
311,226,30213,1,0,0:0:0:0:
158,183,30327,1,0,0:0:0:0:
304,130,30443,1,0,0:0:0:0:
218,256,30557,1,0,0:0:0:0:
278,29,30672,5,0,0:0:0:0:
295,327,30787,1,0,0:0:0:0:
111,91,30902,1,0,0:0:0:0:
391,174,31017,1,0,0:0:0:0:
119,270,31132,1,0,0:0:0:0:
391,28,31246,6,0,P|335:11|275:55,1,100
386,139,31476,2,0,P|454:164|515:105,1,150
357,319,31706,2,0,P|426:334|467:395,1,100
183,301,31936,2,0,P|147:355|82:377,1,100
188,150,32166,2,0,P|168:85|116:54,1,100
0,106,32396,2,0,P|22:176|80:212,1,100
186,277,32626,5,0,0:0:0:0:
395,326,32741,1,0,0:0:0:0:
328,132,32856,1,0,0:0:0:0:
126,89,32971,1,0,0:0:0:0:
190,4,33086,1,0,0:0:0:0:
257,189,33200,1,0,0:0:0:0:
390,37,33316,1,0,0:0:0:0:
457,224,33430,1,0,0:0:0:0:
257,189,33546,1,0,0:0:0:0:
324,384,33660,1,0,0:0:0:0:
162,353,33775,6,0,P|102:318|59:272,1,100
43,248,33947,1,0,0:0:0:0:
24,195,34005,1,0,0:0:0:0:
21,141,34063,1,0,0:0:0:0:
37,88,34120,1,0,0:0:0:0:
74,48,34177,1,0,0:0:0:0:
126,31,34235,1,0,0:0:0:0:
179,42,34293,1,0,0:0:0:0:
217,80,34350,1,0,0:0:0:0:
241,130,34407,1,0,0:0:0:0:
260,182,34465,5,0,0:0:0:0:
281,232,34522,1,0,0:0:0:0:
312,277,34580,1,0,0:0:0:0:
356,309,34637,1,0,0:0:0:0:
410,315,34695,1,0,0:0:0:0:
459,292,34752,1,0,0:0:0:0:
493,250,34810,1,0,0:0:0:0:
511,197,34867,1,0,0:0:0:0:
510,143,34924,6,0,P|502:112|489:90,1,50
454,52,35040,2,0,P|427:37|401:29,1,50
352,33,35154,2,0,P|326:46|304:68,1,50
269,108,35270,2,0,P|251:139|242:174,1,50
229,210,35384,5,0,0:0:0:0:
205,260,35442,1,0,0:0:0:0:
168,298,35499,1,0,0:0:0:0:
114,307,35556,1,0,0:0:0:0:
66,282,35614,1,0,0:0:0:0:
35,237,35671,1,0,0:0:0:0:
20,184,35729,1,0,0:0:0:0:
17,129,35786,1,0,0:0:0:0:
39,77,35844,5,0,0:0:0:0:
75,39,35901,1,0,0:0:0:0:
125,20,35959,1,0,0:0:0:0:
179,11,36016,1,0,0:0:0:0:
232,17,36073,1,0,0:0:0:0:
286,25,36131,1,0,0:0:0:0:
335,48,36189,1,0,0:0:0:0:
378,82,36246,1,0,0:0:0:0:
405,121,36303,6,0,P|414:152|418:187,1,50
416,228,36419,2,0,P|410:258|392:284,1,50
355,313,36533,2,0,P|326:324|295:324,1,50
251,311,36648,2,0,P|229:297|207:271,1,50
188,229,36763,6,0,P|155:131|279:45,1,250
336,58,37108,6,0,P|394:79|443:122,1,100
455,139,37280,1,0,0:0:0:0:
457,154,37338,1,0,0:0:0:0:
459,171,37396,1,0,0:0:0:0:
462,187,37453,1,0,0:0:0:0:
465,204,37510,1,0,0:0:0:0:
467,220,37568,1,0,0:0:0:0:
470,236,37625,1,0,0:0:0:0:
471,280,37683,6,0,P|436:350|432:403,1,100
348,192,37913,2,0,P|297:218|229:205,1,100
282,142,38143,2,0,P|228:142|186:177,1,100
242,27,38372,2,0,P|188:22|134:-13,1,100
494,63,38602,5,0,0:0:0:0:
452,99,38660,1,0,0:0:0:0:
432,150,38717,1,0,0:0:0:0:
434,206,38774,1,0,0:0:0:0:
447,258,38832,2,0,P|463:318|506:372,1,100
158,306,39062,2,0,P|208:331|298:324,1,150
290,233,39292,2,0,P|368:223|418:175,1,150
364,117,39521,1,0,0:0:0:0:
484,360,39751,1,0,0:0:0:0:
512,176,39981,6,0,P|479:122|443:87,1,100
261,59,40211,2,0,P|337:95|373:158,1,150
420,296,40441,5,0,0:0:0:0:
374,335,40498,1,0,0:0:0:0:
316,348,40556,1,0,0:0:0:0:
259,333,40613,1,0,0:0:0:0:
201,318,40670,2,0,P|148:318|88:342,1,100
10,187,40900,2,0,P|50:131|106:107,1,100
213,66,41130,1,0,0:0:0:0:
44,336,41360,1,0,0:0:0:0:
217,384,41475,1,0,0:0:0:0:
375,325,41590,6,0,B|375:182,1,100
256,233,41820,2,0,B|256:104,1,100
136,325,42050,2,0,B|136:169,1,150
156,88,42280,5,0,0:0:0:0:
199,50,42337,1,0,0:0:0:0:
254,37,42395,1,0,0:0:0:0:
312,46,42452,1,0,0:0:0:0:
365,66,42510,2,0,P|408:97|422:179,1,100
272,344,42740,2,0,P|204:360|160:342,1,100
56,184,42970,2,0,P|61:124|101:84,1,100
204,12,43199,5,0,0:0:0:0:
176,148,43314,1,0,0:0:0:0:
144,284,43429,2,0,P|224:296|256:284,1,100
312,320,43659,2,0,P|368:272|376:228,1,100
448,200,43889,2,0,P|416:152|368:120,1,100
216,28,44119,6,0,L|256:76,1,50
292,112,44233,2,0,L|256:72,1,50
216,132,44348,2,0,L|256:180,1,50
288,216,44463,2,0,L|252:176,1,50
216,240,44578,2,0,L|256:288,1,50
288,324,44693,2,0,L|252:284,1,50
216,348,44808,1,0,0:0:0:0:
336,272,44923,1,0,0:0:0:0:
476,360,45038,6,0,P|486:273|481:220,1,100
404,216,45268,2,0,P|400:144|376:86,1,100
282,64,45497,2,0,L|300:121,1,50
159,170,45613,2,0,L|141:115,1,50
220,117,45727,2,0,B|260:234,1,100
296,312,45957,5,0,0:0:0:0:
242,358,46015,1,0,0:0:0:0:
174,374,46072,1,0,0:0:0:0:
107,355,46130,1,0,0:0:0:0:
48,316,46187,2,0,P|22:285|2:213,1,100
120,52,46417,2,0,P|72:92|48:148,1,100
164,296,46646,2,0,P|120:244|120:184,1,100
284,96,46876,2,0,P|222:134|193:187,1,100
366,287,47106,2,0,P|298:244|282:149,1,150
88,77,47336,6,0,P|132:112|143:192,1,100
188,248,47566,2,0,P|228:212|244:141,1,100
292,40,47796,1,0,0:0:0:0:
362,45,47853,1,0,0:0:0:0:
422,82,47911,1,0,0:0:0:0:
456,143,47969,1,0,0:0:0:0:
470,212,48026,2,0,P|466:252|429:317,1,100
328,360,48256,5,0,0:0:0:0:
44,272,48486,1,0,0:0:0:0:
268,64,48716,1,0,0:0:0:0:
316,212,48830,1,0,0:0:0:0:
156,172,48945,1,0,0:0:0:0:
356,352,49175,1,0,0:0:0:0:
52,276,49405,1,0,0:0:0:0:
40,280,49635,5,0,0:0:0:0:
94,326,49693,1,0,0:0:0:0:
162,342,49750,1,0,0:0:0:0:
229,323,49807,1,0,0:0:0:0:
288,284,49865,2,0,P|314:253|368:232,1,100
432,164,50094,2,0,P|368:144|308:168,1,100
392,20,50324,2,0,P|332:36|260:8,1,100
80,32,50554,6,0,P|84:92|72:152,1,100
180,128,50784,2,0,P|168:184|124:256,1,100
256,232,51014,2,0,P|228:292|192:320,1,100
88,368,51243,1,0,0:0:0:0:
306,358,51473,5,0,0:0:0:0:
354,305,51531,1,0,0:0:0:0:
398,247,51589,1,0,0:0:0:0:
438,190,51646,1,0,0:0:0:0:
477,133,51703,2,0,L|477:23,1,100
336,190,51933,2,0,L|336:74,1,100
188,256,52163,2,0,L|188:128,1,100
142,201,52393,6,0,P|95:131|30:108,1,150
262,112,52623,2,0,P|271:37|322:-8,1,100
234,335,52853,2,0,P|182:376|103:376,1,100
386,230,53083,2,0,P|427:179|427:100,1,100
380,19,53313,1,0,0:0:0:0:
419,139,53427,1,0,0:0:0:0:
328,240,53543,1,0,0:0:0:0:
414,360,53657,1,0,0:0:0:0:
328,240,53772,6,0,P|260:235|179:244,1,150
188,110,54002,2,0,B|120:110|120:110|68:114,1,100
188,110,54232,2,0,P|168:46|160:-2,1,100
38,342,54462,1,0,0:0:0:0:
260,202,54576,1,0,0:0:0:0:
456,57,54692,6,0,P|504:85|508:141,1,100
260,202,54921,2,0,P|204:206|172:262,1,100
164,36,55151,2,0,P|56:76|24:192,1,200
0,288,55496,5,0,0:0:0:0:
132,344,55611,2,0,P|188:372|268:356,1,100
372,356,55841,1,0,0:0:0:0:
472,208,55956,1,0,0:0:0:0:
267,66,56070,5,0,0:0:0:0:
237,81,56127,1,0,0:0:0:0:
208,97,56185,1,0,0:0:0:0:
180,114,56243,1,0,0:0:0:0:
151,129,56300,1,0,0:0:0:0:
122,145,56357,1,0,0:0:0:0:
94,162,56415,1,0,0:0:0:0:
65,178,56472,1,0,0:0:0:0:
37,193,56530,5,0,0:0:0:0:
55,210,56587,1,0,0:0:0:0:
83,226,56645,1,0,0:0:0:0:
112,241,56702,1,0,0:0:0:0:
140,258,56760,1,0,0:0:0:0:
170,273,56817,1,0,0:0:0:0:
199,289,56874,1,0,0:0:0:0:
228,306,56932,1,0,0:0:0:0:
256,321,56990,1,0,0:0:0:0:
368,316,57105,5,0,0:0:0:0:
156,308,57220,1,0,0:0:0:0:
272,144,57335,1,0,0:0:0:0:
152,8,57450,6,0,P|64:16|12:124,1,200
0,272,57794,2,0,L|60:296,1,50
80,228,57910,2,0,L|140:248,1,50
156,180,58024,2,0,L|216:196,1,50
196,264,58140,2,0,L|260:284,1,50
228,344,58254,2,0,L|288:364,1,50
312,296,58369,2,0,L|372:316,1,50
388,252,58484,2,0,L|448:272,1,50
424,336,58599,2,0,L|484:356,1,50
484,208,58714,6,0,L|456:152,1,50
384,176,58829,2,0,L|328:64,1,100
256,144,59059,1,0,0:0:0:0:
144,112,59173,1,0,0:0:0:0:
7,182,59289,5,0,0:0:0:0:
22,235,59346,1,0,0:0:0:0:
48,282,59403,1,0,0:0:0:0:
87,318,59461,1,0,0:0:0:0:
137,338,59518,1,0,0:0:0:0:
189,345,59576,1,0,0:0:0:0:
244,345,59633,1,0,0:0:0:0:
296,343,59691,2,0,P|332:332|360:292,1,50
508,296,59863,1,0,0:0:0:0:
448,136,59978,6,0,L|448:8,1,100
268,248,60208,2,0,L|268:120,1,100
64,208,60438,2,0,L|64:76,1,100
248,48,60667,5,0,0:0:0:0:
284,89,60725,1,0,0:0:0:0:
296,142,60783,1,0,0:0:0:0:
282,195,60840,1,0,0:0:0:0:
268,248,60897,2,0,L|269:369,1,100
308,96,61127,2,0,L|308:224,1,100
32,184,61357,2,0,L|32:300,1,100
164,344,61587,1,0,0:0:0:0:
276,256,61702,1,0,0:0:0:0:
200,132,61817,1,0,0:0:0:0:
320,40,61932,1,0,0:0:0:0:
392,64,62046,6,0,L|416:120,1,50
300,164,62162,2,0,L|276:108,1,50
348,120,62276,2,0,L|400:248,1,100
482,308,62506,5,0,0:0:0:0:
443,341,62564,1,0,0:0:0:0:
394,352,62621,1,0,0:0:0:0:
345,339,62679,1,0,0:0:0:0:
296,327,62736,2,0,P|244:307|183:328,1,100
40,244,62966,2,0,P|92:228|148:232,1,100
192,120,63196,2,0,P|144:108|92:116,2,100
364,184,63541,1,0,0:0:0:0:
464,272,63656,2,0,P|496:228|492:176,1,100
456,40,63886,1,0,0:0:0:0:
260,148,64000,1,0,0:0:0:0:
84,40,64116,6,0,P|56:88|52:168,1,100
35,310,64345,1,0,0:0:0:0:
77,347,64403,1,0,0:0:0:0:
130,359,64460,1,0,0:0:0:0:
185,350,64517,1,0,0:0:0:0:
234,324,64575,2,0,P|289:303|333:232,1,100
415,288,64805,2,0,P|428:226|381:166,1,100
474,124,65035,2,0,P|393:56|369:58,1,100
365,129,65265,2,0,P|310:162|239:145,1,100
288,48,65494,6,0,P|228:24|176:44,1,100
188,204,65724,2,0,P|136:256|128:316,1,100
148,120,65954,2,0,P|88:108|36:72,1,100
256,148,66184,2,0,B|300:212|300:212|312:168,1,100
312,80,66414,2,0,B|348:12|348:12|316:12,1,100
224,64,66643,2,0,B|160:28|160:28|160:64,1,100
164,128,66873,1,0,0:0:0:0:
88,208,66989,1,0,0:0:0:0:
208,272,67103,1,0,0:0:0:0:
92,340,67218,1,0,0:0:0:0:
256,344,67333,6,0,L|300:240,1,100
428,216,67563,2,0,L|476:100,1,100
148,168,67793,2,0,L|192:68,1,100
57,15,68023,5,0,0:0:0:0:
21,57,68080,1,0,0:0:0:0:
9,110,68138,1,0,0:0:0:0:
18,165,68195,1,0,0:0:0:0:
40,214,68253,2,0,P|61:269|131:313,1,100
212,264,68483,2,0,P|296:276|320:272,1,100
336,184,68713,2,0,P|388:140|412:76,1,100
428,4,68942,5,0,0:0:0:0:
84,100,69172,1,0,0:0:0:0:
292,228,69402,1,0,0:0:0:0:
212,292,69516,1,0,0:0:0:0:
264,356,69632,2,0,P|320:368|364:360,1,100
459,268,69862,5,0,0:0:0:0:
494,228,69919,1,0,0:0:0:0:
505,177,69976,1,0,0:0:0:0:
497,124,70034,1,0,0:0:0:0:
480,73,70091,2,0,P|446:22|371:10,1,100
256,0,70321,5,0,0:0:0:0:
48,120,70436,1,0,0:0:0:0:
256,252,70551,1,0,0:0:0:0:
344,224,70781,2,0,L|344:344,1,100
168,224,71011,2,0,L|168:344,1,100
464,120,71241,1,0,0:0:0:0:
256,0,71356,1,0,0:0:0:0:
256,252,71470,1,0,0:0:0:0:
351,49,71700,5,0,0:0:0:0:
309,12,71758,1,0,0:0:0:0:
256,0,71816,1,0,0:0:0:0:
201,9,71873,1,0,0:0:0:0:
148,27,71930,2,0,P|95:57|38:115,1,100
72,220,72160,2,0,L|72:340,1,100
200,132,72390,2,0,L|200:260,1,100
304,272,72620,2,0,B|304:420,1,100
404,48,72850,2,0,B|404:172,1,100
468,192,73080,2,0,L|468:136,1,50
340,144,73194,2,0,L|340:212,1,50
404,216,73310,2,0,B|408:332,1,100
256,359,73540,5,0,0:0:0:0:
256,302,73596,1,0,0:0:0:0:
256,244,73654,1,0,0:0:0:0:
256,187,73712,1,0,0:0:0:0:
256,130,73769,2,0,L|256:11,1,100
160,192,73999,2,0,L|160:84,1,100
348,288,74229,2,0,L|348:160,1,100
356,21,74459,5,0,0:0:0:0:
446,190,74573,1,0,0:0:0:0:
254,192,74689,1,0,0:0:0:0:
152,21,74803,1,0,0:0:0:0:
62,190,74918,1,0,0:0:0:0:
254,192,75033,1,0,0:0:0:0:
164,349,75148,1,0,0:0:0:0:
355,349,75263,1,0,0:0:0:0:
255,192,75378,2,0,L|256:152,4,25
147,227,75608,5,0,0:0:0:0:
147,376,75723,1,0,0:0:0:0:
0,376,75838,1,0,0:0:0:0:
0,227,75953,1,0,0:0:0:0:
148,151,76067,1,0,0:0:0:0:
7,151,76183,1,0,0:0:0:0:
7,11,76297,1,0,0:0:0:0:
148,11,76413,1,0,0:0:0:0:
148,151,76527,1,0,0:0:0:0:
148,301,76642,1,0,0:0:0:0:
359,227,76757,5,0,0:0:0:0:
359,378,76872,1,0,0:0:0:0:
509,378,76987,1,0,0:0:0:0:
509,227,77102,1,0,0:0:0:0:
359,165,77216,1,0,0:0:0:0:
508,165,77332,1,0,0:0:0:0:
508,17,77446,1,0,0:0:0:0:
359,17,77562,1,0,0:0:0:0:
256,60,77676,6,0,L|255:96,4,25
208,128,77906,1,0,0:0:0:0:
304,128,78021,1,0,0:0:0:0:
256,176,78136,2,0,L|256:284,1,100
104,272,78366,1,0,0:0:0:0:
104,160,78481,1,0,0:0:0:0:
104,44,78596,1,0,0:0:0:0:
292,32,78711,6,0,L|292:148,1,100
420,108,78940,2,0,L|420:220,1,100
180,192,79170,2,0,L|180:312,1,100
344,236,79400,2,0,L|344:344,1,100
11,20,79630,2,0,L|11:159,1,100
11,198,79803,5,0,0:0:0:0:
11,255,79860,1,0,0:0:0:0:
11,313,79917,1,0,0:0:0:0:
11,370,79975,1,0,0:0:0:0:
272,336,80090,2,0,L|272:216,1,100
168,208,80320,2,0,L|168:96,1,100
368,132,80550,2,0,L|368:16,1,100
476,276,80780,2,0,L|476:156,1,100
344,124,81010,6,0,L|267:47,1,100
160,140,81240,2,0,L|83:63,1,100
192,332,81469,2,0,L|115:255,1,100
228,104,81814,6,0,B|99:71|99:71|116:96,1,150.000005722046
168,196,82159,1,0,0:0:0:0:
100,280,82273,2,0,B|228:312|228:312|212:288,1,150.000005722046
332,56,82733,6,0,B|388:28|388:28|384:44,1,75.0000028610231
372,124,82963,1,0,0:0:0:0:
352,200,83078,1,0,0:0:0:0:
332,272,83193,2,0,B|208:320|208:320|232:280,1,150.000005722046
20,52,83653,2,0,L|100:116,1,75.0000028610231
148,64,83883,1,0,0:0:0:0:
76,176,83997,1,0,0:0:0:0:
204,192,84113,2,0,L|140:140,2,75.0000028610231
412,320,84572,6,2,L|472:256,1,75.0000028610231
348,232,84802,2,2,L|288:176,1,75.0000028610231
136,160,85032,1,2,0:0:0:0:
352,104,85146,2,0,L|352:28,1,75.0000028610231
24,32,85491,6,0,L|100:76,1,75.0000028610231
172,40,85721,1,0,0:0:0:0:
108,160,85836,1,0,0:0:0:0:
192,128,85951,2,0,L|268:172,1,75.0000028610231
332,128,86181,1,0,0:0:0:0:
264,248,86296,1,0,0:0:0:0:
348,216,86411,2,0,B|434:267|434:267|372:284,1,150.000005722046
112,320,86870,6,0,B|64:332|64:332|100:244,1,112.500004291535
168,40,87330,1,0,0:0:0:0:
180,288,87560,1,0,0:0:0:0:
400,160,87790,2,0,L|488:168,1,75.0000028610231
316,272,88020,2,0,L|352:348,1,75.0000028610231
456,288,88250,2,0,L|316:184,1,150.000005722046
240,116,88594,1,0,0:0:0:0:
136,40,88710,2,0,B|100:16|100:16|84:140,1,150.000005722046
28,308,89169,6,0,B|84:356|84:356|192:332,1,150.000005722046
248,200,89513,1,0,0:0:0:0:
344,40,89629,2,0,B|420:24|420:24|492:76,1,150.000005722046
404,112,89973,1,0,0:0:0:0:
512,160,90088,2,0,L|420:224,1,100
292,112,90318,2,0,L|352:216,1,100
368,272,90548,2,0,B|292:264|292:264|344:352|344:352|256:340,1,250
64,296,91008,5,0,0:0:0:0:
180,56,91238,1,0,0:0:0:0:
284,60,91353,1,0,0:0:0:0:
372,104,91467,2,0,L|492:164,1,100
416,14,91697,2,0,L|356:134,1,100
348,331,91927,2,0,B|282:260|282:260|320:231|320:231|314:132,1,200
242,340,92387,1,0,0:0:0:0:
391,106,92502,1,0,0:0:0:0:
28,28,92846,6,0,L|52:140,1,100
0,216,93076,1,0,0:0:0:0:
132,172,93191,1,0,0:0:0:0:
108,352,93306,2,0,L|84:246,1,100
224,208,93536,1,0,0:0:0:0:
336,52,93651,2,0,B|363:132|363:132|397:149|397:149|423:227,1,200
432,336,93996,2,0,L|300:312,1,100
100,288,94226,1,0,0:0:0:0:
252,120,94340,1,0,0:0:0:0:
192,60,94686,6,0,L|120:148,1,100
324,80,94915,2,0,L|360:192,1,100
340,332,95145,1,0,0:0:0:0:
112,296,95260,1,0,0:0:0:0:
248,168,95375,1,0,0:0:0:0:
436,288,95605,6,0,L|436:176,1,100
348,232,95835,1,0,0:0:0:0:
232,224,95950,2,0,L|319:136,1,100
400,88,96180,1,0,0:0:0:0:
100,228,96410,1,0,0:0:0:0:
24,352,96524,1,0,0:0:0:0:
9,183,103880,6,0,P|-3:244|18:319,1,119.999996337891
80,148,104110,2,0,P|102:68|163:29,1,119.999996337891
146,236,104339,2,0,P|137:310|168:368,1,119.999996337891
224,116,104569,1,0,0:0:0:0:
284,276,104684,1,0,0:0:0:0:
340,64,104799,1,0,0:0:0:0:
404,344,104913,1,0,0:0:0:0:
448,24,105029,6,0,P|428:96|372:132,1,119.999996337891
448,360,105259,2,0,P|428:288|372:252,1,119.999996337891
284,312,105488,2,0,P|225:265|159:269,1,119.999996337891
32,300,105718,1,0,0:0:0:0:
92,132,105833,1,0,0:0:0:0:
212,336,105948,1,0,0:0:0:0:
256,76,106063,1,0,0:0:0:0:
424,232,106178,2,0,P|402:311|340:351,1,119.999996337891
252,263,106408,2,0,P|180:303|108:287,1,119.999996337891
125,193,106637,2,0,P|45:171|6:109,1,119.999996337891
96,88,106867,5,0,0:0:0:0:
284,32,106983,1,0,0:0:0:0:
505,28,107097,2,0,L|505:192,1,119.999996337891
251,115,107327,2,0,L|251:288,1,119.999996337891
380,196,107557,2,0,L|380:374,1,119.999996337891
136,43,107786,2,0,L|136:211,1,119.999996337891
35,162,108016,2,0,L|35:306,1,119.999996337891
136,344,108246,2,0,P|172:344|204:320,1,59.9999981689454
240,304,108361,2,0,P|252:272|260:216,1,59.9999981689454
260,200,108476,5,0,0:0:0:0:
268,141,108534,1,0,0:0:0:0:
305,94,108591,1,0,0:0:0:0:
360,71,108649,1,0,0:0:0:0:
419,78,108706,1,0,0:0:0:0:
467,112,108763,1,0,0:0:0:0:
492,166,108821,1,0,0:0:0:0:
487,225,108879,1,0,0:0:0:0:
476,239,108936,5,0,0:0:0:0:
455,247,108993,1,0,0:0:0:0:
434,255,109051,1,0,0:0:0:0:
412,262,109109,1,0,0:0:0:0:
390,268,109166,1,0,0:0:0:0:
369,273,109223,1,0,0:0:0:0:
347,277,109281,1,0,0:0:0:0:
324,281,109338,1,0,0:0:0:0:
302,283,109396,5,0,0:0:0:0:
280,285,109453,1,0,0:0:0:0:
257,286,109511,1,0,0:0:0:0:
235,286,109568,1,0,0:0:0:0:
212,286,109626,1,0,0:0:0:0:
190,284,109683,1,0,0:0:0:0:
167,282,109740,1,0,0:0:0:0:
145,279,109798,1,0,0:0:0:0:
125,276,109856,5,0,0:0:0:0:
92,248,109913,1,0,0:0:0:0:
76,208,109970,1,0,0:0:0:0:
79,166,110028,1,0,0:0:0:0:
100,129,110086,1,0,0:0:0:0:
135,106,110143,1,0,0:0:0:0:
177,100,110200,1,0,0:0:0:0:
217,114,110258,1,0,0:0:0:0:
254,146,110315,6,0,P|271:175|290:207,3,59.9999981689454
321,230,110545,2,0,P|356:234|390:212,3,59.9999981689454
401,180,110775,2,0,P|403:146|373:98,3,59.9999981689454
357,87,111005,2,0,P|328:57|284:39,3,59.9999981689454
261,42,111235,6,0,P|148:78|91:165,1,179.999994506836
88,168,111464,1,0,0:0:0:0:
75,226,111522,1,0,0:0:0:0:
63,285,111580,1,0,0:0:0:0:
51,344,111636,1,0,0:0:0:0:
117,333,111694,2,0,L|176:320,1,59.9999981689454
163,256,111810,2,0,L|225:242,1,59.9999981689454
214,176,111924,2,0,L|272:162,1,59.9999981689454
263,94,112039,2,0,L|321:80,1,59.9999981689454
393,61,112154,6,0,L|393:181,1,119.999996337891
308,336,112384,2,0,L|308:208,1,119.999996337891
208,272,112613,2,0,L|208:136,1,119.999996337891
204,24,112843,1,0,0:0:0:0:
80,248,112959,1,0,0:0:0:0:
252,196,113073,2,0,L|228:116,1,59.9999981689454
409,148,113188,2,0,L|433:228,1,59.9999981689454
331,175,113303,2,0,L|367:295,1,119.999996337891
220,344,113533,2,0,L|184:224,1,119.999996337891
39,129,113763,5,0,0:0:0:0:
123,27,113878,1,0,0:0:0:0:
254,29,113993,2,0,L|403:44,1,119.999996337891
358,183,114223,2,0,L|506:198,1,119.999996337891
416,335,114453,2,0,L|296:323,1,119.999996337891
235,318,114625,1,0,0:0:0:0:
167,310,114683,2,0,L|47:298,1,119.999996337891
70,142,114912,2,0,L|115:75,1,59.9999981689454
181,110,115027,2,0,L|271:-21,1,119.999996337891
419,98,115257,5,0,0:0:0:0:
460,260,115372,2,0,L|400:288,3,59.9999981689454
376,227,115602,2,0,L|320:251,3,59.9999981689454
334,317,115832,2,0,L|220:367,1,119.999996337891
116,304,116061,2,0,L|2:354,1,119.999996337891
0,209,116291,2,0,L|116:156,1,119.999996337891
162,136,116463,1,0,0:0:0:0:
209,115,116521,2,0,L|298:76,1,59.9999981689454
311,68,116636,2,0,L|427:16,1,119.999996337891
125,320,116866,5,0,0:0:0:0:
478,320,116981,2,0,L|478:156,1,119.999996337891
311,255,117210,2,0,L|311:91,1,119.999996337891
31,359,117440,1,0,0:0:0:0:
35,32,117556,1,0,0:0:0:0:
47,150,117670,2,0,P|19:231|49:285,1,119.999996337891
215,82,117900,2,0,P|292:121|308:181,1,119.999996337891
253,346,118130,2,0,P|224:265|167:241,1,119.999996337891
406,313,118360,2,0,P|430:245|478:225,1,119.999996337891
476,168,118590,5,0,0:0:0:0:
400,68,118820,1,0,0:0:0:0:
312,232,119050,1,0,0:0:0:0:
216,36,119280,1,0,0:0:0:0:
44,56,119510,2,0,L|44:180,1,119.999996337891
168,192,119739,2,0,L|168:324,1,119.999996337891
300,248,119969,2,0,L|300:316,1,59.9999981689454
420,304,120084,2,0,L|420:240,1,59.9999981689454
360,276,120199,1,0,0:0:0:0:
456,56,120313,5,0,0:0:0:0:
288,108,120429,1,0,0:0:0:0:
136,112,120543,2,0,P|36:80|-16:44,1,119.999996337891
28,240,120773,1,0,0:0:0:0:
160,280,120888,2,0,P|240:284|292:268,1,119.999996337891
340,168,121118,2,0,P|408:148|472:152,1,119.999996337891
412,232,121348,5,0,0:0:0:0:
348,304,121463,1,0,0:0:0:0:
256,168,121578,1,0,0:0:0:0:
172,344,121693,1,0,0:0:0:0:
84,272,121808,6,0,L|4:164,1,119.999996337891
236,308,122037,1,0,0:0:0:0:
100,144,122153,2,0,L|20:36,1,119.999996337891
280,224,122383,2,0,L|200:116,1,119.999996337891
356,68,122612,2,0,L|427:164,1,119.999996337891
444,204,122784,5,0,0:0:0:0:
427,245,122842,1,0,0:0:0:0:
388,262,122900,1,0,0:0:0:0:
344,253,122957,1,0,0:0:0:0:
300,248,123014,1,0,0:0:0:0:
262,271,123072,1,0,0:0:0:0:
240,310,123130,1,0,0:0:0:0:
212,344,123186,6,0,P|140:356|100:320,1,119.999996337891
256,204,123416,2,0,P|185:138|153:138,1,119.999996337891
212,32,123646,2,0,P|288:100|332:88,1,119.999996337891
344,100,123819,1,0,0:0:0:0:
392,100,123876,2,0,P|468:144|476:192,1,119.999996337891
408,240,124106,6,0,P|392:300|340:340,1,119.999996337891
288,272,124336,2,0,P|194:293|144:260,1,119.999996337891
196,204,124566,2,0,P|130:169|101:116,1,119.999996337891
88,84,124738,1,0,0:0:0:0:
76,32,124796,1,0,0:0:0:0:
152,352,124910,1,0,0:0:0:0:
36,312,125026,6,0,L|36:176,1,119.999996337891
380,280,125256,2,0,L|380:120,1,119.999996337891
208,184,125485,2,0,L|208:24,1,119.999996337891
464,196,125715,6,0,L|464:60,1,119.999996337891
292,328,125945,2,0,L|292:168,1,119.999996337891
124,240,126175,2,0,L|124:80,1,119.999996337891
368,200,126405,2,0,L|368:40,1,119.999996337891
432,324,126634,1,0,0:0:0:0:
336,52,126864,6,0,P|393:100|428:193,1,119.999996337891
177,43,127094,2,0,P|125:83|81:166,1,119.999996337891
323,149,127324,2,0,P|358:254|358:298,1,119.999996337891
186,140,127554,2,0,P|133:237|125:289,1,119.999996337891
204,337,127783,6,0,P|137:301|45:284,1,119.999996337891
340,315,128013,2,0,P|390:253|450:218,1,119.999996337891
186,222,128243,2,0,P|120:164|102:125,1,119.999996337891
314,196,128473,2,0,P|340:103|318:46,1,119.999996337891
419,53,128703,6,0,P|331:32|247:40,1,119.999996337891
195,137,128933,2,0,P|283:137|363:169,1,119.999996337891
425,305,129163,2,0,P|362:267|286:254,1,119.999996337891
114,313,129393,2,0,P|218:321|260:338,1,119.999996337891
478,348,129623,2,0,P|382:340|342:324,1,119.999996337891
1,273,129853,2,0,P|61:301|121:313,1,119.999996337891
379,310,130083,2,0,P|370:222|335:165,1,119.999996337891
404,135,130312,2,0,P|353:95|289:94,1,119.999996337891
281,19,130542,2,0,P|214:32|169:74,1,119.999996337891
36,240,130772,6,0,P|7:364|21:408,1,119.999996337891
122,310,131002,2,0,P|122:210|148:160,1,119.999996337891
227,175,131232,2,0,P|224:265|253:348,1,119.999996337891
343,277,131461,2,0,P|316:210|321:123,1,119.999996337891
393,26,131691,2,0,P|392:96|415:168,1,119.999996337891
511,350,131921,2,0,P|513:272|477:193,1,119.999996337891
375,275,132151,2,0,P|338:227|288:195,1,119.999996337891
388,103,132381,1,0,0:0:0:0:
91,261,132610,1,0,0:0:0:0:
0,0,132840,5,0,0:0:0:0:
512,0,133070,1,0,0:0:0:0:
512,384,133300,1,0,0:0:0:0:
0,384,133530,1,0,0:0:0:0:
256,312,133760,2,0,B|212:220|308:164|256:72|256:72,1,239.999992675781
256,192,134220,12,0,134564,0:0:0:0:
199,321,134680,6,0,P|157:247|79:238,1,119.999996337891
336,307,134909,2,0,P|345:224|400:182,1,119.999996337891
79,36,135139,2,0,P|129:104|207:137,1,119.999996337891
364,13,135369,2,0,P|336:81|249:114,1,119.999996337891
368,200,135599,2,0,P|312:232|304:292,1,119.999996337891
121,99,135829,2,0,P|137:163|73:219,1,119.999996337891
387,135,136058,2,0,P|319:67|283:7,1,119.999996337891
124,362,136288,2,0,P|56:294|-4:258,1,119.999996337891
118,259,136518,6,0,P|110:167|126:115,1,119.999996337891
336,156,136748,2,0,P|344:64|328:12,1,119.999996337891
142,314,136978,2,0,P|34:270|2:222,1,119.999996337891
373,314,137207,2,0,P|481:270|513:222,1,119.999996337891
256,72,137437,2,0,B|212:164|308:220|256:312|256:312,1,239.999992675781
512,0,137897,1,0,0:0:0:0:
0,0,138127,1,0,0:0:0:0:
0,384,138357,1,0,0:0:0:0:
512,384,138586,1,0,0:0:0:0:
48,58,138816,6,0,L|202:121,1,119.999996337891
96,327,139046,2,0,L|250:390,1,119.999996337891
264,222,139276,2,0,L|418:284,1,119.999996337891
341,49,139506,2,0,L|494:111,1,119.999996337891
296,320,139736,2,0,L|424:372,1,119.999996337891
440,284,139966,1,0,0:0:0:0:
184,356,140081,1,0,0:0:0:0:
136,280,140196,2,0,P|268:220|292:208,1,119.999996337891
260,132,140426,2,0,P|392:72|416:60,1,119.999996337891
464,36,140656,1,0,0:0:0:0:
288,280,140828,1,0,0:0:0:0:
132,124,140943,1,0,0:0:0:0:
84,332,141057,2,0,B|76:257|92:227|116:248|120:288|120:288|162:287|187:309|155:327|84:332,1,269.999991760254
