osu file format v14

[General]
AudioFilename: S3RL-feat-Sara-Candy.mp3
AudioLeadIn: 0
PreviewTime: 188708
Countdown: 0
SampleSet: Normal
StackLeniency: 0.7
Mode: 0
LetterboxInBreaks: 1
WidescreenStoryboard: 0
SamplesMatchPlaybackRate: 1

[Editor]
Bookmarks: 87882,110510
DistanceSpacing: 1
BeatDivisor: 2
GridSize: 8
TimelineZoom: 1.6

[Metadata]
Title:Candy
TitleUnicode:Candy
Artist:S3RL feat Sara
ArtistUnicode:S3RL feat Sara
Creator:Loony Key
Version:Normal
Source:Emfa
Tags:english electro Electronic sweet lollipop sweet sweetmeat barley sugar confection, lollipops sweet-stuff
BeatmapID:940949
BeatmapSetID:436933

[Difficulty]
HPDrainRate:3
CircleSize:3
OverallDifficulty:3
ApproachRate:4
SliderMultiplier:0.8
SliderTickRate:1

[Events]
//Background and Video events
0,0,"pik4.jpg",0,0
//Break Periods
2,88568,109216
//Storyboard Layer 0 (Background)
//Storyboard Layer 1 (Fail)
//Storyboard Layer 2 (Pass)
//Storyboard Layer 3 (Foreground)
//Storyboard Layer 4 (Overlay)
//Storyboard Sound Samples

[TimingPoints]
137,342.857142857143,4,1,1,60,1,0
34043,-100,4,1,1,10,0,0
35929,-100,4,1,1,30,0,0
36958,-100,4,1,1,45,0,0
38158,-100,4,1,1,60,0,0
55679,-100,4,1,1,60,0,1
77279,-100,4,1,1,60,0,0
144786,-100,4,1,1,10,0,0
146158,-100,4,1,1,20,0,0
147529,-100,4,1,1,27,0,0
148900,-100,4,1,1,40,0,0
149929,-100,4,1,1,60,0,0
166765,-100,4,1,1,60,0,1
185965,-100,4,1,1,60,0,0

[Colours]
Combo1 : 213,106,0
Combo2 : 223,223,0
Combo3 : 193,0,0

[HitObjects]
180,273,822,6,0,B|90:326|21:305|-74:189|28:34|118:19|164:36,1,480
312,95,3565,6,0,B|383:107|412:150|427:193|389:303|389:303|323:328|219:247|258:171|358:210,1,480
188,102,6308,6,0,B|135:237|135:237|78:67|78:67|9:244,1,480
137,321,9051,6,0,B|384:316|384:316|389:126|294:125|295:281|280:279,1,480
144,219,11794,6,0,B|166:123|260:133|260:133|323:35,1,240
370,25,13165,1,0,0:0:0:0:
434,72,13508,1,0,0:0:0:0:
478,138,13851,1,0,0:0:0:0:
493,297,14536,6,0,B|341:350|341:350|388:288|333:200,1,320
277,146,16251,1,0,0:0:0:0:
209,103,16594,1,0,0:0:0:0:
63,37,17279,6,0,B|79:197|79:197|146:181|225:256,1,320
283,302,18994,2,0,P|321:335|381:349,1,80
476,250,20022,5,0,0:0:0:0:
411,202,20365,1,0,0:0:0:0:
340,164,20708,2,0,P|259:115|230:42,1,160
164,15,21736,1,0,0:0:0:0:
96,57,22079,1,0,0:0:0:0:
16,195,22765,6,0,P|50:262|143:273,1,160
207,265,23794,1,0,0:0:0:0:
277,228,24136,2,0,B|347:188|347:188|292:130|292:130|379:67,1,240
418,33,25508,5,0,0:0:0:0:
472,91,25851,1,0,0:0:0:0:
472,171,26194,1,0,0:0:0:0:
444,245,26536,1,0,0:0:0:0:
378,291,26879,2,0,B|318:331|283:244|209:264,1,160
71,272,28251,6,0,B|0:193|106:153|106:153|163:35,1,240
218,101,29622,2,0,B|289:180|183:220|183:220|126:338,1,240
219,328,30994,2,0,B|296:347|320:232|320:232|392:272|392:272|477:227,1,320
496,160,32708,1,0,0:0:0:0:
441,101,33051,1,0,0:0:0:0:
206,152,34079,5,0,0:0:0:0:
234,77,34422,1,0,0:0:0:0:
305,41,34765,1,0,0:0:0:0:
384,47,35108,2,0,B|383:106|322:133|320:202,1,160
270,253,36136,1,0,0:0:0:0:
237,180,36479,6,0,P|217:99|136:77,1,160
71,78,37508,1,0,0:0:0:0:
28,145,37851,2,0,P|20:201|52:232,1,80
70,228,38365,1,0,0:0:0:0:
110,208,38537,2,0,P|154:243|151:287,1,80
206,326,39222,6,0,B|279:357|279:357|311:317|285:283|285:283|359:150,1,240
364,144,40594,2,0,B|402:77|402:77|324:47|324:47|271:158|271:158,1,240
254,190,41965,2,0,B|221:261|221:261|176:193|176:193|88:279|87:279,1,240
115,328,43336,2,0,B|39:358|39:358|-8:295|-8:295|13:282|0:217,1,240
24,143,44708,6,0,B|56:95|144:31|336:-1|456:111|328:319|328:319|150:260|150:260|72:127|200:95|344:119|287:226|287:226|203:198,1,1200
256,192,50194,12,0,54308,0:0:0:0:
121,89,55679,6,0,B|133:168|133:168|212:162|212:162|223:212|286:224,1,240
341,244,57051,2,0,B|424:256|424:256|400:184|400:184|456:160|403:87,1,240
355,72,58422,5,0,0:0:0:0:
275,74,58765,1,0,0:0:0:0:
200,44,59108,2,0,P|156:35|119:75,1,80
92,124,59794,2,0,B|23:179|96:219|96:219|68:293|154:281,1,240
234,270,61165,6,0,P|280:255|313:205,1,80
347,167,61851,2,0,P|332:121|392:66,1,80
408,48,62536,2,0,B|485:96|431:147|431:147|491:189|382:266,1,240
341,276,63908,5,0,0:0:0:0:
265,249,64251,1,0,0:0:0:0:
255,169,64594,2,0,P|236:124|188:100,1,80
135,82,65279,2,0,P|92:153|186:299,1,240
188,301,66479,5,0,0:0:0:0:
227,308,66651,2,0,B|298:342|298:342|363:299|363:299|288:232,1,240
233,201,68022,1,0,0:0:0:0:
177,143,68365,1,0,0:0:0:0:
241,95,68708,1,0,0:0:0:0:
183,38,69051,1,0,0:0:0:0:
103,41,69394,6,0,B|34:78|34:78|49:162,2,160
182,34,71108,1,0,0:0:0:0:
257,61,71451,2,0,P|303:86|308:129,1,80
390,109,72136,6,0,P|406:73|443:60,2,80
381,188,73165,1,0,0:0:0:0:
383,268,73508,2,0,B|336:331|336:331|286:271|286:271|266:334|185:318,1,240
146,314,74879,6,0,B|64:309|64:309|100:262|65:241|65:241|137:186,1,240
202,164,76251,2,0,P|310:192|287:354,1,240
256,338,77622,6,0,P|128:317|95:126,1,320
157,175,79336,2,0,P|160:223|197:270,1,80
329,293,80365,6,0,P|390:291|292:228,1,320
257,285,82079,2,0,P|237:331|174:339,1,80
52,327,83108,6,0,B|7:326|0:62|206:370|250:242|343:109|-22:141,1,480
183,52,85851,2,0,P|244:40|293:185,1,240
253,242,87222,1,0,0:0:0:0:
189,291,87565,1,0,0:0:0:0:
144,357,87908,1,0,0:0:0:0:
384,120,110536,6,0,P|360:168|320:176,1,80
264,200,111222,2,0,P|229:219|217:256,1,80
264,320,111908,2,0,P|223:354|183:346,1,80
128,312,112594,1,0,0:0:0:0:
96,240,112936,1,0,0:0:0:0:
160,96,113622,5,0,0:0:0:0:
208,160,113965,2,0,B|236:178|236:178|296:176,1,80
360,176,114651,1,0,0:0:0:0:
328,104,114994,1,0,0:0:0:0:
272,48,115336,2,0,B|200:16|200:16|134:75,1,160
93,136,116365,6,0,B|52:186|74:208|74:208|93:233|5:304,2,200
145,75,118422,6,0,B|153:51|153:51|177:59|201:43|201:43|225:67,1,80
280,80,119108,1,0,0:0:0:0:
304,152,119451,1,0,0:0:0:0:
360,208,119794,2,0,B|384:240|384:240|360:248|368:272|368:272|336:272|296:344,1,160
260,384,120822,1,0,0:0:0:0:
136,280,121508,6,0,B|64:176|96:136|96:136|32:72,2,240
224,240,124251,6,0,B|152:136|184:96|184:96|126:38,2,240
328,360,126994,6,0,B|268:261|367:237|367:237|285:128,1,240
256,128,128365,2,0,P|188:122|196:219,1,160
304,288,129736,6,0,P|321:353|224:362,1,160
184,336,130765,1,0,0:0:0:0:
128,280,131108,2,0,B|80:224|119:198,1,80
152,144,131794,1,0,0:0:0:0:
256,24,132479,6,0,B|248:184|248:184|288:160|352:168,1,240
392,208,133851,6,0,L|392:312,2,80
360,48,135222,2,0,P|352:32|232:48,1,160
216,120,136251,1,0,0:0:0:0:
208,200,136594,2,0,B|208:240|208:240|264:208|320:288,1,160
448,360,137965,6,0,P|456:312|344:248,1,160
304,232,138994,1,0,0:0:0:0:
224,248,139336,1,0,0:0:0:0:
248,168,139679,2,0,P|236:122|197:105,1,80
56,48,140708,6,0,B|56:104|56:104|56:160|160:152,1,160
213,164,141736,1,0,0:0:0:0:
289,187,142079,2,0,B|289:239|289:239|289:295|210:288,1,160
376,47,144822,6,0,P|415:96|399:198,1,160
368,259,145851,2,0,B|323:326|323:326|275:279|252:292|252:292|257:213|257:213|203:134,1,320
47,99,147565,5,0,0:0:0:0:
59,178,147908,2,0,B|72:240|105:240,1,80
180,251,148594,1,0,0:0:0:0:
259,247,148936,2,0,B|299:242|299:242|294:203,2,80
180,251,149965,1,0,0:0:0:0:
108,216,150308,6,0,P|73:175|99:137,1,80
158,144,150994,2,0,P|193:103|167:65,1,80
143,15,151679,2,0,B|220:-16|314:17|376:121,1,240
365,167,153051,5,0,0:0:0:0:
329,238,153394,1,0,0:0:0:0:
274,179,153736,2,0,B|227:143|227:143|195:164,1,80
158,216,154422,2,0,P|120:298|266:334,1,240
268,292,155794,6,0,B|288:294|196:283|196:283|285:240|285:240|224:104|224:104|320:171|320:171|436:55|436:55|406:205|406:205|497:313|497:313|380:286|380:286|335:372|335:372|319:288,1,1200
256,192,161279,12,0,165394,0:0:0:0:
148,113,166765,5,0,0:0:0:0:
145,192,167108,2,0,L|185:275,2,80
75,152,168136,2,0,B|33:154|33:154|31:251,1,80
37,272,168822,2,0,P|59:304|117:311,1,80
177,313,169508,5,0,0:0:0:0:
244,270,169851,1,0,0:0:0:0:
261,191,170194,2,0,B|235:130|185:130|185:132,2,80
310,254,171222,1,0,0:0:0:0:
389,250,171565,2,0,B|425:219|463:248|463:248|505:163,1,160
509,98,172594,5,0,0:0:0:0:
489,20,172936,1,0,0:0:0:0:
427,72,173279,2,0,B|357:110|357:110|292:34,1,160
224,50,174308,1,0,0:0:0:0:
224,130,174651,1,0,0:0:0:0:
177,195,174994,6,0,B|163:248|174:263|174:263|259:296|259:296|284:292|321:193,1,240
257,169,176365,2,0,B|244:115|256:100|256:100|342:70|342:70|367:75|400:176,1,240
406,211,177736,6,0,B|418:264|361:304,1,80
305,302,178422,2,0,B|265:302|248:250,2,80
367,352,179451,1,0,0:0:0:0:
416,288,179794,1,0,0:0:0:0:
355,235,180136,6,0,B|343:182|400:142,2,80
282,269,181165,2,0,B|249:214|221:213|221:213|205:180|127:194,2,160
427,336,183222,6,0,L|454:240,1,80
371,236,183908,2,0,L|349:313,1,80
273,287,184594,2,0,L|294:209,1,80
218,186,185279,2,0,L|196:263,2,80
69,53,188708,6,0,P|76:115|232:78,1,240
157,67,190079,2,0,P|237:40|307:105,1,160
409,191,191451,2,0,P|437:280|306:298,1,240
316,233,192822,2,0,B|264:239|221:303|255:361,1,160
222,196,194194,6,0,P|197:100|243:84,2,160
296,224,195908,1,0,0:0:0:0:
376,222,196251,1,0,0:0:0:0:
511,135,196936,6,0,P|394:141|347:41,1,240
266,49,198308,1,0,0:0:0:0:
264,129,198651,1,0,0:0:0:0:
318,187,198994,2,0,B|371:211|348:282|348:281,1,80
333,330,199679,6,0,B|299:369|245:277|245:277|201:306|201:306|152:231,1,240
133,177,201051,1,0,0:0:0:0:
183,114,201394,1,0,0:0:0:0:
258,138,201736,1,0,0:0:0:0:
400,210,202422,6,0,B|329:173|329:173|367:102|367:102|287:60|287:60,1,240
219,44,203794,2,0,P|139:103|185:156,1,160
287,231,205165,6,0,B|325:243|350:279|350:279|385:247|462:234,1,160
432,164,206194,2,0,B|399:150|374:110|374:110|340:138|300:139,1,160
223,119,207222,1,0,0:0:0:0:
84,199,207908,6,0,B|-53:273|251:280|131:360,1,240
