osu file format v14

[General]
AudioFilename: S3RL-feat-Sara-Candy.mp3
AudioLeadIn: 0
PreviewTime: 188708
Countdown: 0
SampleSet: Normal
StackLeniency: 0.7
Mode: 0
LetterboxInBreaks: 1
SkinPreference:Default
WidescreenStoryboard: 0
SamplesMatchPlaybackRate: 1

[Editor]
Bookmarks: 45186,46901,87186,208901
DistanceSpacing: 1.2
BeatDivisor: 4
GridSize: 4
TimelineZoom: 2.4

[Metadata]
Title:Candy
TitleUnicode:Candy
Artist:S3RL feat Sara
ArtistUnicode:S3RL feat Sara
Creator:Loony Key
Version:Insane
Source:Emfa
Tags:english electro Electronic sweet lollipop sweet sweetmeat barley sugar confection, lollipops sweet-stuff
BeatmapID:941421
BeatmapSetID:436933

[Difficulty]
HPDrainRate:6
CircleSize:4
OverallDifficulty:6
ApproachRate:9
SliderMultiplier:1.4
SliderTickRate:1

[Events]
//Background and Video events
0,0,"pik4.jpg",0,0
//Break Periods
2,33822,34508
2,78308,87186
//Storyboard Layer 0 (Background)
//Storyboard Layer 1 (Fail)
//Storyboard Layer 2 (Pass)
//Storyboard Layer 3 (Foreground)
//Storyboard Layer 4 (Overlay)
//Storyboard Sound Samples

[TimingPoints]
137,342.857142857143,4,1,1,80,1,0
786,-166.666666666667,4,1,1,45,0,0
11072,-100,4,1,1,80,0,0
22729,-86.9565217391304,4,1,1,80,0,0
34043,-80,4,1,1,15,0,0
35929,-80,4,1,1,30,0,0
36958,-80,4,1,1,45,0,0
38158,-80,4,1,1,80,0,0
45186,-76.9230769230769,4,1,1,80,0,0
46215,-74.0740740740741,4,1,1,80,0,0
48272,-71.4285714285714,4,1,1,80,0,0
54958,-68.9655172413793,4,1,1,80,0,0
60308,-133.333333333333,4,1,1,80,0,0
60651,-68.9655172413793,4,1,1,80,0,0
67986,-66.6666666666667,4,1,1,80,0,0
68329,-68.9655172413793,4,1,1,80,0,0
70729,-66.6666666666667,4,1,1,80,0,0
71072,-68.9655172413793,4,1,1,80,0,0
72822,-50,4,1,1,80,0,0
73165,-68.9655172413793,4,1,1,80,0,0
77194,-133.333333333333,4,1,1,80,0,0
77622,-68.9655172413793,4,1,1,80,0,0
88594,-66.6666666666667,4,1,1,80,0,1
103679,-100,4,1,1,80,0,1
104022,-66.6666666666667,4,1,1,80,0,1
110537,-76.9230769230769,4,1,1,80,0,0
111872,-66.6666666666667,4,1,1,80,0,0
112215,-76.9230769230769,4,1,1,80,0,0
112901,-66.6666666666667,4,1,1,80,0,0
113072,-76.9230769230769,4,1,1,80,0,0
115300,-66.6666666666667,4,1,1,80,0,0
115472,-76.9230769230769,4,1,1,80,0,0
118386,-66.6666666666667,4,1,1,80,0,0
118558,-76.9230769230769,4,1,1,80,0,0
121472,-133.333333333333,4,1,1,80,0,0
132443,-66.6666666666667,4,1,1,80,0,0
132786,-100,4,1,1,80,0,0
133815,-76.9230769230769,4,1,1,80,0,0
144786,-100,4,1,1,15,0,0
146158,-100,4,1,1,25,0,0
147529,-100,4,1,1,35,0,0
148900,-100,4,1,1,50,0,0
149929,-100,4,1,1,80,0,0
155586,-66.6666666666667,4,1,1,80,0,0
155758,-90.9090909090909,4,1,1,80,0,0
157301,-83.3333333333333,4,1,1,80,0,0
158501,-76.9230769230769,4,1,1,80,0,0
159872,-71.4285714285714,4,1,1,80,0,0
165400,-68.9655172413793,4,1,1,40,0,0
166765,-66.6666666666667,4,1,1,80,0,1
175165,-125,4,1,1,80,0,0
177394,-58.8235294117647,4,1,1,80,0,1
185965,-100,4,1,1,80,0,0
188672,-83.3333333333333,4,1,1,80,0,0

[Colours]
Combo1 : 0,0,255
Combo2 : 0,255,128
Combo3 : 0,255,255

[HitObjects]
464,96,822,6,0,P|424:131|416:168,1,83.9999974365235
420,231,1337,1,0,0:0:0:0:
399,299,1508,2,0,P|375:333|338:350,1,83.9999974365235
194,344,2194,2,0,B|34:287|34:287|92:240|123:247,1,251.999992309571
242,203,3565,6,0,P|314:178|326:163,1,83.9999974365235
348,35,4251,2,0,B|351:-9|351:-9|390:-12|448:34|437:68|437:68|438:84|398:124|404:142|404:142|417:153|437:233,1,335.999989746094
209,37,6308,5,0,0:0:0:0:
85,294,6994,2,0,B|60:348|60:348|117:410|165:346,1,167.999994873047
412,96,8365,1,0,0:0:0:0:
436,242,9051,2,0,P|394:243|363:270,1,83.9999974365235
286,150,9737,2,0,P|228:160|199:135,1,83.9999974365235
114,41,10422,2,0,P|64:104|89:181,1,167.999994873047
426,58,11794,5,0,0:0:0:0:
226,234,12137,2,0,P|152:196|129:144,1,140,0|0,0:3|0:0,0:0:0:0:
381,234,12822,1,0,0:0:0:0:
229,32,13165,2,0,B|130:92|248:121,1,140
506,120,13851,1,0,0:0:0:0:
481,344,14537,6,0,P|433:273|361:235,1,140
318,237,15051,1,0,0:0:0:0:
249,252,15222,1,0,0:0:0:0:
442,69,15565,1,0,0:0:0:0:
431,334,15908,2,0,P|401:375|308:346,1,140
229,266,16422,1,0,0:0:0:0:
215,133,16594,2,0,L|210:76,2,35
229,266,16937,1,0,0:0:0:0:
469,343,17279,5,0,0:0:0:0:
469,343,17622,2,0,P|433:279|450:206,1,140
253,360,18308,1,0,0:0:0:0:
228,272,18479,1,0,0:0:0:0:
172,344,18651,1,0,0:0:0:0:
163,162,18994,1,0,0:0:0:0:
222,230,19166,1,0,0:0:0:0:
280,162,19337,1,0,0:0:0:0:
118,245,20022,6,0,P|94:310|36:348,2,140
121,34,21051,1,0,0:0:0:0:
189,232,21394,2,0,P|225:233|211:154,1,140
176,127,21908,1,0,0:0:0:0:
128,116,22079,1,0,0:0:0:0:
236,66,22251,2,0,P|273:74|290:99,2,70
14,27,22765,5,0,0:0:0:0:
322,258,23279,2,0,B|357:275|377:325,2,80.5000015354157
204,203,23794,1,0,0:0:0:0:
469,279,24137,2,0,P|491:234|448:128,1,161.000003070831
397,92,24651,1,0,0:0:0:0:
387,163,24822,2,0,P|383:213|291:283,1,161.000003070831
88,312,25508,6,0,P|160:304|208:232,1,161.000003070831
213,162,26022,1,0,0:0:0:0:
213,89,26194,1,0,0:0:0:0:
213,337,26537,1,0,0:0:0:0:
108,102,26879,1,0,0:0:0:0:
310,261,27222,2,0,P|361:286|347:206,1,161.000003070831
317,179,27737,1,0,0:0:0:0:
268,149,27908,1,0,0:0:0:0:
370,102,28251,6,0,P|319:128|270:218,1,161.000003070831
264,280,28765,1,0,0:0:0:0:
270,216,28937,2,0,P|233:157|142:111,1,161.000003070831
154,113,29451,1,0,0:0:0:0:
154,113,29622,2,0,P|214:141|206:57,2,161.000003070831
473,311,30994,6,0,P|463:232|403:257,2,161.000003070831
121,149,32022,1,0,0:0:0:0:
372,41,32365,2,0,P|415:40|445:102,2,80.5000015354157
213,72,32879,1,0,0:0:0:0:
313,198,33051,1,0,0:0:0:0:
103,224,35108,6,0,P|56:218|33:235,4,43.75
190,283,35622,1,0,0:0:0:0:
292,263,35794,2,0,P|341:245|349:205,2,87.5
66,97,36479,1,0,0:0:0:0:
166,358,36822,1,0,0:0:0:0:
182,61,37165,1,0,0:0:0:0:
244,186,37337,1,0,0:0:0:0:
329,75,37508,1,0,0:0:0:0:
84,220,37851,6,0,L|123:275,1,43.75
178,241,38022,2,0,L|152:205,1,43.75
187,143,38194,2,0,L|212:178,1,43.75
281,167,38365,2,0,L|255:131,1,43.75
229,94,38537,1,0,0:0:0:0:
429,346,38879,1,0,0:0:0:0:
73,318,39394,6,0,P|109:328|153:288,1,87.5
439,239,39908,2,0,P|404:241|356:193,1,87.5
288,52,40251,1,0,0:0:0:0:
417,259,40594,2,0,L|450:302,4,43.75
341,162,41108,1,0,0:0:0:0:
234,277,41279,1,0,0:0:0:0:
209,111,41451,1,0,0:0:0:0:
86,223,41622,1,0,0:0:0:0:
374,57,41965,5,0,0:0:0:0:
115,266,42308,1,0,0:0:0:0:
412,117,42651,2,0,L|451:94,2,43.75
244,212,42994,1,0,0:0:0:0:
244,212,43165,5,0,0:0:0:0:
81,146,43337,2,0,P|117:97|155:77,1,87.5
185,58,43594,1,0,0:0:0:0:
201,107,43679,2,0,P|165:156|179:201,1,87.5
195,224,43937,1,0,0:0:0:0:
240,249,44022,2,0,P|283:245|319:221,1,87.5
402,119,44365,1,0,0:0:0:0:
332,69,44537,6,0,L|332:26,2,43.75
337,223,44879,2,0,P|326:261|270:293,1,87.5
176,266,45222,6,0,L|106:196,1,90.9999958343508
264,173,45565,2,0,L|194:103,1,90.9999958343508
352,80,45908,2,0,L|282:10,1,90.9999958343508
327,201,46251,6,0,L|397:268,1,94.5000003604889
209,226,46594,2,0,L|279:297,1,94.5000003604889
90,251,46937,2,0,L|162:320,1,94.5000003604889
193,112,47279,6,0,L|116:192,1,94.5000003604889
328,124,47622,2,0,L|245:204,1,94.5000003604889
460,137,47965,2,0,L|384:215,1,94.5000003604889
124,241,48308,6,0,L|194:311,1,97.9999970092774
416,269,48651,2,0,L|342:195,1,97.9999970092774
176,348,48994,2,0,L|250:274,1,97.9999970092774
310,62,49337,2,0,L|240:131,1,97.9999970092774
377,309,49679,2,0,L|303:235,1,97.9999970092774
256,192,50022,12,0,54308,0:0:0:0:
99,99,54822,6,0,P|139:149|172:135,1,97.9999970092774
201,117,55079,1,0,0:0:0:0:
239,92,55165,2,0,P|260:82|289:89,1,50.7500015487671
320,118,55337,1,0,0:0:0:0:
343,156,55422,2,0,P|347:186|318:205,1,50.7500015487671
296,227,55594,1,0,0:0:0:0:
256,248,55679,5,0,0:0:0:0:
128,312,55851,1,0,0:0:0:0:
128,312,55937,1,0,0:0:0:0:
128,312,56022,1,0,0:0:0:0:
66,183,56194,1,0,0:0:0:0:
192,247,56365,2,0,P|243:249|247:170,1,101.500003097534
340,42,56708,1,0,0:0:0:0:
479,353,57051,5,0,0:0:0:0:
448,335,57136,1,0,0:0:0:0:
415,325,57222,1,0,0:0:0:0:
380,322,57308,1,0,0:0:0:0:
346,328,57393,1,0,0:0:0:0:
210,372,57565,2,0,P|172:384|126:322,2,101.500003097534
424,106,58079,1,0,0:0:0:0:
297,17,58422,5,0,0:0:0:0:
317,168,58594,1,0,0:0:0:0:
463,208,58765,1,0,0:0:0:0:
314,243,58937,1,0,0:0:0:0:
230,116,59108,1,0,0:0:0:0:
372,168,59279,1,0,0:0:0:0:
308,307,59451,2,0,P|252:335|227:284,1,101.500003097534
54,260,59794,1,0,0:0:0:0:
88,266,59879,1,0,0:0:0:0:
122,259,59965,1,0,0:0:0:0:
150,239,60051,1,0,0:0:0:0:
168,210,60136,1,0,0:0:0:0:
230,37,60308,2,0,B|196:117|306:78|297:169,1,157.500006008148
283,271,60994,1,0,0:0:0:0:
283,271,61165,6,0,P|321:303|337:351,2,101.500003097534
148,198,61679,1,0,0:0:0:0:
108,50,61851,1,0,0:0:0:0:
69,195,62022,1,0,0:0:0:0:
333,195,62194,1,0,0:0:0:0:
209,55,62537,1,0,0:0:0:0:
193,75,62622,1,0,0:0:0:0:
178,95,62708,1,0,0:0:0:0:
159,119,62794,1,0,0:0:0:0:
139,142,62879,1,0,0:0:0:0:
140,294,63051,1,0,0:0:0:0:
301,171,63222,1,0,0:0:0:0:
490,245,63394,1,0,0:0:0:0:
296,303,63565,1,0,0:0:0:0:
483,144,63908,5,0,0:0:0:0:
76,148,64251,1,0,0:0:0:0:
375,339,64594,1,0,0:0:0:0:
233,129,64765,1,0,0:0:0:0:
233,129,64937,1,0,0:0:0:0:
357,293,65279,2,0,P|336:258|285:258,1,50.7500015487671
292,252,65451,1,0,0:0:0:0:
256,246,65537,2,0,P|236:230|227:206,1,50.7500015487671
227,171,65708,1,0,0:0:0:0:
234,136,65794,2,0,P|213:101|162:101,1,50.7500015487671
169,100,65965,1,0,0:0:0:0:
43,166,66137,1,0,0:0:0:0:
193,301,66308,1,0,0:0:0:0:
193,301,66479,6,0,P|218:300|293:254,2,101.500003097534
343,81,66994,1,0,0:0:0:0:
81,49,67337,1,0,0:0:0:0:
59,250,67508,1,0,0:0:0:0:
217,123,67679,1,0,0:0:0:0:
335,63,68022,2,0,B|335:75|335:75|352:70|352:70|357:87|357:87|374:82|374:82|379:100|379:100|396:95|396:95|401:112|401:112|418:107|418:107|423:124|423:124|440:120|440:120|445:137|445:137|462:132|462:132|461:143,1,210.000008010865
491,274,68537,2,0,P|493:295|434:361,2,101.500003097534
450,42,69051,1,0,0:0:0:0:
105,42,69394,5,0,0:0:0:0:
175,356,69737,1,0,0:0:0:0:
348,137,70079,1,0,0:0:0:0:
242,274,70251,1,0,0:0:0:0:
149,128,70422,1,0,0:0:0:0:
401,34,70765,2,0,P|448:67|366:185,1,210.000008010865
276,213,71279,1,0,0:0:0:0:
177,292,71451,2,0,B|123:252|184:211,2,101.500003097534
47,55,72308,5,0,0:0:0:0:
203,127,72479,1,0,0:0:0:0:
438,144,72822,2,0,P|475:101|403:74,2,140
104,51,73508,6,0,P|84:107|142:128,1,101.500003097534
155,134,73765,1,0,0:0:0:0:
200,140,73851,2,0,P|220:196|162:217,1,101.500003097534
148,221,74108,1,0,0:0:0:0:
102,219,74194,2,0,P|82:275|140:296,1,101.500003097534
413,298,74537,1,0,0:0:0:0:
192,49,74879,5,0,0:0:0:0:
369,149,75051,1,0,0:0:0:0:
302,340,75222,1,0,0:0:0:0:
34,34,75565,1,0,0:0:0:0:
79,232,75737,1,0,0:0:0:0:
278,175,75908,1,0,0:0:0:0:
441,82,76251,6,0,P|450:138|432:163,2,50.7500015487671
393,52,76508,1,0,0:0:0:0:
351,89,76594,2,0,P|342:145|360:170,1,50.7500015487671
351,191,76765,1,0,0:0:0:0:
310,229,76851,6,0,P|298:251|298:276,2,50.7500015487671
349,189,77108,1,0,0:0:0:0:
399,165,77194,2,0,P|450:208|415:264,1,131.25000500679
64,64,88594,6,0,P|80:192|184:224,1,210.000008010865
352,208,89279,1,0,0:0:0:0:
224,157,89451,1,0,0:0:0:0:
283,34,89622,1,0,0:0:0:0:
432,272,89965,2,0,P|450:314|420:367,2,105.000004005432
376,184,90479,2,0,P|328:136|280:104,1,105.000004005432
175,52,90822,1,0,0:0:0:0:
52,113,90994,1,0,0:0:0:0:
32,208,91337,6,0,P|40:272|105:279,2,105.000004005432
62,74,91851,2,0,P|99:28|182:42,1,105.000004005432
204,143,92194,2,0,P|244:135|244:55,2,105.000004005432
104,48,92709,1,0,0:0:0:0:
120,74,92794,1,0,0:0:0:0:
140,97,92880,1,0,0:0:0:0:
270,184,93051,1,0,0:0:0:0:
192,47,93222,1,0,0:0:0:0:
101,176,93394,1,0,0:0:0:0:
234,258,93565,1,0,0:0:0:0:
341,141,93737,1,0,0:0:0:0:
457,100,94079,6,0,P|459:40|409:4,2,105.000004005432
256,344,94765,1,0,0:0:0:0:
255,185,94937,1,0,0:0:0:0:
112,118,95108,1,0,0:0:0:0:
416,35,95451,1,0,0:0:0:0:
420,55,95536,1,0,0:0:0:0:
423,76,95622,1,0,0:0:0:0:
424,97,95708,1,0,0:0:0:0:
422,118,95793,1,0,0:0:0:0:
312,232,95965,1,0,0:0:0:0:
154,232,96137,2,0,P|111:279|169:320,2,105.000004005432
72,56,96822,6,0,P|117:84|144:128,1,105.000004005432
216,200,97165,2,0,P|188:155|144:128,1,105.000004005432
88,216,97508,2,0,P|108:166|147:133,1,105.000004005432
304,48,97851,1,0,0:0:0:0:
432,216,98194,2,0,P|440:272|464:320,1,105.000004005432
360,152,98537,2,0,P|368:208|392:256,1,105.000004005432
288,96,98879,2,0,P|296:152|320:200,2,105.000004005432
216,264,99394,1,0,0:0:0:0:
40,160,99565,1,0,0:0:0:0:
104,30,99737,6,0,P|126:98|162:121,1,105.000004005432
454,131,100251,1,0,0:0:0:0:
454,131,100337,1,0,0:0:0:0:
454,131,100422,2,0,P|432:199|396:222,1,105.000004005432
213,299,100937,1,0,0:0:0:0:
192,303,101022,1,0,0:0:0:0:
171,302,101108,1,0,0:0:0:0:
151,295,101194,1,0,0:0:0:0:
134,283,101279,2,0,P|108:235|123:180,2,105.000004005432
292,291,101794,1,0,0:0:0:0:
191,170,101965,1,0,0:0:0:0:
423,165,102308,6,0,L|456:59,1,105.000004005432
367,4,102651,2,0,L|335:104,1,105.000004005432
304,204,102994,2,0,L|211:252,1,105.000004005432
105,251,103337,2,0,L|197:202,1,105.000004005432
115,376,103679,2,0,P|84:321|113:242,1,140
228,151,104194,1,0,0:0:0:0:
69,70,104365,1,0,0:0:0:0:
496,20,104708,1,0,0:0:0:0:
362,277,105051,6,0,P|293:348|280:351,2,105.000004005432
159,153,105737,2,0,P|192:104|240:78,2,105.000004005432
379,174,106422,1,0,0:0:0:0:
388,193,106507,1,0,0:0:0:0:
393,213,106593,1,0,0:0:0:0:
395,234,106679,1,0,0:0:0:0:
396,255,106765,2,0,P|377:311|312:332,2,105.000004005432
342,51,107451,1,0,0:0:0:0:
171,173,107794,5,0,0:0:0:0:
441,335,108137,1,0,0:0:0:0:
354,203,108479,1,0,0:0:0:0:
208,263,108651,1,0,0:0:0:0:
62,323,108822,1,0,0:0:0:0:
35,119,109165,2,0,P|57:50|94:38,1,105.000004005432
292,42,109508,2,0,L|292:168,1,105.000004005432
292,336,109851,2,0,L|246:371,2,52.5000020027161
453,201,110194,1,0,0:0:0:0:
373,82,110537,5,0,0:0:0:0:
278,105,110879,1,0,0:0:0:0:
337,183,111222,1,0,0:0:0:0:
240,195,111565,1,0,0:0:0:0:
176,144,111908,2,0,B|176:136|176:136|160:128|160:128|160:120|160:120|144:112|144:112|144:104|144:104|128:96|128:96|128:88|128:88|112:80|112:80|112:72|112:72,1,105.000004005432
56,32,112251,5,0,0:0:0:0:
24,136,112593,1,0,0:0:0:0:
136,160,112937,2,0,B|128:160|128:160|120:176|120:176|112:176|112:176|104:192|104:192|96:192|96:192|88:208|88:208|80:208|80:208|72:224|72:224|64:224|64:224,1,105.000004005432
24,280,113279,1,0,0:0:0:0:
72,360,113622,5,0,0:0:0:0:
167,337,113964,1,0,0:0:0:0:
108,259,114307,1,0,0:0:0:0:
205,247,114650,1,0,0:0:0:0:
142,170,114994,1,0,0:0:0:0:
281,198,115337,2,0,B|289:198|289:198|297:182|297:182|305:182|305:182|313:166|313:166|321:166|321:166|329:150|329:150|337:150|337:150|345:134|345:134|353:134|353:134,1,105.000004005432
381,100,115679,1,0,0:0:0:0:
408,78,115851,1,0,0:0:0:0:
436,57,116022,2,0,P|477:31|499:-9,1,90.9999958343508
496,104,116365,5,0,0:0:0:0:
432,176,116708,1,0,0:0:0:0:
360,248,117051,1,0,0:0:0:0:
328,280,117222,1,0,0:0:0:0:
208,368,117737,1,0,0:0:0:0:
160,352,117908,1,0,0:0:0:0:
13,269,118422,2,0,B|21:269|21:269|29:253|29:253|37:253|37:253|45:237|45:237|53:237|53:237|61:221|61:221|69:221|69:221|77:205|77:205|85:205|85:205,1,105.000004005432
120,160,118765,5,0,0:0:0:0:
218,79,119108,1,0,0:0:0:0:
343,54,119451,1,0,0:0:0:0:
414,160,119794,5,0,0:0:0:0:
323,70,120137,1,0,0:0:0:0:
197,46,120479,5,0,0:0:0:0:
160,79,120651,1,0,0:0:0:0:
121,108,120822,2,0,L|46:173,2,90.9999958343508
259,31,121508,6,0,P|303:91|299:166,1,105.000004005432
287,196,122022,1,0,0:0:0:0:
233,254,122194,2,0,P|210:310|271:340,1,105.000004005432
384,288,122879,2,0,P|330:257|329:195,1,105.000004005432
328,139,123394,1,0,0:0:0:0:
329,60,123565,2,0,P|286:29|235:21,1,105.000004005432
393,27,124251,5,0,0:0:0:0:
450,173,124594,2,0,P|466:249|450:296,1,105.000004005432
460,274,125279,2,0,L|415:247,1,52.5000020027161
340,220,125622,2,0,P|274:211|223:248,1,105.000004005432
176,272,126137,1,0,0:0:0:0:
108,313,126308,2,0,L|53:354,2,52.5000020027161
152,124,126994,6,0,P|185:181|232:205,1,105.000004005432
362,261,127679,1,0,0:0:0:0:
282,123,128022,2,0,P|239:152|216:199,1,105.000004005432
222,357,128708,1,0,0:0:0:0:
115,240,129051,1,0,0:0:0:0:
396,97,129737,5,0,0:0:0:0:
257,170,130079,1,0,0:0:0:0:
378,70,130422,1,0,0:0:0:0:
374,266,130765,1,0,0:0:0:0:
314,119,131108,2,0,P|283:75|199:45,2,105.000004005432
338,194,131965,1,0,0:0:0:0:
338,194,132137,1,0,0:0:0:0:
32,39,132479,6,0,B|47:132|47:132|101:114|158:206,1,210.000008010865
191,276,132994,1,0,0:0:0:0:
206,307,133079,1,0,0:0:0:0:
222,338,133165,1,0,0:0:0:0:
139,145,133508,1,0,0:0:0:0:
28,24,133851,6,0,P|17:65|99:170,1,181.999991668702
310,198,134537,1,0,0:0:0:0:
475,40,135222,5,0,0:0:0:0:
285,149,135565,2,0,P|233:170|119:123,1,181.999991668702
475,40,136251,1,0,0:0:0:0:
362,288,136594,1,0,0:0:0:0:
144,49,136937,1,0,0:0:0:0:
209,85,137108,1,0,0:0:0:0:
265,133,137279,2,0,P|296:158|329:238,2,90.9999958343508
483,371,137965,6,0,B|434:304|313:295,1,181.999991668702
140,288,138651,1,0,0:0:0:0:
316,243,138994,2,0,B|384:240|457:127,1,181.999991668702
453,314,139679,1,0,0:0:0:0:
272,287,140022,2,0,P|203:243|103:222,1,181.999991668702
44,49,140708,6,0,P|75:119|177:86,1,181.999991668702
118,64,141394,1,0,0:0:0:0:
118,64,141737,1,0,0:0:0:0:
118,272,142079,2,0,B|119:197|253:158,1,181.999991668702
336,143,142594,1,0,0:0:0:0:
259,94,142765,2,0,B|161:33,2,90.9999958343508
454,353,144822,6,0,P|461:258|370:222,1,140
404,303,145508,2,0,P|411:208|320:172,1,140
352,253,146194,5,0,0:0:0:0:
368,222,146279,1,0,0:0:0:0:
369,187,146365,1,0,0:0:0:0:
357,155,146451,1,0,0:0:0:0:
332,131,146536,1,0,0:0:0:0:
266,105,146708,2,0,L|188:67,1,70
133,63,147051,2,0,L|195:93,1,70
459,191,147565,5,0,0:0:0:0:
227,34,147908,1,0,0:0:0:0:
261,311,148251,1,0,0:0:0:0:
448,49,148594,1,0,0:0:0:0:
266,243,148937,2,0,L|231:280,1,35
214,300,149108,1,0,0:0:0:0:
178,277,149194,2,0,L|135:240,1,35
110,245,149365,5,0,0:0:0:0:
68,237,149451,1,0,0:0:0:0:
23,234,149537,1,0,0:0:0:0:
42,197,149622,2,0,P|84:155|122:159,1,70
144,134,149965,2,0,P|148:168|172:193,1,70
154,262,150308,6,0,P|209:275|278:218,1,140
322,175,150994,2,0,P|267:162|198:219,1,140
12,326,151679,1,0,0:0:0:0:
44,338,151764,1,0,0:0:0:0:
79,336,151850,1,0,0:0:0:0:
109,320,151936,1,0,0:0:0:0:
131,292,152022,2,0,P|153:246|138:211,1,70
62,119,152365,1,0,0:0:0:0:
254,322,152708,1,0,0:0:0:0:
421,97,153051,5,0,0:0:0:0:
210,281,153394,1,0,0:0:0:0:
460,155,153737,1,0,0:0:0:0:
188,219,154079,1,0,0:0:0:0:
398,220,154422,2,0,B|464:152,1,70
406,6,154765,2,0,B|357:56,1,70
188,56,155108,2,0,B|122:-12,2,70
170,173,155622,6,0,L|277:112,1,105.000004005432
359,75,155965,6,0,P|408:72|454:109,1,77.0000023498536
324,94,156308,2,0,P|373:91|419:128,1,77.0000023498536
290,117,156651,2,0,P|339:114|385:151,1,77.0000023498536
256,141,156994,2,0,P|305:138|351:175,1,77.0000023498536
212,164,157337,6,0,P|261:161|316:203,1,83.9999974365235
175,186,157679,2,0,P|224:183|279:225,1,83.9999974365235
138,216,158022,2,0,P|187:213|242:255,1,83.9999974365235
101,244,158365,2,0,P|150:241|205:283,1,83.9999974365235
305,284,158708,6,0,P|263:265|219:269,1,90.9999958343508
345,249,159051,2,0,P|303:230|259:234,1,90.9999958343508
385,214,159394,2,0,P|343:195|299:199,1,90.9999958343508
422,166,159737,2,0,P|380:147|336:151,1,90.9999958343508
470,127,160079,6,0,P|428:108|377:113,1,97.9999970092774
248,161,160422,2,0,P|296:166|340:146,1,97.9999970092774
475,175,160765,2,0,P|433:193|382:189,1,97.9999970092774
256,192,161108,12,8,165394,0:0:0:0:
358,264,165565,6,8,L|306:226,5,50.7500015487671
261,197,166079,2,0,L|181:148,1,50.7500015487671
168,51,166251,2,0,L|232:88,1,50.7500015487671
320,144,166422,2,0,L|276:118,1,50.7500015487671
276,118,166594,1,0,0:0:0:0:
276,118,166679,1,0,0:0:0:0:
199,174,166765,6,0,P|176:186|79:135,2,105.000004005432
385,61,167451,1,0,0:0:0:0:
250,118,167622,1,0,0:0:0:0:
226,129,167707,1,0,0:0:0:0:
202,141,167793,1,0,0:0:0:0:
68,201,167965,2,0,P|19:248|12:293,1,105.000004005432
26,135,168308,1,0,0:0:0:0:
87,312,168479,1,0,0:0:0:0:
194,38,168822,5,0,0:0:0:0:
283,155,168994,1,0,0:0:0:0:
301,180,169079,1,0,0:0:0:0:
317,207,169165,1,0,0:0:0:0:
407,324,169337,1,0,0:0:0:0:
395,131,169508,1,0,0:0:0:0:
61,327,169851,1,0,0:0:0:0:
288,13,170194,5,0,0:0:0:0:
385,122,170365,1,0,0:0:0:0:
410,148,170450,1,0,0:0:0:0:
436,174,170536,1,0,0:0:0:0:
298,122,170708,1,0,0:0:0:0:
259,263,170879,2,0,L|217:328,1,52.5000020027161
188,368,171051,1,0,0:0:0:0:
124,329,171137,2,0,B|83:293|70:277|70:277|79:264|79:264|60:251|60:251|74:229|74:229|50:215|50:215|65:190|65:190|42:173|42:173|62:153|62:153,1,210.000008010865
53,108,171565,5,0,0:0:0:0:
83,78,171651,2,0,L|124:28,2,52.5000020027161
53,108,171908,5,0,0:0:0:0:
79,140,171994,2,0,L|112:180,2,52.5000020027161
53,108,172251,5,0,0:0:0:0:
507,18,172594,1,0,0:0:0:0:
440,172,172937,2,0,L|418:223,1,52.5000020027161
403,253,173108,1,0,0:0:0:0:
297,354,173279,1,0,0:0:0:0:
163,290,173451,1,0,0:0:0:0:
262,184,173622,1,0,0:0:0:0:
148,90,173794,1,0,0:0:0:0:
226,269,173965,1,0,0:0:0:0:
426,53,174308,2,0,P|396:176|393:181,2,105.000004005432
344,176,174822,2,0,P|317:209|263:244,1,105.000004005432
121,273,175165,6,0,P|58:254|39:198,1,112
39,137,175679,1,0,0:0:0:0:
79,69,175851,1,0,0:0:0:0:
146,29,176022,1,0,0:0:0:0:
146,29,176194,2,0,P|174:75|227:86,1,112
341,71,176708,1,0,0:0:0:0:
444,30,176879,1,0,0:0:0:0:
428,141,177051,1,0,0:0:0:0:
187,293,177394,1,0,0:0:0:0:
402,44,177737,5,0,0:0:0:0:
135,243,178079,1,0,0:0:0:0:
461,175,178422,1,0,0:0:0:0:
312,99,178594,1,0,0:0:0:0:
285,84,178679,1,0,0:0:0:0:
259,70,178765,1,0,0:0:0:0:
99,22,178937,1,0,0:0:0:0:
52,230,179108,1,0,0:0:0:0:
249,311,179279,1,0,0:0:0:0:
48,98,179451,1,0,0:0:0:0:
455,344,179794,5,0,0:0:0:0:
455,178,179965,1,0,0:0:0:0:
444,192,180051,1,0,0:0:0:0:
433,206,180137,1,0,0:0:0:0:
327,334,180308,2,0,P|304:356|225:318,1,119.000002269745
99,22,180822,1,0,0:0:0:0:
358,231,181165,5,0,0:0:0:0:
194,196,181337,1,0,0:0:0:0:
161,180,181422,1,0,0:0:0:0:
134,158,181508,1,0,0:0:0:0:
299,141,181679,1,0,0:0:0:0:
327,163,181765,1,0,0:0:0:0:
359,179,181850,5,0,0:0:0:0:
359,179,182022,2,0,P|428:201|481:171,1,119.000002269745
469,16,182365,2,0,L|451:39,3,29.7500005674362
427,75,182537,5,0,0:0:0:0:
386,97,182622,1,0,0:0:0:0:
338,99,182708,1,0,0:0:0:0:
291,92,182794,5,0,0:0:0:0:
245,82,182879,1,0,0:0:0:0:
230,117,182965,1,0,0:0:0:0:
222,164,183051,5,0,0:0:0:0:
215,211,183137,1,0,0:0:0:0:
211,258,183222,6,0,P|208:286|114:218,1,238.00000453949
143,140,183737,1,0,0:0:0:0:
196,61,183908,2,0,P|249:28|301:51,2,119.000002269745
252,178,184422,1,0,0:0:0:0:
270,208,184507,1,0,0:0:0:0:
284,241,184594,2,0,P|252:295|195:299,2,119.000002269745
280,96,185279,5,0,0:0:0:0:
75,319,185622,1,0,0:0:0:0:
256,192,185965,12,0,188365,0:0:0:0:
88,51,188708,6,0,P|124:122|216:151,1,167.999994873047
304,148,189222,1,0,0:0:0:0:
230,78,189394,2,0,P|179:94|115:206,1,167.999994873047
12,12,190079,6,0,P|73:18|136:114,1,167.999994873047
140,199,190594,1,0,0:0:0:0:
240,196,190765,2,0,P|301:190|364:94,1,167.999994873047
360,307,191451,6,0,P|326:320|283:224,1,167.999994873047
347,149,191965,1,0,0:0:0:0:
347,149,192137,1,0,0:0:0:0:
498,16,192479,2,0,P|434:16|392:122,1,167.999994873047
384,300,193165,1,0,0:0:0:0:
311,229,193337,1,0,0:0:0:0:
236,300,193508,1,0,0:0:0:0:
236,300,193851,1,0,0:0:0:0:
100,150,194194,6,0,B|78:67|78:66|194:127|193:127,1,167.999994873047
282,171,194708,1,0,0:0:0:0:
379,194,194879,2,0,P|344:129|245:98,1,167.999994873047
157,97,195394,1,0,0:0:0:0:
56,94,195565,2,0,B|67:158|84:170|222:162,1,167.999994873047
457,157,196251,1,0,0:0:0:0:
457,157,196594,1,0,0:0:0:0:
302,27,196937,6,0,L|262:119,1,83.9999974365235
231,197,197279,1,0,0:0:0:0:
180,284,197451,2,0,L|121:189,1,83.9999974365235
82,126,197794,1,0,0:0:0:0:
85,25,197965,2,0,L|154:102,1,83.9999974365235
221,148,198308,2,0,P|293:158|385:83,2,167.999994873047
48,43,199337,1,0,0:0:0:0:
486,31,200194,6,0,L|447:80,1,41.9999987182618
428,103,200365,1,0,0:0:0:0:
318,272,200708,1,0,0:0:0:0:
118,240,201051,2,0,P|49:163|56:98,2,167.999994873047
315,280,202079,1,0,0:0:0:0:
200,113,202422,2,0,P|129:59|46:44,1,167.999994873047
147,6,202937,1,0,0:0:0:0:
147,6,203108,2,0,P|109:53|102:166,1,167.999994873047
185,209,203622,1,0,0:0:0:0:
185,209,203794,2,0,P|209:158|345:121,1,167.999994873047
407,109,204308,1,0,0:0:0:0:
87,158,204479,1,0,0:0:0:0:
87,158,204822,1,0,0:0:0:0:
353,218,205165,6,0,B|436:163|436:163|344:147,1,167.999994873047
267,144,205679,1,0,0:0:0:0:
166,136,205851,2,0,B|83:81|83:81|175:65,1,167.999994873047
251,66,206365,1,0,0:0:0:0:
344,105,206537,2,0,B|427:160|427:160|359:171,1,167.999994873047
258,176,207051,1,0,0:0:0:0:
251,66,207222,1,0,0:0:0:0:
361,234,207565,1,0,0:0:0:0:
422,41,207908,2,0,B|408:102|330:127|314:184|314:184|292:138|276:100|199:49|251:14|251:14|317:49|317:49|364:18,1,503.999984619141
