osu file format v14

[General]
AudioFilename: S3RL-feat-Sara-Candy.mp3
AudioLeadIn: 0
PreviewTime: 188708
Countdown: 0
SampleSet: Normal
StackLeniency: 0.7
Mode: 0
LetterboxInBreaks: 1
WidescreenStoryboard: 0
SamplesMatchPlaybackRate: 1

[Editor]
DistanceSpacing: 1.4
BeatDivisor: 4
GridSize: 8
TimelineZoom: 1.6

[Metadata]
Title:Candy
TitleUnicode:Candy
Artist:S3RL feat Sara
ArtistUnicode:S3RL feat Sara
Creator:Loony Key
Version:Hard
Source:Emfa
Tags:english electro Electronic sweet lollipop sweet sweetmeat barley sugar confection, lollipops sweet-stuff
BeatmapID:941420
BeatmapSetID:436933

[Difficulty]
HPDrainRate:4
CircleSize:4
OverallDifficulty:4
ApproachRate:6.5
SliderMultiplier:1.1
SliderTickRate:1

[Events]
//Background and Video events
0,0,"pik4.jpg",0,0
//Break Periods
2,88568,109139
//Storyboard Layer 0 (Background)
//Storyboard Layer 1 (Fail)
//Storyboard Layer 2 (Pass)
//Storyboard Layer 3 (Foreground)
//Storyboard Sound Samples

[TimingPoints]
137,342.857142857143,4,1,1,60,1,0
786,-100,4,1,1,60,0,0
34043,-100,4,1,1,60,0,0
35929,-100,4,1,1,60,0,0
36958,-100,4,1,1,60,0,0
38158,-100,4,1,1,60,0,0
55679,-83.3333333333333,4,1,1,60,0,1
77279,-76.9230769230769,4,1,1,60,0,0
87186,-76.9230769230769,4,1,1,60,0,0
110500,-100,4,1,1,60,0,0
111872,-66.6666666666667,4,1,1,60,0,0
112215,-100,4,1,1,60,0,0
115300,-66.6666666666667,4,1,1,60,0,0
115472,-100,4,1,1,60,0,0
118386,-66.6666666666667,4,1,1,60,0,0
118558,-100,4,1,1,60,0,0
144786,-100,4,1,1,60,0,0
146158,-100,4,1,1,60,0,0
147529,-100,4,1,1,60,0,0
148900,-100,4,1,1,60,0,0
149929,-100,4,1,1,60,0,0
166765,-83.3333333333333,4,1,1,60,0,1
185965,-100,4,1,1,60,0,0

[Colours]
Combo1 : 213,106,0
Combo2 : 223,223,0
Combo3 : 193,0,0

[HitObjects]
64,48,822,6,0,B|132:140|132:140|201:57|201:57|242:46|309:107,1,330
356,147,2194,2,0,B|405:198|394:304|282:329,1,220
148,317,3565,6,0,P|188:280|223:211,1,110
230,196,4079,1,0,0:0:0:0:
240,158,4251,2,0,P|246:93|121:47,1,220
327,276,6308,6,0,P|267:252|331:143,1,220
435,139,7679,2,0,P|495:115|488:64,1,110
432,17,8279,2,0,B|421:16|421:16|414:22|414:22|405:17|405:17|400:25|400:25|391:21|391:21|387:30|387:30|314:57|315:57,1,110
301,258,9051,6,0,B|200:170|322:169,1,110
197,58,9737,2,0,B|165:170|165:170|88:100|88:100|83:93|18:126|41:248|41:248|81:284,1,440
280,336,11794,5,0,0:0:0:0:
287,335,12136,2,0,P|335:276|376:248,1,110
480,176,12822,1,0,0:0:0:0:
356,102,13165,2,0,P|296:142|264:231,1,165
261,253,13851,1,0,0:0:0:0:
49,61,14537,6,0,P|97:126|119:122,1,110
168,111,15051,1,0,0:0:0:0:
171,64,15222,2,0,P|219:-1|241:3,1,110
378,21,15908,2,0,P|443:55|461:100,1,110
472,138,16422,1,0,0:0:0:0:
478,192,16594,1,0,0:0:0:0:
221,65,17279,6,0,B|221:138|293:124,1,110
361,109,17794,1,0,0:0:0:0:
424,75,17965,2,0,P|455:64|413:25,1,110
348,26,18479,1,0,0:0:0:0:
277,41,18651,2,0,P|230:57|176:160,1,165
184,224,19337,1,0,0:0:0:0:
430,342,20022,6,0,P|365:306|343:263,1,110
332,223,20536,1,0,0:0:0:0:
332,167,20708,1,0,0:0:0:0:
329,23,21051,1,0,0:0:0:0:
125,333,22251,5,0,0:0:0:0:
136,296,22422,1,0,0:0:0:0:
152,264,22594,1,0,0:0:0:0:
184,208,22765,2,0,P|211:171|197:55,2,165
62,191,24137,6,0,P|109:146|170:133,2,110
31,37,25508,2,0,P|81:88|137:84,1,110
187,81,26022,1,0,0:0:0:0:
249,46,26194,2,0,L|312:18,2,55
121,111,26879,2,0,P|82:161|27:186,1,110
41,182,27394,1,0,0:0:0:0:
41,182,27565,2,0,P|59:214|85:217,1,55
289,235,28251,5,0,0:0:0:0:
289,235,28594,2,0,P|320:188|303:117,1,110
330,291,29279,1,0,0:0:0:0:
260,166,29622,2,0,P|265:104|183:162,1,220
154,350,30994,6,0,B|175:243|175:243|104:210|121:157,1,220
191,169,32022,1,0,0:0:0:0:
266,172,32365,2,0,L|325:174,1,55
374,187,32708,1,0,0:0:0:0:
415,223,32879,1,0,0:0:0:0:
456,259,33051,1,0,0:0:0:0:
145,147,34079,5,0,0:0:0:0:
268,218,34422,1,0,0:0:0:0:
214,56,34765,1,0,0:0:0:0:
197,198,35108,2,0,L|186:255,2,55
204,162,35622,1,0,0:0:0:0:
212,124,35794,1,0,0:0:0:0:
218,86,35965,2,0,P|224:55|240:34,1,55
379,22,36479,5,0,0:0:0:0:
317,163,36822,1,0,0:0:0:0:
172,110,37165,2,0,L|113:86,2,55
285,197,37851,2,0,L|336:242,2,55
256,136,38365,2,0,L|238:84,1,55,0|0,0:0|0:0,1:0:0:0:
184,50,38708,2,0,L|166:102,1,55
146,243,39222,6,0,B|161:309|161:309|197:265,1,110
253,148,39908,1,0,0:0:0:0:
152,46,40251,1,0,0:0:0:0:
56,152,40594,2,0,L|0:203,2,55
95,122,41108,1,0,0:0:0:0:
140,90,41279,1,0,0:0:0:0:
273,38,41622,1,0,0:0:0:0:
402,99,41965,6,0,B|457:129|462:196,1,110
353,162,42651,2,0,B|408:192|413:259,1,110
462,347,43336,2,0,P|474:355|526:373,2,55
409,328,43851,2,0,L|334:308,1,55
292,294,44194,2,0,L|217:274,1,55
176,259,44536,2,0,L|132:242,2,27.5
256,192,44879,12,0,49851,0:0:0:0:
256,192,50194,12,0,54308,0:0:0:0:
438,192,54994,6,0,L|390:256,1,55
358,282,55336,2,0,L|294:234,1,55
258,208,55679,5,0,0:0:0:0:
144,152,56022,2,0,P|88:128|24:168,2,131.99999597168
232,248,57051,1,0,0:0:0:0:
264,288,57222,1,0,0:0:0:0:
304,328,57394,1,0,0:0:0:0:
344,360,57565,2,0,P|384:368|408:352,1,65.9999979858399
463,302,57908,2,0,P|471:262|498:237,1,65.9999979858399
336,200,58422,5,0,0:0:0:0:
216,80,58765,1,0,0:0:0:0:
304,104,59108,1,0,0:0:0:0:
192,232,59451,1,0,0:0:0:0:
296,368,59794,2,0,P|360:384|408:328,1,131.99999597168
448,176,60479,2,0,L|464:96,2,65.9999979858399
296,248,61165,5,0,0:0:0:0:
296,248,61337,2,0,P|248:272|224:256,1,65.9999979858399
89,221,61852,1,0,0:0:0:0:
13,245,62023,1,0,0:0:0:0:
13,165,62195,1,0,0:0:0:0:
48,40,62537,2,0,P|72:112|144:120,1,131.99999597168
288,72,63222,1,0,0:0:0:0:
288,72,63565,1,0,0:0:0:0:
400,208,63908,6,0,P|352:136|304:136,2,131.99999597168
400,208,64937,1,0,0:0:0:0:
440,104,65280,2,0,P|376:24|224:80,1,263.99999194336
200,120,66137,1,0,0:0:0:0:
176,184,66309,1,0,0:0:0:0:
142,262,66480,5,0,0:0:0:0:
126,291,66565,1,0,0:0:0:0:
106,318,66652,2,0,P|41:276|57:239,1,131.99999597168
51,107,67337,6,0,P|70:149|102:166,1,65.9999979858399
124,178,67680,1,0,0:0:0:0:
227,298,68023,2,0,P|252:316|302:314,1,65.9999979858399
339,260,68366,2,0,P|313:241|294:187,1,65.9999979858399
279,127,68709,1,0,0:0:0:0:
426,42,69052,1,0,0:0:0:0:
242,67,69395,5,0,0:0:0:0:
105,190,69737,1,0,0:0:0:0:
279,127,70079,1,0,0:0:0:0:
427,237,70422,1,0,0:0:0:0:
292,57,70765,2,0,P|329:76|217:155,1,263.99999194336
94,45,71794,1,0,0:0:0:0:
56,225,72136,6,0,L|150:102,1,131.99999597168
235,0,72822,2,0,L|315:104,1,131.99999597168
433,248,73508,2,0,P|386:312|328:303,1,131.99999597168
177,221,74194,1,0,0:0:0:0:
177,221,74536,1,0,0:0:0:0:
144,56,74879,5,0,0:0:0:0:
312,48,75222,1,0,0:0:0:0:
456,144,75565,1,0,0:0:0:0:
400,176,75736,1,0,0:0:0:0:
376,240,75908,1,0,0:0:0:0:
208,320,76251,2,0,B|259:310|306:229|306:229|168:232,1,263.99999194336
80,232,77279,1,0,0:0:0:0:
71,57,77622,6,0,P|94:134|155:168,1,142.99999345398
207,178,78136,1,0,0:0:0:0:
270,188,78308,2,0,P|347:211|381:272,1,142.99999345398
400,329,78994,2,0,B|432:324|444:307|444:307|464:281|425:187,2,142.99999345398
397,327,80022,1,0,0:0:0:0:
397,327,80365,6,0,P|326:303|312:234,1,142.99999345398
310,113,81051,2,0,P|331:47|397:28,1,142.99999345398
495,112,81736,2,0,P|471:183|402:197,1,142.99999345398
281,197,82422,2,0,P|210:173|196:104,1,142.99999345398
87,39,83108,6,0,P|86:141|112:184,1,142.99999345398
137,210,83794,1,0,0:0:0:0:
162,244,84136,1,0,0:0:0:0:
199,265,84479,1,0,0:0:0:0:
239,278,84822,2,0,P|295:278|360:222,1,142.99999345398
170,30,85851,6,0,L|170:188,1,142.99999345398
170,244,86365,1,0,0:0:0:0:
236,217,86536,2,0,P|282:182|389:182,1,142.99999345398
316,245,87222,2,0,P|270:280|163:280,1,142.99999345398
165,284,87736,1,0,0:0:0:0:
144,278,87908,1,0,0:0:0:0:
34,64,110536,6,0,P|46:126|90:148,1,110
100,84,111222,2,0,P|112:146|156:168,1,110
229,187,111908,2,0,B|240:192|240:192|248:184|248:184|256:192|256:192|264:184|264:184|272:192|272:192|280:184|280:184|288:192|288:192|296:184|296:184|304:192|304:192,1,82.5000031471254
344,192,112251,2,0,P|400:200|448:248,1,110
440,312,112936,2,0,B|430:320|430:320|435:330|435:330|424:334|424:334|428:345|428:345|417:349|417:349|421:359|421:359|411:363|411:363,1,55
504,152,113451,5,0,0:0:0:0:
504,152,113622,2,0,P|480:200|416:216,1,110
360,216,114136,2,0,B|350:208|350:208|340:214|340:214|335:204|335:204|325:210|325:210|319:200|319:200|309:206|309:206|303:196|303:196,1,55
248,184,114479,1,0,0:0:0:0:
248,184,114651,2,0,P|224:200|144:168,1,110
112,120,115336,2,0,B|111:107|111:107|100:104|100:104|103:93|103:93|92:90|92:90|96:79|96:79|85:76|85:76|88:65|88:65|77:62|77:62|81:51|81:51,1,82.5000031471254
64,24,115679,1,0,0:0:0:0:
64,200,116022,5,0,0:0:0:0:
432,312,117051,2,0,L|384:272,1,55
223,116,117736,1,0,0:0:0:0:
56,336,118422,2,0,B|67:341|67:341|75:333|75:333|83:341|83:341|91:333|91:333|99:341|99:341|107:333|107:333|115:341|115:341|123:333|123:333|131:341|131:341,1,82.5000031471254
184,336,118765,5,0,0:0:0:0:
280,32,119794,2,0,L|272:96,1,55
131,269,120479,1,0,0:0:0:0:
456,104,121508,6,0,B|368:168|368:168|320:112|256:144,1,220
120,232,122536,1,0,0:0:0:0:
120,232,122879,2,0,B|208:168|208:168|256:224|320:192,1,220
16,40,124251,6,0,P|56:96|160:24,1,220
152,208,125279,1,0,0:0:0:0:
288,320,125622,2,0,P|232:280|224:224,1,110
216,104,126308,2,0,P|240:64|264:56,2,55
104,240,126994,6,0,B|168:152|168:152|112:112|176:40,1,220
339,56,128022,2,0,B|390:112|334:152|334:152|398:240,1,220
220,235,129051,1,0,0:0:0:0:
25,31,129736,6,0,P|56:96|110:109,1,110
198,101,130422,1,0,0:0:0:0:
304,128,130765,2,0,P|350:154|367:205,1,110
344,312,131451,1,0,0:0:0:0:
280,368,131622,1,0,0:0:0:0:
264,368,131708,2,0,P|224:368|176:336,1,82.5
152,304,132136,1,0,0:0:0:0:
419,56,132994,6,0,P|395:83|355:93,1,55
204,115,133508,1,0,0:0:0:0:
43,42,133851,6,0,P|29:106|139:193,1,220
108,104,135222,2,0,P|170:124|187:264,1,220
133,191,136251,1,0,0:0:0:0:
84,144,136594,2,0,P|52:175|92:233,1,110
227,320,137279,2,0,L|288:348,2,55
52,215,137965,5,0,0:0:0:0:
52,215,138309,2,0,P|112:209|135:167,1,110
134,169,138995,1,0,0:0:0:0:
134,169,139337,2,0,P|194:163|217:121,1,110
216,123,140022,1,0,0:0:0:0:
460,215,140708,5,0,0:0:0:0:
460,215,141051,2,0,P|400:209|377:167,1,110
378,169,141737,1,0,0:0:0:0:
378,169,142079,2,0,P|318:163|295:121,1,110
300,107,142594,1,0,0:0:0:0:
305,92,142765,1,0,0:0:0:0:
315,79,142936,1,0,0:0:0:0:
326,67,143108,1,0,0:0:0:0:
48,64,144822,5,0,0:0:0:0:
88,104,145165,1,0,0:0:0:0:
128,136,145508,2,0,B|184:176|184:176|216:144,1,110
248,104,146194,2,0,B|257:94|257:94|251:85|251:85|261:80|261:80|256:69|256:69|267:64|267:64|261:55|261:55|271:50|271:50,1,55
312,40,146536,2,0,B|321:49|321:49|330:43|330:43|335:53|335:53|346:48|346:48|351:59|351:59|360:53|360:53|365:63|365:63,1,55
400,96,146879,2,0,B|390:105|390:105|396:114|396:114|386:119|386:119|391:130|391:130|380:135|380:135|386:144|386:144|376:149|376:149,1,55
336,176,147222,1,0,0:0:0:0:
264,288,147565,5,0,0:0:0:0:
184,208,147908,1,0,0:0:0:0:
336,176,148251,2,0,P|288:208|280:272,1,110
400,352,148937,2,0,P|464:320|480:280,1,110
495,212,149451,1,0,0:0:0:0:
489,135,149622,2,0,P|445:78|403:70,1,110
328,208,150308,6,0,P|376:256|392:312,1,110
376,152,150994,2,0,L|368:80,2,55
328,208,151679,2,0,P|306:157|265:121,1,110
192,112,152194,2,0,L|120:112,2,55
240,80,152708,1,0,0:0:0:0:
104,32,153051,5,0,0:0:0:0:
104,120,153394,1,0,0:0:0:0:
176,168,153736,1,0,0:0:0:0:
176,168,153908,1,0,0:0:0:0:
176,168,154079,1,0,0:0:0:0:
240,224,154422,2,0,B|296:248|336:296|336:296|376:256|344:184|344:184,1,220
328,96,155451,1,0,0:0:0:0:
234,37,155794,6,0,P|184:67|108:62,1,110
12,165,156479,2,0,P|66:161|112:132,1,110
265,109,157165,6,0,B|330:118|363:160,1,110
351,50,157851,2,0,B|377:110|360:157,1,110
444,89,158536,2,0,B|409:145|360:157,1,110
456,205,159222,6,0,B|391:196|360:157,1,110
342,263,159908,2,0,B|332:198|360:157,1,110
269,215,160594,2,0,B|310:164|359:157,1,110
256,192,161279,12,0,165394,0:0:0:0:
81,62,166765,5,0,0:0:0:0:
173,206,167108,1,0,0:0:0:0:
205,37,167451,1,0,0:0:0:0:
221,51,167536,1,0,0:0:0:0:
239,70,167622,1,0,0:0:0:0:
302,127,167794,1,0,0:0:0:0:
359,63,167965,2,0,P|390:43|428:41,2,65.9999979858399
299,125,168479,1,0,0:0:0:0:
394,267,168822,5,0,0:0:0:0:
394,267,168908,1,0,0:0:0:0:
394,267,168994,1,0,0:0:0:0:
454,327,169165,2,0,P|502:358|519:377,2,65.9999979858399
288,280,169851,1,0,0:0:0:0:
121,239,170194,2,0,P|72:232|37:252,2,65.9999979858399
166,262,170708,1,0,0:0:0:0:
264,347,170879,5,0,0:0:0:0:
342,310,171051,1,0,0:0:0:0:
269,264,171222,1,0,0:0:0:0:
414,172,171565,6,0,B|493:144|493:144|449:89|449:89|511:56|511:56|453:30|453:29,1,263.99999194336
306,6,172594,5,0,0:0:0:0:
143,60,172936,2,0,P|151:121|226:122,1,131.99999597168
256,117,173451,1,0,0:0:0:0:
295,92,173622,1,0,0:0:0:0:
335,70,173794,1,0,0:0:0:0:
380,76,173965,1,0,0:0:0:0:
483,213,174308,6,0,P|494:249|494:293,2,65.9999979858399
449,155,174822,1,0,0:0:0:0:
408,104,174994,1,0,0:0:0:0:
358,61,175165,6,0,B|301:50|237:91|237:91|236:238,1,263.99999194336
239,293,176022,1,0,0:0:0:0:
305,293,176194,2,0,B|316:236|275:172|275:172|128:171,1,263.99999194336
72,173,177051,1,0,0:0:0:0:
207,67,177394,1,0,0:0:0:0:
342,172,177736,5,0,0:0:0:0:
478,29,178079,1,0,0:0:0:0:
467,200,178422,2,0,P|457:137|423:113,1,98.9999969787599
397,109,178765,1,0,0:0:0:0:
314,100,178936,1,0,0:0:0:0:
306,106,179108,5,0,0:0:0:0:
300,111,179279,5,0,0:0:0:0:
296,115,179451,5,0,0:0:0:0:
253,196,179794,6,0,P|259:262|274:265,2,65.9999979858399
295,178,180308,1,0,0:0:0:0:
340,172,180479,1,0,0:0:0:0:
420,217,180822,1,0,0:0:0:0:
430,125,181165,2,0,B|448:52|448:52|505:104,1,131.99999597168
509,174,181679,1,0,0:0:0:0:
476,298,181851,5,0,0:0:0:0:
448,216,182022,1,0,0:0:0:0:
476,298,182194,2,0,P|394:278|376:238,1,131.99999597168
95,42,183222,5,0,0:0:0:0:
95,42,183565,1,0,0:0:0:0:
173,194,183908,2,0,B|152:154|162:109|162:109|108:142,1,131.99999597168
57,187,184422,1,0,0:0:0:0:
17,267,184594,1,0,0:0:0:0:
17,267,184765,1,0,0:0:0:0:
17,267,184936,1,0,0:0:0:0:
163,356,185279,2,0,P|210:366|234:364,2,65.9999979858399
104,291,185794,1,0,0:0:0:0:
104,291,185965,6,0,B|76:231|76:231|134:217|134:217|112:169|112:169|173:143|173:143|160:96|160:96|195:87|195:87|178:40|178:40|236:14|236:14|258:57|258:57|312:31|312:31|338:78|338:78|392:47|392:47|431:95|431:95,1,715
269,235,188708,5,0,0:0:0:0:
158,140,189051,1,0,0:0:0:0:
238,50,189394,1,0,0:0:0:0:
257,168,189736,2,0,P|273:260|310:286,2,110
289,52,190765,2,0,L|417:49,1,110
431,177,191451,5,0,0:0:0:0:
369,293,191794,1,0,0:0:0:0:
312,173,192136,1,0,0:0:0:0:
209,89,192479,2,0,B|205:80|205:80|197:78|197:78|192:72|192:72|183:73|183:73|133:34,1,55
103,42,192822,5,0,0:0:0:0:
102,47,193165,2,0,P|63:106|77:157,1,110
68,141,193851,1,0,0:0:0:0:
158,237,194194,2,0,B|209:240|209:240|225:278|305:263,1,110
389,274,194879,1,0,0:0:0:0:
415,251,195222,1,0,0:0:0:0:
443,230,195565,2,0,P|481:198|466:109,2,110
443,230,196594,5,0,0:0:0:0:
198,335,196936,5,0,0:0:0:0:
166,324,197279,1,0,0:0:0:0:
134,313,197622,1,0,0:0:0:0:
108,292,197965,1,0,0:0:0:0:
91,263,198308,2,0,P|62:193|86:157,1,110
177,83,198994,2,0,L|317:59,1,110
400,219,199679,2,0,P|480:167|448:120,1,165
433,110,200279,1,0,0:0:0:0:
412,103,200365,1,0,0:0:0:0:
257,132,200708,5,0,0:0:0:0:
121,178,201051,2,0,P|79:236|96:287,2,110
199,138,202079,1,0,0:0:0:0:
117,103,202422,2,0,P|75:45|92:-6,1,110
117,103,203108,2,0,P|159:45|142:-6,1,110
117,103,203794,2,0,P|159:161|142:212,1,110
117,103,204479,2,0,P|75:161|92:212,1,110
169,307,205165,6,0,B|188:324|188:324|275:301,1,110
331,265,205679,1,0,0:0:0:0:
388,221,205851,2,0,P|455:172|494:165,1,110
479,166,206365,1,0,0:0:0:0:
434,111,206536,2,0,P|395:82|316:74,1,110
335,71,207051,1,0,0:0:0:0:
292,127,207222,2,0,P|230:171|196:147,1,110
38,157,207908,6,0,P|44:225|203:147,1,330
