osu file format v14

[General]
AudioFilename: I FRIENDZONE YOU.mp3
AudioLeadIn: 0
PreviewTime: 89647
Countdown: 0
SampleSet: Normal
StackLeniency: 0.5
Mode: 0
LetterboxInBreaks: 0
WidescreenStoryboard: 0

[Editor]
DistanceSpacing: 1.7
BeatDivisor: 4
GridSize: 4
TimelineZoom: 1.7

[Metadata]
Title:FriendZoned
TitleUnicode:FriendZoned
Artist:S3RL feat Mixie Moon
ArtistUnicode:S3RL feat Mixie Moon
Creator:FCL
Version:Sorry, But We Are Just Friends
Source:
Tags:happy hardcore slayed cut version
BeatmapID:888305
BeatmapSetID:409164

[Difficulty]
HPDrainRate:6.5
CircleSize:4.3
OverallDifficulty:8.6
ApproachRate:9.2
SliderMultiplier:2
SliderTickRate:1

[Events]
//Background and Video events
0,0,"OoU3ko5Pxjk.jpg",0,0
//Break Periods
2,110075,112048
//Storyboard Layer 0 (Background)
//Storyboard Layer 1 (Fail)
//Storyboard Layer 2 (Pass)
//Storyboard Layer 3 (Foreground)
//Storyboard Sound Samples

[TimingPoints]
7018,342.857142857143,4,2,69,50,1,0
12161,-133.333333333333,4,2,69,50,0,0
12418,-133.333333333333,4,2,69,5,0,0
12504,-133.333333333333,4,2,69,50,0,0
12525,-133.333333333333,4,2,69,5,0,0
12825,-133.333333333333,4,2,69,50,0,0
12868,-133.333333333333,4,2,69,5,0,0
13189,-133.333333333333,4,2,69,50,0,0
23476,-117.647058823529,4,2,69,60,0,0
33075,-117.647058823529,4,2,69,45,0,0
34447,-133.333333333333,4,2,69,60,0,0
38068,-133.333333333333,4,2,69,5,0,0
38389,-133.333333333333,4,2,69,60,0,0
45418,-117.647058823529,4,2,69,60,0,0
55190,-117.647058823529,4,2,69,40,0,0
55725,-117.647058823529,4,2,69,5,0,0
56046,-117.647058823529,4,2,69,40,0,0
56068,-117.647058823529,4,2,69,5,0,0
56389,-200,4,2,69,40,0,0
56476,-200,4,2,69,15,0,0
56560,-200,4,2,69,20,0,0
56646,-200,4,2,69,25,0,0
56732,-200,4,2,69,30,0,0
56818,-200,4,2,69,35,0,0
56903,-200,4,2,69,40,0,0
56989,-200,4,2,69,45,0,0
57075,-200,4,2,69,50,0,0
57160,-200,4,2,69,55,0,0
57246,-200,4,2,69,60,0,0
57332,-200,4,2,69,65,0,0
57418,-200,4,2,69,70,0,0
57503,-200,4,2,69,75,0,0
57589,-200,4,2,69,80,0,0
57675,-200,4,2,69,5,0,0
57760,-111.111111111111,4,1,69,80,0,0
63247,-111.111111111111,4,1,100,70,0,0
68732,-100,4,1,69,80,0,1
68818,-100,4,1,69,80,0,0
79533,-100,4,2,4,80,0,0
79704,-100,4,1,69,80,0,0
89304,-100,4,2,23,80,0,0
90675,-100,4,1,69,90,0,1
101132,-100,4,1,69,80,0,0
101304,-133.333333333333,4,1,69,80,0,0
101646,-100,4,1,69,90,0,1
109875,-100,4,2,23,80,0,0
112618,-111.111111111111,4,1,69,80,0,0
121190,-117.647058823529,4,1,69,80,0,0
121533,-125,4,1,69,80,0,0
121876,-133.333333333333,4,1,69,80,0,0
122218,-133.333333333333,4,2,23,80,0,0
123590,-133.333333333333,4,2,69,50,0,0
134560,-117.647058823529,4,1,69,60,0,0
144161,-117.647058823529,4,2,69,60,0,0
145533,-111.111111111111,4,1,69,70,0,0
147933,-133.333333333333,4,2,69,70,0,0
148018,-117.647058823529,4,1,69,80,0,0
148275,-100,4,1,69,80,0,1
151018,-100,4,1,69,90,0,1
161990,-100,4,2,69,90,0,1
163190,-90.9090909090909,4,2,69,90,0,1
164560,-83.3333333333333,4,2,69,90,0,1
165247,-76.9230769230769,4,2,69,90,0,1
165589,-71.4285714285714,4,2,69,90,0,1
165932,-66.6666666666667,4,2,69,90,0,1
166103,-100,4,2,69,80,0,0
168847,-100,4,2,69,40,0,0
170133,-100,4,2,69,35,0,0

[Colours]
Combo1 : 17,254,176
Combo2 : 173,255,95
Combo3 : 255,88,100
Combo4 : 255,94,55

[HitObjects]
219,173,12161,6,0,B|195:161|171:153|171:153|209:131|220:77,1,112.500004291535,0|0,0:0|0:1,0:0:0:0:
142,89,12503,6,0,L|319:81,2,150.000005722046,4|0|0,0:1|0:0|0:0,0:0:0:0:
73,148,13361,5,0,0:0:0:0:
73,148,13533,2,0,P|121:176|156:174,1,75.0000028610231,0|2,0:0|0:0,0:0:0:0:
223,146,13875,2,0,L|229:57,1,75.0000028610231,2|0,0:0|0:0,0:0:0:0:
306,115,14218,1,0,0:0:0:0:
302,204,14389,2,0,P|314:256|224:311,1,150.000005722046
163,347,14904,2,0,B|56:336|56:336|112:295,1,150.000005722046,0|2,0:0|0:0,0:0:0:0:
40,228,15418,5,0,0:0:0:0:
92,156,15590,2,0,P|136:148|184:148,1,75.0000028610231,0|0,0:0|0:0,0:0:0:0:
252,176,15933,2,0,B|280:232|280:232|252:336,1,150.000005722046,0|0,0:0|0:0,0:0:0:0:
172,344,16447,1,0,0:0:0:0:
96,296,16618,6,0,B|88:263|88:263|95:203,1,75.0000028610231,2|0,0:0|0:0,0:0:0:0:
158,161,16960,1,0,0:0:0:0:
158,161,17132,2,0,P|216:190|317:153,1,150.000005722046,0|0,0:0|0:0,0:0:0:0:
344,247,17646,2,0,B|342:287|342:287|322:342,1,75.0000028610231,0|0,0:0|0:0,0:0:0:0:
404,212,17990,6,0,B|360:192|320:208|320:208|280:224|228:196,2,150.000005722046,4|0|0,0:1|0:0|0:0,0:0:0:0:
360,292,18847,1,0,0:0:0:0:
300,228,19018,2,0,L|292:136,1,75.0000028610231,0|0,0:0|0:0,0:0:0:0:
360,96,19360,6,0,P|274:66|212:124,1,150.000005722046,2|0,0:0|0:0,0:0:0:0:
198,179,19875,2,0,B|174:251|174:251|88:292,1,150.000005722046,0|0,0:0|0:0,0:0:0:0:
44,212,20390,2,0,L|32:64,1,112.500004291535,0|0,0:0|0:0,0:0:0:0:
34,99,20733,6,0,B|96:112|96:112|204:96,2,150.000005722046,2|0|0,3:2|0:0|0:0,0:0:0:0:
89,26,21590,1,0,0:0:0:0:
120,108,21761,2,0,P|128:164|116:206,1,75.0000028610231
40,227,22104,6,0,P|88:223|180:279,1,150.000005722046,2|0,0:0|0:0,0:0:0:0:
176,363,22618,2,0,B|240:351|256:303|256:303|279:306|308:291,1,150.000005722046,0|0,0:0|0:0,0:0:0:0:
260,158,23133,2,0,L|268:246,1,75.0000028610231,0|0,0:0|0:0,0:0:0:0:
360,348,23475,5,2,1:2:0:0:
436,160,23818,1,8,0:0:0:0:
372,80,23990,1,0,0:0:0:0:
208,204,24333,1,2,0:0:0:0:
144,124,24504,1,8,0:0:0:0:
412,152,24847,5,2,1:2:0:0:
432,252,25018,1,0,0:0:0:0:
452,352,25190,1,8,0:0:0:0:
356,320,25361,2,0,B|296:316|296:316|256:284|256:284|168:276,1,170.000003242493,2|0,0:0|0:0,0:0:0:0:
108,328,25875,2,0,P|96:260|146:193,1,127.50000243187,8|0,0:0|0:0,0:0:0:0:
122,210,26218,5,2,1:2:0:0:
312,140,26561,1,8,0:0:0:0:
216,108,26733,1,0,0:0:0:0:
288,300,27075,1,2,0:0:0:0:
341,212,27247,1,8,0:0:0:0:
80,136,27590,5,2,1:2:0:0:
111,43,27761,1,0,0:0:0:0:
209,45,27933,1,8,0:0:0:0:
238,138,28104,2,0,P|236:176|356:188,1,170.000003242493,2|0,0:0|0:0,0:0:0:0:
376,112,28618,2,0,B|424:92|424:92|516:108,1,127.50000243187,8|0,0:0|0:0,0:0:0:0:
498,104,28961,5,2,1:2:0:0:
420,292,29304,1,8,0:0:0:0:
332,240,29475,1,0,0:0:0:0:
148,332,29818,1,2,0:0:0:0:
188,236,29990,1,8,0:0:0:0:
356,120,30333,6,0,L|368:20,2,85.0000016212464,2|0|8,1:2|0:0|0:0,0:0:0:0:
344,220,30847,2,0,P|289:191|265:78,1,170.000003242493,2|0,0:0|0:0,0:0:0:0:
184,24,31361,2,0,L|44:16,1,127.50000243187,8|0,0:0|0:0,0:0:0:0:
56,16,31704,6,0,P|36:80|40:112,1,85.0000016212464,2|0,1:2|0:0,0:0:0:0:
120,156,32047,2,0,P|140:219|136:251,1,85.0000016212464,8|0,0:0|0:0,0:0:0:0:
48,352,32390,5,0,0:0:0:0:
32,252,32561,1,0,0:0:0:0:
168,348,32733,1,8,0:0:0:0:
220,192,32904,1,0,0:0:0:0:
48,352,33075,1,6,1:1:0:0:
290,57,34104,2,0,B|338:65|385:49|385:49|373:77|333:73,1,127.50000243187,0|0,0:0|0:0,0:0:0:0:
363,70,34447,5,6,0:1:0:0:
228,304,34961,1,2,0:1:0:0:
68,84,35475,1,2,0:1:0:0:
328,152,35990,1,2,0:1:0:0:
120,324,36504,1,2,0:1:0:0:
44,160,36847,1,2,0:1:0:0:
223,175,37190,1,0,0:0:0:0:
148,125,37361,5,0,0:0:0:0:
148,125,37533,2,0,L|140:41,1,75.0000028610231,0|0,0:0|0:0,0:0:0:0:
226,25,37875,1,0,0:0:0:0:
226,25,38047,2,0,L|222:197,1,150.000005722046
231,264,38561,1,0,0:0:0:0:
304,212,38733,5,0,0:0:0:0:
304,212,38904,2,0,P|356:200|392:208,1,75.0000028610231,0|0,0:0|0:0,0:0:0:0:
352,288,39247,2,0,B|312:304|312:304|232:292,1,112.500004291535,0|0,0:0|0:0,0:0:0:0:
208,320,39590,2,0,P|240:272|220:200,1,112.500004291535,0|0,0:0|0:0,0:0:0:0:
212,180,39933,5,2,0:1:0:0:
424,36,40447,1,2,0:1:0:0:
392,304,40961,1,2,0:1:0:0:
208,104,41475,1,2,0:1:0:0:
468,172,41990,1,2,0:1:0:0:
296,228,42333,1,2,0:1:0:0:
128,288,42675,1,2,0:1:0:0:
160,200,42847,5,0,0:0:0:0:
160,200,43018,2,0,P|176:148|164:104,1,75.0000028610231,0|0,0:0|0:0,0:0:0:0:
232,60,43361,1,0,0:0:0:0:
232,60,43533,2,0,L|396:52,1,150.000005722046,0|0,0:0|0:0,0:0:0:0:
432,128,44047,1,0,0:0:0:0:
488,200,44218,5,0,0:0:0:0:
488,200,44390,2,0,P|460:224|396:220,1,75.0000028610231,0|0,0:0|0:0,0:0:0:0:
336,204,44733,2,0,L|344:64,1,112.500004291535,0|0,0:0|0:0,0:0:0:0:
376,60,45075,2,0,P|324:76|252:32,1,112.500004291535,0|0,0:0|0:0,0:0:0:0:
240,24,45418,5,6,1:2:0:0:
60,124,45761,1,8,0:0:0:0:
160,108,45933,1,0,0:0:0:0:
160,364,46447,1,8,0:0:0:0:
300,284,46790,1,2,1:2:0:0:
344,192,46961,1,0,0:0:0:0:
252,148,47133,2,0,L|168:140,1,85.0000016212464,0|0,0:0|0:0,0:0:0:0:
295,366,47475,2,0,P|303:294|279:250,1,85.0000016212464,2|0,0:0|0:0,0:0:0:0:
418,269,47818,2,0,P|366:281|286:220,1,127.50000243187,8|0,0:0|0:2,0:0:0:0:
291,207,48160,5,2,1:2:0:0:
276,56,48333,2,0,L|176:52,1,85.0000016212464,0|8,0:0|0:0,0:0:0:0:
88,48,48675,1,0,0:0:0:0:
152,136,48847,1,2,0:0:0:0:
152,136,49018,2,0,P|172:192|116:296,1,170.000003242493,0|0,0:0|0:0,0:0:0:0:
28,304,49533,5,0,0:0:0:0:
8,208,49704,1,0,0:0:0:0:
109,202,49875,2,0,P|145:170|141:106,1,85.0000016212464,8|0,0:0|0:0,0:0:0:0:
85,45,50218,2,0,L|177:43,1,85.0000016212464,2|0,0:0|0:0,0:0:0:0:
296,36,50561,2,0,P|248:92|276:168,1,127.50000243187,8|0,0:0|0:0,0:0:0:0:
276,188,50904,5,2,1:2:0:0:
84,124,51247,1,8,0:0:0:0:
112,24,51418,1,0,0:0:0:0:
308,72,51761,1,2,0:0:0:0:
272,168,51933,1,8,0:0:0:0:
480,105,52275,1,2,1:2:0:0:
380,85,52447,1,0,0:0:0:0:
408,185,52618,2,0,P|408:241|390:266,1,85.0000016212464
254,363,52961,6,0,B|240:272,1,85.0000016212464,2|0,0:0|0:0,0:0:0:0:
176,186,53304,2,0,P|136:170|156:90,1,127.50000243187,8|0,0:0|0:0,0:0:0:0:
188,74,53647,1,2,1:2:0:0:
384,8,53990,5,8,0:0:0:0:
481,19,54161,1,0,0:0:0:0:
499,115,54333,1,0,0:0:0:0:
414,163,54504,1,2,0:0:0:0:
342,96,54675,1,8,0:0:0:0:
384,8,54847,1,0,0:0:0:0:
384,8,55190,5,0,0:0:0:0:
342,96,55361,2,0,P|292:128|240:120,1,85.0000016212464,2|0,0:0|0:0,0:0:0:0:
168,116,55704,2,0,B|184:164|184:164|168:272,1,127.50000243187
144,284,56047,2,0,P|220:264|296:288,1,127.50000243187,2|0,0:0|0:0,0:0:0:0:
312,292,56390,6,0,P|352:308|288:252,1,375,2|0,0:0|0:0,0:0:0:0:
356,238,57761,6,0,B|296:220|296:220|200:272,1,134.999995880127,2|0,0:0|0:0,0:0:0:0:
196,280,58104,1,8,0:0:0:0:
72,340,58275,2,0,L|60:284,1,44.999998626709,0|0,0:0|0:0,0:0:0:0:
104,216,58447,2,0,L|116:72,2,134.999995880127,10|8|10,1:0|1:0|1:0,0:0:0:0:
288,320,59133,6,0,P|352:316|400:224,1,134.999995880127,2|0,0:0|0:0,0:0:0:0:
412,224,59475,1,8,0:0:0:0:
368,60,59647,2,0,L|296:52,1,44.999998626709,0|0,0:0|0:0,0:0:0:0:
224,92,59818,2,0,P|160:104|88:44,2,134.999995880127,10|8|10,0:0|0:0|0:0,0:0:0:0:
436,16,60504,6,0,B|444:168,1,134.999995880127,2|0,0:0|0:0,0:0:0:0:
432,192,60847,1,8,0:0:0:0:
328,308,61018,2,0,P|304:316|260:312,1,44.999998626709,0|0,0:0|0:0,0:0:0:0:
292,240,61190,2,0,P|240:232|184:164,2,134.999995880127,10|8|10,0:0|0:0|0:0,0:0:0:0:
456,172,61875,6,0,P|480:128|428:24,1,134.999995880127,2|0,0:0|0:0,0:0:0:0:
432,16,62218,1,8,0:0:0:0:
272,76,62390,2,0,L|208:80,1,44.999998626709,0|0,0:0|0:0,0:0:0:0:
156,29,62561,2,0,P|140:97|176:152,2,134.999995880127,10|8|10,0:0|0:0|0:0,0:0:0:0:
40,208,63247,6,0,L|52:320,1,89.9999972534181,10|0,0:0|0:0,0:0:0:0:
272,344,63590,2,0,L|281:254,1,89.9999972534181,8|2,0:0|0:0,0:0:0:0:
140,88,63933,2,0,L|24:80,1,89.9999972534181,10|0,0:0|0:0,0:0:0:0:
182,337,64275,2,0,L|298:345,1,89.9999972534181,8|2,0:0|0:0,0:0:0:0:
448,268,64618,5,10,0:0:0:0:
385,173,64790,1,0,0:0:0:0:
271,343,64961,1,8,0:0:0:0:
404,336,65133,1,0,0:0:0:0:
224,128,65304,1,10,0:0:0:0:
199,369,65475,1,0,0:0:0:0:
484,254,65647,1,10,0:0:0:0:
230,74,65818,1,2,0:0:0:0:
144,200,65990,5,8,0:0:0:0:
104,219,66075,1,0,0:0:0:0:
60,215,66161,1,8,0:0:0:0:
25,187,66247,1,0,0:0:0:0:
11,145,66333,1,8,0:0:0:0:
23,102,66418,1,0,0:0:0:0:
55,72,66504,1,8,0:0:0:0:
99,62,66590,1,0,0:0:0:0:
143,69,66675,5,8,0:0:0:0:
183,90,66761,1,0,0:0:0:0:
226,101,66847,1,8,0:0:0:0:
271,99,66933,1,0,0:0:0:0:
315,87,67018,1,8,0:0:0:0:
355,68,67104,1,0,0:0:0:0:
399,59,67190,1,8,0:0:0:0:
444,59,67275,1,0,0:0:0:0:
488,68,67361,5,8,0:0:0:0:
72,336,68561,1,8,0:0:0:0:
128,212,68733,6,0,L|260:204,1,100,2|0,0:0|0:0,0:0:0:0:
456,296,69075,2,0,L|360:260,1,100,8|0,0:0|0:0,0:0:0:0:
94,148,69418,1,2,0:0:0:0:
292,80,69590,1,0,0:0:0:0:
292,80,69675,1,0,0:0:0:0:
292,80,69761,1,8,0:0:0:0:
236,288,69933,1,2,0:0:0:0:
94,148,70104,6,0,B|82:108|82:108|94:8,1,100,2|0,0:0|0:0,0:0:0:0:
316,168,70447,2,0,B|328:208|328:208|316:308,1,100,8|0,0:0|0:0,0:0:0:0:
144,360,70790,1,2,0:0:0:0:
180,144,70961,1,0,0:0:0:0:
183,119,71047,1,0,0:0:0:0:
187,94,71133,1,8,0:0:0:0:
392,32,71304,1,2,0:0:0:0:
324,276,71475,6,0,P|280:296|212:284,1,100,2|0,0:0|0:0,0:0:0:0:
92,110,71818,2,0,P|136:90|204:102,1,100,8|0,0:0|0:0,0:0:0:0:
324,276,72161,1,2,0:0:0:0:
120,208,72333,2,0,L|68:192,1,50,0|0,0:0|0:0,0:0:0:0:
4,164,72504,1,8,0:0:0:0:
176,8,72675,1,2,0:0:0:0:
232,244,72847,6,0,P|284:248|356:232,1,100,2|0,0:0|0:0,0:0:0:0:
171,189,73190,2,0,P|119:185|47:201,1,100,8|0,0:0|0:0,0:0:0:0:
208,352,73533,1,2,0:0:0:0:
308,172,73704,2,0,P|320:152|328:96,1,50,0|0,0:0|0:0,0:0:0:0:
260,80,73875,2,0,P|262:56|246:2,1,50,8|0,0:0|0:0,0:0:0:0:
176,8,74047,1,2,0:0:0:0:
263,229,74218,6,0,P|315:245|370:209,1,100,2|0,0:0|0:0,0:0:0:0:
176,8,74561,2,0,P|160:60|196:115,1,100,8|0,0:0|0:0,0:0:0:0:
304,292,74904,1,2,0:0:0:0:
344,108,75075,1,0,0:0:0:0:
344,108,75161,1,0,0:0:0:0:
344,108,75247,1,8,0:0:0:0:
144,236,75418,1,2,0:0:0:0:
372,344,75590,6,0,L|504:352,1,100,2|0,0:0|0:0,0:0:0:0:
243,229,75933,2,0,L|143:235,1,100,8|0,0:0|0:0,0:0:0:0:
328,116,76275,1,2,0:0:0:0:
280,300,76447,1,0,0:0:0:0:
273,324,76533,1,0,0:0:0:0:
266,348,76618,1,8,0:0:0:0:
456,272,76790,1,2,0:0:0:0:
256,176,76961,6,0,B|220:168|220:168|144:184,1,100,2|0,0:0|0:0,0:0:0:0:
456,272,77304,2,0,B|419:279|419:279|357:326,1,100,8|0,0:0|0:0,0:0:0:0:
144,284,77647,1,2,0:0:0:0:
288,136,77818,2,0,L|336:88,1,50,0|0,0:0|0:0,0:0:0:0:
376,48,77990,1,8,0:0:0:0:
168,32,78161,1,2,0:0:0:0:
276,248,78333,6,0,P|352:256|408:240,1,100,2|0,0:0|0:0,0:0:0:0:
474,51,78675,2,0,P|398:43|342:59,1,100,8|0,0:0|0:0,0:0:0:0:
156,144,79018,1,2,0:0:0:0:
372,252,79190,2,0,L|360:176,1,50,0|0,0:0|0:0,0:0:0:0:
328,116,79361,2,0,P|276:112|204:124,1,100,0|6,0:0|0:0,0:0:0:0:
32,220,79704,6,0,L|36:348,1,100,2|0,0:0|0:0,0:0:0:0:
232,217,80047,2,0,L|228:117,1,100,8|0,0:0|0:0,0:0:0:0:
52,16,80390,1,2,0:0:0:0:
278,66,80561,1,0,0:0:0:0:
292,86,80647,1,0,0:0:0:0:
300,109,80733,1,8,0:0:0:0:
204,300,80904,1,2,0:0:0:0:
424,368,81075,6,0,P|452:312|424:256,1,100,2|0,0:0|0:0,0:0:0:0:
208,128,81418,2,0,P|180:72|208:16,1,100,8|0,0:0|0:0,0:0:0:0:
420,8,81761,1,2,0:0:0:0:
296,216,81933,2,0,L|260:268,1,50,0|0,0:0|0:0,0:0:0:0:
224,320,82104,1,8,0:0:0:0:
124,120,82275,1,2,0:0:0:0:
296,216,82447,5,2,0:0:0:0:
372,124,82618,1,0,0:0:0:0:
45,210,82790,1,8,0:0:0:0:
124,120,82961,1,0,0:0:0:0:
296,328,83133,1,2,0:0:0:0:
296,96,83304,2,0,P|291:68|275:42,2,50,0|0|8,0:0|0:0|0:0,0:0:0:0:
296,352,83647,1,2,0:0:0:0:
395,99,83818,6,0,L|287:95,1,100,2|0,0:0|0:0,0:0:0:0:
4,87,84161,1,8,0:0:0:0:
93,167,84333,1,0,0:0:0:0:
227,23,84504,1,2,0:0:0:0:
240,281,84675,2,0,P|208:285|168:281,1,50,0|0,0:0|0:0,0:0:0:0:
0,232,84847,2,0,P|32:228|72:232,1,50,8|0,0:0|0:0,0:0:0:0:
128,236,85018,1,2,0:0:0:0:
396,324,85190,6,0,L|384:200,1,100,2|0,0:0|0:0,0:0:0:0:
220,24,85533,2,0,L|232:148,1,100,8|0,0:0|0:0,0:0:0:0:
248,340,85875,1,2,0:0:0:0:
60,268,86047,1,0,0:0:0:0:
60,268,86133,1,0,0:0:0:0:
60,268,86218,1,8,0:0:0:0:
340,228,86390,1,2,0:0:0:0:
88,188,86561,6,0,B|76:152|76:152|80:72,1,100,2|0,0:0|0:0,0:0:0:0:
356,12,86904,2,0,B|368:48|368:48|364:128,1,100,8|0,0:0|0:0,0:0:0:0:
172,312,87247,1,2,0:0:0:0:
240,140,87418,2,0,P|248:116|248:72,1,50,0|0,0:0|0:0,0:0:0:0:
228,20,87590,1,8,0:0:0:0:
246,222,87761,1,2,0:0:0:0:
171,69,87933,5,2,0:0:0:0:
175,184,88104,1,0,0:0:0:0:
416,16,88275,1,8,0:0:0:0:
364,109,88447,1,0,0:0:0:0:
88,40,88618,1,2,0:0:0:0:
204,240,88790,2,0,L|232:292,1,50,0|0,0:0|0:0,0:0:0:0:
264,348,88961,1,8,0:0:0:0:
376,128,89133,1,0,0:0:0:0:
20,180,89304,5,2,1:2:0:0:
484,348,90504,1,0,0:0:0:0:
344,188,90675,6,0,L|364:60,1,100,6|0,0:0|0:0,0:0:0:0:
256,256,91018,1,8,0:0:0:0:
168,172,91190,2,0,L|148:44,1,100,0|2,0:0|0:0,0:0:0:0:
256,272,91533,1,0,0:0:0:0:
380,156,91704,2,0,L|400:28,1,100,8|2,0:0|0:0,0:0:0:0:
256,292,92047,1,2,0:0:0:0:
132,160,92218,2,0,L|112:32,1,100,0|8,0:0|0:0,0:0:0:0:
256,312,92561,1,0,0:0:0:0:
352,104,92733,6,0,L|472:92,1,100,2|0,0:0|0:0,0:0:0:0:
164,220,93075,2,0,L|44:232,1,100,8|2,0:0|0:0,0:0:0:0:
192,40,93418,5,2,0:0:0:0:
308,72,93590,1,0,0:0:0:0:
56,160,93761,1,8,0:0:0:0:
338,211,93933,2,0,P|354:267|334:315,1,100,0|2,0:0|0:0,0:0:0:0:
192,360,94275,1,0,0:0:0:0:
282,163,94447,2,0,P|325:139|399:169,1,100,8|2,0:0|0:0,0:0:0:0:
464,300,94790,1,2,0:0:0:0:
282,163,94961,1,0,0:0:0:0:
141,243,95133,1,8,0:0:0:0:
148,86,95304,1,0,0:0:0:0:
164,320,95475,5,2,0:0:0:0:
48,300,95647,1,0,0:0:0:0:
372,180,95818,1,8,0:0:0:0:
304,280,95990,1,2,0:0:0:0:
116,61,96161,6,0,L|132:160,1,100,6|0,0:0|0:0,0:0:0:0:
256,264,96504,1,8,0:0:0:0:
395,57,96675,2,0,L|380:156,1,100,0|2,0:0|0:0,0:0:0:0:
256,280,97018,1,0,0:0:0:0:
152,73,97190,2,0,L|168:172,1,100,8|2,0:0|0:0,0:0:0:0:
256,300,97533,1,2,0:0:0:0:
359,89,97704,2,0,L|344:188,1,100,0|8,0:0|0:0,0:0:0:0:
256,320,98047,1,2,0:0:0:0:
180,120,98218,6,0,P|128:112|80:128,1,100,2|0,0:0|0:0,0:0:0:0:
332,264,98561,2,0,P|384:272|432:256,1,100,8|2,0:0|0:0,0:0:0:0:
352,52,98904,5,2,0:0:0:0:
236,28,99075,1,0,0:0:0:0:
380,180,99247,1,8,0:0:0:0:
296,320,99418,2,0,P|260:336|184:312,1,100,0|2,0:0|0:0,0:0:0:0:
124,176,99761,1,0,0:0:0:0:
272,48,99933,2,0,L|408:36,1,100,8|2,0:0|0:0,0:0:0:0:
232,132,100275,5,2,0:0:0:0:
48,32,100447,1,0,0:0:0:0:
156,248,100618,1,8,0:0:0:0:
184,68,100790,1,0,0:0:0:0:
52,200,100961,1,2,0:0:0:0:
184,332,101132,2,0,L|255:340,1,50,0|0,0:0|0:0,0:0:0:0:
320,304,101304,6,0,P|336:236|292:180,1,112.500004291535,8|0,0:0|2:0,0:0:0:0:
264,136,101647,6,0,P|320:152|396:132,1,100,6|0,0:0|0:0,0:0:0:0:
472,88,101990,1,8,0:0:0:0:
212,192,102161,2,0,P|153:192|85:153,1,100,0|0,0:0|0:0,0:0:0:0:
23,91,102504,1,0,0:0:0:0:
284,232,102675,2,0,P|340:248|416:227,1,100,8|0,0:0|0:0,0:0:0:0:
492,183,103018,1,0,0:0:0:0:
216,288,103190,2,0,P|157:288|89:249,1,100,0|8,0:0|0:0,0:0:0:0:
27,186,103533,1,0,0:0:0:0:
160,48,103704,6,0,P|220:36|296:44,1,100,2|0,0:0|0:0,0:0:0:0:
352,336,104047,2,0,P|292:348|216:340,1,100,8|0,0:0|0:0,0:0:0:0:
48,216,104390,5,2,0:0:0:0:
96,324,104561,1,0,0:0:0:0:
116,72,104733,1,8,0:0:0:0:
160,292,104904,2,0,P|208:308|280:284,1,100,0|2,0:0|0:0,0:0:0:0:
132,96,105247,1,0,0:0:0:0:
96,324,105418,2,0,P|48:340|-24:316,1,100,8|0,0:0|0:0,0:0:0:0:
147,120,105761,1,2,0:0:0:0:
288,300,105933,1,0,0:0:0:0:
176,256,106104,1,8,0:0:0:0:
424,240,106275,1,0,0:0:0:0:
256,168,106447,6,0,L|248:56,1,100,2|0,0:0|0:0,0:0:0:0:
176,256,106790,2,0,L|183:355,1,100,8|0,0:0|0:0,0:0:0:0:
59,243,107133,6,0,L|43:115,1,100,6|0,0:0|0:0,0:0:0:0:
256,56,107475,1,8,0:0:0:0:
449,143,107647,2,0,L|437:243,1,100,0|0,0:0|0:0,0:0:0:0:
256,328,107990,1,0,0:0:0:0:
46,143,108161,2,0,L|58:43,1,100,8|0,0:0|0:0,0:0:0:0:
256,4,108504,1,2,0:0:0:0:
436,43,108675,2,0,L|449:143,1,100,0|8,0:0|0:0,0:0:0:0:
256,384,109018,1,0,0:0:0:0:
96,268,109190,5,2,0:0:0:0:
387,156,109361,1,0,0:0:0:0:
56,156,109533,1,8,0:0:0:0:
339,266,109704,1,2,0:0:0:0:
148,374,109875,5,6,1:2:0:0:
56,64,112618,6,0,L|180:56,1,89.9999972534181,2|0,0:0|0:0,0:0:0:0:
316,116,112961,2,0,L|192:108,1,89.9999972534181,8|0,0:0|0:0,0:0:0:0:
56,168,113304,2,0,L|176:164,1,89.9999972534181,2|0,0:0|0:0,0:0:0:0:
320,208,113647,2,0,L|200:204,1,89.9999972534181,8|0,0:0|0:0,0:0:0:0:
24,336,113990,6,0,L|12:220,1,89.9999972534181,2|0,0:0|0:0,0:0:0:0:
128,172,114333,2,0,L|137:261,1,89.9999972534181,8|0,0:0|0:0,0:0:0:0:
272,288,114675,2,0,L|262:198,1,89.9999972534181,2|0,0:0|0:0,0:0:0:0:
376,128,115018,2,0,L|385:217,1,89.9999972534181,8|0,0:0|0:0,0:0:0:0:
164,328,115361,6,0,P|116:324|80:260,1,89.9999972534181,2|0,0:0|0:0,0:0:0:0:
152,248,115704,2,0,P|120:211|140:140,1,89.9999972534181,8|0,0:0|0:0,0:0:0:0:
200,176,116047,2,0,P|204:128|268:92,1,89.9999972534181,2|0,0:0|0:0,0:0:0:0:
280,164,116390,2,0,P|316:132|387:152,1,89.9999972534181,8|0,0:0|0:0,0:0:0:0:
148,228,116733,6,0,P|100:244|28:224,1,89.9999972534181,2|0,0:0|0:0,0:0:0:0:
180,144,117075,2,0,P|164:96|184:24,1,89.9999972534181,8|0,0:0|0:0,0:0:0:0:
260,184,117418,2,0,P|308:168|380:188,1,89.9999972534181,2|0,0:0|0:0,0:0:0:0:
232,268,117761,2,0,P|248:316|228:388,1,89.9999972534181,8|0,0:0|0:0,0:0:0:0:
42,268,118104,5,2,0:0:0:0:
12,144,118275,1,0,0:0:0:0:
164,308,118447,1,8,0:0:0:0:
56,296,118618,1,0,0:0:0:0:
216,160,118790,2,0,L|296:96,1,89.9999972534181,2|0,0:0|0:0,0:0:0:0:
316,284,119133,2,0,L|245:340,1,89.9999972534181,8|0,0:0|0:0,0:0:0:0:
411,296,119475,5,2,0:0:0:0:
505,242,119647,1,0,0:0:0:0:
286,103,119818,1,8,0:0:0:0:
384,57,119990,1,0,0:0:0:0:
334,246,120161,2,0,P|266:258|210:234,1,89.9999972534181,2|0,0:0|0:0,0:0:0:0:
40,300,120504,2,0,P|108:312|164:288,1,89.9999972534181,8|0,0:0|0:0,0:0:0:0:
380,120,120847,6,2,L|392:8,1,89.9999972534181,6|2,1:2|1:2,0:0:0:0:
300,160,121190,2,2,L|310:65,1,85.0000016212464,6|2,1:2|1:2,0:0:0:0:
224,184,121533,2,2,L|233:102,1,80,6|2,1:2|1:2,0:0:0:0:
148,204,121875,2,2,L|157:125,1,80,6|2,1:2|1:2,0:0:0:0:
72,224,122218,5,4,1:2:0:0:
120,80,123590,6,0,B|180:72|180:72|216:80|216:80|296:72,2,150.000005722046,2|0|0,0:0|0:0|0:0,0:0:0:0:
56,144,124447,1,0,0:0:0:0:
140,172,124618,2,0,P|176:176|236:160,1,75.0000028610231,0|0,0:0|0:0,0:0:0:0:
300,136,124961,6,0,L|312:48,2,75.0000028610231,2|0|0,0:0|0:0|0:0,0:0:0:0:
284,224,125475,2,0,L|280:252,4,18.7500007152558,0|0|0|0|0,0:0|0:0|0:0|0:0|0:0,0:0:0:0:
368,188,125818,1,0,0:0:0:0:
224,140,125990,1,0,0:0:0:0:
336,56,126161,1,0,0:0:0:0:
336,56,126333,6,0,P|368:52|424:64,1,75.0000028610231,2|0,0:0|0:0,0:0:0:0:
368,140,126675,2,0,P|393:159|424:207,1,75.0000028610231,0|0,0:0|0:0,0:0:0:0:
420,284,127018,1,0,0:0:0:0:
344,240,127190,1,0,0:0:0:0:
418,194,127361,2,0,L|446:178,4,18.7500007152558
176,160,127704,5,2,0:0:0:0:
169,70,127875,1,0,0:0:0:0:
253,36,128047,1,0,0:0:0:0:
311,105,128218,1,0,0:0:0:0:
263,181,128390,1,0,0:0:0:0:
260,192,128475,1,0,0:0:0:0:
256,204,128561,1,0,0:0:0:0:
253,36,128733,1,0,0:0:0:0:
176,160,128904,1,0,0:0:0:0:
176,160,129075,5,2,0:0:0:0:
121,86,129247,1,0,0:0:0:0:
109,299,129418,1,0,0:0:0:0:
182,246,129590,1,0,0:0:0:0:
182,246,129761,2,0,P|226:258|310:222,1,112.500004291535,0|0,0:0|0:0,0:0:0:0:
317,205,130104,2,0,L|325:105,1,75.0000028610231
448,28,130447,6,0,L|436:188,1,150.000005722046,2|0,0:0|0:0,0:0:0:0:
322,130,130961,2,0,L|292:114,4,18.7500007152558
424,64,131304,1,0,0:0:0:0:
352,224,131475,2,0,P|312:232|264:224,1,75.0000028610231,0|0,0:0|0:0,0:0:0:0:
172,152,131818,6,0,L|164:76,2,75.0000028610231,2|0|0,0:0|0:0|0:0,0:0:0:0:
148,240,132333,2,0,P|103:213|88:115,1,150.000005722046,0|0,0:0|0:0,0:0:0:0:
148,60,132847,2,0,L|232:56,1,75.0000028610231,0|0,0:0|0:0,0:0:0:0:
328,80,133190,5,0,0:0:0:0:
392,144,133361,1,0,0:0:0:0:
348,224,133533,1,0,0:0:0:0:
400,296,133704,2,0,L|428:332,1,37.5000014305115
468,260,133875,2,0,L|513:265,1,37.5000014305115,0|0,0:0|0:0,0:0:0:0:
500,188,134047,1,0,0:0:0:0:
356,175,134389,1,0,0:0:0:0:
356,175,134560,6,0,P|324:187|247:170,1,85.0000016212464,2|0,0:0|0:0,0:0:0:0:
72,260,134903,2,0,P|104:272|172:260,1,85.0000016212464,8|0,0:0|0:0,0:0:0:0:
274,184,135246,2,0,L|278:88,1,85.0000016212464,2|0,0:0|0:0,0:0:0:0:
157,183,135590,2,0,L|153:267,1,85.0000016212464,8|0,0:0|0:0,0:0:0:0:
344,328,135933,6,0,P|400:336|440:328,1,85.0000016212464,2|0,0:0|0:0,0:0:0:0:
476,176,136275,2,4,L|488:140,4,21.2500004053116,8|0|0|0|0,0:0|0:0|0:0|0:0|0:3,0:0:0:0:
288,272,136618,2,0,P|232:280|192:272,1,85.0000016212464,2|0,0:0|0:0,0:0:0:0:
68,208,136961,1,8,0:0:0:0:
280,92,137133,1,0,0:0:0:0:
204,276,137304,5,2,0:0:0:0:
116,328,137475,1,0,0:0:0:0:
228,176,137647,2,0,L|328:172,1,85.0000016212464,8|0,0:0|0:0,0:0:0:0:
156,104,137990,2,0,L|240:100,1,85.0000016212464,2|0,0:0|0:0,0:0:0:0:
84,32,138333,2,0,L|168:28,1,85.0000016212464,8|0,0:0|0:0,0:0:0:0:
420,16,138675,5,2,0:0:0:0:
506,210,138847,1,0,0:0:0:0:
295,187,139018,1,8,0:0:0:0:
404,117,139190,1,0,0:0:0:0:
284,312,139361,2,0,P|236:320|180:320,1,85.0000016212464,2|0,0:0|0:0,0:0:0:0:
36,196,139704,1,8,0:0:0:0:
168,116,139875,1,0,0:0:0:0:
96,288,140047,5,2,0:0:0:0:
259,272,140218,1,0,0:0:0:0:
433,249,140390,1,8,0:0:0:0:
320,340,140561,1,0,0:0:0:0:
360,152,140733,2,0,P|368:104|344:52,1,85.0000016212464,0|0,0:0|0:0,0:0:0:0:
128,16,141075,1,8,0:0:0:0:
276,116,141247,1,0,0:0:0:0:
124,268,141418,6,0,L|32:276,1,85.0000016212464,2|0,0:0|0:0,0:0:0:0:
212,192,141761,2,0,L|304:200,1,85.0000016212464,8|0,0:0|0:0,0:0:0:0:
476,168,142104,2,4,P|484:148|488:132,4,21.2500004053116,8|0|0|0|4,0:0|0:0|0:0|0:0|2:3,0:0:0:0:
336,312,142447,1,8,0:0:0:0:
372,116,142618,1,0,0:0:0:0:
484,276,142790,6,0,P|456:296|392:304,1,85.0000016212464,2|0,0:0|0:0,0:0:0:0:
228,200,143133,2,0,P|208:172|200:108,1,85.0000016212464,8|0,0:0|0:0,0:0:0:0:
352,12,143475,2,0,P|372:40|380:104,1,85.0000016212464,2|0,0:0|0:0,0:0:0:0:
332,208,143818,1,8,0:0:0:0:
198,123,143990,1,0,0:0:0:0:
432,156,144161,5,2,0:0:0:0:
392,252,144333,1,0,0:0:0:0:
336,68,144504,1,0,0:0:0:0:
400,280,144675,1,0,0:0:0:0:
332,56,144846,2,4,L|321:19,4,21.2500004053116,0|0|0|0|0,0:0|0:0|0:0|0:0|0:0,0:0:0:0:
304,256,145190,2,0,P|268:276|184:252,1,127.50000243187,0|0,0:0|0:0,0:0:0:0:
156,228,145533,6,0,P|176:276|180:328,1,89.9999972534181,2|0,0:0|0:0,0:0:0:0:
24,248,145875,2,0,P|4:200|0:148,1,89.9999972534181,8|0,0:0|0:0,0:0:0:0:
192,40,146218,2,0,L|308:36,1,89.9999972534181,2|0,0:0|0:0,0:0:0:0:
240,252,146561,2,0,L|150:255,1,89.9999972534181,8|0,0:0|0:0,0:0:0:0:
16,136,146904,5,2,0:0:0:0:
96,64,147075,1,0,0:0:0:0:
94,358,147247,1,8,0:0:0:0:
150,254,147418,1,0,0:0:0:0:
264,360,147590,2,0,L|420:364,1,134.999995880127,2|0,0:0|0:0,0:0:0:0:
436,360,147933,6,0,P|404:328|424:248,1,112.500004291535
452,240,148275,6,0,B|404:248|404:248|312:244,1,100,2|0,0:0|0:0,0:0:0:0:
60,144,148618,2,0,B|108:136|108:136|200:140,1,100,8|0,0:0|0:0,0:0:0:0:
352,245,148961,2,0,P|360:293|352:368,1,100,2|0,0:0|0:0,0:0:0:0:
164,237,149304,2,0,P|156:189|164:114,1,100,8|0,0:0|0:0,0:0:0:0:
312,32,149647,6,0,L|456:20,1,100,2|0,0:0|0:0,0:0:0:0:
258,143,149990,2,0,L|158:137,1,100,8|0,0:0|0:0,0:0:0:0:
432,153,150333,5,2,0:0:0:0:
237,346,150504,1,0,0:0:0:0:
166,80,150675,1,8,0:0:0:0:
280,176,150847,1,0,0:0:0:0:
108,324,151018,6,0,L|4:332,1,100,6|0,0:0|0:0,0:0:0:0:
66,87,151361,2,0,L|165:79,1,100,8|0,0:0|0:0,0:0:0:0:
376,55,151704,1,2,0:0:0:0:
127,214,151875,1,0,0:0:0:0:
232,20,152047,1,8,0:0:0:0:
263,279,152218,1,0,0:0:0:0:
363,151,152390,6,0,B|379:111|379:111|375:43,1,100,2|0,0:0|0:0,0:0:0:0:
132,47,152733,2,0,B|116:87|116:87|120:155,1,100,8|0,0:0|0:0,0:0:0:0:
260,356,153075,1,2,0:0:0:0:
323,219,153247,1,0,0:0:0:0:
60,284,153418,1,8,0:0:0:0:
119,143,153589,1,0,0:0:0:0:
270,272,153761,6,0,P|315:295|381:260,1,100,2|0,0:0|0:0,0:0:0:0:
504,128,154104,2,0,L|508:20,1,100,8|0,0:0|0:0,0:0:0:0:
285,121,154447,1,2,0:0:0:0:
432,144,154618,1,0,0:0:0:0:
153,203,154790,1,8,0:0:0:0:
298,239,154961,1,0,0:0:0:0:
134,301,155133,6,0,P|58:305|14:293,1,100,2|0,0:0|0:0,0:0:0:0:
20,24,155475,2,0,P|96:20|140:32,1,100,8|0,0:0|0:0,0:0:0:0:
484,108,155818,1,2,0:0:0:0:
252,152,155990,1,8,0:2:0:0:
252,152,156075,1,8,0:2:0:0:
345,100,156333,5,2,0:0:0:0:
352,200,156504,6,0,L|344:72,1,100,6|0,0:0|0:0,0:0:0:0:
96,24,156847,2,0,L|89:123,1,100,8|0,0:0|0:0,0:0:0:0:
216,360,157190,1,2,0:0:0:0:
88,280,157361,1,0,0:0:0:0:
345,167,157533,1,8,0:0:0:0:
201,123,157704,1,0,0:0:0:0:
105,352,157875,6,0,P|49:344|17:292,1,100,2|0,0:0|0:0,0:0:0:0:
108,52,158218,2,0,L|232:48,1,100,8|0,0:0|0:0,0:0:0:0:
496,36,158561,1,2,0:0:0:0:
448,180,158733,1,0,0:0:0:0:
207,48,158904,1,8,0:0:0:0:
353,41,159075,1,0,0:0:0:0:
352,292,159247,6,0,P|400:300|464:268,1,100,2|0,0:0|0:0,0:0:0:0:
242,126,159590,2,0,P|194:134|130:102,1,100,8|0,0:0|0:0,0:0:0:0:
396,24,159933,1,2,0:0:0:0:
259,29,160104,1,0,0:0:0:0:
309,298,160275,1,8,0:0:0:0:
353,154,160447,1,0,0:0:0:0:
140,284,160618,6,0,P|84:292|16:268,1,100,2|0,0:0|0:0,0:0:0:0:
160,32,160961,2,0,B|204:24|204:24|288:32,1,100,8|0,0:0|0:0,0:0:0:0:
472,72,161304,1,2,0:0:0:0:
412,348,161475,1,0,0:0:0:0:
140,284,161647,1,8,0:0:0:0:
197,34,161818,1,0,0:0:0:0:
197,34,161904,1,0,0:0:0:0:
197,34,161989,5,6,1:2:0:0:
283,184,162160,1,0,0:0:0:0:
44,73,162332,1,8,1:2:0:0:
82,238,162503,1,0,0:0:0:0:
238,114,162675,6,0,P|313:99|374:127,1,100,2|0,1:2|0:0,0:0:0:0:
136,305,163018,2,0,P|61:320|0:292,1,100,8|0,1:2|0:0,0:0:0:0:
0,224,163275,1,0,0:0:0:0:
0,224,163360,5,6,1:2:0:0:
147,74,163532,1,0,0:0:0:0:
240,346,163703,1,8,1:2:0:0:
244,136,163875,1,0,0:0:0:0:
436,275,164046,6,0,L|449:415,1,110.000003356934,2|0,1:2|0:0,0:0:0:0:
76,109,164389,2,0,L|65:0,1,110.000003356934,8|0,1:2|0:0,0:0:0:0:
385,189,164732,5,6,1:2:0:0:
105,172,164903,1,0,0:0:0:0:
435,119,165075,5,8,1:2:0:0:
73,246,165246,1,0,0:0:0:0:
231,59,165418,5,12,1:2:0:0:
265,348,165589,1,0,0:0:0:0:
293,14,165760,5,8,1:2:0:0:
198,377,165932,1,0,0:0:0:0:
131,134,166104,6,0,L|143:14,1,100,6|0,1:2|0:0,0:0:0:0:
433,95,166446,2,0,L|441:200,1,100,12|0,1:2|0:0,0:0:0:0:
455,376,166790,1,6,1:2:0:0:
345,110,166961,1,6,1:2:0:0:
244,363,167133,1,6,1:2:0:0:
256,192,167218,12,0,170218,2:0:0:0:
