osu file format v14

[General]
AudioFilename: audio.mp3
AudioLeadIn: 0
PreviewTime: 79877
Countdown: 0
SampleSet: Normal
StackLeniency: 0.7
Mode: 1
LetterboxInBreaks: 0
WidescreenStoryboard: 1

[Editor]
DistanceSpacing: 1.8
BeatDivisor: 4
GridSize: 32
TimelineZoom: 1.5

[Metadata]
Title:Put Your Phones Up
TitleUnicode:Put Your Phones Up
Artist:S3RL feat Minto
ArtistUnicode:S3RL feat Minto
Creator:Takeshi Hiroshi
Version:Oni
Source:
Tags:
BeatmapID:1335625
BeatmapSetID:630733

[Difficulty]
HPDrainRate:8
CircleSize:2
OverallDifficulty:7
ApproachRate:7
SliderMultiplier:1.40020386861373
SliderTickRate:2

[Events]
//Background and Video events
0,0,"Konachan.com - 225886 azitama_atsushi_(attyuu) female_protagonist_(pokemon_go) hat long_hair phone pokemon.jpg",0,0
//Break Periods
//Storyboard Layer 0 (Background)
//Storyboard Layer 1 (Fail)
//Storyboard Layer 2 (Pass)
//Storyboard Layer 3 (Foreground)
//Storyboard Sound Samples

[TimingPoints]
3089.94167186306,342.857142857143,4,1,0,59,1,0

[HitObjects]
256,188,3089,5,0,0:0:0:0:
256,188,3432,1,0,0:0:0:0:
256,188,3775,1,8,0:0:0:0:
256,188,3947,1,0,0:0:0:0:
256,188,4118,1,8,0:0:0:0:
256,188,4461,1,0,0:0:0:0:
256,188,4804,1,0,0:0:0:0:
256,188,5147,1,8,0:0:0:0:
256,188,5489,1,0,0:0:0:0:
256,188,5661,1,8,0:0:0:0:
256,188,5832,1,0,0:0:0:0:
256,188,6175,1,0,0:0:0:0:
256,188,6518,1,8,0:0:0:0:
256,188,6689,1,0,0:0:0:0:
256,188,6861,1,8,0:0:0:0:
256,188,7204,1,0,0:0:0:0:
256,188,7547,1,0,0:0:0:0:
256,188,7889,1,8,0:0:0:0:
256,188,8232,1,8,0:0:0:0:
256,188,8318,1,8,0:0:0:0:
256,188,8404,1,8,0:0:0:0:
256,188,8489,1,8,0:0:0:0:
256,188,8575,1,0,0:0:0:0:
256,188,8918,1,0,0:0:0:0:
256,188,9261,1,8,0:0:0:0:
256,188,9432,1,0,0:0:0:0:
256,188,9604,1,8,0:0:0:0:
256,188,9947,1,0,0:0:0:0:
256,188,10289,1,0,0:0:0:0:
256,188,10632,1,8,0:0:0:0:
256,188,10975,1,8,0:0:0:0:
256,188,11147,1,8,0:0:0:0:
256,188,11318,1,0,0:0:0:0:
256,188,11661,1,0,0:0:0:0:
256,188,12004,1,8,0:0:0:0:
256,188,12175,1,0,0:0:0:0:
256,188,12347,1,8,0:0:0:0:
256,188,12689,1,0,0:0:0:0:
256,188,13032,1,0,0:0:0:0:
256,188,13375,1,8,0:0:0:0:
256,188,13547,1,0,0:0:0:0:
256,188,13718,1,8,0:0:0:0:
256,188,14061,1,0,0:0:0:0:
256,188,14404,1,0,0:0:0:0:
256,188,14747,1,8,0:0:0:0:
256,188,14918,1,0,0:0:0:0:
256,188,15089,1,8,0:0:0:0:
256,188,15432,1,0,0:0:0:0:
256,188,15775,1,0,0:0:0:0:
256,188,16118,1,8,0:0:0:0:
256,188,16461,1,0,0:0:0:0:
256,188,16632,1,8,0:0:0:0:
256,188,16804,1,0,0:0:0:0:
256,188,17147,1,0,0:0:0:0:
256,188,17489,1,8,0:0:0:0:
256,188,17661,1,8,0:0:0:0:
256,188,17832,1,0,0:0:0:0:
256,188,18175,1,0,0:0:0:0:
256,188,18518,1,0,0:0:0:0:
256,188,18861,1,8,0:0:0:0:
256,188,19204,1,8,0:0:0:0:
256,188,19289,1,8,0:0:0:0:
256,188,19375,1,8,0:0:0:0:
256,188,19461,1,8,0:0:0:0:
256,188,19547,1,0,0:0:0:0:
256,188,19889,1,0,0:0:0:0:
256,188,20232,1,8,0:0:0:0:
256,188,20404,1,8,0:0:0:0:
256,188,20575,1,0,0:0:0:0:
256,188,20918,1,0,0:0:0:0:
256,188,21261,1,0,0:0:0:0:
256,188,21604,1,8,0:0:0:0:
256,188,21947,1,8,0:0:0:0:
256,188,22118,1,8,0:0:0:0:
256,188,22289,1,0,0:0:0:0:
256,188,22632,1,0,0:0:0:0:
256,188,22975,1,8,0:0:0:0:
256,188,23147,1,0,0:0:0:0:
256,188,23318,1,8,0:0:0:0:
256,188,23661,1,0,0:0:0:0:
256,188,24004,1,0,0:0:0:0:
256,188,24347,1,8,0:0:0:0:
256,188,24518,1,0,0:0:0:0:
256,188,24689,1,8,0:0:0:0:
256,188,25032,1,4,0:0:0:0:
256,188,25375,1,8,0:0:0:0:
256,188,25718,1,8,0:0:0:0:
256,188,26061,1,8,0:0:0:0:
256,188,26404,1,8,0:0:0:0:
256,188,26747,1,8,0:0:0:0:
256,188,26918,1,8,0:0:0:0:
256,188,27604,1,8,0:0:0:0:
256,188,27775,1,0,0:0:0:0:
256,188,28461,1,8,0:0:0:0:
256,188,28632,1,0,0:0:0:0:
256,188,29147,1,0,0:0:0:0:
256,188,29318,1,8,0:0:0:0:
256,188,29661,1,0,0:0:0:0:
256,188,29832,1,8,0:0:0:0:
256,188,30175,1,0,0:0:0:0:
256,188,30347,1,8,0:0:0:0:
256,188,30518,1,0,0:0:0:0:
256,188,30861,1,0,0:0:0:0:
256,188,31204,1,8,0:0:0:0:
256,188,31547,1,0,0:0:0:0:
256,188,31718,1,8,0:0:0:0:
256,188,32232,1,0,0:0:0:0:
256,188,32404,1,8,0:0:0:0:
256,188,32918,1,8,0:0:0:0:
256,188,33261,1,0,0:0:0:0:
256,188,33604,1,0,0:0:0:0:
256,188,34289,1,8,0:0:0:0:
256,188,34975,1,8,0:0:0:0:
256,188,35661,1,8,0:0:0:0:
256,188,35832,1,8,0:0:0:0:
256,188,36004,1,4,0:0:0:0:
256,188,36347,1,8,0:0:0:0:
256,188,36689,1,0,0:0:0:0:
256,188,36861,1,8,0:0:0:0:
256,188,37204,1,8,0:0:0:0:
256,188,37375,1,0,0:0:0:0:
256,188,37718,1,8,0:0:0:0:
256,188,37889,1,8,0:0:0:0:
256,188,38404,1,0,0:0:0:0:
256,188,38575,1,8,0:0:0:0:
256,188,38747,1,0,0:0:0:0:
256,188,39089,1,8,0:0:0:0:
256,188,39432,1,0,0:0:0:0:
256,188,39604,1,8,0:0:0:0:
256,188,40118,1,8,0:0:0:0:
256,188,40289,1,8,0:0:0:0:
256,188,40632,1,8,0:0:0:0:
256,188,40804,1,0,0:0:0:0:
256,188,41147,1,0,0:0:0:0:
256,188,41318,1,8,0:0:0:0:
256,188,41489,1,0,0:0:0:0:
256,188,41832,1,0,0:0:0:0:
256,188,42175,1,8,0:0:0:0:
256,188,42347,5,0,0:0:0:0:
256,188,42689,1,0,0:0:0:0:
256,188,42861,1,8,0:0:0:0:
256,188,43204,1,0,0:0:0:0:
256,188,43375,1,8,0:0:0:0:
256,188,43718,1,0,0:0:0:0:
256,188,43889,1,0,0:0:0:0:
256,188,44232,1,8,0:0:0:0:
256,188,44575,1,0,0:0:0:0:
256,188,44918,1,8,0:0:0:0:
256,188,45261,1,0,0:0:0:0:
256,188,45604,1,0,0:0:0:0:
256,188,45689,1,0,0:0:0:0:
256,188,45775,1,8,0:0:0:0:
256,188,45947,1,0,0:0:0:0:
256,188,46118,1,8,0:0:0:0:
256,192,46204,1,8,0:0:0:0:
256,188,46289,1,0,0:0:0:0:
256,188,46461,1,8,0:0:0:0:
256,188,46632,1,0,0:0:0:0:
256,192,46718,1,0,0:0:0:0:
256,188,46804,1,8,0:0:0:0:
256,188,46975,1,0,0:0:0:0:
256,188,47318,1,0,0:0:0:0:
256,188,47661,1,8,0:0:0:0:
256,188,47832,1,0,0:0:0:0:
256,188,48004,1,8,0:0:0:0:
256,188,48347,1,0,0:0:0:0:
256,188,48689,1,0,0:0:0:0:
256,188,49032,1,8,0:0:0:0:
256,188,49375,1,0,0:0:0:0:
256,188,49547,1,8,0:0:0:0:
256,192,49632,1,8,0:0:0:0:
256,188,49718,1,0,0:0:0:0:
256,188,50061,1,0,0:0:0:0:
256,188,50404,1,8,0:0:0:0:
256,192,50489,1,8,0:0:0:0:
256,188,50575,1,0,0:0:0:0:
256,188,50747,1,8,0:0:0:0:
256,192,51089,1,0,0:0:0:0:
256,192,51432,1,0,0:0:0:0:
256,192,51775,1,8,0:0:0:0:
256,192,52118,1,8,0:0:0:0:
256,192,52204,1,8,0:0:0:0:
256,192,52289,1,8,0:0:0:0:
256,192,52375,1,8,0:0:0:0:
256,192,52461,1,0,0:0:0:0:
256,192,52804,1,0,0:0:0:0:
256,192,53147,1,8,0:0:0:0:
256,192,53232,1,8,0:0:0:0:
256,192,53318,1,0,0:0:0:0:
256,192,53489,1,8,0:0:0:0:
256,192,53832,1,0,0:0:0:0:
256,192,54175,1,0,0:0:0:0:
256,192,54518,1,8,0:0:0:0:
256,192,54861,1,0,0:0:0:0:
256,192,55032,1,8,0:0:0:0:
256,192,55204,1,0,0:0:0:0:
256,192,55289,1,0,0:0:0:0:
256,192,55375,1,8,0:0:0:0:
256,192,55547,1,0,0:0:0:0:
256,192,55889,1,8,0:0:0:0:
256,192,56061,1,0,0:0:0:0:
256,192,56232,1,8,0:0:0:0:
256,192,56575,1,0,0:0:0:0:
256,192,56918,1,0,0:0:0:0:
256,192,57261,1,8,0:0:0:0:
256,192,57432,1,0,0:0:0:0:
256,192,57604,1,8,0:0:0:0:
256,192,57947,1,0,0:0:0:0:
256,192,58289,1,8,0:0:0:0:
256,192,58461,1,8,0:0:0:0:
256,192,58632,1,0,0:0:0:0:
256,192,58804,1,0,0:0:0:0:
256,192,58975,1,8,0:0:0:0:
256,192,59318,1,0,0:0:0:0:
256,192,59661,1,8,0:0:0:0:
256,192,59832,1,8,0:0:0:0:
256,192,60004,1,0,0:0:0:0:
256,192,60175,1,0,0:0:0:0:
256,192,60347,1,8,0:0:0:0:
256,192,60689,1,0,0:0:0:0:
256,192,61032,1,8,0:0:0:0:
256,192,61204,1,8,0:0:0:0:
256,192,61375,1,0,0:0:0:0:
256,192,61547,1,0,0:0:0:0:
256,192,61718,1,8,0:0:0:0:
256,192,62061,1,0,0:0:0:0:
256,192,62404,1,8,0:0:0:0:
256,192,62747,1,0,0:0:0:0:
256,192,63089,1,8,0:0:0:0:
256,192,63261,1,8,0:0:0:0:
256,192,63347,1,8,0:0:0:0:
256,192,63432,1,0,0:0:0:0:
256,192,63775,1,8,0:0:0:0:
256,192,63947,1,8,0:0:0:0:
256,192,64118,1,0,0:0:0:0:
256,192,64289,1,0,0:0:0:0:
256,192,64461,1,8,0:0:0:0:
256,192,64804,1,0,0:0:0:0:
256,192,65147,1,8,0:0:0:0:
256,192,65318,1,8,0:0:0:0:
256,192,65489,1,0,0:0:0:0:
256,192,65661,1,0,0:0:0:0:
256,192,65832,1,8,0:0:0:0:
256,192,66175,1,0,0:0:0:0:
256,192,66518,1,8,0:0:0:0:
256,192,66861,1,0,0:0:0:0:
256,192,67204,1,8,0:0:0:0:
256,192,67547,1,0,0:0:0:0:
256,192,67889,1,8,0:0:0:0:
256,192,68232,1,0,0:0:0:0:
256,192,68575,1,0,0:0:0:0:
256,192,68918,1,0,0:0:0:0:
256,192,69175,1,8,0:0:0:0:
256,192,69261,1,0,0:0:0:0:
256,192,69432,1,8,0:0:0:0:
256,192,69604,1,0,0:0:0:0:
256,192,69689,1,8,0:0:0:0:
256,192,69947,1,8,0:0:0:0:
256,192,70118,1,8,0:0:0:0:
256,192,70289,1,0,0:0:0:0:
256,192,70547,1,8,0:0:0:0:
256,192,70632,1,0,0:0:0:0:
256,192,70804,1,8,0:0:0:0:
256,192,70975,1,8,0:0:0:0:
256,192,71147,1,0,0:0:0:0:
256,192,71318,1,8,0:0:0:0:
256,192,71489,1,0,0:0:0:0:
256,192,71661,1,0,0:0:0:0:
256,192,71832,1,8,0:0:0:0:
256,192,72004,1,8,0:0:0:0:
256,192,72175,1,8,0:0:0:0:
256,192,72347,1,8,0:0:0:0:
256,192,72518,1,8,0:0:0:0:
256,192,72689,1,0,0:0:0:0:
256,192,72861,1,0,0:0:0:0:
256,192,73032,1,8,0:0:0:0:
256,192,73204,1,8,0:0:0:0:
256,192,73375,1,8,0:0:0:0:
256,192,73547,1,8,0:0:0:0:
256,192,73718,1,8,0:0:0:0:
256,192,73889,1,8,0:0:0:0:
256,192,74061,1,8,0:0:0:0:
256,192,74232,1,0,0:0:0:0:
256,192,74318,1,8,0:0:0:0:
256,192,74404,2,0,L|424:192,6,140.020386861373
256,188,76975,1,8,0:0:0:0:
256,188,77061,1,0,0:0:0:0:
256,188,77147,2,8,P|372:188|372:188,5,105.01529014603
256,188,78518,1,0,0:0:0:0:
256,188,78689,1,8,0:0:0:0:
256,188,78861,1,0,0:0:0:0:
256,188,79204,1,0,0:0:0:0:
256,188,79547,1,8,0:0:0:0:
256,188,79718,1,8,0:0:0:0:
256,188,79804,1,8,0:0:0:0:
256,188,79889,1,0,0:0:0:0:
256,188,80232,1,0,0:0:0:0:
256,188,80404,1,8,0:0:0:0:
256,188,80575,1,0,0:0:0:0:
256,188,80747,1,8,0:0:0:0:
256,188,80918,1,0,0:0:0:0:
256,188,81089,1,8,0:0:0:0:
256,188,81261,1,0,0:0:0:0:
256,188,81347,1,0,0:0:0:0:
256,188,81432,1,8,0:0:0:0:
256,188,81604,1,0,0:0:0:0:
256,188,81689,1,0,0:0:0:0:
256,188,81775,1,8,0:0:0:0:
256,188,81947,1,8,0:0:0:0:
256,188,82032,1,8,0:0:0:0:
256,188,82118,1,0,0:0:0:0:
256,188,82204,1,0,0:0:0:0:
256,188,82289,1,8,0:0:0:0:
256,188,82461,1,8,0:0:0:0:
256,188,82632,1,0,0:0:0:0:
256,188,82804,1,8,0:0:0:0:
256,188,82975,1,8,0:0:0:0:
256,188,83147,1,0,0:0:0:0:
256,188,83318,1,8,0:0:0:0:
256,188,83489,1,0,0:0:0:0:
256,188,83661,1,8,0:0:0:0:
256,188,83832,1,0,0:0:0:0:
256,188,83918,1,0,0:0:0:0:
256,188,84004,1,8,0:0:0:0:
256,188,84175,1,0,0:0:0:0:
256,188,84261,1,0,0:0:0:0:
256,188,84347,1,8,0:0:0:0:
256,188,84518,1,8,0:0:0:0:
256,188,84689,1,0,0:0:0:0:
256,188,84775,1,0,0:0:0:0:
256,188,84947,1,8,0:0:0:0:
256,188,85032,1,0,0:0:0:0:
256,188,85204,1,8,0:0:0:0:
256,188,85375,1,0,0:0:0:0:
256,188,85547,1,8,0:0:0:0:
256,188,85632,1,8,0:0:0:0:
256,188,85718,1,0,0:0:0:0:
256,188,85889,1,8,0:0:0:0:
256,188,86061,1,0,0:0:0:0:
256,188,86232,1,8,0:0:0:0:
256,188,86318,1,8,0:0:0:0:
256,188,86404,1,0,0:0:0:0:
256,188,86575,1,8,0:0:0:0:
256,188,86661,1,8,0:0:0:0:
256,188,86747,1,0,0:0:0:0:
256,188,86918,1,8,0:0:0:0:
256,188,87089,1,0,0:0:0:0:
256,188,87175,1,0,0:0:0:0:
256,188,87261,1,8,0:0:0:0:
256,188,87347,1,8,0:0:0:0:
256,188,87432,1,0,0:0:0:0:
256,192,87775,1,0,0:0:0:0:
256,192,87861,1,8,0:0:0:0:
256,192,87947,1,0,0:0:0:0:
256,192,88032,1,8,0:0:0:0:
256,192,88118,1,0,0:0:0:0:
256,192,88289,1,8,0:0:0:0:
256,192,88461,1,0,0:0:0:0:
256,192,88632,1,8,0:0:0:0:
256,192,88804,1,0,0:0:0:0:
256,192,88975,1,8,0:0:0:0:
256,192,89061,1,8,0:0:0:0:
256,192,89147,1,0,0:0:0:0:
256,192,89232,1,0,0:0:0:0:
256,192,89318,1,8,0:0:0:0:
256,192,89489,1,0,0:0:0:0:
256,192,89661,1,8,0:0:0:0:
256,192,89832,1,0,0:0:0:0:
256,192,90004,1,0,0:0:0:0:
256,192,90175,1,8,0:0:0:0:
256,192,90347,1,8,0:0:0:0:
256,192,90518,1,8,0:0:0:0:
256,188,90861,1,4,0:0:0:0:
256,188,91032,1,8,0:0:0:0:
256,188,91204,1,0,0:0:0:0:
256,188,91375,1,8,0:0:0:0:
256,188,91547,1,0,0:0:0:0:
256,188,91718,1,8,0:0:0:0:
256,188,91889,1,0,0:0:0:0:
256,188,92061,1,8,0:0:0:0:
256,188,92232,1,0,0:0:0:0:
256,188,92404,1,8,0:0:0:0:
256,188,92575,1,0,0:0:0:0:
256,188,92747,1,8,0:0:0:0:
256,188,92918,1,0,0:0:0:0:
256,188,93089,1,8,0:0:0:0:
256,188,93175,1,8,0:0:0:0:
256,188,93261,1,0,0:0:0:0:
256,188,93347,1,0,0:0:0:0:
256,188,93432,1,0,0:0:0:0:
256,188,93518,1,0,0:0:0:0:
256,188,93604,1,8,0:0:0:0:
256,188,93775,1,8,0:0:0:0:
256,188,93947,1,0,0:0:0:0:
256,188,94118,1,8,0:0:0:0:
256,188,94289,1,0,0:0:0:0:
256,188,94461,1,8,0:0:0:0:
256,188,94632,1,0,0:0:0:0:
256,188,94804,1,8,0:0:0:0:
256,188,94975,1,0,0:0:0:0:
256,188,95061,1,0,0:0:0:0:
256,188,95147,1,8,0:0:0:0:
256,188,95318,1,0,0:0:0:0:
256,188,95404,1,0,0:0:0:0:
256,188,95489,1,0,0:0:0:0:
256,188,95575,1,0,0:0:0:0:
256,188,95661,1,8,0:0:0:0:
256,188,95747,1,8,0:0:0:0:
256,188,95832,1,8,0:0:0:0:
256,188,96004,1,8,0:0:0:0:
256,188,96175,1,8,0:0:0:0:
256,188,96347,1,0,0:0:0:0:
256,188,96689,1,0,0:0:0:0:
256,188,96861,1,8,0:0:0:0:
256,188,97032,1,0,0:0:0:0:
256,188,97204,1,8,0:0:0:0:
256,188,97375,1,0,0:0:0:0:
256,188,97547,1,8,0:0:0:0:
256,188,97718,1,0,0:0:0:0:
256,192,97889,12,0,98747,0:0:0:0:
256,188,98918,5,8,0:0:0:0:
256,188,99004,1,8,0:0:0:0:
256,188,99089,1,0,0:0:0:0:
256,188,99261,1,8,0:0:0:0:
256,188,99432,1,0,0:0:0:0:
256,188,99604,1,0,0:0:0:0:
256,188,99775,1,8,0:0:0:0:
256,188,100032,1,8,0:0:0:0:
256,188,100289,1,8,0:0:0:0:
256,188,100375,1,0,0:0:0:0:
256,188,100461,1,8,0:0:0:0:
256,188,100804,1,8,0:0:0:0:
256,188,100975,1,8,0:0:0:0:
256,188,101147,1,8,0:0:0:0:
256,192,101832,1,0,0:0:0:0:
256,192,102004,1,0,0:0:0:0:
256,192,102175,1,8,0:0:0:0:
256,192,102347,1,0,0:0:0:0:
256,192,102518,1,8,0:0:0:0:
256,192,102689,1,0,0:0:0:0:
256,192,102861,1,8,0:0:0:0:
256,192,103032,1,0,0:0:0:0:
256,192,103204,1,8,0:0:0:0:
256,192,103289,1,8,0:0:0:0:
256,192,103375,1,8,0:0:0:0:
256,192,103547,1,8,0:0:0:0:
256,192,103718,1,8,0:0:0:0:
256,192,103804,1,8,0:0:0:0:
256,192,103889,1,0,0:0:0:0:
256,192,104061,1,0,0:0:0:0:
256,192,104232,1,0,0:0:0:0:
256,192,104404,1,8,0:0:0:0:
256,192,104489,1,8,0:0:0:0:
256,192,104575,1,8,0:0:0:0:
256,192,104747,1,0,0:0:0:0:
256,192,104918,1,0,0:0:0:0:
256,192,105089,1,0,0:0:0:0:
256,192,105261,1,8,0:0:0:0:
256,192,105347,1,8,0:0:0:0:
256,192,105432,1,8,0:0:0:0:
256,192,105604,1,0,0:0:0:0:
256,192,105775,1,0,0:0:0:0:
256,192,105947,1,8,0:0:0:0:
256,192,106032,1,8,0:0:0:0:
256,192,106118,1,8,0:0:0:0:
256,192,106289,1,0,0:0:0:0:
256,192,106461,1,8,0:0:0:0:
256,192,106547,1,8,0:0:0:0:
256,192,106632,1,8,0:0:0:0:
256,192,106804,1,0,0:0:0:0:
256,192,106975,1,8,0:0:0:0:
256,192,107061,1,8,0:0:0:0:
256,192,107147,1,8,0:0:0:0:
256,192,107232,1,0,0:0:0:0:
256,192,107318,1,8,0:0:0:0:
256,192,107489,1,0,0:0:0:0:
256,192,107661,1,8,0:0:0:0:
256,192,107832,1,0,0:0:0:0:
256,192,108004,1,8,0:0:0:0:
256,192,108175,1,0,0:0:0:0:
256,192,108347,1,8,0:0:0:0:
256,192,108518,1,8,0:0:0:0:
256,192,108604,1,8,0:0:0:0:
256,192,108689,1,0,0:0:0:0:
256,192,108861,1,0,0:0:0:0:
256,192,109032,1,8,0:0:0:0:
260,192,109204,1,8,0:0:0:0:
256,192,109375,1,0,0:0:0:0:
256,192,109547,1,8,0:0:0:0:
260,192,109718,1,8,0:0:0:0:
260,192,109889,1,0,0:0:0:0:
260,192,110061,1,8,0:0:0:0:
256,196,110404,1,8,0:0:0:0:
256,196,110747,1,0,0:0:0:0:
256,196,111089,1,8,0:0:0:0:
256,196,111432,1,0,0:0:0:0:
256,196,111775,1,8,0:0:0:0:
256,196,112118,1,0,0:0:0:0:
256,196,112461,1,8,0:0:0:0:
256,196,112632,1,0,0:0:0:0:
256,192,112718,1,0,0:0:0:0:
256,196,112804,1,8,0:0:0:0:
256,188,113147,1,8,0:0:0:0:
256,188,113318,1,0,0:0:0:0:
256,188,113489,1,8,0:0:0:0:
256,188,113661,1,8,0:0:0:0:
256,188,113832,1,0,0:0:0:0:
256,188,114004,1,8,0:0:0:0:
256,188,114175,1,8,0:0:0:0:
256,188,114347,1,0,0:0:0:0:
256,188,114518,1,8,0:0:0:0:
256,188,114689,1,8,0:0:0:0:
256,188,114861,1,0,0:0:0:0:
256,188,115032,1,0,0:0:0:0:
256,188,115204,1,8,0:0:0:0:
256,188,115375,1,8,0:0:0:0:
256,192,115461,1,8,0:0:0:0:
256,188,115547,1,8,0:0:0:0:
256,188,115718,1,8,0:0:0:0:
256,188,115889,1,0,0:0:0:0:
256,188,116061,1,0,0:0:0:0:
256,188,116232,1,8,0:0:0:0:
256,192,116318,1,8,0:0:0:0:
256,188,116404,1,8,0:0:0:0:
256,188,116575,1,0,0:0:0:0:
256,188,116747,1,0,0:0:0:0:
256,188,116918,1,8,0:0:0:0:
256,192,117004,1,8,0:0:0:0:
256,188,117089,1,8,0:0:0:0:
256,188,117261,1,0,0:0:0:0:
256,188,117432,1,8,0:0:0:0:
256,192,117518,1,8,0:0:0:0:
256,188,117604,1,8,0:0:0:0:
256,188,117775,1,0,0:0:0:0:
256,188,117947,1,8,0:0:0:0:
256,192,118032,1,8,0:0:0:0:
256,188,118118,1,8,0:0:0:0:
256,192,118204,1,0,0:0:0:0:
256,188,118289,1,8,0:0:0:0:
256,188,118461,1,0,0:0:0:0:
256,188,118632,1,8,0:0:0:0:
256,188,118804,1,0,0:0:0:0:
256,188,118975,1,8,0:0:0:0:
256,188,119147,1,8,0:0:0:0:
256,188,119318,1,0,0:0:0:0:
256,188,119489,1,8,0:0:0:0:
256,188,119661,1,8,0:0:0:0:
256,188,119832,1,0,0:0:0:0:
256,188,120004,1,8,0:0:0:0:
256,188,120175,1,8,0:0:0:0:
256,188,120347,1,8,0:0:0:0:
256,188,120518,1,0,0:0:0:0:
256,188,120689,1,8,0:0:0:0:
256,188,120861,1,0,0:0:0:0:
256,192,121032,12,8,122404,0:0:0:0:
