osu file format v14

[General]
AudioFilename: audio.mp3
AudioLeadIn: 0
PreviewTime: 79877
Countdown: 0
SampleSet: Normal
StackLeniency: 0.7
Mode: 3
LetterboxInBreaks: 0
SpecialStyle: 0
WidescreenStoryboard: 1

[Editor]
DistanceSpacing: 1.8
BeatDivisor: 4
GridSize: 4
TimelineZoom: 1

[Metadata]
Title:Put Your Phones Up
TitleUnicode:Put Your Phones Up
Artist:S3RL feat Minto
ArtistUnicode:S3RL feat Minto
Creator:Takeshi Hiroshi
Version:MX
Source:
Tags:
BeatmapID:1331448
BeatmapSetID:630733

[Difficulty]
HPDrainRate:8
CircleSize:4
OverallDifficulty:8
ApproachRate:5
SliderMultiplier:1.8
SliderTickRate:2

[Events]
//Background and Video events
0,0,"Konachan.com - 225886 azitama_atsushi_(attyuu) female_protagonist_(pokemon_go) hat long_hair phone pokemon.jpg",0,0
//Break Periods
//Storyboard Layer 0 (Background)
//Storyboard Layer 1 (Fail)
//Storyboard Layer 2 (Pass)
//Storyboard Layer 3 (Foreground)
//Storyboard Sound Samples

[TimingPoints]
3089.94167186306,342.857142857143,4,1,0,59,1,0

[HitObjects]
448,192,3089,5,0,0:0:0:0:
64,192,3089,1,0,0:0:0:0:
320,192,3432,1,0,0:0:0:0:
448,192,3775,1,8,0:0:0:0:
192,192,3775,1,8,0:0:0:0:
320,192,3947,1,0,0:0:0:0:
192,192,4118,1,0,0:0:0:0:
320,192,4289,1,0,0:0:0:0:
64,192,4461,1,0,0:0:0:0:
448,192,4461,1,0,0:0:0:0:
320,192,4632,1,0,0:0:0:0:
64,192,4804,1,0,0:0:0:0:
448,192,4804,1,0,0:0:0:0:
320,192,5147,1,8,0:0:0:0:
448,192,5147,1,8,0:0:0:0:
192,192,5318,1,0,0:0:0:0:
64,192,5489,1,0,0:0:0:0:
192,192,5661,1,0,0:0:0:0:
320,192,5832,1,0,0:0:0:0:
448,192,5832,1,0,0:0:0:0:
192,192,6175,1,0,0:0:0:0:
448,192,6518,1,8,0:0:0:0:
64,192,6518,1,8,0:0:0:0:
320,192,6689,1,0,0:0:0:0:
64,192,6861,1,0,0:0:0:0:
192,192,7032,1,0,0:0:0:0:
320,192,7204,1,0,0:0:0:0:
448,192,7204,1,0,0:0:0:0:
192,192,7375,1,0,0:0:0:0:
64,192,7547,1,0,0:0:0:0:
448,192,7547,1,0,0:0:0:0:
320,192,7889,1,8,0:0:0:0:
64,192,7889,1,8,0:0:0:0:
192,192,8061,1,0,0:0:0:0:
320,192,8232,1,0,0:0:0:0:
448,192,8318,1,0,0:0:0:0:
320,192,8404,1,0,0:0:0:0:
448,192,8489,1,0,0:0:0:0:
192,192,8575,1,0,0:0:0:0:
64,192,8575,1,0,0:0:0:0:
320,192,8918,1,0,0:0:0:0:
448,192,9261,1,8,0:0:0:0:
320,192,9432,1,0,0:0:0:0:
64,192,9604,1,0,0:0:0:0:
320,192,9775,1,0,0:0:0:0:
64,192,9947,1,0,0:0:0:0:
192,192,9947,1,0,0:0:0:0:
320,192,10118,1,0,0:0:0:0:
64,192,10289,1,0,0:0:0:0:
448,192,10289,1,0,0:0:0:0:
320,192,10632,1,8,0:0:0:0:
448,192,10632,1,8,0:0:0:0:
192,192,10804,1,0,0:0:0:0:
64,192,10975,1,0,0:0:0:0:
448,192,11147,1,0,0:0:0:0:
192,192,11318,1,0,0:0:0:0:
320,192,11318,1,0,0:0:0:0:
448,192,11661,1,0,0:0:0:0:
192,192,12004,1,8,0:0:0:0:
64,192,12004,1,8,0:0:0:0:
320,192,12175,1,0,0:0:0:0:
64,192,12347,1,0,0:0:0:0:
192,192,12518,1,0,0:0:0:0:
64,192,12689,1,0,0:0:0:0:
448,192,12689,1,0,0:0:0:0:
320,192,12861,1,0,0:0:0:0:
192,192,13032,1,0,0:0:0:0:
448,192,13032,1,0,0:0:0:0:
192,192,13375,1,8,0:0:0:0:
64,192,13375,1,8,0:0:0:0:
320,192,13547,1,0,0:0:0:0:
64,192,13718,1,0,0:0:0:0:
448,192,13889,1,0,0:0:0:0:
64,192,14061,128,0,14747:0:0:0:0:
192,192,14061,1,0,0:0:0:0:
320,192,14404,1,0,0:0:0:0:
320,192,14747,128,8,15432:0:0:0:0:
448,192,14747,1,8,0:0:0:0:
192,192,14918,1,0,0:0:0:0:
64,192,15089,1,0,0:0:0:0:
192,192,15261,1,0,0:0:0:0:
448,192,15432,128,0,15947:0:0:0:0:
64,192,15432,1,0,0:0:0:0:
192,192,15604,1,0,0:0:0:0:
64,192,15775,1,0,0:0:0:0:
320,192,15775,1,0,0:0:0:0:
192,192,15947,128,0,16461:0:0:0:0:
320,192,16118,1,8,0:0:0:0:
64,192,16118,1,8,0:0:0:0:
448,192,16289,1,0,0:0:0:0:
64,192,16461,128,0,16804:0:0:0:0:
320,192,16461,1,0,0:0:0:8:
448,192,16632,1,0,0:0:0:0:
320,192,16804,128,0,18175:0:0:0:0:
192,192,16804,1,0,0:0:0:0:
64,192,17147,1,0,0:0:0:0:
448,192,17489,1,8,0:0:0:0:
64,192,17489,1,8,0:0:0:0:
192,192,17661,1,0,0:0:0:0:
448,192,17832,1,0,0:0:0:0:
192,192,18004,1,0,0:0:0:0:
448,192,18175,1,0,0:0:0:0:
64,192,18175,128,0,19547:0:0:0:0:
192,192,18347,1,0,0:0:0:0:
320,192,18518,1,0,0:0:0:0:
448,192,18518,1,0,0:0:0:0:
320,192,18861,1,8,0:0:0:0:
448,192,18861,1,8,0:0:0:0:
192,192,19032,1,0,0:0:0:0:
320,192,19204,1,0,0:0:0:0:
448,192,19289,1,0,0:0:0:0:
320,192,19375,1,0,0:0:0:0:
448,192,19461,1,0,0:0:0:0:
320,192,19547,128,0,20232:0:0:0:0:
192,192,19547,1,0,0:0:0:0:
448,192,19889,1,0,0:0:0:0:
448,192,20232,128,8,20918:0:0:0:0:
64,192,20232,1,8,0:0:0:0:
192,192,20404,1,0,0:0:0:0:
320,192,20575,1,0,0:0:0:0:
64,192,20747,1,0,0:0:0:0:
192,192,20918,128,0,21432:0:0:0:0:
320,192,20918,1,0,0:0:0:0:
64,192,21089,1,0,0:0:0:0:
320,192,21261,1,0,0:0:0:0:
448,192,21261,1,0,0:0:0:0:
64,192,21432,128,0,21947:0:0:0:0:
448,192,21604,1,8,0:0:0:0:
192,192,21604,1,8,0:0:0:0:
320,192,21775,1,0,0:0:0:0:
192,192,21947,128,0,22289:0:0:0:0:
448,192,21947,1,0,0:0:0:0:
320,192,22118,1,0,0:0:0:0:
448,192,22289,128,0,23661:0:0:0:0:
64,192,22289,1,0,0:0:0:0:
320,192,22632,1,0,0:0:0:0:
192,192,22975,1,8,0:0:0:0:
320,192,22975,1,8,0:0:0:0:
64,192,23147,1,0,0:0:0:0:
320,192,23318,1,0,0:0:0:0:
192,192,23489,1,0,0:0:0:0:
64,192,23661,128,0,25032:0:0:0:0:
320,192,23661,1,0,0:0:0:0:
192,192,23832,1,0,0:0:0:0:
320,192,24004,1,0,0:0:0:0:
448,192,24004,1,0,0:0:0:0:
448,192,24347,1,8,0:0:0:0:
320,192,24518,1,0,0:0:0:0:
192,192,24689,1,0,0:0:0:0:
320,192,24861,1,0,0:0:0:0:
192,192,25032,1,0,0:0:0:0:
448,192,25032,1,0,0:0:0:0:
320,192,25375,1,2,2:0:0:0:
192,192,25718,1,2,2:0:0:0:
64,192,25718,1,8,0:0:0:0:
320,192,26061,1,2,2:0:0:0:
448,192,26404,1,0,0:0:0:0:
192,192,26404,1,2,2:0:0:0:
320,192,26747,1,2,2:0:0:0:
448,192,26747,1,0,0:0:0:0:
192,192,26918,1,2,2:0:0:0:
64,192,27089,1,8,0:0:0:0:
448,192,27089,1,8,0:0:0:0:
320,192,27432,1,0,0:0:0:0:
192,192,27604,1,2,2:0:0:0:
64,192,27775,1,2,2:0:0:0:
448,192,27775,1,0,0:0:0:0:
192,192,28118,1,0,0:0:0:0:
320,192,28461,1,10,2:0:0:0:
192,192,28461,1,8,0:0:0:0:
448,192,28632,1,2,2:0:0:0:
192,192,29147,1,2,2:0:0:0:
448,192,29147,1,0,0:0:0:0:
448,192,29489,1,0,0:0:0:0:
320,192,29661,1,2,2:0:0:0:
192,192,29832,1,8,0:0:0:0:
64,192,29832,1,8,0:0:0:0:
320,192,30175,1,2,2:0:0:0:
192,192,30518,1,2,2:0:0:0:
448,192,30518,1,0,0:0:0:0:
320,192,30861,1,2,2:0:0:0:
448,192,31032,1,2,2:0:0:0:
64,192,31204,1,8,0:0:0:0:
192,192,31204,1,8,0:0:0:0:
320,192,31547,1,2,2:0:0:0:
192,192,31718,1,2,2:0:0:0:
64,192,31889,1,0,0:0:0:0:
448,192,31889,1,0,0:0:0:0:
192,192,32232,1,2,2:0:0:0:
64,192,32232,1,0,0:0:0:0:
320,192,32404,1,2,2:0:0:0:
448,192,32575,1,8,0:0:0:0:
192,192,32575,1,8,0:0:0:0:
192,192,32918,1,2,2:0:0:0:
320,192,33089,1,2,2:0:0:0:
192,192,33261,1,0,0:0:0:0:
448,192,33261,1,2,2:0:0:0:
320,192,33604,1,2,2:0:0:0:
64,192,33947,1,8,0:0:0:0:
320,192,33947,1,8,0:0:0:0:
192,192,34289,1,2,2:0:0:0:
64,192,34632,1,0,0:0:0:0:
448,192,34632,1,0,0:0:0:0:
320,192,34975,1,2,2:0:0:0:
192,192,34975,1,0,0:0:0:0:
64,192,35318,1,8,0:0:0:0:
448,192,35318,1,8,0:0:0:0:
448,192,35661,1,10,2:0:0:0:
192,192,35661,1,8,0:0:0:0:
320,192,35832,1,10,2:0:0:0:
64,192,35832,1,8,0:0:0:0:
192,192,36004,1,0,0:0:0:0:
448,192,36004,1,0,0:0:0:0:
64,192,36347,1,2,2:0:0:0:
192,192,36518,1,2,2:0:0:0:
320,192,36689,1,8,0:0:0:0:
448,192,36689,1,8,0:0:0:0:
192,192,36861,1,2,2:0:0:0:
64,192,37032,1,0,2:0:0:0:
320,192,37204,1,2,2:0:0:0:
448,192,37375,1,2,2:0:0:0:
64,192,37375,1,0,0:0:0:0:
320,192,37718,1,2,2:0:0:0:
448,192,37718,1,0,2:0:0:0:
192,192,37889,1,2,2:0:0:0:
64,192,38061,1,8,0:0:0:0:
448,192,38061,1,8,0:0:0:0:
448,192,38404,1,2,2:0:0:0:
320,192,38575,1,2,2:0:0:0:
192,192,38747,1,0,0:0:0:0:
64,192,38747,1,0,0:0:0:0:
192,192,39089,1,0,2:0:0:0:
64,192,39432,1,8,0:0:0:0:
320,192,39432,1,10,2:0:0:0:
448,192,39604,1,2,2:0:0:0:
192,192,39775,1,0,2:0:0:0:
320,192,40118,1,2,2:0:0:0:
64,192,40118,1,0,0:0:0:0:
448,192,40461,1,0,0:0:0:0:
192,192,40461,1,0,0:0:0:0:
320,192,40632,1,2,2:0:0:0:
192,192,40804,1,8,0:0:0:0:
64,192,40804,1,8,0:0:0:0:
64,192,41147,1,2,2:0:0:0:
320,192,41318,1,2,2:0:0:0:
64,192,41489,1,2,2:0:0:0:
448,192,41489,1,0,0:0:0:0:
320,192,41832,1,0,2:0:0:0:
64,192,42175,1,8,0:0:0:0:
192,192,42175,1,10,2:0:0:0:
320,192,42347,1,2,2:0:0:0:
448,192,42518,1,0,2:0:0:0:
320,192,42689,1,2,2:0:0:0:
64,192,42861,1,0,0:0:0:0:
192,192,42861,1,0,0:0:0:0:
192,192,43204,1,0,0:0:0:0:
448,192,43204,1,0,0:0:0:0:
320,192,43375,1,0,0:0:0:0:
64,192,43547,1,8,0:0:0:0:
192,192,43547,1,8,0:0:0:0:
320,192,43889,1,2,2:0:0:0:
192,192,44232,1,0,0:0:0:0:
448,192,44232,1,2,2:0:0:0:
320,192,44575,1,2,2:0:0:0:
448,192,44575,1,8,0:0:0:0:
192,192,44918,1,0,0:0:0:0:
64,192,44918,1,8,0:0:0:0:
320,192,45261,1,0,0:0:0:0:
448,192,45261,1,8,0:0:0:0:
64,192,45604,1,8,0:0:0:0:
320,192,45604,1,2,2:0:0:0:
192,192,45775,1,8,0:0:0:0:
64,192,45947,1,8,0:0:0:0:
192,192,46118,1,8,0:0:0:0:
448,192,46118,1,2,2:0:0:0:
64,192,46289,1,8,0:0:0:0:
192,192,46461,1,8,0:0:0:0:
64,192,46632,1,8,0:0:0:0:
320,192,46632,1,2,2:0:0:0:
192,192,46804,1,8,0:0:0:0:
448,192,46975,1,0,0:0:0:0:
320,192,46975,1,0,0:0:0:0:
64,192,47318,1,0,0:0:0:0:
192,192,47489,1,2,2:0:0:0:
320,192,47575,1,2,2:0:0:0:
448,192,47661,1,8,0:0:0:0:
64,192,47661,1,8,0:0:0:0:
192,192,47832,1,0,0:0:0:0:
320,192,48004,1,0,0:0:0:0:
448,192,48175,1,0,0:0:0:0:
192,192,48347,1,2,2:0:0:0:
64,192,48347,1,0,0:0:0:0:
320,192,48518,1,0,0:0:0:0:
448,192,48689,1,0,0:0:0:0:
192,192,48689,1,0,0:0:0:0:
320,192,48861,1,2,2:0:0:0:
192,192,49032,1,8,0:0:0:0:
64,192,49032,1,8,0:0:0:0:
448,192,49204,1,0,0:0:0:0:
320,192,49375,1,2,2:0:0:0:
192,192,49547,1,2,2:0:0:0:
320,192,49632,1,2,2:0:0:0:
448,192,49718,1,0,0:0:0:0:
64,192,49718,1,0,0:0:0:0:
320,192,50061,1,0,0:0:0:0:
448,192,50232,1,2,2:0:0:0:
320,192,50318,1,2,2:0:0:0:
192,192,50404,1,8,0:0:0:0:
64,192,50404,1,8,0:0:0:0:
320,192,50575,1,0,0:0:0:0:
448,192,50747,1,0,0:0:0:0:
320,192,50918,1,0,0:0:0:0:
192,192,51089,1,2,2:0:0:0:
64,192,51089,1,0,0:0:0:0:
320,192,51261,1,0,0:0:0:0:
448,192,51432,1,0,0:0:0:0:
192,192,51432,1,0,0:0:0:0:
192,192,51775,1,8,0:0:0:0:
64,192,51775,1,8,0:0:0:0:
448,192,51947,1,0,0:0:0:0:
320,192,52118,1,0,0:0:0:0:
448,192,52204,1,0,0:0:0:0:
320,192,52289,1,0,0:0:0:0:
448,192,52375,1,0,0:0:0:0:
192,192,52461,1,2,2:0:0:0:
64,192,52461,1,0,0:0:0:0:
320,192,52804,1,0,0:0:0:0:
64,192,52975,1,2,2:0:0:0:
448,192,53147,1,8,0:0:0:0:
192,192,53147,1,10,2:0:0:0:
320,192,53318,1,0,0:0:0:0:
192,192,53489,1,0,0:0:0:0:
64,192,53661,1,0,0:0:0:0:
320,192,53832,1,2,2:0:0:0:
448,192,53832,1,0,0:0:0:0:
192,192,54004,1,0,0:0:0:0:
64,192,54175,1,0,0:0:0:0:
320,192,54175,1,0,0:0:0:0:
448,192,54347,1,2,2:0:0:0:
320,192,54518,1,8,0:0:0:0:
192,192,54518,1,8,0:0:0:0:
448,192,54689,1,0,0:0:0:0:
64,192,54861,1,2,2:0:0:0:
192,192,55032,1,2,2:0:0:0:
64,192,55118,1,2,2:0:0:0:
320,192,55204,1,0,0:0:0:0:
448,192,55204,1,0,0:0:0:0:
192,192,55289,1,2,2:0:0:0:
64,192,55375,1,2,2:0:0:0:
192,192,55547,1,0,0:0:0:0:
320,192,55718,1,0,0:0:0:0:
448,192,55889,1,8,0:0:0:0:
192,192,55889,1,8,0:0:0:0:
320,192,56232,1,0,0:0:0:0:
192,192,56404,1,0,0:0:0:0:
64,192,56575,1,0,0:0:0:0:
320,192,56575,1,0,0:0:0:0:
448,192,56747,1,0,0:0:0:0:
320,192,56918,1,0,0:0:0:0:
192,192,56918,1,0,0:0:0:0:
64,192,57089,1,0,0:0:0:0:
448,192,57261,1,8,0:0:0:0:
192,192,57261,1,8,0:0:0:0:
320,192,57432,1,0,0:0:0:0:
192,192,57604,1,0,0:0:0:0:
64,192,57775,1,0,0:0:0:0:
192,192,57947,1,0,0:0:0:0:
320,192,57947,1,0,0:0:0:0:
448,192,58289,1,0,0:0:0:0:
448,192,58461,1,0,0:0:0:0:
64,192,58632,1,8,0:0:0:0:
192,192,58632,1,8,0:0:0:0:
192,192,58804,1,0,0:0:0:0:
320,192,58975,1,0,0:0:0:0:
64,192,59318,1,0,0:0:0:0:
192,192,59318,1,0,0:0:0:0:
320,192,59489,1,0,0:0:0:0:
448,192,59661,1,0,0:0:0:0:
64,192,59661,1,0,0:0:0:0:
448,192,59832,1,0,0:0:0:0:
192,192,60004,1,8,0:0:0:0:
64,192,60004,1,8,0:0:0:0:
192,192,60175,1,0,0:0:0:0:
320,192,60347,1,0,0:0:0:0:
64,192,60689,1,0,0:0:0:0:
448,192,60689,1,0,0:0:0:0:
64,192,61032,1,0,0:0:0:0:
64,192,61204,1,0,0:0:0:0:
320,192,61375,1,8,0:0:0:0:
448,192,61375,1,8,0:0:0:0:
320,192,61547,1,0,0:0:0:0:
192,192,61718,1,0,0:0:0:0:
320,192,62061,1,0,0:0:0:0:
448,192,62061,1,0,0:0:0:0:
192,192,62232,1,0,0:0:0:0:
64,192,62404,1,0,0:0:0:0:
448,192,62404,1,0,0:0:0:0:
320,192,62747,1,8,0:0:0:0:
448,192,62747,1,8,0:0:0:0:
192,192,63089,1,0,0:0:0:0:
320,192,63261,1,0,0:0:0:0:
64,192,63432,1,0,0:0:0:0:
448,192,63432,1,0,0:0:0:0:
320,192,63775,1,0,0:0:0:0:
320,192,63947,1,0,0:0:0:0:
64,192,64118,1,8,0:0:0:0:
448,192,64118,1,8,0:0:0:0:
64,192,64289,1,0,0:0:0:0:
192,192,64461,1,0,0:0:0:0:
192,192,64804,1,0,0:0:0:0:
320,192,64804,1,0,0:0:0:0:
448,192,64975,1,0,0:0:0:0:
64,192,65147,1,0,0:0:0:0:
320,192,65147,1,0,0:0:0:0:
320,192,65318,1,0,0:0:0:0:
64,192,65489,1,8,0:0:0:0:
448,192,65489,1,8,0:0:0:0:
64,192,65661,1,0,0:0:0:0:
192,192,65832,1,0,0:0:0:0:
320,192,66175,1,0,0:0:0:0:
192,192,66175,1,0,0:0:0:0:
448,192,66518,1,0,0:0:0:0:
64,192,66518,1,0,0:0:0:0:
192,192,66861,1,8,0:0:0:0:
320,192,66861,1,8,0:0:0:0:
448,192,67204,1,0,0:0:0:0:
192,192,67204,1,0,0:0:0:0:
64,192,67547,1,0,0:0:0:0:
320,192,67547,1,0,0:0:0:0:
192,192,67889,1,0,0:0:0:0:
448,192,67889,1,0,0:0:0:0:
320,192,68232,1,8,0:0:0:0:
192,192,68232,1,8,0:0:0:0:
192,192,68575,1,0,0:0:0:0:
320,192,68575,1,0,0:0:0:0:
192,192,68918,1,8,0:0:0:0:
320,192,68918,1,8,0:0:0:0:
64,192,69175,1,0,0:0:0:0:
192,192,69261,1,8,0:0:0:0:
320,192,69261,1,8,0:0:0:0:
448,192,69432,1,0,0:0:0:0:
192,192,69604,1,8,0:0:0:0:
320,192,69604,1,8,0:0:0:0:
64,192,69689,1,0,0:0:0:0:
64,192,69947,1,0,0:0:0:0:
192,192,69947,1,0,0:0:0:0:
448,192,70118,1,0,0:0:0:0:
320,192,70118,1,0,0:0:0:0:
320,192,70289,1,8,0:0:0:0:
192,192,70289,1,8,0:0:0:0:
64,192,70547,1,0,0:0:0:0:
192,192,70632,1,8,0:0:0:0:
320,192,70632,1,8,0:0:0:0:
448,192,70804,1,0,0:0:0:0:
64,192,70975,1,8,0:0:0:0:
448,192,70975,1,8,0:0:0:0:
320,192,71061,1,0,0:0:0:0:
192,192,71147,1,0,0:0:0:0:
64,192,71147,1,0,0:0:0:0:
448,192,71318,1,0,0:0:0:0:
64,192,71318,1,0,0:0:0:0:
320,192,71489,1,0,0:0:0:0:
448,192,71489,1,0,0:0:0:0:
64,192,71661,1,0,0:0:0:0:
320,192,71661,1,0,0:0:0:0:
192,192,71832,1,0,0:0:0:0:
448,192,71832,1,0,0:0:0:0:
320,192,72004,1,0,0:0:0:0:
64,192,72004,1,0,0:0:0:0:
448,192,72175,1,0,0:0:0:0:
192,192,72175,1,0,0:0:0:0:
64,192,72347,1,0,0:0:0:0:
320,192,72347,1,0,0:0:0:0:
192,192,72518,1,0,0:0:0:0:
448,192,72518,1,0,0:0:0:0:
320,192,72689,1,0,0:0:0:0:
448,192,72689,1,0,0:0:0:0:
192,192,72861,1,0,0:0:0:0:
64,192,72861,1,0,0:0:0:0:
320,192,73032,1,0,0:0:0:0:
192,192,73032,1,0,0:0:0:0:
448,192,73204,1,0,0:0:0:0:
64,192,73204,1,0,0:0:0:0:
192,192,73375,1,0,0:0:0:0:
320,192,73375,1,0,0:0:0:0:
64,192,73547,1,0,0:0:0:0:
448,192,73547,1,0,0:0:0:0:
320,192,73718,1,0,0:0:0:0:
192,192,73718,1,0,0:0:0:0:
64,192,73889,1,0,0:0:0:0:
448,192,73889,1,0,0:0:0:0:
64,192,74061,1,0,0:0:0:0:
448,192,74061,1,0,0:0:0:0:
448,192,74232,1,0,0:0:0:0:
64,192,74232,1,0,0:0:0:0:
320,192,74318,1,8,0:0:0:0:
192,192,74404,1,8,0:0:0:0:
64,192,74404,1,0,0:0:0:70:
320,192,74489,1,8,0:0:0:0:
448,192,74489,1,0,0:0:0:0:
192,192,74575,1,8,0:0:0:0:
64,192,74575,1,0,0:0:0:70:
320,192,74661,1,8,0:0:0:0:
448,192,74661,1,0,0:0:0:0:
192,192,74747,1,8,0:0:0:0:
64,192,74747,1,0,0:0:0:70:
320,192,74832,1,8,0:0:0:0:
448,192,74832,1,0,0:0:0:0:
192,192,74918,1,8,0:0:0:0:
64,192,74918,1,0,0:0:0:70:
320,192,75004,1,8,0:0:0:0:
448,192,75004,1,0,0:0:0:0:
192,192,75089,1,8,0:0:0:0:
64,192,75089,1,0,0:0:0:70:
320,192,75175,1,8,0:0:0:0:
448,192,75175,1,0,0:0:0:0:
192,192,75261,1,8,0:0:0:0:
64,192,75261,1,0,0:0:0:70:
320,192,75347,1,8,0:0:0:0:
448,192,75347,1,0,0:0:0:0:
192,192,75432,1,8,0:0:0:0:
64,192,75432,1,0,0:0:0:70:
320,192,75518,1,8,0:0:0:0:
448,192,75518,1,0,0:0:0:0:
192,192,75604,1,8,0:0:0:0:
64,192,75604,1,0,0:0:0:70:
320,192,75689,1,8,0:0:0:0:
448,192,75689,1,0,0:0:0:0:
192,192,75775,1,8,0:0:0:0:
64,192,75775,1,0,0:0:0:70:
320,192,75861,1,8,0:0:0:0:
448,192,75861,1,0,0:0:0:0:
192,192,75947,1,8,0:0:0:0:
64,192,75947,1,0,0:0:0:70:
320,192,76032,1,8,0:0:0:0:
448,192,76032,1,0,0:0:0:0:
192,192,76118,1,8,0:0:0:0:
64,192,76118,1,0,0:0:0:70:
320,192,76204,1,8,0:0:0:0:
448,192,76204,1,0,0:0:0:0:
192,192,76289,1,8,0:0:0:0:
64,192,76289,1,0,0:0:0:70:
320,192,76375,1,8,0:0:0:0:
448,192,76375,1,0,0:0:0:0:
192,192,76461,1,8,0:0:0:0:
64,192,76461,1,0,0:0:0:70:
192,192,76804,1,0,0:0:0:0:
320,192,76975,1,0,0:0:0:0:
448,192,77061,1,0,0:0:0:0:
64,192,77147,1,0,0:0:0:0:
192,192,77189,1,0,0:0:0:0:
320,192,77232,1,0,0:0:0:0:
448,192,77275,1,0,0:0:0:0:
64,192,77318,1,0,0:0:0:0:
192,192,77361,1,0,0:0:0:0:
320,192,77404,1,0,0:0:0:0:
448,192,77447,1,0,0:0:0:0:
64,192,77489,1,0,0:0:0:0:
192,192,77532,1,0,0:0:0:0:
320,192,77575,1,0,0:0:0:0:
448,192,77618,1,0,0:0:0:0:
64,192,77661,1,0,0:0:0:0:
192,192,77704,1,0,0:0:0:0:
320,192,77747,1,0,0:0:0:0:
448,192,77789,1,0,0:0:0:0:
64,192,77832,1,0,0:0:0:0:
192,192,77875,1,0,0:0:0:0:
320,192,77918,1,0,0:0:0:0:
448,192,77961,1,0,0:0:0:0:
64,192,78004,1,0,0:0:0:0:
192,192,78089,1,0,0:0:0:0:
320,192,78175,1,0,0:0:0:0:
448,192,78261,1,0,0:0:0:0:
64,192,78347,1,0,0:0:0:0:
192,192,78432,1,0,0:0:0:0:
320,192,78518,1,0,0:0:0:0:
448,192,78518,1,0,0:0:0:0:
192,192,78689,1,0,0:0:0:0:
64,192,78861,1,0,0:0:0:0:
192,192,79032,1,0,0:0:0:0:
320,192,79204,1,0,0:0:0:0:
448,192,79204,1,0,0:0:0:0:
192,192,79547,1,0,0:0:0:0:
448,192,79632,1,0,0:0:0:0:
64,192,79718,1,0,0:0:0:0:
320,192,79889,1,0,0:0:0:0:
192,192,79889,1,0,0:0:0:0:
64,192,80232,128,0,80575:0:0:0:0:
192,192,80232,1,2,3:0:0:0:
192,192,80404,128,0,80575:0:0:0:0:
448,192,80575,128,0,80918:0:0:0:0:
320,192,80575,1,2,3:0:0:0:
320,192,80747,128,0,80918:0:0:0:0:
192,192,80918,1,2,3:0:0:0:
64,192,80918,128,0,81261:0:0:0:0:
192,192,81089,128,0,81261:0:0:0:0:
448,192,81261,128,0,81432:0:0:0:0:
320,192,81261,1,2,3:0:0:0:
192,192,81432,128,0,81604:0:0:0:0:
448,192,81604,128,0,81775:0:0:0:0:
320,192,81604,1,2,3:0:0:0:
64,192,81775,128,0,81947:0:0:0:0:
320,192,81947,1,0,0:0:0:0:
448,192,82032,1,0,0:0:0:0:
320,192,82118,1,0,0:0:0:0:
192,192,82204,1,0,0:0:0:0:
64,192,82289,1,8,0:0:0:0:
448,192,82289,128,8,82632:0:0:0:0:
320,192,82461,128,0,82632:0:0:0:0:
192,192,82632,1,0,0:0:0:0:
64,192,82632,1,0,0:0:0:0:
192,192,82804,128,2,82975:3:0:0:0:
64,192,82975,128,0,83318:0:0:0:0:
320,192,82975,1,2,3:0:0:0:
192,192,83147,128,0,83318:0:0:0:0:
448,192,83318,128,0,83661:0:0:0:0:
320,192,83318,1,2,3:0:0:0:
320,192,83489,128,0,83661:0:0:0:0:
64,192,83661,128,0,84004:0:0:0:0:
192,192,83661,1,2,3:0:0:0:
192,192,83832,128,0,84004:0:0:0:0:
448,192,84004,128,0,84175:0:0:0:0:
320,192,84004,1,2,3:0:0:0:
192,192,84175,128,0,84347:0:0:0:0:
448,192,84347,128,0,84518:0:0:0:0:
320,192,84347,1,2,3:0:0:0:
64,192,84518,128,0,84689:0:0:0:0:
320,192,84689,1,8,0:0:0:0:
192,192,84689,128,8,85032:0:0:0:0:
448,192,84861,128,0,85204:0:0:0:0:
64,192,85032,128,0,85375:0:0:0:0:
320,192,85032,1,0,0:0:0:0:
192,192,85204,1,0,0:0:0:0:
320,192,85375,1,0,0:0:0:0:
448,192,85375,1,0,0:0:0:0:
320,192,85547,128,8,85718:0:0:0:0:
192,192,85632,1,8,0:0:0:0:
448,192,85718,128,2,86061:3:0:0:0:
64,192,85718,1,8,0:0:0:0:
320,192,85889,128,0,86061:0:0:0:0:
192,192,86061,1,2,3:0:0:0:
64,192,86061,128,0,86404:0:0:0:0:
192,192,86232,128,8,86404:0:0:0:0:
320,192,86318,1,8,0:0:0:0:
448,192,86404,128,10,86747:3:0:0:0:
320,192,86575,1,8,0:0:0:0:
192,192,86661,1,8,0:0:0:0:
64,192,86747,128,10,87089:3:0:0:0:
192,192,86918,128,0,87089:0:0:0:0:
320,192,87089,128,0,87261:0:0:0:0:
448,192,87261,128,0,87432:0:0:0:0:
64,192,87432,128,0,87775:0:0:0:0:
192,192,87432,128,0,87604:0:0:0:0:
320,192,87775,1,0,0:0:0:0:
448,192,87775,1,0,0:0:0:0:
448,192,87861,1,0,0:0:0:0:
320,192,87861,1,0,0:0:0:0:
192,192,87947,1,0,0:0:0:0:
64,192,87947,1,0,0:0:0:0:
320,192,88032,1,0,0:0:0:0:
64,192,88118,1,0,0:0:0:0:
448,192,88118,1,0,0:0:0:0:
320,192,88289,128,0,88461:0:0:0:0:
64,192,88461,1,0,0:0:0:0:
448,192,88461,1,0,0:0:0:0:
192,192,88632,128,0,88804:0:0:0:0:
64,192,88804,1,0,0:0:0:0:
448,192,88804,1,0,0:0:0:0:
320,192,88975,128,0,89147:0:0:0:0:
192,192,89061,1,0,0:0:0:0:
64,192,89147,1,0,0:0:0:0:
448,192,89147,1,0,0:0:0:0:
192,192,89318,128,0,89489:0:0:0:0:
64,192,89489,1,0,0:0:0:0:
448,192,89489,1,0,0:0:0:0:
320,192,89661,128,0,89832:0:0:0:0:
448,192,89832,1,0,0:0:0:0:
192,192,89832,1,0,0:0:0:0:
320,192,90004,1,0,0:0:0:0:
192,192,90175,1,0,0:0:0:0:
64,192,90175,1,0,0:0:0:0:
64,192,90347,1,0,0:0:0:0:
192,192,90347,1,0,0:0:0:0:
192,192,90518,128,0,90861:0:0:0:0:
64,192,90689,128,0,90861:0:0:0:0:
448,192,90861,1,0,0:0:0:0:
320,192,90861,1,4,0:0:0:0:
448,192,91032,128,0,91204:0:0:0:0:
192,192,91204,128,0,91547:0:0:0:0:
64,192,91204,1,0,0:0:0:0:
320,192,91375,128,0,91547:2:0:0:0:
448,192,91547,128,0,91889:0:0:0:0:
64,192,91547,1,0,0:0:0:0:
64,192,91718,128,0,91889:2:0:0:0:
320,192,91889,128,0,92232:0:0:0:0:
192,192,91889,1,0,0:0:0:0:
192,192,92061,128,0,92232:2:0:0:0:
64,192,92232,128,0,92575:0:0:0:0:
448,192,92232,1,0,0:0:0:0:
448,192,92404,128,0,92575:2:0:0:0:
192,192,92575,128,0,92918:0:0:0:0:
320,192,92575,1,0,0:0:0:0:
320,192,92747,128,0,92918:2:0:0:0:
64,192,92918,1,0,0:0:0:0:
448,192,92918,1,0,0:0:0:0:
320,192,93089,128,0,93261:2:0:0:0:
192,192,93261,128,0,93432:0:0:0:0:
64,192,93261,128,0,93604:0:0:0:0:
448,192,93604,128,0,93775:0:0:0:0:
192,192,93604,1,0,0:0:0:0:
320,192,93775,1,0,2:0:0:0:
64,192,93947,128,0,94289:0:0:0:0:
192,192,93947,1,0,0:0:0:0:
192,192,94118,128,0,94289:2:0:0:0:
448,192,94289,128,0,94632:0:0:0:0:
320,192,94289,1,0,0:0:0:0:
320,192,94461,128,0,94632:2:0:0:0:
64,192,94632,128,0,94975:0:0:0:0:
192,192,94632,1,0,0:0:0:0:
192,192,94804,128,0,94975:2:0:0:0:
448,192,94975,1,0,0:0:0:0:
320,192,95061,1,0,0:0:0:0:
448,192,95147,128,0,95318:2:0:0:0:
64,192,95318,1,0,0:0:0:0:
448,192,95404,1,0,0:0:0:0:
64,192,95489,1,0,0:0:0:0:
448,192,95575,1,0,0:0:0:0:
192,192,95661,1,0,0:0:0:0:
320,192,95747,1,0,0:0:0:0:
448,192,95832,1,0,0:0:0:0:
64,192,96004,128,2,96089:2:0:0:0:
192,192,96004,128,0,96089:0:0:0:0:
64,192,96175,128,2,96261:2:0:0:0:
192,192,96175,128,0,96261:0:0:0:0:
448,192,96347,1,0,0:0:0:0:
320,192,96347,128,0,96689:0:0:0:0:
64,192,96689,1,0,0:0:0:0:
448,192,96689,128,0,96861:0:0:0:0:
320,192,96861,1,0,0:0:0:0:
64,192,97032,128,0,97204:0:0:0:0:
192,192,97032,1,0,0:0:0:0:
320,192,97204,1,0,0:0:0:0:
448,192,97375,128,0,97547:0:0:0:0:
192,192,97375,1,0,0:0:0:0:
320,192,97547,1,0,0:0:0:0:
64,192,97718,128,0,97889:0:0:0:0:
192,192,97718,1,0,0:0:0:0:
320,192,97889,1,0,0:0:0:0:
448,192,98061,128,0,98918:0:0:0:0:
192,192,98061,128,0,98232:0:0:0:0:
320,192,98232,1,0,0:0:0:0:
64,192,98404,128,0,98575:0:0:0:0:
192,192,98404,1,0,0:0:0:0:
320,192,98575,1,0,0:0:0:0:
320,192,98918,1,0,0:0:0:0:
192,192,99004,1,0,0:0:0:0:
64,192,99089,1,0,0:0:0:0:
320,192,99089,1,0,0:0:0:0:
448,192,99261,1,0,0:0:0:0:
192,192,99432,1,0,0:0:0:0:
320,192,99604,1,0,0:0:0:0:
64,192,99604,1,0,0:0:0:0:
448,192,99775,1,0,0:0:0:0:
192,192,100118,1,0,0:0:0:0:
448,192,100289,1,0,0:0:0:0:
64,192,100289,1,0,0:0:0:0:
320,192,100375,1,0,0:0:0:0:
192,192,100461,1,0,0:0:0:0:
64,192,100461,1,0,0:0:0:0:
448,192,100804,1,0,0:0:0:0:
320,192,100975,1,0,0:0:0:0:
192,192,101147,1,0,0:0:0:0:
64,192,101147,1,0,0:0:0:0:
320,192,101318,1,0,0:0:0:0:
448,192,101489,128,0,101832:0:0:0:0:
192,192,101832,1,0,0:0:0:0:
64,192,101832,1,0,0:0:0:0:
320,192,102004,1,0,0:0:0:0:
192,192,102175,1,8,0:0:0:0:
448,192,102175,1,8,0:0:0:0:
320,192,102347,1,0,0:0:0:0:
192,192,102518,1,0,0:0:0:0:
64,192,102518,1,0,0:0:0:0:
320,192,102689,1,0,0:0:0:0:
192,192,102861,1,8,0:0:0:0:
448,192,102861,1,8,0:0:0:0:
64,192,103032,1,0,0:0:0:0:
320,192,103204,1,0,0:0:0:0:
448,192,103204,1,0,0:0:0:0:
192,192,103375,1,0,0:0:0:0:
64,192,103547,1,8,0:0:0:0:
320,192,103547,1,8,0:0:0:0:
192,192,103718,1,0,0:0:0:0:
448,192,103718,1,0,0:0:0:0:
192,192,103889,1,0,0:0:0:0:
64,192,103889,1,0,0:0:0:0:
320,192,104061,1,0,0:0:0:0:
192,192,104232,1,8,0:0:0:0:
448,192,104232,1,8,0:0:0:0:
64,192,104404,1,8,0:0:0:0:
192,192,104404,1,8,0:0:0:0:
320,192,104575,1,0,0:0:0:0:
448,192,104575,1,0,0:0:0:0:
192,192,104747,1,0,0:0:0:0:
64,192,104918,1,8,0:0:0:0:
320,192,104918,1,8,0:0:0:0:
448,192,105089,1,0,0:0:0:0:
320,192,105261,1,0,0:0:0:0:
192,192,105261,1,0,0:0:0:0:
64,192,105432,1,0,0:0:0:0:
192,192,105604,1,8,0:0:0:0:
448,192,105604,1,8,0:0:0:0:
320,192,105775,1,0,0:0:0:0:
192,192,105947,1,0,0:0:0:0:
64,192,105947,1,0,0:0:0:0:
448,192,106118,1,0,0:0:0:0:
320,192,106289,1,8,0:0:0:0:
64,192,106289,1,8,0:0:0:0:
192,192,106461,1,0,0:0:0:0:
448,192,106461,1,0,0:0:0:0:
64,192,106632,1,0,0:0:0:0:
320,192,106632,1,0,0:0:0:0:
192,192,106804,1,0,0:0:0:0:
64,192,106975,1,8,0:0:0:0:
448,192,106975,1,8,0:0:0:0:
320,192,107147,1,8,0:0:0:0:
192,192,107318,1,0,0:0:0:0:
64,192,107318,1,0,0:0:0:0:
320,192,107489,1,0,0:0:0:0:
192,192,107661,1,8,0:0:0:0:
448,192,107661,1,8,0:0:0:0:
320,192,107832,1,0,0:0:0:0:
192,192,108004,1,0,0:0:0:0:
64,192,108004,1,0,0:0:0:0:
320,192,108175,1,0,0:0:0:0:
448,192,108175,1,0,0:0:0:0:
64,192,108347,1,8,0:0:0:0:
320,192,108347,1,8,0:0:0:0:
192,192,108518,1,0,0:0:0:0:
64,192,108689,1,0,0:0:0:0:
448,192,108689,1,0,0:0:0:0:
320,192,108861,1,0,0:0:0:0:
192,192,109032,1,8,0:0:0:0:
64,192,109032,1,8,0:0:0:0:
320,192,109204,1,0,0:0:0:0:
448,192,109204,1,0,0:0:0:0:
192,192,109375,1,0,0:0:0:0:
448,192,109375,1,0,0:0:0:0:
64,192,109547,1,0,0:0:0:0:
192,192,109718,1,8,0:0:0:0:
320,192,109718,1,8,0:0:0:0:
448,192,109889,1,0,0:0:0:0:
320,192,110061,1,0,0:0:0:0:
64,192,110061,1,0,0:0:0:0:
320,192,110404,1,0,0:0:0:0:
448,192,110404,1,0,0:0:0:0:
192,192,110747,1,8,0:0:0:0:
64,192,110747,1,8,0:0:0:0:
320,192,111089,1,0,0:0:0:0:
448,192,111089,1,0,0:0:0:0:
64,192,111432,1,0,0:0:0:0:
320,192,111432,1,0,0:0:0:0:
64,192,111775,1,0,0:0:0:0:
448,192,111775,1,0,0:0:0:0:
192,192,112118,1,8,0:0:0:0:
448,192,112118,1,8,0:0:0:0:
320,192,112461,1,8,0:0:0:0:
448,192,112461,1,8,0:0:0:0:
192,192,112632,1,8,0:0:0:0:
64,192,112632,1,8,0:0:0:0:
320,192,112804,1,0,0:0:0:0:
448,192,112804,1,0,0:0:0:0:
192,192,112975,1,0,0:0:0:0:
64,192,113147,1,8,0:0:0:0:
320,192,113147,1,8,0:0:0:0:
448,192,113318,1,0,0:0:0:0:
192,192,113489,1,0,0:0:0:0:
320,192,113489,1,0,0:0:0:0:
320,192,113661,1,0,0:0:0:0:
448,192,113661,1,0,0:0:0:0:
192,192,113832,1,8,0:0:0:0:
64,192,113832,1,8,0:0:0:0:
320,192,114004,1,0,0:0:0:0:
448,192,114004,1,0,0:0:0:0:
64,192,114175,1,0,0:0:0:0:
448,192,114175,1,0,0:0:0:0:
320,192,114347,1,0,0:0:0:0:
192,192,114518,1,8,0:0:0:0:
64,192,114518,1,8,0:0:0:0:
320,192,114689,1,0,0:0:0:0:
448,192,114689,1,0,0:0:0:0:
192,192,114861,1,0,0:0:0:0:
448,192,114861,1,0,0:0:0:0:
320,192,115032,1,0,0:0:0:0:
192,192,115204,1,8,0:0:0:0:
64,192,115204,1,8,0:0:0:0:
320,192,115375,1,0,0:0:0:0:
448,192,115375,1,0,0:0:0:0:
192,192,115547,1,0,0:0:0:0:
320,192,115547,1,0,0:0:0:0:
448,192,115718,1,0,0:0:0:0:
320,192,115889,1,8,0:0:0:0:
64,192,115889,1,8,0:0:0:0:
192,192,116061,1,0,0:0:0:0:
320,192,116232,1,0,0:0:0:0:
448,192,116232,1,0,0:0:0:0:
192,192,116404,1,0,0:0:0:0:
64,192,116404,1,0,0:0:0:0:
64,192,116575,1,8,0:0:0:0:
320,192,116575,1,8,0:0:0:0:
448,192,116747,1,0,0:0:0:0:
320,192,116918,1,0,0:0:0:0:
192,192,116918,1,0,0:0:0:0:
64,192,117089,1,0,0:0:0:0:
320,192,117261,1,8,0:0:0:0:
448,192,117261,1,8,0:0:0:0:
192,192,117432,1,0,0:0:0:0:
64,192,117432,1,0,0:0:0:0:
320,192,117604,1,0,0:0:0:0:
448,192,117604,1,0,0:0:0:0:
192,192,117775,1,0,0:0:0:0:
64,192,117947,1,8,0:0:0:0:
320,192,117947,1,8,0:0:0:0:
192,192,118118,1,8,0:0:0:0:
448,192,118118,1,8,0:0:0:0:
64,192,118289,1,0,0:0:0:0:
448,192,118289,1,0,0:0:0:0:
320,192,118461,1,0,0:0:0:0:
192,192,118632,1,8,0:0:0:0:
64,192,118632,1,8,0:0:0:0:
320,192,118804,1,0,0:0:0:0:
192,192,118975,1,0,0:0:0:0:
448,192,118975,1,0,0:0:0:0:
64,192,119147,1,0,0:0:0:0:
320,192,119147,1,0,0:0:0:0:
192,192,119318,1,8,0:0:0:0:
448,192,119318,1,8,0:0:0:0:
448,192,119489,1,0,0:0:0:0:
320,192,119489,1,0,0:0:0:0:
192,192,119661,1,0,0:0:0:0:
64,192,119661,1,0,0:0:0:0:
320,192,119832,1,0,0:0:0:0:
192,192,120004,1,8,0:0:0:0:
448,192,120004,1,8,0:0:0:0:
320,192,120175,1,0,0:0:0:0:
64,192,120175,1,0,0:0:0:0:
448,192,120347,1,0,0:0:0:0:
320,192,120347,1,0,0:0:0:0:
192,192,120518,1,0,0:0:0:0:
64,192,120689,1,8,0:0:0:0:
320,192,120689,1,8,0:0:0:0:
448,192,120861,1,0,0:0:0:0:
320,192,121032,1,4,0:0:0:0:
192,192,121032,128,2,121375:0:0:0:0:
64,192,121375,128,0,122747:0:0:0:0:
