osu file format v14

[General]
AudioFilename: audio.mp3
AudioLeadIn: 0
PreviewTime: 158372
Countdown: 1
SampleSet: None
StackLeniency: 0.7
Mode: 3
LetterboxInBreaks: 0
SpecialStyle: 0
WidescreenStoryboard: 1

[Editor]
Bookmarks: 15122,27122,39122,51122,63122,87122,111122,123122,135122,147122,159122
DistanceSpacing: 0.8
BeatDivisor: 1
GridSize: 32
TimelineZoom: 0.2999996

[Metadata]
Title:Genre Police
TitleUnicode:Genre Police
Artist:S3RL feat Lexi
ArtistUnicode:S3RL feat Lexi
Creator:Exile-
Version:EK
Source:
Tags:
BeatmapID:946391
BeatmapSetID:433647

[Difficulty]
HPDrainRate:6
CircleSize:4
OverallDifficulty:6.9
ApproachRate:9
SliderMultiplier:1.8
SliderTickRate:1

[Events]
//Background and Video events
0,0,"maxresdefault.jpg",0,0
//Break Periods
//Storyboard Layer 0 (Background)
//Storyboard Layer 1 (Fail)
//Storyboard Layer 2 (Pass)
//Storyboard Layer 3 (Foreground)
//Storyboard Sound Samples

[TimingPoints]
3148,375,4,2,1,10,1,0
3148,-100,4,2,1,40,0,0
3523,-100,4,2,1,45,0,0
3898,-100,4,2,1,50,0,0
4273,-100,4,2,1,55,0,0
4648,-100,4,2,1,60,0,0
5398,-100,4,2,1,60,0,0
5773,-100,4,2,1,70,0,0
6148,-100,4,2,1,50,0,0
6523,-100,4,2,1,45,0,0
6898,-100,4,2,1,40,0,0
7273,-100,4,2,1,35,0,0
7648,-100,4,2,1,30,0,0
8398,-100,4,2,1,30,0,0
8773,-100,4,2,1,70,0,0
9148,-100,4,2,1,40,0,0
9523,-100,4,2,1,45,0,0
9898,-100,4,2,1,50,0,0
10273,-100,4,2,1,55,0,0
10648,-100,4,2,1,60,0,0
11398,-100,4,2,1,60,0,0
11773,-100,4,3,0,70,0,0
12148,-100,4,2,1,50,0,0
12523,-100,4,2,1,45,0,0
12898,-100,4,2,1,60,0,0
13273,-100,4,2,1,35,0,0
13648,-100,4,2,1,30,0,0
14398,-100,4,2,1,70,0,0
15148,-100,4,2,1,40,0,0
15523,-100,4,2,1,45,0,0
15898,-100,4,2,1,50,0,0
16273,-100,4,2,1,55,0,0
16648,-100,4,2,1,60,0,0
17398,-100,4,2,1,60,0,0
17773,-100,4,2,1,70,0,0
18148,-100,4,2,1,50,0,0
18523,-100,4,2,1,45,0,0
18898,-100,4,2,1,40,0,0
19273,-100,4,2,1,35,0,0
19648,-100,4,2,1,30,0,0
20398,-100,4,2,1,30,0,0
20773,-100,4,2,1,70,0,0
21148,-100,4,2,1,40,0,0
21523,-100,4,2,1,45,0,0
21898,-100,4,2,1,50,0,0
22273,-100,4,2,1,55,0,0
22648,-100,4,2,1,60,0,0
23398,-100,4,2,1,60,0,0
23773,-100,4,3,0,70,0,0
24148,-100,4,2,1,50,0,0
24523,-100,4,2,1,45,0,0
24898,-100,4,2,1,60,0,0
25273,-100,4,2,1,35,0,0
25648,-100,4,2,1,30,0,0
26398,-100,4,2,1,50,0,0
27148,-100,4,2,2,60,0,0
29023,-100,4,2,2,75,0,0
29398,-100,4,2,2,60,0,0
32023,-100,4,2,2,75,0,0
32398,-100,4,2,2,60,0,0
35023,-100,4,3,0,75,0,0
35398,-100,4,2,2,60,0,0
37648,-100,4,2,2,75,0,0
38398,-100,4,2,2,60,0,0
41023,-100,4,2,2,75,0,0
41398,-100,4,2,2,60,0,0
42148,-100,4,2,2,40,0,0
42898,-100,4,2,2,38,0,0
43648,-100,4,2,2,36,0,0
44023,-100,4,2,2,46,0,0
44398,-100,4,2,2,32,0,0
45148,-100,4,2,2,30,0,0
45898,-100,4,2,2,28,0,0
46648,-100,4,2,2,26,0,0
47023,-100,4,3,0,36,0,0
47398,-100,4,2,2,24,0,0
48148,-100,4,2,2,22,0,0
48898,-100,4,2,2,20,0,0
49648,-100,4,2,2,40,0,0
49835,-100,4,2,2,45,0,0
50023,-100,4,2,2,50,0,0
50210,-100,4,2,2,55,0,0
50398,-100,4,3,11,70,0,0
50773,-100,4,2,2,70,0,0
51148,-100,4,2,3,50,0,0
54148,-100,4,2,3,53,0,0
55648,-100,4,2,3,56,0,0
57148,-100,4,2,3,59,0,0
57898,-100,4,2,3,62,0,0
58648,-100,4,2,3,65,0,0
59398,-100,4,2,3,68,0,0
60148,-100,4,2,1,71,0,0
60523,-100,4,2,1,74,0,0
60898,-100,4,2,1,77,0,0
61273,-100,4,2,1,80,0,0
61648,-100,4,2,69,75,0,0
63148,-100,4,2,1,60,0,0
65773,-100,4,2,10,75,0,0
66148,-100,4,2,1,60,0,0
68773,-100,4,3,11,75,0,0
69148,-100,4,2,1,70,0,0
69523,-100,4,2,1,60,0,0
71773,-100,4,2,12,75,0,0
72148,-100,4,2,1,60,0,0
72898,-100,4,2,1,62,0,0
73085,-100,4,2,1,62,0,0
73648,-100,4,2,1,64,0,0
74398,-100,4,2,1,66,0,0
74773,-100,4,2,69,80,0,0
75148,-100,4,2,1,80,0,0
75335,-100,4,2,1,70,0,0
75898,-100,4,2,13,60,0,0
76179,-100,4,2,1,60,0,0
76273,-100,4,2,13,60,0,0
76554,-100,4,2,1,70,0,0
77210,-100,4,2,13,60,0,0
77304,-100,4,2,1,60,0,0
77398,-100,4,2,13,60,0,0
77679,-100,4,2,1,60,0,0
77773,-100,4,2,13,60,0,0
77866,-100,4,2,1,60,0,0
77960,-100,4,2,1,75,0,0
78335,-100,4,2,1,70,0,0
78898,-100,4,2,13,60,0,0
79179,-100,4,2,1,60,0,0
79273,-100,4,2,13,60,0,0
79554,-100,4,2,1,70,0,0
80210,-100,4,2,13,60,0,0
80304,-100,4,2,1,60,0,0
80398,-100,4,2,13,60,0,0
80679,-100,4,2,1,60,0,0
80773,-100,4,3,11,70,0,0
81148,-100,4,2,1,70,0,0
81523,-100,4,2,1,60,0,0
83773,-100,4,2,12,75,0,0
84148,-100,4,2,1,60,0,0
85085,-100,4,2,1,60,0,0
85648,-100,4,2,71,64,0,0
85741,-100,4,2,1,64,0,0
86023,-100,4,2,1,67,0,0
86398,-100,4,2,1,70,0,0
86773,-100,4,2,69,80,0,0
87054,-100,4,2,1,75,0,0
87148,-100,4,1,70,70,0,1
87241,-100,4,1,1,70,0,1
99148,-100,4,1,70,70,0,1
99241,-100,4,1,1,70,0,1
100648,-100,4,1,72,70,0,1
100741,-100,4,1,1,70,0,1
104398,-100,4,1,71,70,0,1
104491,-100,4,1,1,70,0,1
105148,-100,4,1,1,70,0,1
111148,-100,4,2,1,50,0,0
113023,-100,4,2,1,65,0,0
113398,-100,4,2,1,50,0,0
116023,-100,4,2,1,65,0,0
116398,-100,4,2,1,50,0,0
119023,-100,4,3,0,65,0,0
119398,-100,4,2,1,50,0,0
121648,-100,4,2,1,65,0,0
122398,-100,4,2,1,50,0,0
123148,-100,4,2,2,60,0,0
125023,-100,4,2,2,75,0,0
125398,-100,4,2,2,60,0,0
128023,-100,4,2,2,75,0,0
128398,-100,4,2,2,60,0,0
131023,-100,4,3,0,75,0,0
131398,-100,4,2,2,60,0,0
134398,-100,4,3,11,75,0,0
134773,-100,4,2,2,75,0,0
135148,-100,4,2,3,50,0,0
138148,-100,4,2,3,53,0,0
139648,-100,4,2,3,56,0,0
141148,-100,4,2,3,59,0,0
141898,-100,4,2,3,62,0,0
142648,-100,4,2,3,65,0,0
143398,-100,4,2,3,68,0,0
144148,-100,4,2,1,71,0,0
144523,-100,4,2,1,74,0,0
144898,-100,4,2,1,77,0,0
145273,-100,4,2,1,80,0,0
145648,-100,4,2,69,75,0,0
147148,-100,4,2,1,60,0,0
149773,-100,4,2,10,75,0,0
150148,-100,4,2,1,60,0,0
152773,-100,4,3,11,75,0,0
153148,-100,4,2,1,75,0,0
153523,-100,4,2,1,60,0,0
155773,-100,4,2,12,75,0,0
156148,-100,4,2,3,60,0,0
156523,-100,4,2,3,62,0,0
156898,-100,4,2,3,64,0,0
157273,-100,4,2,3,66,0,0
157648,-100,4,2,3,68,0,0
158023,-100,4,2,3,70,0,0
158398,-100,4,2,3,72,0,0
159148,-100,4,1,70,80,0,1
159241,-100,4,1,1,80,0,1
161023,-100,4,1,1,95,0,1
161398,-100,4,1,1,80,0,1
164023,-100,4,1,1,95,0,1
164398,-100,4,1,1,80,0,1
167023,-100,4,3,0,95,0,1
167398,-100,4,1,1,80,0,1
169648,-100,4,1,1,95,0,1
170398,-100,4,1,1,80,0,1
170773,-100,4,1,1,60,0,1
171148,-100,4,1,70,80,0,1
171241,-100,4,1,1,80,0,1
173023,-100,4,1,1,95,0,1
173398,-100,4,1,1,80,0,1
176023,-100,4,1,1,95,0,1
176398,-100,4,1,1,80,0,1
179023,-100,4,3,0,95,0,1
179398,-100,4,1,1,80,0,1
181648,-100,4,2,71,60,0,0
181741,-100,4,2,1,60,0,0
182023,-100,4,2,1,65,0,0
182398,-100,4,2,1,70,0,0
182773,-100,4,2,69,80,0,0
183054,-100,4,2,2,75,0,0
183148,-100,4,1,70,80,0,1
183241,-100,4,1,1,80,0,1
186148,-100,4,1,72,80,0,1
186241,-100,4,1,1,80,0,1
188398,-100,4,1,1,80,0,1
189148,-100,4,2,1,40,0,0
189523,-100,4,2,1,45,0,0
189898,-100,4,2,1,50,0,0
190273,-100,4,2,1,55,0,0
190648,-100,4,2,1,60,0,0
191398,-100,4,2,1,60,0,0
192148,-100,4,2,1,50,0,0
192523,-100,4,2,1,45,0,0
192898,-100,4,2,1,40,0,0
193273,-100,4,2,1,35,0,0
193648,-100,4,2,1,30,0,0

[HitObjects]
192,192,3148,5,0,0:0:0:0:
320,192,3523,1,0,0:0:0:0:
448,192,3898,1,0,0:0:0:0:
320,192,4273,1,0,0:0:0:0:
192,192,4648,1,0,0:0:0:0:
448,192,4648,1,0,0:0:0:0:
64,192,5023,128,0,6148:0:0:0:0:
448,192,6148,1,0,0:0:0:0:
192,192,6523,1,0,0:0:0:0:
320,192,6898,1,0,0:0:0:0:
192,192,7273,1,0,0:0:0:0:
448,192,7648,1,0,0:0:0:0:
64,192,7648,1,0,0:0:0:0:
320,192,8023,128,0,9148:0:0:0:0:
192,192,9148,1,0,0:0:0:0:
448,192,9523,1,0,0:0:0:0:
64,192,9898,1,0,0:0:0:0:
320,192,10273,1,0,0:0:0:0:
192,192,10648,1,0,0:0:0:0:
64,192,10648,1,0,0:0:0:0:
448,192,11023,128,0,12148:0:0:0:0:
192,192,12148,1,0,0:0:0:0:
320,192,12523,1,0,0:0:0:0:
64,192,12898,1,0,0:0:0:0:
320,192,13273,1,0,0:0:0:0:
448,192,13648,128,0,15148:0:0:0:0:
192,192,13648,128,0,15148:0:0:0:0:
320,192,15523,1,0,0:0:0:0:
192,192,15898,1,0,0:0:0:0:
64,192,16273,1,0,0:0:0:0:
448,192,16648,1,0,0:0:0:0:
192,192,16648,1,0,0:0:0:0:
64,192,17023,128,0,18148:0:0:0:0:
448,192,17398,128,0,18148:0:0:0:0:
192,192,18523,1,0,0:0:0:0:
320,192,18898,1,0,0:0:0:0:
448,192,19273,1,0,0:0:0:0:
192,192,19648,1,0,0:0:0:0:
320,192,19648,1,0,0:0:0:0:
192,192,20023,128,0,21148:0:0:0:0:
320,192,20398,128,0,21148:0:0:0:0:
64,192,21523,1,0,0:0:0:0:
448,192,21898,1,0,0:0:0:0:
192,192,22273,1,0,0:0:0:0:
320,192,22648,1,0,0:0:0:0:
448,192,22648,1,0,0:0:0:0:
64,192,23023,128,0,24148:0:0:0:0:
192,192,23398,128,0,24148:0:0:0:0:
320,192,24523,1,0,0:0:0:0:
64,192,24898,1,0,0:0:0:0:
320,192,25273,1,0,0:0:0:0:
192,192,25648,128,0,27148:0:0:0:0:
448,192,25648,128,0,27148:0:0:0:0:
320,192,27523,1,0,0:0:0:0:
448,192,27898,1,0,0:0:0:0:
64,192,28273,1,0,0:0:0:0:
320,192,28648,128,0,29398:0:0:0:0:
448,192,29023,1,0,0:0:0:0:
192,192,29773,1,0,0:0:0:0:
64,192,30148,128,0,31648:0:0:0:0:
448,192,30898,1,0,0:0:0:0:
448,192,31273,1,0,0:0:0:0:
448,192,31648,1,0,0:0:0:0:
192,192,32023,1,0,0:0:0:0:
320,192,32023,1,0,0:0:0:0:
64,192,32398,1,0,0:0:0:0:
320,192,32773,1,0,0:0:0:0:
320,192,33148,128,0,34648:0:0:0:0:
192,192,33898,1,0,0:0:0:0:
64,192,34273,1,0,0:0:0:0:
192,192,34648,1,0,0:0:0:0:
448,192,35023,1,0,0:0:0:0:
64,192,35023,1,0,0:0:0:0:
320,192,35398,1,0,0:0:0:0:
320,192,35773,1,0,0:0:0:0:
64,192,36148,128,0,37648:0:0:0:0:
192,192,36898,1,0,0:0:0:0:
320,192,37273,1,0,0:0:0:0:
448,192,37648,1,0,0:0:0:0:
448,192,38023,1,0,0:0:0:0:
64,192,38023,1,0,0:0:0:0:
320,192,38398,1,0,0:0:0:0:
192,192,38773,1,0,0:0:0:0:
320,192,39148,128,0,40648:0:0:0:0:
448,192,39898,1,0,0:0:0:0:
64,192,40273,1,0,0:0:0:0:
448,192,40648,1,0,0:0:0:0:
192,192,41023,1,0,0:0:0:0:
64,192,41023,1,0,0:0:0:0:
448,192,41398,1,0,0:0:0:0:
192,192,41773,1,0,0:0:0:0:
320,192,42148,128,0,43648:0:0:0:0:
64,192,42898,1,0,0:0:0:0:
192,192,43273,1,0,0:0:0:0:
64,192,43648,1,0,0:0:0:0:
192,192,44023,1,0,0:0:0:0:
448,192,44023,1,0,0:0:0:0:
320,192,44398,1,0,0:0:0:0:
320,192,44773,1,0,0:0:0:0:
192,192,45148,128,0,46648:0:0:0:0:
448,192,45898,128,0,46648:0:0:0:0:
320,192,47023,1,0,0:0:0:0:
448,192,47023,1,0,0:0:0:0:
64,192,47398,128,0,48148:0:0:0:0:
192,192,48148,128,0,48898:0:0:0:0:
320,192,49273,1,0,0:0:0:0:
64,192,49648,128,0,51148:0:0:0:0:
448,192,50398,128,0,51148:0:0:0:0:
192,192,51523,1,0,0:0:0:0:
320,192,51523,1,0,0:0:0:0:
64,192,51898,1,0,0:0:0:0:
448,192,52273,1,0,0:0:0:0:
