osu file format v14

[General]
AudioFilename: audio.mp3
AudioLeadIn: 0
PreviewTime: -1
Countdown: 1
SampleSet: Soft
StackLeniency: 0.7
Mode: 0
LetterboxInBreaks: 0
WidescreenStoryboard: 0

[Editor]
DistanceSpacing: 0.8
BeatDivisor: 4
GridSize: 4
TimelineZoom: 1.8

[Metadata]
Title:Whirlwind
TitleUnicode:Whirlwind
Artist:S3RL feat Krystal
ArtistUnicode:S3RL feat Krystal
Creator:pkoa
Version:hot butz
Source:
Tags:
BeatmapID:1460775
BeatmapSetID:690173

[Difficulty]
HPDrainRate:5
CircleSize:4
OverallDifficulty:6
ApproachRate:9.2
SliderMultiplier:1.6
SliderTickRate:1

[Events]
//Background and Video events
0,0,"firefox_2017-11-03_16-09-10.png",0,0
Video,0,"Sequence #1.mp4"
//Break Periods
2,91657,93972
//Storyboard Layer 0 (Background)
//Storyboard Layer 1 (Fail)
//Storyboard Layer 2 (Pass)
//Storyboard Layer 3 (Foreground)
//Storyboard Sound Samples

[TimingPoints]
3000,342.857142857143,4,2,0,70,1,0
3000,-80,4,1,0,100,0,0
3342,-80,4,2,0,75,0,0
8485,-80,4,1,0,90,0,0
8828,-80,4,2,0,80,0,0
12600,-133.333333333333,4,2,0,80,0,0
13971,-100,4,2,0,80,0,0
28885,-133.333333333333,4,2,0,80,0,0
29057,-100,4,2,0,80,0,0
33171,-133.333333333333,4,2,0,80,0,0
33514,-100,4,2,0,80,0,0
33857,-80,4,2,0,90,0,0
35057,-100,4,2,0,90,0,0
35914,-80,4,2,0,90,0,0
41742,-66.6666666666667,4,2,0,90,0,0
46885,-66.6666666666667,4,1,0,90,0,0
47057,-66.6666666666667,4,2,0,100,0,0
52371,-66.6666666666667,4,1,0,90,0,0
52542,-66.6666666666667,4,2,0,100,0,0
67971,-133.333333333333,4,2,0,100,0,0
68828,-66.6666666666667,4,2,0,100,0,0
79800,-60.6060606060606,4,2,0,100,0,0
94542,-200,4,2,0,100,0,0
107228,-58.8235294117647,4,2,0,100,0,0
140142,-55.5555555555556,4,2,0,100,0,0
162085,-55.5555555555556,4,2,0,100,0,0
177857,-66.6666666666667,4,2,0,100,0,0
178542,-50,4,2,0,100,0,0

[HitObjects]
56,224,2314,6,0,P|48:256|56:284,2,40
172,176,2657,2,0,B|128:160|128:160|96:136,1,80
248,200,2999,2,0,L|252:144,1,40
352,156,3514,5,0,0:0:0:0:
368,120,3599,1,0,0:0:0:0:
376,96,3685,2,0,L|328:80,1,50
280,80,3857,2,0,L|232:92,1,50
104,84,4028,2,0,P|84:136|104:208,2,100
144,104,4457,1,0,0:0:0:0:
172,120,4542,1,0,0:0:0:0:
252,192,4714,5,0,0:0:0:0:
328,120,4885,1,0,0:0:0:0:
352,100,4971,1,0,0:0:0:0:
380,80,5057,2,0,B|428:56|428:56|432:112,1,100
396,188,5400,2,0,B|360:228|360:228|344:176,1,100
104,160,5742,6,0,P|176:144|224:184,1,100
220,176,6000,1,0,0:0:0:0:
240,208,6085,1,0,0:0:0:0:
276,216,6171,1,0,0:0:0:0:
316,204,6257,1,0,0:0:0:0:
336,128,6428,2,2,P|312:84|232:76,1,100
216,76,6685,1,0,0:0:0:0:
176,100,6771,1,0,0:0:0:0:
172,148,6857,1,0,0:0:0:0:
192,184,6942,1,0,0:0:0:0:
268,216,7114,6,0,P|332:216|364:264,1,100
348,276,7371,1,0,0:0:0:0:
312,304,7457,1,0,0:0:0:0:
260,296,7542,1,0,0:0:0:0:
216,264,7628,1,0,0:0:0:0:
396,180,7800,6,0,L|360:128,1,50
344,80,7971,2,0,L|304:28,1,50
264,80,8142,2,0,B|240:108|240:108|212:76|212:76|188:112,1,100
128,132,8485,2,0,L|88:164,1,50
296,184,9000,5,0,0:0:0:0:
316,140,9085,1,0,0:0:0:0:
312,100,9171,2,0,L|244:100,1,50
204,140,9342,2,0,L|136:140,1,50
120,80,9514,2,0,B|68:80|68:80|32:116|64:152,1,100
104,236,9857,6,0,P|156:240|196:200,1,100
312,120,10200,2,0,L|248:120,1,50
204,144,10371,2,0,L|264:144,1,50
104,284,10542,2,0,B|144:324|144:324|172:272,1,100
352,228,10885,1,0,0:0:0:0:
144,204,11057,1,0,0:0:0:0:
328,124,11228,6,0,B|344:140|344:140|368:116|368:116|404:144,1,100
420,160,11485,1,0,0:0:0:0:
448,184,11571,1,0,0:0:0:0:
128,108,11742,1,0,0:0:0:0:
220,88,11914,2,0,P|268:112|280:164,1,100
280,192,12171,1,0,0:0:0:0:
280,224,12257,1,0,0:0:0:0:
236,228,12342,1,0,0:0:0:0:
232,200,12428,1,0,0:0:0:0:
228,172,12514,1,0,0:0:0:0:
240,140,12600,6,0,P|272:100|320:208,1,240.000009155274
156,136,13971,6,0,B|200:132|200:132|176:160|188:224|256:232,1,160
320,292,14485,1,0,0:0:0:0:
312,208,14657,1,0,0:0:0:0:
248,128,14828,1,0,0:0:0:0:
136,152,15000,1,0,0:0:0:0:
112,244,15171,1,0,0:0:0:0:
208,228,15342,2,0,B|256:220|296:268|296:268|320:268|352:248,1,160
324,172,15857,5,0,0:0:0:0:
280,92,16028,1,0,0:0:0:0:
196,52,16200,1,0,0:0:0:0:
104,56,16371,1,0,0:0:0:0:
40,112,16542,1,0,0:0:0:0:
64,196,16714,2,0,B|104:212|104:212|116:176|176:168|176:168|212:184,1,160
300,160,17228,5,0,0:0:0:0:
156,176,17400,1,0,0:0:0:0:
256,80,17571,1,0,0:0:0:0:
156,176,17742,1,0,0:0:0:0:
164,56,17914,1,0,0:0:0:0:
156,176,18085,2,0,P|188:228|288:240,1,160
336,152,18600,5,0,0:0:0:0:
220,148,18771,1,0,0:0:0:0:
280,64,18942,1,0,0:0:0:0:
272,252,19114,1,0,0:0:0:0:
168,72,19285,1,0,0:0:0:0:
392,88,19457,2,0,P|408:144|356:232,1,160
116,248,19971,5,0,0:0:0:0:
308,260,20142,1,0,0:0:0:0:
108,248,20314,1,0,0:0:0:0:
320,260,20485,1,0,0:0:0:0:
100,248,20657,1,0,0:0:0:0:
332,256,20828,2,0,P|352:220|316:256,1,160
128,112,21342,5,0,0:0:0:0:
332,120,21514,1,0,0:0:0:0:
232,48,21685,1,0,0:0:0:0:
148,224,21857,1,0,0:0:0:0:
304,228,22028,1,0,0:0:0:0:
232,48,22200,2,0,B|200:112|216:128|216:128|240:116|236:56,1,160
140,64,22714,5,0,0:0:0:0:
172,140,22885,1,0,0:0:0:0:
260,176,23057,1,0,0:0:0:0:
344,136,23228,1,0,0:0:0:0:
380,60,23400,1,0,0:0:0:0:
256,76,23571,1,0,0:0:0:0:
160,136,23742,5,0,0:0:0:0:
160,168,23828,1,0,0:0:0:0:
160,200,23914,1,0,0:0:0:0:
232,232,24085,5,0,0:0:0:0:
260,208,24171,1,0,0:0:0:0:
304,208,24257,2,0,L|368:208,1,40
360,168,24428,2,0,L|392:124,1,40
376,100,24600,2,0,B|344:92|344:92|332:76|332:76|280:64,1,80
196,128,24942,1,0,0:0:0:0:
264,192,25114,6,0,P|308:192|360:172,1,80
284,112,25457,1,0,0:0:0:0:
180,144,25628,2,0,P|168:188|184:228,1,80
284,112,25971,1,0,0:0:0:0:
128,300,26142,1,0,0:0:0:0:
392,204,26485,6,0,P|384:252|340:276,1,80
280,180,26828,1,0,0:0:0:0:
232,92,27000,2,0,P|292:84|332:100,1,80
280,180,27342,1,0,0:0:0:0:
88,56,27514,1,0,0:0:0:0:
116,240,27857,6,0,P|108:296|136:328,1,80
232,260,28200,1,0,0:0:0:0:
320,172,28371,2,0,P|264:152|224:160,1,80
232,260,28714,1,0,0:0:0:0:
436,64,28885,2,0,L|392:64,1,30.0000011444092
144,128,29228,5,0,0:0:0:0:
216,184,29400,2,0,L|216:264,1,80
308,328,29742,1,0,0:0:0:0:
304,104,29914,2,0,L|304:192,1,80
308,328,30257,1,0,0:0:0:0:
144,128,30428,6,0,L|184:112,1,40
260,228,30771,5,0,0:0:0:0:
340,152,30942,2,0,P|368:192|376:228,1,80
224,144,31285,2,0,P|252:112|304:100,1,80
108,232,31628,2,0,B|96:248|96:248|80:236|80:236|64:252|64:252|52:240,1,80
184,248,31971,5,0,0:0:0:0:
372,208,32142,1,0,0:0:0:0:
168,144,32314,1,0,0:0:0:0:
356,96,32485,1,0,0:0:0:0:
104,196,32657,1,0,0:0:0:0:
428,128,32828,2,0,P|464:104|476:64,1,80
204,152,33171,6,0,L|168:208,1,60.0000022888184
272,124,33514,2,0,L|224:196,1,80
344,100,33857,2,0,L|280:188,1,100
268,208,34114,1,0,0:0:0:0:
280,256,34200,1,0,0:0:0:0:
160,120,34371,1,0,0:0:0:0:
172,164,34457,1,0,0:0:0:0:
184,208,34542,2,0,P|232:188|156:88,1,200
360,228,35057,5,0,0:0:0:0:
300,168,35228,2,0,L|300:88,1,80
248,208,35571,2,0,L|248:112,1,80
128,224,35914,5,0,0:0:0:0:
184,132,36257,2,0,P|232:120|276:148,1,100
224,184,36600,2,0,P|228:132|264:96,1,100
280,156,36942,2,0,L|312:272,1,100
144,116,37285,2,0,P|164:192|236:204,2,150
248,100,37971,2,0,L|300:100,1,50
308,152,38142,2,0,L|364:152,1,50
400,96,38314,2,0,L|340:96,1,50
456,156,38485,2,0,L|400:156,1,50
220,196,38657,5,0,0:0:0:0:
148,136,39000,2,0,P|116:176|132:252,1,100
115,223,39342,2,0,P|95:175|51:143,1,100
92,88,39685,1,0,0:0:0:0:
112,224,39857,1,0,0:0:0:0:
184,140,40028,2,0,B|232:108|232:108|324:108|324:108|368:148,1,200
136,216,40714,2,0,P|168:260|220:276,1,100
208,204,41057,2,0,P|253:222|281:263,1,100
164,140,41400,5,0,0:0:0:0:
296,148,41742,2,0,P|288:88|316:28,1,120.000004577637
364,112,42085,2,0,P|408:48|480:40,1,120.000004577637
436,140,42428,2,0,L|380:256,1,120.000004577637
248,176,42771,2,0,P|236:112|328:68,2,180.000006866455
100,176,43457,6,0,L|156:220,1,60.0000022888184
224,148,43628,2,0,L|276:192,1,60.0000022888184
208,280,43800,2,0,L|256:320,1,60.0000022888184
356,232,43971,2,0,L|404:272,1,60.0000022888184
400,168,44142,5,0,0:0:0:0:
400,120,44228,1,0,0:0:0:0:
376,80,44314,1,0,0:0:0:0:
336,60,44400,1,0,0:0:0:0:
300,100,44485,5,0,0:0:0:0:
236,136,44571,1,0,0:0:0:0:
164,136,44657,1,0,0:0:0:0:
100,100,44742,1,0,0:0:0:0:
40,96,44828,5,0,0:0:0:0:
32,144,44914,1,0,0:0:0:0:
40,192,45000,1,0,0:0:0:0:
68,232,45085,1,0,0:0:0:0:
112,228,45171,5,0,0:0:0:0:
144,216,45257,1,0,0:0:0:0:
184,208,45342,1,0,0:0:0:0:
224,196,45428,1,0,0:0:0:0:
264,184,45514,1,0,0:0:0:0:
352,128,45685,2,0,L|352:68,2,60.0000022888184
268,104,46028,2,0,L|268:172,1,60.0000022888184
112,248,46200,6,0,P|104:272|112:312,2,60.0000022888184
124,176,46542,2,0,B|156:116|156:116|164:176,1,120.000004577637
204,148,46885,2,0,L|216:224,1,60.0000022888184
268,212,47228,1,0,0:0:0:0:
360,176,47400,5,0,0:0:0:0:
368,148,47485,1,0,0:0:0:0:
352,108,47571,2,0,L|296:88,1,60.0000022888184
180,132,47742,2,0,L|104:152,1,60.0000022888184
104,304,47914,2,0,P|188:296|216:220,2,120.000004577637
124,244,48342,1,0,0:0:0:0:
148,212,48428,1,0,0:0:0:0:
320,140,48600,5,0,0:0:0:0:
240,256,48771,1,0,0:0:0:0:
264,220,48857,1,0,0:0:0:0:
284,192,48942,2,0,B|264:128|264:128|280:60,1,120.000004577637
208,64,49285,2,0,B|192:124|192:124|132:172,1,120.000004577637
356,216,49628,6,0,P|424:212|480:264,1,120.000004577637
476,232,49885,1,0,0:0:0:0:
460,184,49971,1,0,0:0:0:0:
416,144,50057,1,0,0:0:0:0:
356,120,50142,1,0,0:0:0:0:
192,144,50314,2,0,B|168:208|168:208|196:276,1,120.000004577637
156,256,50571,1,0,0:0:0:0:
104,232,50657,1,0,0:0:0:0:
104,176,50742,1,0,0:0:0:0:
148,144,50828,1,0,0:0:0:0:
284,160,51000,6,0,B|264:100|264:100|248:136|248:136|192:164,1,120.000004577637
176,108,51257,1,0,0:0:0:0:
116,84,51342,1,0,0:0:0:0:
64,116,51428,1,0,0:0:0:0:
68,172,51514,1,0,0:0:0:0:
156,284,51685,6,0,L|232:272,1,60.0000022888184
216,212,51857,2,0,L|288:200,1,60.0000022888184
352,216,52028,2,0,B|368:192|368:192|396:208|396:208|412:176|412:176|440:188,1,120.000004577637
88,104,52371,2,0,L|144:152,1,60.0000022888184
332,220,52885,5,0,0:0:0:0:
356,168,52970,1,0,0:0:0:0:
360,128,53057,2,0,L|336:192,1,60.0000022888184
236,200,53228,2,0,L|208:268,1,60.0000022888184
201,103,53400,2,0,L|180:160,1,60.0000022888184
71,175,53571,2,0,L|47:231,1,60.0000022888184
100,276,53742,6,0,B|104:304|104:304|136:308|136:308|160:324|160:324|204:324,1,120.000004577637
332,140,54085,2,0,L|364:216,1,60.0000022888184
372,328,54257,2,0,L|344:264,1,60.0000022888184
132,140,54428,2,0,B|120:168|120:168|136:172|136:172|152:164|176:216|160:252,1,120.000004577637
384,248,54770,1,0,0:0:0:0:
80,132,54942,1,0,0:0:0:0:
348,52,55114,2,0,B|324:68|324:68|352:76|352:76|332:92|332:92|356:96|356:96|348:112|348:112,1,120.000004577637
372,144,55370,1,0,0:0:0:0:
384,180,55456,1,0,0:0:0:0:
128,108,55627,5,0,0:0:0:0:
232,136,55800,2,0,P|264:196|236:268,1,120.000004577637
208,264,56057,1,0,0:0:0:0:
184,224,56142,1,0,0:0:0:0:
192,188,56228,1,0,0:0:0:0:
172,148,56314,1,0,0:0:0:0:
368,100,56485,2,0,P|420:140|416:216,1,120.000004577637
392,216,56742,1,0,0:0:0:0:
320,216,56828,1,0,0:0:0:0:
268,172,56914,1,0,0:0:0:0:
264,100,57000,1,0,0:0:0:0:
120,272,57171,6,0,L|128:192,1,60.0000022888184
136,160,57342,2,0,L|148:64,1,60.0000022888184
200,60,57514,2,0,P|272:68|300:96,2,60.0000022888184
156,96,57771,1,0,0:0:0:0:
204,160,57857,2,0,L|256:240,1,60.0000022888184
292,116,58200,5,0,0:0:0:0:
128,184,58371,1,0,0:0:0:0:
140,228,58457,1,0,0:0:0:0:
204,260,58542,2,0,L|264:244,1,60.0000022888184
332,152,58714,2,0,L|248:176,1,60.0000022888184
140,128,58885,2,0,L|256:96,1,120.000004577637
292,84,59142,1,0,0:0:0:0:
360,72,59228,6,0,P|356:132|312:156,1,60.0000022888184
364,176,59400,1,0,0:0:0:0:
416,164,59486,1,0,0:0:0:0:
404,244,59657,1,0,0:0:0:0:
464,228,59743,1,0,0:0:0:0:
136,148,59914,6,0,B|164:80|164:80|180:132,1,120.000004577637
344,204,60257,1,0,0:0:0:0:
140,136,60428,1,0,0:0:0:0:
392,116,60600,2,0,B|412:136|412:136|420:172|420:172|416:204|416:204|396:228,1,120.000004577637
348,180,60857,1,0,0:0:0:0:
284,156,60942,1,0,0:0:0:0:
216,164,61028,1,0,0:0:0:0:
172,212,61114,1,0,0:0:0:0:
136,108,61285,6,0,B|184:72|184:72|168:88|168:88|216:104,1,120.000004577637
168,156,61542,1,0,0:0:0:0:
172,212,61628,1,0,0:0:0:0:
212,260,61714,1,0,0:0:0:0:
276,280,61800,1,0,0:0:0:0:
328,136,61971,2,0,B|268:160|280:124|280:124|264:104|292:80,1,120.000004577637
368,88,62228,1,0,0:0:0:0:
420,148,62314,1,0,0:0:0:0:
392,216,62400,1,0,0:0:0:0:
316,220,62485,1,0,0:0:0:0:
136,188,62657,6,0,L|208:220,1,60.0000022888184
212,144,62828,2,0,L|248:72,1,60.0000022888184
148,112,63000,2,0,L|92:88,2,60.0000022888184
180,132,63257,1,0,0:0:0:0:
136,188,63342,2,0,L|100:256,1,60.0000022888184
132,280,63514,1,0,0:0:0:0:
184,268,63600,1,0,0:0:0:0:
232,280,63685,1,0,0:0:0:0:
264,320,63771,1,0,0:0:0:0:
304,264,63857,5,0,0:0:0:0:
300,208,63942,1,0,0:0:0:0:
304,156,64028,2,0,L|288:92,1,60.0000022888184
336,112,64200,2,0,L|356:40,1,60.0000022888184
392,84,64371,2,0,B|448:56|448:56|488:104|448:156,1,120.000004577637
412,216,64714,6,0,P|360:248|288:236,1,120.000004577637
264,208,64971,1,0,0:0:0:0:
252,176,65057,2,0,L|232:116,1,60.0000022888184
196,268,65228,2,0,L|176:204,1,60.0000022888184
300,144,65400,2,0,B|312:76|312:76|324:128,1,120.000004577637
328,176,65657,1,0,0:0:0:0:
332,232,65742,2,0,L|344:304,1,60.0000022888184
216,144,65914,2,0,L|232:232,1,60.0000022888184
128,188,66085,5,0,0:0:0:0:
248,88,66428,1,0,0:0:0:0:
372,196,66771,1,0,0:0:0:0:
252,304,67114,1,0,0:0:0:0:
256,192,67285,12,0,67800,0:0:0:0:
260,112,67971,6,0,L|344:132,1,60.0000022888184
184,184,68314,1,0,0:0:0:0:
280,232,68485,2,0,L|352:252,1,60.0000022888184
336,120,68828,6,0,P|392:88|448:120,1,120.000004577637
248,92,69171,2,0,P|208:152|232:208,1,120.000004577637
304,208,69514,2,0,P|308:168|312:204,1,120.000004577637
108,184,69857,2,0,L|92:252,1,60.0000022888184
192,112,70028,2,0,L|176:184,1,60.0000022888184
160,244,70200,2,0,P|236:204|248:152,1,120.000004577637
320,104,70542,1,0,0:0:0:0:
340,208,70714,1,0,0:0:0:0:
340,208,70885,6,0,L|312:280,1,60.0000022888184
320,104,71057,2,0,L|288:184,1,60.0000022888184
240,84,71228,2,0,L|208:152,1,60.0000022888184
124,156,71400,2,0,L|92:224,1,60.0000022888184
224,272,71571,6,0,B|248:216|264:216|284:164,1,120.000004577637
204,104,71914,2,0,B|172:160|192:160|144:216,1,120.000004577637
272,140,72257,2,0,B|296:84|336:88|336:88|320:48,1,120.000004577637
112,192,72600,1,0,0:0:0:0:
184,148,72771,1,0,0:0:0:0:
264,128,72942,2,0,B|376:112|376:112|272:72|352:16|352:16|204:32,1,360.000013732911
100,144,73628,5,0,0:0:0:0:
124,244,73800,1,0,0:0:0:0:
208,304,73971,2,0,P|216:232|268:196,1,120.000004577637
256,204,74314,6,0,P|332:216|352:260,1,120.000004577637
296,168,74657,2,0,P|352:136|412:160,1,120.000004577637
300,132,75000,2,0,P|296:64|368:8,1,120.000004577637
144,124,75342,2,0,L|128:188,1,60.0000022888184
164,312,75514,2,0,L|188:220,1,60.0000022888184
212,136,75685,2,0,P|192:68|128:60,1,120.000004577637
48,148,76028,1,0,0:0:0:0:
212,136,76200,1,0,0:0:0:0:
48,148,76371,6,0,L|64:216,1,60.0000022888184
212,136,76542,2,0,L|200:68,1,60.0000022888184
352,128,76714,2,0,L|364:192,1,60.0000022888184
480,120,76885,2,0,L|468:60,1,60.0000022888184
144,236,77057,6,0,P|200:296|252:248,1,120.000004577637
208,224,77400,2,0,P|276:220|300:284,1,120.000004577637
192,120,77742,2,0,L|320:76,1,120.000004577637
336,92,78085,1,0,0:0:0:0:
120,280,78257,1,0,0:0:0:0:
256,192,78428,12,0,78771,0:0:0:0:
352,112,78942,5,0,0:0:0:0:
120,168,79114,1,0,0:0:0:0:
180,232,79285,2,0,P|260:248|324:228,2,120.000004577637
320,160,79800,6,0,B|360:136|352:120|380:116|380:116|416:68,1,132.00000125885
136,152,80142,2,0,B|88:164|76:176|72:172|72:172|16:228,1,132.00000125885
240,312,80485,2,0,B|232:256|232:256|252:244|252:244|244:184,1,132.00000125885
168,120,80828,2,0,L|168:36,1,66.0000006294251
328,120,81000,2,0,L|328:48,1,66.0000006294251
248,196,81171,2,0,P|240:232|264:332,1,132.00000125885
320,256,81514,1,0,0:0:0:0:
248,164,81685,1,0,0:0:0:0:
236,188,81857,2,0,L|244:264,1,66.0000006294251
304,152,82028,2,0,L|312:224,1,66.0000006294251
352,136,82200,2,0,L|360:220,1,66.0000006294251
372,128,82371,2,0,L|380:204,1,66.0000006294251
304,80,82542,6,0,P|220:84|184:152,1,132.00000125885
172,80,82885,2,0,P|136:140|164:228,1,132.00000125885
224,248,83228,2,0,P|272:204|344:200,1,132.00000125885
152,232,83571,1,0,0:0:0:0:
240,144,83742,1,0,0:0:0:0:
352,116,83914,2,0,B|396:180|396:180|352:200|364:280|364:280|288:280|276:208|276:208|220:176|200:248,1,396.00000377655
96,168,84600,5,0,0:0:0:0:
320,116,84771,1,0,0:0:0:0:
104,152,84942,2,0,P|100:68|152:40,1,132.00000125885
416,184,85285,6,0,B|424:144|424:144|380:124|372:96|336:88,1,132.00000125885
164,184,85628,2,0,B|116:204|116:204|144:240|112:264|144:316,1,132.00000125885
352,348,85971,2,0,B|352:320|352:320|372:312|372:312|368:292|368:292|380:272|380:272|376:248|376:248|384:224,1,132.00000125885
256,104,86314,2,0,P|220:136|216:176,1,66.0000006294251
108,220,86485,2,0,P|92:256|96:296,1,66.0000006294251
248,128,86657,2,0,P|188:160|200:280,2,198.000001888275
244,220,87342,2,0,L|336:248,1,66.0000006294251
120,84,87514,2,0,L|200:104,1,66.0000006294251
96,280,87685,2,0,L|172:296,1,66.0000006294251
340,144,87857,2,0,L|416:164,1,66.0000006294251
84,176,88028,5,0,0:0:0:0:
304,136,88200,1,0,0:0:0:0:
128,44,88371,1,0,0:0:0:0:
248,304,88542,1,0,0:0:0:0:
260,48,88714,2,0,P|240:156|188:188,1,132.00000125885
80,304,89057,1,0,0:0:0:0:
244,52,89228,1,0,0:0:0:0:
256,192,89400,12,0,91457,0:0:0:0:
180,132,94542,5,0,0:0:0:0:
256,160,94885,1,0,0:0:0:0:
332,188,95228,1,0,0:0:0:0:
404,208,95571,1,0,0:0:0:0:
476,232,95914,1,0,0:0:0:0:
464,136,96257,1,0,0:0:0:0:
288,40,97285,5,0,0:0:0:0:
256,116,97628,1,0,0:0:0:0:
224,192,97971,1,0,0:0:0:0:
192,268,98314,1,0,0:0:0:0:
152,344,98657,1,0,0:0:0:0:
260,312,99342,6,0,P|300:272|292:240,1,80
220,184,100028,1,0,0:0:0:0:
316,160,100371,2,0,L|352:192,1,40
272,161,100714,2,0,B|324:169|324:169|360:197,1,80
376,248,101228,1,0,0:0:0:0:
224,172,101742,1,0,0:0:0:0:
224,172,102085,2,0,P|212:132|248:132,1,80
144,240,103114,6,0,L|144:200,1,40
172,269,103457,2,0,B|144:237|144:237|144:189,1,80
152,116,103971,1,0,0:0:0:0:
256,212,104485,1,0,0:0:0:0:
272,204,104657,2,0,P|320:136|232:140,1,200
104,232,106542,6,0,L|96:264,2,20
136,160,106885,2,0,B|152:168|152:168|160:160|160:160|180:160,1,40
280,212,107228,5,0,0:0:0:0:
340,144,107400,2,0,P|284:100|212:88,1,136.000002593994
280,212,107743,1,0,0:0:0:0:
116,176,107914,2,0,P|104:252|128:312,1,136.000002593994
280,212,108257,1,0,0:0:0:0:
44,48,108428,1,0,0:0:0:0:
348,148,108771,6,0,B|436:128|436:128|380:120,1,136.000002593994
252,152,109114,1,0,0:0:0:0:
168,148,109285,2,0,B|72:148|72:148|116:172,1,136.000002593994
252,152,109628,1,0,0:0:0:0:
252,352,109800,1,0,0:0:0:0:
360,236,110142,6,0,L|388:96,1,136.000002593994
300,176,110485,1,0,0:0:0:0:
216,144,110657,2,0,L|184:8,1,136.000002593994
300,176,111000,1,0,0:0:0:0:
112,324,111171,1,0,0:0:0:0:
96,164,111514,5,0,0:0:0:0:
244,160,111685,1,0,0:0:0:0:
144,88,111857,1,0,0:0:0:0:
196,248,112028,1,0,0:0:0:0:
240,20,112200,1,0,0:0:0:0:
248,324,112371,1,0,0:0:0:0:
248,32,112542,1,0,0:0:0:0:
448,228,112885,5,0,0:0:0:0:
184,132,113057,1,0,0:0:0:0:
336,128,113228,1,0,0:0:0:0:
264,312,113400,1,0,0:0:0:0:
380,280,113571,1,0,0:0:0:0:
192,208,113742,1,0,0:0:0:0:
368,68,113914,2,0,L|404:8,1,68.0000012969971
100,216,114257,6,0,P|88:292|112:344,1,136.000002593994
168,272,114600,1,0,0:0:0:0:
244,292,114771,2,0,P|228:216|168:196,1,136.000002593994
168,272,115114,1,0,0:0:0:0:
356,152,115285,1,0,0:0:0:0:
160,148,115457,5,0,0:0:0:0:
340,276,115628,2,0,L|300:208,1,68.0000012969971
148,128,115800,1,0,0:0:0:0:
356,320,115971,2,0,L|328:248,1,68.0000012969971
136,108,116142,1,0,0:0:0:0:
276,340,116314,1,0,0:0:0:0:
324,344,116400,1,0,0:0:0:0:
356,348,116485,2,0,L|360:280,2,68.0000012969971
288,288,116828,2,0,L|276:220,2,68.0000012969971
356,192,117342,5,0,0:0:0:0:
192,156,117514,1,0,0:0:0:0:
296,288,117685,1,0,0:0:0:0:
240,76,117857,1,0,0:0:0:0:
404,200,118028,1,0,0:0:0:0:
128,144,118200,1,0,0:0:0:0:
152,288,118371,5,0,0:0:0:0:
164,240,118457,1,0,0:0:0:0:
196,216,118543,1,0,0:0:0:0:
320,120,118714,1,0,0:0:0:0:
144,128,118885,1,0,0:0:0:0:
264,296,119057,2,0,P|252:224|200:184,1,136.000002593994
320,120,119571,6,0,B|340:184|340:184|304:188|304:188|280:224,1,136.000002593994
232,216,119828,1,0,0:0:0:0:
180,228,119914,1,0,0:0:0:0:
216,92,120085,1,0,0:0:0:0:
328,276,120257,1,0,0:0:0:0:
108,132,120428,2,0,P|100:212|124:272,1,136.000002593994
336,128,120942,6,0,B|388:172|388:224|388:224|420:200,1,136.000002593994
424,176,121200,1,0,0:0:0:0:
436,140,121285,1,0,0:0:0:0:
152,100,121457,1,0,0:0:0:0:
416,260,121628,1,0,0:0:0:0:
144,120,121800,2,0,P|156:192|200:236,1,136.000002593994
396,124,122314,6,0,B|416:172|416:172|392:164|392:164|360:176|336:148,1,136.000002593994
300,116,122571,1,0,0:0:0:0:
256,80,122657,1,0,0:0:0:0:
372,296,122828,1,0,0:0:0:0:
256,56,123000,1,0,0:0:0:0:
260,348,123171,1,0,0:0:0:0:
252,40,123342,1,0,0:0:0:0:
252,32,123514,1,0,0:0:0:0:
100,168,123685,6,0,B|104:236|104:232|120:208|120:208|176:212|188:184,1,136.000002593994
200,172,123942,1,0,0:0:0:0:
232,160,124028,1,0,0:0:0:0:
36,104,124200,1,0,0:0:0:0:
324,264,124371,1,0,0:0:0:0:
344,144,124542,2,0,L|472:220,1,136.000002593994
108,124,125057,6,0,B|104:168|104:168|132:152|172:176|140:224,1,136.000002593994
132,252,125314,1,0,0:0:0:0:
116,292,125400,1,0,0:0:0:0:
300,88,125571,1,0,0:0:0:0:
72,56,125742,1,0,0:0:0:0:
408,124,125914,2,0,B|368:160|368:160|364:244,1,136.000002593994
144,272,126428,6,0,B|124:208|124:208|128:136,1,136.000002593994
132,108,126685,1,0,0:0:0:0:
132,64,126771,1,0,0:0:0:0:
340,328,126942,1,0,0:0:0:0:
136,64,127114,1,0,0:0:0:0:
340,256,127285,2,0,P|328:176|276:136,1,136.000002593994
256,192,127800,12,0,129000,0:0:0:0:
204,160,129171,5,0,0:0:0:0:
96,168,129342,2,0,P|80:248|116:312,2,136.000002593994
308,272,130028,2,0,P|376:280|440:244,2,136.000002593994
160,144,130714,2,0,B|136:56|136:56|208:136,2,136.000002593994
308,264,131400,2,0,B|344:344|344:344|296:312,2,136.000002593994
280,132,132085,2,0,B|352:96|352:96|384:44,2,136.000002593994
180,248,132771,2,0,B|104:284|104:284|68:336,2,136.000002593994
376,212,133457,2,0,P|432:168|388:148,2,136.000002593994
128,164,134142,2,0,P|88:188|148:224,2,136.000002593994
328,136,134657,6,0,L|488:100,1,136.000002593994
388,208,135000,2,0,L|408:344,1,136.000002593994
196,72,135342,2,0,L|344:40,1,136.000002593994
236,176,135685,2,0,L|260:312,2,136.000002593994
32,32,136200,2,0,L|196:-4,2,136.000002593994
268,164,136714,2,0,L|268:24,1,136.000002593994
208,224,137057,2,0,L|208:368,1,136.000002593994
352,164,137400,2,0,L|352:20,2,136.000002593994
48,356,137914,2,0,L|48:220,2,136.000002593994
436,28,138428,2,0,L|436:164,1,136.000002593994
248,180,138771,5,0,0:0:0:0:
256,192,138942,12,0,139971,0:0:0:0:
240,172,140142,6,0,B|244:96|244:96|320:76|320:76|388:104|388:104|392:184,1,287.999991210938
128,296,140657,2,0,B|100:228|100:228|116:208|124:180|88:160|60:136|16:224|40:272|40:272|60:320|20:336,1,287.999991210938
252,124,141171,2,0,B|324:112|408:148|408:148|332:156|352:240,1,287.999991210938
112,224,141685,2,0,B|176:264|176:264|196:180|160:224|152:156|28:152,1,287.999991210938
304,112,142200,2,0,P|392:144|448:216,1,143.999995605469
336,188,142542,2,0,P|372:260|352:336,1,143.999995605469
200,256,142885,6,0,B|140:248|124:176|124:176|104:152|52:172|60:244|60:244|108:248|112:216,1,287.999991210938
264,128,143400,2,0,B|328:68|420:96|420:96|384:144|368:96|368:96|336:152|328:76,1,287.999991210938
112,224,143914,2,0,B|124:136|116:160|116:160|192:188|104:208|104:208|180:280|236:212,1,287.999991210938
368,104,144428,2,0,B|408:188|376:176|376:176|416:132|444:44|348:0,1,287.999991210938
156,164,144942,2,0,P|100:224|100:296,1,143.999995605469
104,188,145285,2,0,P|44:136|60:56,1,143.999995605469
264,156,145628,5,0,0:0:0:0:
380,248,145800,1,0,0:0:0:0:
128,228,145971,1,0,0:0:0:0:
264,256,146142,1,0,0:0:0:0:
184,364,146314,1,0,0:0:0:0:
128,228,146485,1,0,0:0:0:0:
352,364,146657,6,0,P|356:288|304:232,2,143.999995605469
180,184,147171,2,0,P|168:108|212:52,2,143.999995605469
352,120,147685,2,0,P|416:168|412:248,1,143.999995605469
360,152,148028,2,0,P|404:212|384:292,1,143.999995605469
344,196,148371,2,0,P|380:264|352:328,2,143.999995605469
184,104,148885,2,0,P|152:184|176:256,2,143.999995605469
384,132,149400,5,0,0:0:0:0:
184,88,149571,1,0,0:0:0:0:
344,256,149742,1,0,0:0:0:0:
184,88,149914,1,0,0:0:0:0:
256,304,150085,1,0,0:0:0:0:
184,88,150257,1,0,0:0:0:0:
152,340,150428,1,0,0:0:0:0:
192,184,150600,6,0,L|48:172,1,143.999995605469
284,144,150942,2,0,L|204:132,1,71.9999978027344
168,124,151114,6,0,L|4:96,1,143.999995605469
108,340,151457,1,0,0:0:0:0:
348,260,151628,2,0,L|228:140,1,143.999995605469
108,340,151971,1,0,0:0:0:0:
416,96,152142,2,0,L|220:80,1,143.999995605469
108,340,152485,1,0,0:0:0:0:
244,32,152657,2,0,L|124:168,1,143.999995605469
108,340,153000,1,0,0:0:0:0:
40,64,153171,6,0,L|44:248,1,143.999995605469
60,192,153514,2,0,L|60:48,1,143.999995605469
84,28,153857,2,0,L|84:176,1,143.999995605469
92,348,154200,1,0,0:0:0:0:
296,344,154371,2,0,L|448:344,1,143.999995605469
452,160,154714,1,0,0:0:0:0:
320,160,154885,2,0,L|152:160,1,143.999995605469
48,52,155228,1,0,0:0:0:0:
204,52,155400,2,0,L|360:52,1,143.999995605469
56,332,155742,1,0,0:0:0:0:
176,340,155914,2,0,P|176:272|148:308,1,143.999995605469
80,280,156257,6,0,P|40:220|92:232,1,143.999995605469
236,224,156600,5,0,0:0:0:0:
160,160,156771,1,0,0:0:0:0:
112,264,156942,5,0,0:0:0:0:
276,128,157114,1,0,0:0:0:0:
116,112,157285,5,0,0:0:0:0:
284,264,157457,1,0,0:0:0:0:
72,296,157628,5,0,0:0:0:0:
312,96,157800,1,0,0:0:0:0:
76,68,157971,5,0,0:0:0:0:
328,304,158142,1,0,0:0:0:0:
216,84,158314,5,0,0:0:0:0:
300,336,158485,1,0,0:0:0:0:
256,60,158657,5,0,0:0:0:0:
256,344,158828,1,0,0:0:0:0:
308,72,159000,5,0,0:0:0:0:
216,336,159171,1,0,0:0:0:0:
160,72,159342,5,0,0:0:0:0:
364,72,159514,1,0,0:0:0:0:
72,108,159685,5,0,0:0:0:0:
448,104,159857,1,0,0:0:0:0:
160,180,160028,5,0,0:0:0:0:
364,180,160200,1,0,0:0:0:0:
200,256,160371,5,0,0:0:0:0:
328,256,160542,2,0,L|416:260,1,71.9999978027344
256,184,160714,5,0,0:0:0:0:
168,124,160885,1,0,0:0:0:0:
168,156,160971,1,0,0:0:0:0:
164,184,161057,1,0,0:0:0:0:
208,248,161228,1,0,0:0:0:0:
208,276,161314,1,0,0:0:0:0:
248,156,162085,6,0,B|328:148|328:148|304:216|368:276|368:276|400:188,1,287.999991210938
140,112,162600,1,0,0:0:0:0:
140,156,162685,1,0,0:0:0:0:
152,204,162771,2,0,L|176:272,1,71.9999978027344
256,320,162942,2,0,L|336:348,1,71.9999978027344
360,272,163114,2,0,B|360:228|360:228|368:196|416:176|464:208,2,143.999995605469
360,300,163542,1,0,0:0:0:0:
324,300,163628,1,0,0:0:0:0:
164,184,163800,5,0,0:0:0:0:
360,280,163971,1,0,0:0:0:0:
324,280,164057,1,0,0:0:0:0:
284,256,164142,2,0,B|264:192|264:192|272:120|272:120|284:124,1,143.999995605469
384,120,164485,2,0,B|404:184|404:184|396:256|396:256|384:252,1,143.999995605469
108,208,164828,6,0,B|88:244|88:244|80:268|92:312|88:312|88:312|64:332|60:316,1,143.999995605469
56,300,165085,1,0,0:0:0:0:
64,260,165171,1,0,0:0:0:0:
80,232,165257,1,0,0:0:0:0:
116,212,165342,1,0,0:0:0:0:
300,112,165514,2,0,B|264:152|264:152|256:168|264:216|228:220|228:220|208:204|216:192,1,143.999995605469
228,200,165771,1,0,0:0:0:0:
240,180,165857,1,0,0:0:0:0:
240,152,165942,1,0,0:0:0:0:
268,128,166028,1,0,0:0:0:0:
424,68,166200,6,0,B|408:104|408:104|408:140|368:184|368:184|368:148,1,143.999995605469
360,152,166457,1,0,0:0:0:0:
384,132,166542,1,0,0:0:0:0:
392,88,166628,1,0,0:0:0:0:
420,60,166714,1,0,0:0:0:0:
124,116,166885,6,0,L|68:192,1,71.9999978027344
88,252,167057,2,0,L|136:312,1,71.9999978027344
200,264,167228,2,0,B|144:208|144:208|192:148,1,143.999995605469
280,204,167571,2,0,L|364:204,1,71.9999978027344
84,80,168085,5,0,0:0:0:0:
156,80,168171,1,0,0:0:0:0:
224,112,168257,2,0,L|304:112,1,71.9999978027344
360,48,168428,2,0,L|444:48,1,71.9999978027344
460,144,168600,2,0,B|468:216|468:216|456:220|448:260|408:256,2,143.999995605469
424,104,169028,1,0,0:0:0:0:
368,92,169114,1,0,0:0:0:0:
152,184,169285,5,0,0:0:0:0:
364,304,169457,1,0,0:0:0:0:
304,292,169542,1,0,0:0:0:0:
272,252,169628,2,0,B|216:196|200:144|200:144|240:128,1,143.999995605469
448,192,169971,1,0,0:0:0:0:
152,184,170142,1,0,0:0:0:0:
428,172,170314,6,0,B|400:152|400:152|376:96|376:96|320:52,1,143.999995605469
292,56,170571,1,0,0:0:0:0:
232,32,170657,1,0,0:0:0:0:
240,148,170828,1,0,0:0:0:0:
232,176,170914,1,0,0:0:0:0:
232,208,171000,6,0,P|264:280|344:288,1,143.999995605469
368,284,171257,1,0,0:0:0:0:
392,260,171342,1,0,0:0:0:0:
372,212,171428,1,0,0:0:0:0:
344,172,171514,1,0,0:0:0:0:
296,120,171600,1,0,0:0:0:0:
228,88,171685,1,0,0:0:0:0:
140,172,172542,5,0,0:0:0:0:
380,172,172885,5,0,0:0:0:0:
132,172,173057,6,0,P|76:116|76:40,1,143.999995605469
388,172,173400,2,0,P|436:116|436:36,1,143.999995605469
180,48,173742,2,0,P|256:32|356:60,1,143.999995605469
188,240,174085,2,0,L|188:340,1,71.9999978027344
328,120,174257,2,0,L|328:212,1,71.9999978027344
96,236,174428,1,0,0:0:0:0:
400,64,174771,1,0,0:0:0:0:
144,236,174942,6,0,L|144:312,1,71.9999978027344
204,160,175114,2,0,L|204:248,1,71.9999978027344
248,108,175285,2,0,L|248:192,1,71.9999978027344
288,60,175457,2,0,L|288:144,1,71.9999978027344
316,20,175628,2,0,L|316:112,1,71.9999978027344
332,136,175800,6,0,B|380:216|380:216|332:196|296:236,1,143.999995605469
176,72,176142,2,0,B|140:172|140:172|172:152|208:168,1,143.999995605469
144,288,176485,2,0,P|216:312|316:208,2,215.999993408203
313,228,177171,2,0,B|272:352|136:288|136:288|144:252|200:188|88:128|88:128|132:100,1,431.999986816407
196,168,177857,5,0,0:0:0:0:
316,88,178028,2,0,L|320:224,1,120.000004577637
196,168,178371,1,0,0:0:0:0:
100,232,178542,6,0,B|72:164|116:168|116:168|92:104|164:128,1,160
232,256,178885,2,0,B|292:212|264:192|264:192|304:172|304:172|304:128,1,160
120,44,179228,2,0,B|184:100|184:100|164:120|164:120|172:148|140:176,1,160
348,136,179571,2,0,L|320:220,1,80
468,48,179742,2,0,L|376:28,1,80
308,228,179914,1,0,0:0:0:0:
72,64,180257,1,0,0:0:0:0:
60,328,180428,6,0,P|72:332|72:396,1,80
296,144,180600,2,0,P|272:148|280:100,1,80
368,320,180771,2,0,B|380:308|380:308|392:320|392:320|452:320,1,80
128,160,180942,2,0,L|128:240,1,80
388,96,181114,2,0,L|388:184,1,80
200,224,181285,5,0,0:0:0:0:
288,128,181457,1,0,0:0:0:0:
128,96,181628,5,0,0:0:0:0:
336,260,181800,1,0,0:0:0:0:
100,304,181971,5,0,0:0:0:0:
376,52,182142,1,0,0:0:0:0:
0,152,182314,5,0,0:0:0:0:
512,152,182485,1,0,0:0:0:0:
256,192,182657,12,0,183342,0:0:0:0:
