osu file format v14

[General]
AudioFilename: aaa.mp3
AudioLeadIn: 0
PreviewTime: 93344
Countdown: 0
SampleSet: Normal
StackLeniency: 0.7
Mode: 1
LetterboxInBreaks: 0
StoryFireInFront: 0
EpilepsyWarning: 1
WidescreenStoryboard: 1

[Editor]
Bookmarks: 70267,104729
DistanceSpacing: 1
BeatDivisor: 4
GridSize: 4
TimelineZoom: 1

[Metadata]
Title:Nostalgic (Nightcore Mix)
TitleUnicode:Nostalgic (Nightcore Mix)
Artist:S3RL feat Harri Rush
ArtistUnicode:S3RL feat Harri Rush
Creator:nold_1702
Version:Taiko Muzukashii
Source:
Tags:CLuBLioNX Nightcore Regou Hotdog CLSW Minato Yukina Crystal Spec Spectate Spectator Nardoxyribonucleic Nardo nold 1702 Kloyd Drop [ Drop ] yf_bmp yf bmp hybrid old memory recollection Tofu1222 Tofu
BeatmapID:1319572
BeatmapSetID:591442

[Difficulty]
HPDrainRate:6
CircleSize:2
OverallDifficulty:5
ApproachRate:5
SliderMultiplier:1.4
SliderTickRate:1

[Events]
//Background and Video events
0,0,"Night Sky.jpg",0,0
//Break Periods
//Storyboard Layer 0 (Background)
//Storyboard Layer 1 (Fail)
//Storyboard Layer 2 (Pass)
//Storyboard Layer 3 (Foreground)
Sprite,Foreground,Centre,"11t-fonts\S1.png",320,240 R,0,243806,,0 C,0,243806,,255,255,255 P,0,243806,,A F,0,243806,243883,0,0.8 S,0,243806,250488,0.25 MX,0,243806,250488,80 MY,0,243806,250488,380 F,0,250334,250488,0.8,0
Sprite,Foreground,Centre,"11t-fonts\t.png",320,240 R,0,243806,,0 C,0,243806,,255,255,255 P,0,243806,,A F,0,243806,243883,0,0.8 S,0,243806,250488,0.25 MX,0,243806,250488,94.06 MY,0,243806,250488,380 F,0,250334,250488,0.8,0
Sprite,Foreground,Centre,"11t-fonts\o.png",320,240 R,0,243806,,0 C,0,243806,,255,255,255 P,0,243806,,A F,0,243806,243883,0,0.8 S,0,243806,250488,0.25 MX,0,243806,250488,107.38 MY,0,243806,250488,380 F,0,250334,250488,0.8,0
Sprite,Foreground,Centre,"11t-fonts\r.png",320,240 R,0,243806,,0 C,0,243806,,255,255,255 P,0,243806,,A F,0,243806,243883,0,0.8 S,0,243806,250488,0.25 MX,0,243806,250488,121.62 MY,0,243806,250488,380 F,0,250334,250488,0.8,0
Sprite,Foreground,Centre,"11t-fonts\y.png",320,240 R,0,243806,,0 C,0,243806,,255,255,255 P,0,243806,,A F,0,243806,243883,0,0.8 S,0,243806,250488,0.25 MX,0,243806,250488,133.65 MY,0,243806,250488,380 F,0,250334,250488,0.8,0
Sprite,Foreground,Centre,"11t-fonts\b.png",320,240 R,0,243806,,0 C,0,243806,,255,255,255 P,0,243806,,A F,0,243806,243883,0,0.8 S,0,243806,250488,0.25 MX,0,243806,250488,149.96 MY,0,243806,250488,380 F,0,250334,250488,0.8,0
Sprite,Foreground,Centre,"11t-fonts\o.png",320,240 R,0,243806,,0 C,0,243806,,255,255,255 P,0,243806,,A F,0,243806,243883,0,0.8 S,0,243806,250488,0.25 MX,0,243806,250488,166.65 MY,0,243806,250488,380 F,0,250334,250488,0.8,0
Sprite,Foreground,Centre,"11t-fonts\a.png",320,240 R,0,243806,,0 C,0,243806,,255,255,255 P,0,243806,,A F,0,243806,243883,0,0.8 S,0,243806,250488,0.25 MX,0,243806,250488,183.34 MY,0,243806,250488,380 F,0,250334,250488,0.8,0
Sprite,Foreground,Centre,"11t-fonts\r.png",320,240 R,0,243806,,0 C,0,243806,,255,255,255 P,0,243806,,A F,0,243806,243883,0,0.8 S,0,243806,250488,0.25 MX,0,243806,250488,197.4 MY,0,243806,250488,380 F,0,250334,250488,0.8,0
Sprite,Foreground,Centre,"11t-fonts\d.png",320,240 R,0,243806,,0 C,0,243806,,255,255,255 P,0,243806,,A F,0,243806,243883,0,0.8 S,0,243806,250488,0.25 MX,0,243806,250488,209.59 MY,0,243806,250488,380 F,0,250334,250488,0.8,0
Sprite,Foreground,Centre,"11t-fonts\b.png",320,240 R,0,243806,,0 C,0,243806,,255,255,255 P,0,243806,,A F,0,243806,243883,0,0.8 S,0,243806,250488,0.25 MX,0,243806,250488,236.34 MY,0,243806,250488,380 F,0,250334,250488,0.8,0
Sprite,Foreground,Centre,"11t-fonts\y.png",320,240 R,0,243806,,0 C,0,243806,,255,255,255 P,0,243806,,A F,0,243806,243883,0,0.8 S,0,243806,250488,0.25 MX,0,243806,250488,252.65 MY,0,243806,250488,380 F,0,250334,250488,0.8,0
Sprite,Foreground,Centre,"11t-fonts\N1.png",320,240 R,0,243806,,0 C,0,243806,,255,255,255 P,0,243806,,A F,0,243806,243883,0,0.8 S,0,243806,250488,0.25 MX,0,243806,250488,280.34 MY,0,243806,250488,380 F,0,250334,250488,0.8,0
Sprite,Foreground,Centre,"11t-fonts\o.png",320,240 R,0,243806,,0 C,0,243806,,255,255,255 P,0,243806,,A F,0,243806,243883,0,0.8 S,0,243806,250488,0.25 MX,0,243806,250488,297.96 MY,0,243806,250488,380 F,0,250334,250488,0.8,0
Sprite,Foreground,Centre,"11t-fonts\l.png",320,240 R,0,243806,,0 C,0,243806,,255,255,255 P,0,243806,,A F,0,243806,243883,0,0.8 S,0,243806,250488,0.25 MX,0,243806,250488,310.15 MY,0,243806,250488,380 F,0,250334,250488,0.8,0
Sprite,Foreground,Centre,"11t-fonts\d.png",320,240 R,0,243806,,0 C,0,243806,,255,255,255 P,0,243806,,A F,0,243806,243883,0,0.8 S,0,243806,250488,0.25 MX,0,243806,250488,322.15 MY,0,243806,250488,380 F,0,250334,250488,0.8,0
Sprite,Foreground,Centre,"11t-fonts\S1.png",320,240 R,0,243806,,0 C,0,243806,,255,255,255 P,0,243806,,A F,0,243806,243883,0,0.8 S,0,243806,250488,0.25 MX,0,243806,250488,80 MY,0,243806,250488,380 F,0,250334,250488,0.8,0
Sprite,Foreground,Centre,"11t-fonts\t.png",320,240 R,0,243806,,0 C,0,243806,,255,255,255 P,0,243806,,A F,0,243806,243883,0,0.8 S,0,243806,250488,0.25 MX,0,243806,250488,94.06 MY,0,243806,250488,380 F,0,250334,250488,0.8,0
Sprite,Foreground,Centre,"11t-fonts\o.png",320,240 R,0,243806,,0 C,0,243806,,255,255,255 P,0,243806,,A F,0,243806,243883,0,0.8 S,0,243806,250488,0.25 MX,0,243806,250488,107.38 MY,0,243806,250488,380 F,0,250334,250488,0.8,0
Sprite,Foreground,Centre,"11t-fonts\r.png",320,240 R,0,243806,,0 C,0,243806,,255,255,255 P,0,243806,,A F,0,243806,243883,0,0.8 S,0,243806,250488,0.25 MX,0,243806,250488,121.62 MY,0,243806,250488,380 F,0,250334,250488,0.8,0
Sprite,Foreground,Centre,"11t-fonts\y.png",320,240 R,0,243806,,0 C,0,243806,,255,255,255 P,0,243806,,A F,0,243806,243883,0,0.8 S,0,243806,250488,0.25 MX,0,243806,250488,133.65 MY,0,243806,250488,380 F,0,250334,250488,0.8,0
Sprite,Foreground,Centre,"11t-fonts\b.png",320,240 R,0,243806,,0 C,0,243806,,255,255,255 P,0,243806,,A F,0,243806,243883,0,0.8 S,0,243806,250488,0.25 MX,0,243806,250488,149.96 MY,0,243806,250488,380 F,0,250334,250488,0.8,0
Sprite,Foreground,Centre,"11t-fonts\o.png",320,240 R,0,243806,,0 C,0,243806,,255,255,255 P,0,243806,,A F,0,243806,243883,0,0.8 S,0,243806,250488,0.25 MX,0,243806,250488,166.65 MY,0,243806,250488,380 F,0,250334,250488,0.8,0
Sprite,Foreground,Centre,"11t-fonts\a.png",320,240 R,0,243806,,0 C,0,243806,,255,255,255 P,0,243806,,A F,0,243806,243883,0,0.8 S,0,243806,250488,0.25 MX,0,243806,250488,183.34 MY,0,243806,250488,380 F,0,250334,250488,0.8,0
Sprite,Foreground,Centre,"11t-fonts\r.png",320,240 R,0,243806,,0 C,0,243806,,255,255,255 P,0,243806,,A F,0,243806,243883,0,0.8 S,0,243806,250488,0.25 MX,0,243806,250488,197.4 MY,0,243806,250488,380 F,0,250334,250488,0.8,0
Sprite,Foreground,Centre,"11t-fonts\d.png",320,240 R,0,243806,,0 C,0,243806,,255,255,255 P,0,243806,,A F,0,243806,243883,0,0.8 S,0,243806,250488,0.25 MX,0,243806,250488,209.59 MY,0,243806,250488,380 F,0,250334,250488,0.8,0
Sprite,Foreground,Centre,"11t-fonts\b.png",320,240 R,0,243806,,0 C,0,243806,,255,255,255 P,0,243806,,A F,0,243806,243883,0,0.8 S,0,243806,250488,0.25 MX,0,243806,250488,236.34 MY,0,243806,250488,380 F,0,250334,250488,0.8,0
Sprite,Foreground,Centre,"11t-fonts\y.png",320,240 R,0,243806,,0 C,0,243806,,255,255,255 P,0,243806,,A F,0,243806,243883,0,0.8 S,0,243806,250488,0.25 MX,0,243806,250488,252.65 MY,0,243806,250488,380 F,0,250334,250488,0.8,0
Sprite,Foreground,Centre,"11t-fonts\N1.png",320,240 R,0,243806,,0 C,0,243806,,255,255,255 P,0,243806,,A F,0,243806,243883,0,0.8 S,0,243806,250488,0.25 MX,0,243806,250488,280.34 MY,0,243806,250488,380 F,0,250334,250488,0.8,0
Sprite,Foreground,Centre,"11t-fonts\o.png",320,240 R,0,243806,,0 C,0,243806,,255,255,255 P,0,243806,,A F,0,243806,243883,0,0.8 S,0,243806,250488,0.25 MX,0,243806,250488,297.96 MY,0,243806,250488,380 F,0,250334,250488,0.8,0
Sprite,Foreground,Centre,"11t-fonts\l.png",320,240 R,0,243806,,0 C,0,243806,,255,255,255 P,0,243806,,A F,0,243806,243883,0,0.8 S,0,243806,250488,0.25 MX,0,243806,250488,310.15 MY,0,243806,250488,380 F,0,250334,250488,0.8,0
Sprite,Foreground,Centre,"11t-fonts\d.png",320,240 R,0,243806,,0 C,0,243806,,255,255,255 P,0,243806,,A F,0,243806,243883,0,0.8 S,0,243806,250488,0.25 MX,0,243806,250488,322.15 MY,0,243806,250488,380 F,0,250334,250488,0.8,0
Sprite,Foreground,Centre,"11t-fonts\M1.png",320,240 R,0,243806,,0 C,0,243806,,255,255,255 P,0,243806,,A F,0,243806,243883,0,0.8 S,0,243806,250488,0.25 MX,0,243806,250488,83 MY,0,243806,250488,420 F,0,250334,250488,0.8,0
Sprite,Foreground,Centre,"11t-fonts\a.png",320,240 R,0,243806,,0 C,0,243806,,255,255,255 P,0,243806,,A F,0,243806,243883,0,0.8 S,0,243806,250488,0.25 MX,0,243806,250488,102.12 MY,0,243806,250488,420 F,0,250334,250488,0.8,0
Sprite,Foreground,Centre,"11t-fonts\p.png",320,240 R,0,243806,,0 C,0,243806,,255,255,255 P,0,243806,,A F,0,243806,243883,0,0.8 S,0,243806,250488,0.25 MX,0,243806,250488,118.62 MY,0,243806,250488,420 F,0,250334,250488,0.8,0
Sprite,Foreground,Centre,"11t-fonts\p.png",320,240 R,0,243806,,0 C,0,243806,,255,255,255 P,0,243806,,A F,0,243806,243883,0,0.8 S,0,243806,250488,0.25 MX,0,243806,250488,135.12 MY,0,243806,250488,420 F,0,250334,250488,0.8,0
Sprite,Foreground,Centre,"11t-fonts\e.png",320,240 R,0,243806,,0 C,0,243806,,255,255,255 P,0,243806,,A F,0,243806,243883,0,0.8 S,0,243806,250488,0.25 MX,0,243806,250488,151.62 MY,0,243806,250488,420 F,0,250334,250488,0.8,0
Sprite,Foreground,Centre,"11t-fonts\d.png",320,240 R,0,243806,,0 C,0,243806,,255,255,255 P,0,243806,,A F,0,243806,243883,0,0.8 S,0,243806,250488,0.25 MX,0,243806,250488,168.12 MY,0,243806,250488,420 F,0,250334,250488,0.8,0
Sprite,Foreground,Centre,"11t-fonts\b.png",320,240 R,0,243806,,0 C,0,243806,,255,255,255 P,0,243806,,A F,0,243806,243883,0,0.8 S,0,243806,250488,0.25 MX,0,243806,250488,194.88 MY,0,243806,250488,420 F,0,250334,250488,0.8,0
Sprite,Foreground,Centre,"11t-fonts\y.png",320,240 R,0,243806,,0 C,0,243806,,255,255,255 P,0,243806,,A F,0,243806,243883,0,0.8 S,0,243806,250488,0.25 MX,0,243806,250488,211.19 MY,0,243806,250488,420 F,0,250334,250488,0.8,0
Sprite,Foreground,Centre,"11t-fonts\N1.png",320,240 R,0,243806,,0 C,0,243806,,255,255,255 P,0,243806,,A F,0,243806,243883,0,0.8 S,0,243806,250488,0.25 MX,0,243806,250488,238.88 MY,0,243806,250488,420 F,0,250334,250488,0.8,0
Sprite,Foreground,Centre,"11t-fonts\o.png",320,240 R,0,243806,,0 C,0,243806,,255,255,255 P,0,243806,,A F,0,243806,243883,0,0.8 S,0,243806,250488,0.25 MX,0,243806,250488,256.5 MY,0,243806,250488,420 F,0,250334,250488,0.8,0
Sprite,Foreground,Centre,"11t-fonts\l.png",320,240 R,0,243806,,0 C,0,243806,,255,255,255 P,0,243806,,A F,0,243806,243883,0,0.8 S,0,243806,250488,0.25 MX,0,243806,250488,268.69 MY,0,243806,250488,420 F,0,250334,250488,0.8,0
Sprite,Foreground,Centre,"11t-fonts\d.png",320,240 R,0,243806,,0 C,0,243806,,255,255,255 P,0,243806,,A F,0,243806,243883,0,0.8 S,0,243806,250488,0.25 MX,0,243806,250488,280.69 MY,0,243806,250488,420 F,0,250334,250488,0.8,0
Sprite,Foreground,Centre,"11t-fonts\M1.png",320,240 R,0,243806,,0 C,0,243806,,255,255,255 P,0,243806,,A F,0,243806,243883,0,0.8 S,0,243806,250488,0.25 MX,0,243806,250488,83 MY,0,243806,250488,420 F,0,250334,250488,0.8,0
Sprite,Foreground,Centre,"11t-fonts\a.png",320,240 R,0,243806,,0 C,0,243806,,255,255,255 P,0,243806,,A F,0,243806,243883,0,0.8 S,0,243806,250488,0.25 MX,0,243806,250488,102.12 MY,0,243806,250488,420 F,0,250334,250488,0.8,0
Sprite,Foreground,Centre,"11t-fonts\p.png",320,240 R,0,243806,,0 C,0,243806,,255,255,255 P,0,243806,,A F,0,243806,243883,0,0.8 S,0,243806,250488,0.25 MX,0,243806,250488,118.62 MY,0,243806,250488,420 F,0,250334,250488,0.8,0
Sprite,Foreground,Centre,"11t-fonts\p.png",320,240 R,0,243806,,0 C,0,243806,,255,255,255 P,0,243806,,A F,0,243806,243883,0,0.8 S,0,243806,250488,0.25 MX,0,243806,250488,135.12 MY,0,243806,250488,420 F,0,250334,250488,0.8,0
Sprite,Foreground,Centre,"11t-fonts\e.png",320,240 R,0,243806,,0 C,0,243806,,255,255,255 P,0,243806,,A F,0,243806,243883,0,0.8 S,0,243806,250488,0.25 MX,0,243806,250488,151.62 MY,0,243806,250488,420 F,0,250334,250488,0.8,0
Sprite,Foreground,Centre,"11t-fonts\d.png",320,240 R,0,243806,,0 C,0,243806,,255,255,255 P,0,243806,,A F,0,243806,243883,0,0.8 S,0,243806,250488,0.25 MX,0,243806,250488,168.12 MY,0,243806,250488,420 F,0,250334,250488,0.8,0
Sprite,Foreground,Centre,"11t-fonts\b.png",320,240 R,0,243806,,0 C,0,243806,,255,255,255 P,0,243806,,A F,0,243806,243883,0,0.8 S,0,243806,250488,0.25 MX,0,243806,250488,194.88 MY,0,243806,250488,420 F,0,250334,250488,0.8,0
Sprite,Foreground,Centre,"11t-fonts\y.png",320,240 R,0,243806,,0 C,0,243806,,255,255,255 P,0,243806,,A F,0,243806,243883,0,0.8 S,0,243806,250488,0.25 MX,0,243806,250488,211.19 MY,0,243806,250488,420 F,0,250334,250488,0.8,0
Sprite,Foreground,Centre,"11t-fonts\N1.png",320,240 R,0,243806,,0 C,0,243806,,255,255,255 P,0,243806,,A F,0,243806,243883,0,0.8 S,0,243806,250488,0.25 MX,0,243806,250488,238.88 MY,0,243806,250488,420 F,0,250334,250488,0.8,0
Sprite,Foreground,Centre,"11t-fonts\o.png",320,240 R,0,243806,,0 C,0,243806,,255,255,255 P,0,243806,,A F,0,243806,243883,0,0.8 S,0,243806,250488,0.25 MX,0,243806,250488,256.5 MY,0,243806,250488,420 F,0,250334,250488,0.8,0
Sprite,Foreground,Centre,"11t-fonts\l.png",320,240 R,0,243806,,0 C,0,243806,,255,255,255 P,0,243806,,A F,0,243806,243883,0,0.8 S,0,243806,250488,0.25 MX,0,243806,250488,268.69 MY,0,243806,250488,420 F,0,250334,250488,0.8,0
Sprite,Foreground,Centre,"11t-fonts\d.png",320,240 R,0,243806,,0 C,0,243806,,255,255,255 P,0,243806,,A F,0,243806,243883,0,0.8 S,0,243806,250488,0.25 MX,0,243806,250488,280.69 MY,0,243806,250488,420 F,0,250334,250488,0.8,0
//Storyboard Sound Samples

[TimingPoints]
114,307.692307692308,4,1,1,85,1,0
24729,-100,4,1,1,65,0,0
34575,-111.111111111111,4,1,1,65,0,0
44421,-100,4,1,1,70,0,0
55498,-125,4,1,1,75,0,0
65344,-111.111111111111,4,1,1,75,0,0
75190,-100,4,1,1,80,0,0
85036,-100,4,1,1,90,0,0
94883,-100,4,1,1,90,0,1
113344,-100,4,1,1,75,0,0
114575,-100,4,1,1,90,0,1
133037,-100,4,1,1,70,0,0
144113,-100,4,1,1,80,0,0
155190,-111.111111111111,4,1,1,75,0,0
165036,-100,4,1,1,85,0,0
174882,-100,4,1,1,90,0,0
184729,-100,4,1,1,90,0,1
203190,-100,4,1,1,75,0,0
204421,-100,4,1,1,90,0,1
222883,-100,4,1,1,85,0,0

[Colours]
Combo1 : 62,62,62
Combo2 : 255,121,57
Combo3 : 0,227,227
Combo4 : 155,55,255
Combo5 : 255,115,255
Combo6 : 100,177,255
Combo7 : 193,255,132
Combo8 : 192,192,192

[HitObjects]
40,104,114,5,4,0:0:0:0:
44,108,421,1,8,0:0:0:0:
40,104,575,1,0,0:0:0:0:
40,104,729,1,0,0:0:0:0:
40,104,883,1,0,0:0:0:0:
40,104,1037,1,8,0:0:0:0:
36,100,1190,1,8,0:0:0:0:
24,108,1498,1,0,0:0:0:0:
28,104,1652,1,8,0:0:0:0:
28,104,1806,1,8,0:0:0:0:
64,160,2114,1,0,0:0:0:0:
92,148,2267,1,8,0:0:0:0:
136,140,2421,1,0,0:0:0:0:
32,224,2575,1,0,0:0:0:0:
44,108,2883,1,8,0:0:0:0:
40,104,3037,1,0,0:0:0:0:
40,104,3190,1,0,0:0:0:0:
40,104,3344,1,0,0:0:0:0:
40,104,3498,1,8,0:0:0:0:
36,100,3652,1,8,0:0:0:0:
124,152,3960,1,0,0:0:0:0:
124,152,4114,1,8,0:0:0:0:
124,152,4267,1,0,0:0:0:0:
68,200,4421,1,0,0:0:0:0:
136,256,4498,1,0,0:0:0:0:
156,264,4575,1,0,0:0:0:0:
168,208,4729,1,8,0:0:0:0:
112,196,5037,1,0,0:0:0:0:
168,140,5344,1,8,0:0:0:0:
116,148,5498,1,0,0:0:0:0:
156,176,5652,1,0,0:0:0:0:
240,204,5806,1,0,0:0:0:0:
196,96,5960,1,8,0:0:0:0:
176,168,6114,1,8,0:0:0:0:
76,140,6421,1,0,0:0:0:0:
76,140,6575,1,8,0:0:0:0:
76,140,6729,1,8,0:0:0:0:
76,140,7037,1,0,0:0:0:0:
76,140,7190,1,8,0:0:0:0:
76,140,7344,1,0,0:0:0:0:
144,160,7498,1,0,0:0:0:0:
172,144,7806,1,8,0:0:0:0:
176,124,7960,1,0,0:0:0:0:
216,116,8114,1,0,0:0:0:0:
256,120,8267,1,0,0:0:0:0:
256,120,8421,1,8,0:0:0:0:
272,132,8575,1,8,0:0:0:0:
152,184,8729,1,0,0:0:0:0:
288,204,9037,1,8,0:0:0:0:
140,120,9190,1,8,0:0:0:0:
152,172,9344,1,0,0:0:0:0:
336,232,9421,1,0,0:0:0:0:
320,268,9498,1,0,0:0:0:0:
204,168,9652,1,8,0:0:0:0:
204,124,9960,1,4,0:0:0:0:
240,108,10267,1,8,0:0:0:0:
308,124,10421,1,0,0:0:0:0:
196,148,10729,1,0,0:0:0:0:
92,168,10806,1,0,0:0:0:0:
288,176,10883,1,0,0:0:0:0:
120,208,11037,1,8,0:0:0:0:
108,112,11344,1,0,0:0:0:0:
192,144,11498,1,8,0:0:0:0:
144,184,11652,1,0,0:0:0:0:
108,112,11960,1,8,0:0:0:0:
216,92,12037,1,8,0:0:0:0:
192,144,12114,1,8,0:0:0:0:
144,184,12267,1,8,0:0:0:0:
108,112,12575,1,0,0:0:0:0:
192,144,12729,1,8,0:0:0:0:
144,184,12883,1,0,0:0:0:0:
108,112,13190,1,0,0:0:0:0:
96,216,13267,1,0,0:0:0:0:
192,144,13344,1,0,0:0:0:0:
144,184,13498,1,8,0:0:0:0:
108,112,13806,1,0,0:0:0:0:
192,144,13960,1,8,0:0:0:0:
144,184,14114,1,0,0:0:0:0:
236,120,14267,1,0,0:0:0:0:
320,96,14344,1,0,0:0:0:0:
360,108,14421,1,0,0:0:0:0:
360,108,14575,1,8,0:0:0:0:
140,208,14883,1,0,0:0:0:0:
208,232,15190,1,8,0:0:0:0:
212,140,15344,1,0,0:0:0:0:
104,164,15498,1,0,0:0:0:0:
284,224,15729,1,0,0:0:0:0:
372,208,15806,1,8,0:0:0:0:
144,120,16114,1,0,0:0:0:0:
200,120,16267,1,0,0:0:0:0:
244,136,16421,1,8,0:0:0:0:
312,160,16575,1,0,0:0:0:0:
224,196,16729,1,0,0:0:0:0:
176,224,16960,1,0,0:0:0:0:
132,228,17037,1,8,0:0:0:0:
72,152,17344,1,0,0:0:0:0:
160,152,17498,1,0,0:0:0:0:
232,124,17652,1,8,0:0:0:0:
316,132,17806,1,0,0:0:0:0:
344,184,17960,1,0,0:0:0:0:
208,196,18114,1,0,0:0:0:0:
128,252,18267,1,8,0:0:0:0:
232,300,18421,1,8,0:0:0:0:
104,164,18575,1,0,0:0:0:0:
208,188,19806,5,4,0:0:0:0:
56,164,24729,5,0,0:0:0:0:
212,128,25037,1,0,0:0:0:0:
56,164,25344,1,8,0:0:0:0:
64,160,25652,1,8,0:0:0:0:
64,168,25806,1,0,0:0:0:0:
56,164,25960,5,0,0:0:0:0:
56,164,26267,1,0,0:0:0:0:
56,164,26575,1,8,0:0:0:0:
64,160,26883,1,8,0:0:0:0:
60,128,27037,1,0,0:0:0:0:
56,164,27190,5,0,0:0:0:0:
120,276,27498,1,0,0:0:0:0:
56,164,27806,1,8,0:0:0:0:
56,164,27960,1,0,0:0:0:0:
64,160,28114,1,8,0:0:0:0:
56,164,28421,5,8,0:0:0:0:
56,164,28729,1,0,0:0:0:0:
152,144,29037,1,0,0:0:0:0:
56,164,29190,1,0,0:0:0:0:
64,160,29344,1,8,0:0:0:0:
128,124,29498,1,8,0:0:0:0:
56,164,29652,5,0,0:0:0:0:
56,164,29960,1,0,0:0:0:0:
56,164,30267,1,8,0:0:0:0:
64,160,30575,1,8,0:0:0:0:
64,168,30729,1,0,0:0:0:0:
56,164,30883,5,0,0:0:0:0:
56,164,31190,1,0,0:0:0:0:
56,164,31498,1,8,0:0:0:0:
56,164,31652,1,0,0:0:0:0:
64,160,31806,1,8,0:0:0:0:
60,128,31960,1,0,0:0:0:0:
56,164,32114,5,0,0:0:0:0:
264,200,32421,1,0,0:0:0:0:
56,164,32729,1,8,0:0:0:0:
56,164,32883,1,0,0:0:0:0:
64,160,33037,1,8,0:0:0:0:
56,164,33190,1,8,0:0:0:0:
124,152,33344,1,0,0:0:0:0:
256,192,34575,5,4,0:0:0:0:
256,192,35037,1,0,0:0:0:0:
256,192,35190,1,8,0:0:0:0:
144,152,35344,1,0,0:0:0:0:
216,140,35498,1,8,0:0:0:0:
256,192,35806,1,0,0:0:0:0:
256,192,36267,1,0,0:0:0:0:
256,192,36421,1,0,0:0:0:0:
164,128,36575,1,8,0:0:0:0:
232,120,36729,1,0,0:0:0:0:
256,192,37037,1,0,0:0:0:0:
256,192,37498,1,0,0:0:0:0:
256,192,37652,1,8,0:0:0:0:
160,136,37806,1,0,0:0:0:0:
256,192,37960,1,0,0:0:0:0:
256,192,38267,1,0,0:0:0:0:
256,192,38729,1,0,0:0:0:0:
256,192,38883,1,8,0:0:0:0:
196,164,39037,1,0,0:0:0:0:
220,164,39190,1,0,0:0:0:0:
256,192,39498,5,0,0:0:0:0:
256,192,39960,1,0,0:0:0:0:
256,192,40114,1,8,0:0:0:0:
156,148,40267,1,8,0:0:0:0:
216,148,40421,1,0,0:0:0:0:
256,192,40729,1,0,0:0:0:0:
256,192,41190,1,0,0:0:0:0:
256,192,41344,1,8,0:0:0:0:
248,168,41498,1,0,0:0:0:0:
304,164,41652,1,8,0:0:0:0:
256,192,41960,1,0,0:0:0:0:
256,192,42421,1,8,0:0:0:0:
256,192,42575,1,0,0:0:0:0:
256,192,42729,1,8,0:0:0:0:
192,140,42883,1,0,0:0:0:0:
256,192,43190,1,0,0:0:0:0:
256,192,43652,1,0,0:0:0:0:
256,192,43806,1,8,0:0:0:0:
256,192,43960,1,0,0:0:0:0:
224,176,44114,1,0,0:0:0:0:
224,232,44421,1,0,0:0:0:0:
224,132,44575,1,8,0:0:0:0:
100,160,44883,1,8,0:0:0:0:
172,96,45037,1,0,0:0:0:0:
160,208,45190,1,8,0:0:0:0:
248,192,45344,1,0,0:0:0:0:
224,232,45652,1,0,0:0:0:0:
224,132,45806,1,0,0:0:0:0:
100,160,46114,1,8,0:0:0:0:
276,144,46267,1,0,0:0:0:0:
160,208,46421,1,0,0:0:0:0:
248,192,46575,1,8,0:0:0:0:
224,232,46883,1,0,0:0:0:0:
224,132,47037,1,8,0:0:0:0:
100,160,47344,1,8,0:0:0:0:
172,96,47498,1,0,0:0:0:0:
160,208,47652,1,8,0:0:0:0:
248,192,47806,1,0,0:0:0:0:
224,232,48114,1,0,0:0:0:0:
224,132,48421,1,8,0:0:0:0:
100,160,48575,1,8,0:0:0:0:
276,144,48729,1,0,0:0:0:0:
160,208,48883,1,0,0:0:0:0:
248,192,49037,1,8,0:0:0:0:
224,232,49344,1,0,0:0:0:0:
224,132,49498,1,8,0:0:0:0:
100,160,49806,1,8,0:0:0:0:
40,244,49960,1,0,0:0:0:0:
160,208,50114,1,0,0:0:0:0:
248,192,50267,1,8,0:0:0:0:
224,232,50575,1,0,0:0:0:0:
224,132,50729,1,8,0:0:0:0:
100,160,51037,1,8,0:0:0:0:
200,80,51190,1,0,0:0:0:0:
160,208,51344,1,8,0:0:0:0:
248,192,51498,1,0,0:0:0:0:
224,232,51806,1,0,0:0:0:0:
224,132,51960,1,8,0:0:0:0:
100,160,52267,1,8,0:0:0:0:
40,224,52421,1,0,0:0:0:0:
160,208,52575,1,0,0:0:0:0:
248,192,52729,1,8,0:0:0:0:
92,124,53037,1,0,0:0:0:0:
192,132,53190,1,8,0:0:0:0:
252,120,53498,1,0,0:0:0:0:
128,140,53652,1,8,0:0:0:0:
316,208,53806,1,8,0:0:0:0:
152,164,53960,1,0,0:0:0:0:
96,236,54267,1,4,0:0:0:0:
124,192,55498,1,0,0:0:0:0:
184,148,55806,1,0,0:0:0:0:
264,168,55960,1,8,0:0:0:0:
84,168,56267,1,8,0:0:0:0:
112,136,56729,1,0,0:0:0:0:
228,176,57190,1,0,0:0:0:0:
208,144,57652,1,8,0:0:0:0:
264,140,57960,1,0,0:0:0:0:
280,184,58267,1,0,0:0:0:0:
360,200,58421,1,8,0:0:0:0:
152,240,58729,1,8,0:0:0:0:
56,152,59190,1,0,0:0:0:0:
172,148,59344,1,8,0:0:0:0:
240,164,59652,1,8,0:0:0:0:
208,216,59960,1,8,0:0:0:0:
148,236,60114,1,0,0:0:0:0:
88,144,60421,1,0,0:0:0:0:
176,160,60729,1,0,0:0:0:0:
212,172,60883,1,8,0:0:0:0:
260,144,61190,1,8,0:0:0:0:
76,112,61652,1,0,0:0:0:0:
192,120,62114,1,0,0:0:0:0:
236,124,62575,1,0,0:0:0:0:
172,208,62883,1,0,0:0:0:0:
256,188,63190,1,8,0:0:0:0:
296,204,63344,1,0,0:0:0:0:
76,172,63652,1,8,0:0:0:0:
112,228,64114,1,0,0:0:0:0:
80,164,64421,1,0,0:0:0:0:
240,220,64575,1,8,0:0:0:0:
124,144,64883,1,0,0:0:0:0:
284,152,65037,1,0,0:0:0:0:
112,264,65344,1,12,0:0:0:0:
168,164,65960,1,0,0:0:0:0:
84,160,66114,1,8,0:0:0:0:
152,208,66267,1,8,0:0:0:0:
264,144,66575,1,0,0:0:0:0:
336,136,66729,1,8,0:0:0:0:
280,192,66883,1,0,0:0:0:0:
196,100,67190,1,8,0:0:0:0:
72,136,67344,1,0,0:0:0:0:
216,232,67498,1,8,0:0:0:0:
264,144,67806,1,0,0:0:0:0:
336,136,67960,1,0,0:0:0:0:
280,192,68114,1,8,0:0:0:0:
168,176,68421,1,0,0:0:0:0:
108,208,68575,1,8,0:0:0:0:
216,232,68729,1,8,0:0:0:0:
252,224,68883,1,0,0:0:0:0:
40,168,69037,1,0,0:0:0:0:
192,96,69344,1,0,0:0:0:0:
216,144,69498,1,8,0:0:0:0:
288,112,69806,1,0,0:0:0:0:
336,160,69960,1,8,0:0:0:0:
312,188,70114,1,0,0:0:0:0:
112,264,70267,1,8,0:0:0:0:
192,252,70421,1,8,0:0:0:0:
144,112,70575,1,0,0:0:0:0:
168,164,70883,1,0,0:0:0:0:
84,160,71037,1,0,0:0:0:0:
152,208,71190,1,8,0:0:0:0:
264,144,71498,1,0,0:0:0:0:
336,136,71652,1,8,0:0:0:0:
280,192,71806,1,0,0:0:0:0:
168,176,72114,1,8,0:0:0:0:
136,120,72267,1,0,0:0:0:0:
216,232,72421,1,8,0:0:0:0:
156,220,72575,1,0,0:0:0:0:
264,144,72729,1,0,0:0:0:0:
260,112,72883,1,0,0:0:0:0:
280,192,73037,1,8,0:0:0:0:
168,176,73344,1,0,0:0:0:0:
160,132,73498,1,8,0:0:0:0:
252,224,73806,1,0,0:0:0:0:
144,136,74114,1,8,0:0:0:0:
192,96,74421,1,8,0:0:0:0:
152,236,74575,1,8,0:0:0:0:
288,112,74729,1,8,0:0:0:0:
336,160,74883,1,8,0:0:0:0:
312,188,75037,1,0,0:0:0:0:
80,184,75190,1,12,0:0:0:0:
88,152,75344,1,0,0:0:0:0:
160,148,75498,1,0,0:0:0:0:
196,184,75652,1,8,0:0:0:0:
100,100,75960,1,0,0:0:0:0:
232,152,76114,1,8,0:0:0:0:
312,88,76421,1,0,0:0:0:0:
60,160,76575,1,8,0:0:0:0:
200,88,76883,1,0,0:0:0:0:
196,184,77037,1,8,0:0:0:0:
272,96,77190,1,0,0:0:0:0:
320,104,77344,1,0,0:0:0:0:
232,152,77498,1,8,0:0:0:0:
152,104,77806,1,0,0:0:0:0:
60,160,77960,1,8,0:0:0:0:
216,96,78267,1,0,0:0:0:0:
196,184,78421,1,8,0:0:0:0:
272,80,78729,1,0,0:0:0:0:
232,152,78883,1,8,0:0:0:0:
316,108,79037,1,0,0:0:0:0:
360,168,79190,1,0,0:0:0:0:
60,160,79344,1,8,0:0:0:0:
116,124,79652,1,0,0:0:0:0:
196,184,79806,1,8,0:0:0:0:
228,124,80114,1,4,0:0:0:0:
152,148,80421,1,8,0:0:0:0:
212,160,80575,1,8,0:0:0:0:
240,128,80729,1,0,0:0:0:0:
76,156,81037,1,8,0:0:0:0:
276,108,81190,1,0,0:0:0:0:
104,120,81344,1,8,0:0:0:0:
88,168,81498,1,8,0:0:0:0:
272,176,81652,1,0,0:0:0:0:
152,216,81960,1,8,0:0:0:0:
240,128,82114,1,0,0:0:0:0:
100,180,82267,1,8,0:0:0:0:
276,108,82575,1,0,0:0:0:0:
96,136,82729,1,8,0:0:0:0:
132,176,82883,1,8,0:0:0:0:
272,176,83037,1,0,0:0:0:0:
12,172,83190,1,8,0:0:0:0:
240,128,83498,1,0,0:0:0:0:
100,244,83652,1,8,0:0:0:0:
276,108,83806,1,4,0:0:0:0:
120,176,84267,1,4,0:0:0:0:
48,164,84729,1,8,0:0:0:0:
104,140,84883,1,8,0:0:0:0:
208,148,85037,1,4,0:0:0:0:
232,224,85344,1,0,0:0:0:0:
284,204,85652,1,0,0:0:0:0:
288,148,85960,1,0,0:0:0:0:
184,128,86114,1,0,0:0:0:0:
280,112,86267,1,8,0:0:0:0:
76,200,86575,1,0,0:0:0:0:
192,204,86883,1,0,0:0:0:0:
252,204,87037,1,0,0:0:0:0:
128,128,87190,1,0,0:0:0:0:
224,132,87344,1,0,0:0:0:0:
260,180,87498,1,8,0:0:0:0:
96,208,87806,1,0,0:0:0:0:
200,216,88114,1,0,0:0:0:0:
260,224,88421,1,0,0:0:0:0:
296,220,88575,1,0,0:0:0:0:
336,184,88729,1,8,0:0:0:0:
148,204,89037,1,8,0:0:0:0:
192,196,89344,1,0,0:0:0:0:
216,192,89498,1,0,0:0:0:0:
240,188,89652,1,8,0:0:0:0:
288,200,89806,1,0,0:0:0:0:
372,216,89883,1,0,0:0:0:0:
296,232,89960,1,0,0:0:0:0:
140,160,90114,1,0,0:0:0:0:
204,112,90267,1,8,0:0:0:0:
132,288,90575,1,8,0:0:0:0:
60,152,90729,1,0,0:0:0:0:
140,108,90883,1,8,0:0:0:0:
248,104,91037,1,0,0:0:0:0:
100,60,91114,1,0,0:0:0:0:
196,188,91190,1,0,0:0:0:0:
76,180,91344,1,0,0:0:0:0:
268,176,91498,1,8,0:0:0:0:
8,168,91806,1,8,0:0:0:0:
132,124,91960,1,0,0:0:0:0:
32,240,92114,1,8,0:0:0:0:
60,176,92267,1,0,0:0:0:0:
128,212,92421,1,8,0:0:0:0:
256,232,92575,1,8,0:0:0:0:
304,192,92729,1,8,0:0:0:0:
236,164,92883,1,0,0:0:0:0:
164,184,93037,1,8,0:0:0:0:
40,176,93190,1,0,0:0:0:0:
168,216,93344,1,8,0:0:0:0:
200,224,93498,1,8,0:0:0:0:
256,232,93652,1,4,0:0:0:0:
184,148,94267,1,8,0:0:0:0:
188,144,94421,1,0,0:0:0:0:
188,144,94498,1,0,0:0:0:0:
192,144,94575,1,0,0:0:0:0:
76,100,94883,1,0,0:0:0:0:
180,108,95037,1,0,0:0:0:0:
196,84,95114,1,0,0:0:0:0:
224,116,95190,1,0,0:0:0:0:
280,128,95344,1,0,0:0:0:0:
88,204,95498,1,8,0:0:0:0:
240,228,95806,1,0,0:0:0:0:
208,252,95960,1,8,0:0:0:0:
124,168,96114,1,0,0:0:0:0:
208,152,96421,1,8,0:0:0:0:
160,112,96729,1,8,0:0:0:0:
200,80,96883,1,0,0:0:0:0:
104,56,97037,1,8,0:0:0:0:
216,56,97190,1,8,0:0:0:0:
180,108,97344,1,0,0:0:0:0:
280,152,97421,1,0,0:0:0:0:
132,176,97498,1,0,0:0:0:0:
224,116,97652,1,0,0:0:0:0:
88,204,97960,1,0,0:0:0:0:
152,216,98114,1,0,0:0:0:0:
240,228,98267,1,8,0:0:0:0:
124,168,98575,1,0,0:0:0:0:
132,232,98652,1,0,0:0:0:0:
232,252,98729,1,0,0:0:0:0:
188,128,98883,1,8,0:0:0:0:
160,112,99190,1,8,0:0:0:0:
200,80,99344,1,0,0:0:0:0:
216,204,99498,1,8,0:0:0:0:
320,200,99652,1,8,0:0:0:0:
76,100,99806,1,0,0:0:0:0:
144,128,99960,1,0,0:0:0:0:
180,108,100037,1,0,0:0:0:0:
224,116,100114,1,0,0:0:0:0:
280,128,100267,1,0,0:0:0:0:
88,204,100421,1,8,0:0:0:0:
240,228,100729,1,8,0:0:0:0:
208,252,100883,1,0,0:0:0:0:
124,168,101037,1,8,0:0:0:0:
208,152,101344,1,8,0:0:0:0:
72,224,101498,1,0,0:0:0:0:
160,112,101652,1,8,0:0:0:0:
200,80,101806,1,0,0:0:0:0:
104,56,101960,1,8,0:0:0:0:
216,56,102114,1,8,0:0:0:0:
180,108,102267,1,0,0:0:0:0:
280,152,102344,1,0,0:0:0:0:
132,176,102421,1,0,0:0:0:0:
224,116,102575,1,0,0:0:0:0:
88,204,102883,1,0,0:0:0:0:
140,288,102960,1,0,0:0:0:0:
152,216,103037,1,0,0:0:0:0:
240,228,103190,1,8,0:0:0:0:
124,168,103498,1,0,0:0:0:0:
232,252,103652,1,0,0:0:0:0:
188,128,103806,1,8,0:0:0:0:
160,112,104114,1,8,0:0:0:0:
200,80,104267,1,0,0:0:0:0:
216,204,104421,1,8,0:0:0:0:
320,200,104575,1,8,0:0:0:0:
76,100,104729,1,0,0:0:0:0:
144,128,104883,1,0,0:0:0:0:
180,108,104960,1,0,0:0:0:0:
224,116,105037,1,0,0:0:0:0:
280,128,105190,1,0,0:0:0:0:
88,204,105344,1,8,0:0:0:0:
216,164,105498,1,0,0:0:0:0:
240,228,105652,1,0,0:0:0:0:
208,252,105806,1,8,0:0:0:0:
124,168,105960,1,0,0:0:0:0:
208,152,106267,1,8,0:0:0:0:
160,112,106575,1,8,0:0:0:0:
200,80,106729,1,0,0:0:0:0:
104,56,106883,1,8,0:0:0:0:
216,56,107037,1,8,0:0:0:0:
180,108,107190,1,0,0:0:0:0:
132,176,107344,1,0,0:0:0:0:
280,152,107421,1,0,0:0:0:0:
224,116,107498,1,0,0:0:0:0:
48,192,107652,1,8,0:0:0:0:
88,204,107806,1,0,0:0:0:0:
152,216,107960,1,0,0:0:0:0:
240,228,108114,1,8,0:0:0:0:
124,168,108421,1,0,0:0:0:0:
232,252,108498,1,0,0:0:0:0:
132,232,108575,1,0,0:0:0:0:
188,128,108729,1,0,0:0:0:0:
128,160,108883,1,8,0:0:0:0:
140,192,108960,1,8,0:0:0:0:
160,112,109037,1,8,0:0:0:0:
196,72,109190,1,8,0:0:0:0:
216,204,109344,1,8,0:0:0:0:
76,100,109652,1,0,0:0:0:0:
144,128,109806,1,0,0:0:0:0:
180,108,109883,1,0,0:0:0:0:
224,116,109960,1,0,0:0:0:0:
280,128,110114,1,0,0:0:0:0:
88,204,110267,1,8,0:0:0:0:
240,228,110575,1,0,0:0:0:0:
208,252,110729,1,8,0:0:0:0:
124,168,110883,1,0,0:0:0:0:
208,152,111190,1,8,0:0:0:0:
72,224,111344,1,0,0:0:0:0:
160,112,111498,1,8,0:0:0:0:
200,80,111652,1,0,0:0:0:0:
104,56,111806,1,8,0:0:0:0:
216,56,111960,1,8,0:0:0:0:
180,108,112114,1,0,0:0:0:0:
280,152,112267,1,0,0:0:0:0:
132,176,112344,5,0,0:0:0:0:
224,116,112421,1,0,0:0:0:0:
88,204,112729,1,0,0:0:0:0:
152,216,112883,1,0,0:0:0:0:
240,228,113037,1,8,0:0:0:0:
124,168,113344,1,0,0:0:0:0:
188,128,113652,1,8,0:0:0:0:
148,192,113806,1,8,0:0:0:0:
160,112,113960,1,8,0:0:0:0:
200,80,114114,1,0,0:0:0:0:
216,204,114267,1,8,0:0:0:0:
116,152,114575,1,0,0:0:0:0:
176,112,114729,1,8,0:0:0:0:
152,204,114883,1,0,0:0:0:0:
220,200,115037,1,0,0:0:0:0:
272,192,115190,1,0,0:0:0:0:
260,192,115267,1,0,0:0:0:0:
308,200,115344,1,0,0:0:0:0:
96,156,115498,1,8,0:0:0:0:
356,208,115806,1,0,0:0:0:0:
188,176,115960,1,0,0:0:0:0:
240,148,116114,1,8,0:0:0:0:
172,112,116421,1,0,0:0:0:0:
88,124,116575,1,8,0:0:0:0:
68,164,116729,1,0,0:0:0:0:
116,152,117037,1,0,0:0:0:0:
176,112,117190,1,8,0:0:0:0:
152,204,117344,1,0,0:0:0:0:
220,200,117498,1,0,0:0:0:0:
260,192,117575,1,0,0:0:0:0:
272,192,117652,1,0,0:0:0:0:
356,208,117806,1,0,0:0:0:0:
308,200,117960,1,8,0:0:0:0:
96,156,118267,1,8,0:0:0:0:
96,216,118421,1,0,0:0:0:0:
240,148,118575,1,8,0:0:0:0:
116,148,118729,1,0,0:0:0:0:
172,112,118883,1,0,0:0:0:0:
88,124,119037,1,8,0:0:0:0:
68,164,119190,1,0,0:0:0:0:
116,152,119498,1,0,0:0:0:0:
176,112,119652,1,8,0:0:0:0:
152,204,119806,1,0,0:0:0:0:
220,200,119960,1,0,0:0:0:0:
260,192,120037,1,0,0:0:0:0:
272,192,120114,1,0,0:0:0:0:
308,200,120267,1,8,0:0:0:0:
356,208,120421,1,0,0:0:0:0:
96,156,120729,1,8,0:0:0:0:
188,176,120883,1,0,0:0:0:0:
240,148,121037,1,8,0:0:0:0:
172,112,121344,1,0,0:0:0:0:
88,124,121498,1,8,0:0:0:0:
68,164,121652,1,0,0:0:0:0:
116,152,121960,1,0,0:0:0:0:
176,112,122114,1,8,0:0:0:0:
152,204,122267,1,0,0:0:0:0:
220,200,122421,1,0,0:0:0:0:
260,192,122498,1,0,0:0:0:0:
272,192,122575,1,0,0:0:0:0:
308,200,122729,1,8,0:0:0:0:
356,208,122883,1,0,0:0:0:0:
112,144,123037,1,0,0:0:0:0:
96,156,123190,1,8,0:0:0:0:
260,68,123498,1,0,0:0:0:0:
116,148,123652,1,0,0:0:0:0:
88,124,123960,1,8,0:0:0:0:
68,164,124114,1,8,0:0:0:0:
176,164,124267,1,8,0:0:0:0:
116,152,124421,1,0,0:0:0:0:
176,112,124575,1,0,0:0:0:0:
116,120,124652,1,0,0:0:0:0:
152,204,124729,1,0,0:0:0:0:
220,200,124883,1,8,0:0:0:0:
272,192,125037,1,0,0:0:0:0:
308,200,125190,1,8,0:0:0:0:
356,208,125344,1,0,0:0:0:0:
96,156,125652,1,8,0:0:0:0:
188,176,125806,1,0,0:0:0:0:
240,148,125960,1,8,0:0:0:0:
172,112,126267,1,0,0:0:0:0:
88,124,126421,1,8,0:0:0:0:
68,164,126575,1,0,0:0:0:0:
116,152,126883,1,0,0:0:0:0:
176,112,127037,1,8,0:0:0:0:
152,204,127190,1,0,0:0:0:0:
220,200,127344,1,0,0:0:0:0:
260,192,127421,1,0,0:0:0:0:
272,192,127498,1,0,0:0:0:0:
308,200,127652,1,8,0:0:0:0:
356,208,127806,1,0,0:0:0:0:
96,156,128114,1,8,0:0:0:0:
96,216,128267,1,0,0:0:0:0:
240,148,128421,1,8,0:0:0:0:
116,148,128575,1,0,0:0:0:0:
172,112,128729,1,0,0:0:0:0:
88,124,128883,1,8,0:0:0:0:
68,164,129037,1,0,0:0:0:0:
116,152,129344,1,0,0:0:0:0:
176,112,129498,1,8,0:0:0:0:
152,204,129652,1,0,0:0:0:0:
220,200,129806,1,0,0:0:0:0:
260,192,129883,1,0,0:0:0:0:
272,192,129960,1,0,0:0:0:0:
308,200,130114,1,8,0:0:0:0:
356,208,130267,1,0,0:0:0:0:
96,156,130575,1,8,0:0:0:0:
188,176,130729,1,0,0:0:0:0:
240,148,130883,1,8,0:0:0:0:
172,112,131190,1,0,0:0:0:0:
88,124,131344,1,8,0:0:0:0:
68,164,131498,1,0,0:0:0:0:
116,152,131806,1,0,0:0:0:0:
176,112,131960,1,8,0:0:0:0:
152,204,132114,1,0,0:0:0:0:
220,200,132267,1,8,0:0:0:0:
308,200,132575,1,8,0:0:0:0:
356,208,132729,1,0,0:0:0:0:
112,144,132883,1,8,0:0:0:0:
96,156,133037,1,0,0:0:0:0:
256,192,134267,5,0,0:0:0:0:
272,160,134575,1,0,0:0:0:0:
88,244,134729,1,0,0:0:0:0:
272,160,134883,1,8,0:0:0:0:
272,160,135037,1,0,0:0:0:0:
272,160,135190,1,0,0:0:0:0:
272,160,135498,1,0,0:0:0:0:
272,160,135806,1,0,0:0:0:0:
272,160,136114,1,0,0:0:0:0:
216,120,136267,1,8,0:0:0:0:
160,160,136421,1,8,0:0:0:0:
272,160,136575,1,0,0:0:0:0:
256,192,136729,5,0,0:0:0:0:
272,160,137037,1,0,0:0:0:0:
272,160,137344,1,8,0:0:0:0:
236,152,137498,1,0,0:0:0:0:
272,160,137652,1,8,0:0:0:0:
204,140,137806,1,8,0:0:0:0:
272,160,137960,1,0,0:0:0:0:
184,124,138114,1,8,0:0:0:0:
272,160,138267,1,0,0:0:0:0:
272,160,138575,1,0,0:0:0:0:
272,160,138729,1,8,0:0:0:0:
128,160,138883,1,8,0:0:0:0:
272,160,139037,1,0,0:0:0:0:
256,192,139190,5,0,0:0:0:0:
272,160,139498,1,0,0:0:0:0:
88,244,139652,1,0,0:0:0:0:
272,160,139806,1,8,0:0:0:0:
272,160,139960,1,0,0:0:0:0:
272,160,140113,1,0,0:0:0:0:
272,160,140421,1,0,0:0:0:0:
272,160,140729,1,0,0:0:0:0:
272,160,141037,1,0,0:0:0:0:
216,120,141190,1,8,0:0:0:0:
160,160,141344,1,8,0:0:0:0:
272,160,141498,1,0,0:0:0:0:
256,192,141652,5,0,0:0:0:0:
272,160,141960,1,0,0:0:0:0:
272,160,142267,1,8,0:0:0:0:
236,152,142421,1,0,0:0:0:0:
272,160,142575,1,8,0:0:0:0:
204,140,142729,1,8,0:0:0:0:
272,160,142883,1,8,0:0:0:0:
184,124,143114,5,8,0:0:0:0:
272,160,143344,1,8,0:0:0:0:
272,160,143652,1,0,0:0:0:0:
128,160,143806,1,8,0:0:0:0:
272,160,143960,1,0,0:0:0:0:
224,232,144114,5,0,0:0:0:0:
224,132,144267,1,8,0:0:0:0:
100,160,144575,1,8,0:0:0:0:
104,248,144729,1,0,0:0:0:0:
160,208,144883,1,8,0:0:0:0:
248,192,145037,1,8,0:0:0:0:
224,232,145344,1,0,0:0:0:0:
224,132,145498,1,8,0:0:0:0:
100,160,145806,1,8,0:0:0:0:
276,144,145960,1,0,0:0:0:0:
160,208,146114,1,8,0:0:0:0:
248,192,146267,1,0,0:0:0:0:
224,232,146575,1,0,0:0:0:0:
224,132,146729,1,8,0:0:0:0:
100,160,147037,1,8,0:0:0:0:
196,108,147190,1,8,0:0:0:0:
160,208,147344,1,0,0:0:0:0:
64,224,147498,1,0,0:0:0:0:
92,124,147806,1,0,0:0:0:0:
64,128,148114,1,0,0:0:0:0:
252,120,148267,1,8,0:0:0:0:
80,248,148421,1,0,0:0:0:0:
316,208,148575,1,8,0:0:0:0:
120,200,148652,1,8,0:0:0:0:
152,164,148729,1,8,0:0:0:0:
224,232,149037,1,0,0:0:0:0:
232,80,149344,1,0,0:0:0:0:
100,160,149498,1,8,0:0:0:0:
104,260,149652,1,0,0:0:0:0:
160,208,149806,1,0,0:0:0:0:
248,192,149960,1,8,0:0:0:0:
224,232,150267,1,0,0:0:0:0:
224,132,150421,1,8,0:0:0:0:
100,160,150729,1,8,0:0:0:0:
144,256,150883,1,0,0:0:0:0:
160,208,151037,1,8,0:0:0:0:
248,192,151190,1,0,0:0:0:0:
224,232,151498,1,0,0:0:0:0:
224,132,151652,1,8,0:0:0:0:
100,160,151960,1,8,0:0:0:0:
88,272,152114,1,0,0:0:0:0:
160,208,152267,1,8,0:0:0:0:
248,192,152421,1,8,0:0:0:0:
92,124,152729,1,0,0:0:0:0:
192,132,152883,1,8,0:0:0:0:
252,120,153190,1,8,0:0:0:0:
316,208,153498,1,8,0:0:0:0:
156,272,153806,1,8,0:0:0:0:
112,188,153960,1,8,0:0:0:0:
112,136,154114,1,8,0:0:0:0:
176,136,154267,1,8,0:0:0:0:
216,176,154421,1,8,0:0:0:0:
224,176,154575,1,8,0:0:0:0:
180,124,154652,1,8,0:0:0:0:
180,124,154729,1,8,0:0:0:0:
268,100,154883,1,8,0:0:0:0:
112,248,155190,1,12,0:0:0:0:
164,232,155652,1,8,0:0:0:0:
276,224,155960,1,0,0:0:0:0:
184,164,156267,1,8,0:0:0:0:
60,160,156421,1,0,0:0:0:0:
88,132,156883,1,8,0:0:0:0:
184,136,157344,1,8,0:0:0:0:
280,112,157421,1,8,0:0:0:0:
280,112,157498,1,8,0:0:0:0:
96,292,157806,2,0,L|472:40,1,440.999986541748
116,160,159806,1,8,0:0:0:0:
268,108,160114,1,0,0:0:0:0:
116,144,160421,1,8,0:0:0:0:
200,208,160729,1,8,0:0:0:0:
256,212,160883,1,0,0:0:0:0:
248,136,161190,1,8,0:0:0:0:
328,136,161344,1,8,0:0:0:0:
116,144,161652,1,8,0:0:0:0:
200,208,161960,1,8,0:0:0:0:
256,212,162114,1,0,0:0:0:0:
248,136,162421,1,0,0:0:0:0:
328,136,162575,1,8,0:0:0:0:
200,208,162729,1,8,0:0:0:0:
156,236,163037,1,0,0:0:0:0:
248,136,163344,1,8,0:0:0:0:
328,136,163498,1,0,0:0:0:0:
80,192,163806,1,0,0:0:0:0:
172,176,164267,1,0,0:0:0:0:
212,192,164729,1,0,0:0:0:0:
168,252,165037,1,12,0:0:0:0:
200,112,165344,1,0,0:0:0:0:
236,124,165498,1,8,0:0:0:0:
236,124,165806,1,8,0:0:0:0:
240,124,166114,1,0,0:0:0:0:
272,136,166267,1,8,0:0:0:0:
272,136,166729,1,8,0:0:0:0:
272,136,167190,1,8,0:0:0:0:
272,136,167498,1,0,0:0:0:0:
224,112,167806,1,8,0:0:0:0:
124,120,168421,1,8,0:0:0:0:
176,128,168575,1,8,0:0:0:0:
232,160,168729,1,0,0:0:0:0:
208,192,169190,1,8,0:0:0:0:
104,172,169652,1,0,0:0:0:0:
120,124,169960,1,0,0:0:0:0:
188,184,170267,1,8,0:0:0:0:
156,144,170729,1,8,0:0:0:0:
120,124,171190,1,0,0:0:0:0:
188,184,171652,1,8,0:0:0:0:
156,144,172114,1,0,0:0:0:0:
120,124,172421,1,0,0:0:0:0:
188,184,172729,1,8,0:0:0:0:
156,144,173190,1,8,0:0:0:0:
120,124,173652,1,0,0:0:0:0:
188,184,174114,1,8,0:0:0:0:
92,180,174575,1,0,0:0:0:0:
156,144,174883,1,4,0:0:0:0:
216,140,175344,1,12,0:0:0:0:
60,216,175806,1,4,0:0:0:0:
216,140,176267,1,12,0:0:0:0:
60,216,176729,1,4,0:0:0:0:
216,140,177037,1,12,0:0:0:0:
60,216,177344,1,4,0:0:0:0:
216,140,177806,1,12,0:0:0:0:
60,216,178267,1,4,0:0:0:0:
216,140,178729,1,12,0:0:0:0:
60,216,179190,1,4,0:0:0:0:
216,140,179498,1,12,0:0:0:0:
60,216,179806,1,0,0:0:0:0:
156,192,179883,1,0,0:0:0:0:
216,184,179960,1,0,0:0:0:0:
240,168,180114,1,0,0:0:0:0:
284,156,180267,1,8,0:0:0:0:
164,128,180421,1,0,0:0:0:0:
236,144,180575,1,0,0:0:0:0:
104,192,180729,1,8,0:0:0:0:
48,116,181037,1,0,0:0:0:0:
112,104,181114,1,0,0:0:0:0:
152,104,181190,1,0,0:0:0:0:
184,104,181344,1,8,0:0:0:0:
220,104,181498,1,0,0:0:0:0:
272,124,181652,1,8,0:0:0:0:
188,240,181806,1,0,0:0:0:0:
124,152,181960,1,8,0:0:0:0:
80,132,182267,1,0,0:0:0:0:
176,124,182344,1,0,0:0:0:0:
188,124,182421,1,0,0:0:0:0:
248,128,182575,1,0,0:0:0:0:
276,124,182729,1,8,0:0:0:0:
144,176,182883,1,0,0:0:0:0:
188,176,182960,1,0,0:0:0:0:
232,176,183037,1,0,0:0:0:0:
276,176,183190,1,8,0:0:0:0:
160,312,183344,1,0,0:0:0:0:
320,176,183498,1,8,0:0:0:0:
184,148,184114,1,8,0:0:0:0:
188,144,184267,1,0,0:0:0:0:
188,144,184344,1,0,0:0:0:0:
192,144,184421,1,0,0:0:0:0:
76,100,184729,1,0,0:0:0:0:
180,108,184883,1,0,0:0:0:0:
144,128,184960,1,0,0:0:0:0:
224,116,185037,1,0,0:0:0:0:
280,128,185190,1,0,0:0:0:0:
88,204,185344,1,8,0:0:0:0:
4,180,185498,1,8,0:0:0:0:
240,228,185652,1,0,0:0:0:0:
208,252,185806,1,8,0:0:0:0:
124,168,185960,1,0,0:0:0:0:
208,152,186267,1,8,0:0:0:0:
160,112,186575,1,8,0:0:0:0:
200,80,186729,1,0,0:0:0:0:
104,56,186883,1,8,0:0:0:0:
216,56,187037,1,8,0:0:0:0:
180,108,187190,1,0,0:0:0:0:
280,152,187267,1,0,0:0:0:0:
132,176,187344,1,0,0:0:0:0:
224,116,187498,1,0,0:0:0:0:
224,116,187652,1,0,0:0:0:0:
152,216,187960,1,0,0:0:0:0:
240,228,188114,1,8,0:0:0:0:
124,168,188421,1,0,0:0:0:0:
132,232,188498,1,0,0:0:0:0:
232,252,188575,1,0,0:0:0:0:
188,128,188729,1,0,0:0:0:0:
160,112,189037,1,8,0:0:0:0:
200,80,189190,1,0,0:0:0:0:
216,204,189344,1,8,0:0:0:0:
320,200,189498,1,8,0:0:0:0:
76,100,189652,1,0,0:0:0:0:
180,108,189806,1,0,0:0:0:0:
144,128,189883,1,0,0:0:0:0:
224,116,189960,1,0,0:0:0:0:
280,128,190114,1,0,0:0:0:0:
88,204,190267,1,8,0:0:0:0:
240,228,190575,1,0,0:0:0:0:
208,252,190729,1,8,0:0:0:0:
124,168,190883,1,0,0:0:0:0:
208,152,191190,1,8,0:0:0:0:
72,224,191344,1,0,0:0:0:0:
160,112,191498,1,8,0:0:0:0:
200,80,191652,1,0,0:0:0:0:
104,56,191806,1,8,0:0:0:0:
216,56,191960,1,8,0:0:0:0:
180,108,192114,1,0,0:0:0:0:
132,176,192190,1,0,0:0:0:0:
280,152,192267,1,0,0:0:0:0:
224,116,192421,1,0,0:0:0:0:
88,204,192729,1,0,0:0:0:0:
152,216,192883,1,0,0:0:0:0:
140,288,192960,1,0,0:0:0:0:
240,228,193037,1,0,0:0:0:0:
276,88,193190,1,8,0:0:0:0:
124,168,193344,1,0,0:0:0:0:
232,252,193498,1,0,0:0:0:0:
188,128,193652,1,8,0:0:0:0:
160,112,193960,1,8,0:0:0:0:
200,80,194114,1,0,0:0:0:0:
216,204,194267,1,8,0:0:0:0:
320,200,194421,1,8,0:0:0:0:
76,100,194575,1,0,0:0:0:0:
180,108,194729,1,0,0:0:0:0:
144,128,194806,1,0,0:0:0:0:
224,116,194883,1,0,0:0:0:0:
280,128,195037,1,0,0:0:0:0:
88,204,195190,1,8,0:0:0:0:
216,164,195344,1,0,0:0:0:0:
240,228,195498,1,0,0:0:0:0:
208,252,195652,1,8,0:0:0:0:
124,168,195806,1,0,0:0:0:0:
208,152,196114,1,8,0:0:0:0:
160,112,196421,1,8,0:0:0:0:
200,80,196575,1,0,0:0:0:0:
104,56,196729,1,8,0:0:0:0:
216,56,196883,1,8,0:0:0:0:
180,108,197037,1,0,0:0:0:0:
280,152,197190,1,0,0:0:0:0:
132,176,197267,1,0,0:0:0:0:
224,116,197344,1,0,0:0:0:0:
48,192,197498,1,8,0:0:0:0:
88,204,197652,1,0,0:0:0:0:
152,216,197806,1,0,0:0:0:0:
240,228,197960,1,8,0:0:0:0:
124,168,198267,1,0,0:0:0:0:
232,252,198344,1,0,0:0:0:0:
132,232,198421,1,0,0:0:0:0:
188,128,198575,1,0,0:0:0:0:
128,160,198729,1,8,0:0:0:0:
140,192,198806,1,8,0:0:0:0:
160,112,198883,1,8,0:0:0:0:
196,72,199036,1,8,0:0:0:0:
216,204,199190,1,8,0:0:0:0:
76,100,199498,1,0,0:0:0:0:
180,108,199652,1,0,0:0:0:0:
144,128,199729,1,0,0:0:0:0:
224,116,199806,1,0,0:0:0:0:
280,128,199960,1,0,0:0:0:0:
88,204,200114,1,8,0:0:0:0:
240,228,200421,1,0,0:0:0:0:
208,252,200575,1,8,0:0:0:0:
124,168,200729,1,0,0:0:0:0:
172,92,200883,1,0,0:0:0:0:
208,152,201037,1,8,0:0:0:0:
72,224,201190,1,8,0:0:0:0:
160,112,201344,1,8,0:0:0:0:
200,80,201498,1,0,0:0:0:0:
104,56,201652,1,8,0:0:0:0:
216,56,201806,1,8,0:0:0:0:
180,108,201960,1,0,0:0:0:0:
280,152,202114,1,0,0:0:0:0:
132,176,202190,5,0,0:0:0:0:
224,116,202267,1,0,0:0:0:0:
88,204,202575,1,0,0:0:0:0:
152,216,202729,1,0,0:0:0:0:
140,288,202806,1,0,0:0:0:0:
240,228,202883,1,0,0:0:0:0:
124,168,203190,1,0,0:0:0:0:
108,144,203344,1,0,0:0:0:0:
68,172,203498,1,8,0:0:0:0:
148,192,203652,1,8,0:0:0:0:
220,172,203806,1,0,0:0:0:0:
280,136,204114,1,8,0:0:0:0:
116,152,204421,1,0,0:0:0:0:
176,112,204575,1,8,0:0:0:0:
152,204,204729,1,0,0:0:0:0:
220,200,204883,1,0,0:0:0:0:
260,192,204960,1,0,0:0:0:0:
272,192,205037,1,0,0:0:0:0:
308,200,205190,1,8,0:0:0:0:
356,208,205344,1,0,0:0:0:0:
32,200,205498,1,8,0:0:0:0:
96,156,205652,1,8,0:0:0:0:
188,176,205806,1,0,0:0:0:0:
240,148,205960,1,8,0:0:0:0:
104,248,206114,1,0,0:0:0:0:
172,112,206267,1,0,0:0:0:0:
88,124,206421,1,8,0:0:0:0:
68,164,206575,1,0,0:0:0:0:
116,152,206729,1,0,0:0:0:0:
176,112,207037,1,8,0:0:0:0:
152,204,207190,1,0,0:0:0:0:
220,200,207344,1,0,0:0:0:0:
260,192,207421,1,0,0:0:0:0:
272,192,207498,1,0,0:0:0:0:
308,200,207652,1,8,0:0:0:0:
356,208,207806,1,8,0:0:0:0:
176,224,207960,1,8,0:0:0:0:
96,156,208114,1,0,0:0:0:0:
96,216,208267,1,0,0:0:0:0:
240,148,208421,1,8,0:0:0:0:
116,148,208575,1,0,0:0:0:0:
172,112,208729,1,0,0:0:0:0:
88,124,208883,1,0,0:0:0:0:
100,192,208960,1,0,0:0:0:0:
68,164,209037,1,0,0:0:0:0:
116,152,209344,1,0,0:0:0:0:
176,112,209498,1,8,0:0:0:0:
152,204,209652,1,8,0:0:0:0:
176,228,209729,1,8,0:0:0:0:
260,192,209806,1,8,0:0:0:0:
272,192,209960,1,0,0:0:0:0:
308,200,210114,1,0,0:0:0:0:
356,208,210267,1,8,0:0:0:0:
96,156,210575,1,8,0:0:0:0:
188,176,210729,1,0,0:0:0:0:
240,148,210883,1,8,0:0:0:0:
56,248,210960,1,8,0:0:0:0:
216,76,211037,1,8,0:0:0:0:
172,112,211190,1,0,0:0:0:0:
88,124,211344,1,8,0:0:0:0:
68,164,211498,1,8,0:0:0:0:
176,200,211652,1,8,0:0:0:0:
116,152,211806,1,0,0:0:0:0:
176,112,211960,1,8,0:0:0:0:
152,204,212114,1,0,0:0:0:0:
220,200,212267,1,0,0:0:0:0:
260,192,212344,1,0,0:0:0:0:
272,192,212421,1,0,0:0:0:0:
308,200,212575,1,8,0:0:0:0:
356,208,212729,1,0,0:0:0:0:
112,144,212883,1,0,0:0:0:0:
96,156,213037,1,8,0:0:0:0:
100,136,213190,1,0,0:0:0:0:
116,148,213498,1,0,0:0:0:0:
88,124,213806,1,8,0:0:0:0:
68,164,213960,1,8,0:0:0:0:
176,164,214114,1,8,0:0:0:0:
116,152,214267,1,0,0:0:0:0:
176,112,214421,1,0,0:0:0:0:
116,120,214498,1,0,0:0:0:0:
152,204,214575,1,0,0:0:0:0:
220,200,214729,1,8,0:0:0:0:
272,192,214883,1,0,0:0:0:0:
308,200,215037,1,8,0:0:0:0:
356,208,215190,1,0,0:0:0:0:
96,156,215498,1,8,0:0:0:0:
188,176,215652,1,0,0:0:0:0:
240,148,215806,1,8,0:0:0:0:
260,100,215960,1,0,0:0:0:0:
172,112,216114,1,0,0:0:0:0:
88,124,216267,1,8,0:0:0:0:
68,164,216421,1,0,0:0:0:0:
116,152,216729,1,0,0:0:0:0:
176,112,216883,1,8,0:0:0:0:
152,204,217037,1,0,0:0:0:0:
220,200,217190,1,0,0:0:0:0:
260,192,217267,1,0,0:0:0:0:
272,192,217344,1,0,0:0:0:0:
308,200,217498,1,8,0:0:0:0:
356,208,217652,1,0,0:0:0:0:
96,216,217806,1,0,0:0:0:0:
96,156,217960,1,8,0:0:0:0:
240,148,218267,1,8,0:0:0:0:
116,148,218421,1,0,0:0:0:0:
172,112,218575,1,0,0:0:0:0:
88,124,218729,1,8,0:0:0:0:
68,164,218883,1,0,0:0:0:0:
184,84,219037,1,8,0:0:0:0:
116,152,219190,1,0,0:0:0:0:
176,112,219344,1,8,0:0:0:0:
152,204,219498,1,0,0:0:0:0:
220,200,219652,1,0,0:0:0:0:
260,192,219729,1,0,0:0:0:0:
272,192,219806,1,0,0:0:0:0:
308,200,219960,1,8,0:0:0:0:
356,208,220114,1,0,0:0:0:0:
96,156,220421,1,8,0:0:0:0:
188,176,220575,1,0,0:0:0:0:
240,148,220729,1,8,0:0:0:0:
172,112,221037,1,0,0:0:0:0:
88,124,221190,1,8,0:0:0:0:
68,164,221344,1,0,0:0:0:0:
208,88,221498,1,0,0:0:0:0:
116,152,221652,1,0,0:0:0:0:
176,112,221806,1,8,0:0:0:0:
152,204,221960,1,0,0:0:0:0:
220,200,222114,1,8,0:0:0:0:
308,200,222421,1,8,0:0:0:0:
356,208,222575,1,0,0:0:0:0:
112,144,222729,1,8,0:0:0:0:
96,156,222883,1,0,0:0:0:0:
40,104,224114,5,4,0:0:0:0:
44,108,224421,1,8,0:0:0:0:
40,104,224575,1,0,0:0:0:0:
40,104,224729,1,0,0:0:0:0:
240,124,224806,1,0,0:0:0:0:
40,104,224883,1,0,0:0:0:0:
40,104,225037,1,8,0:0:0:0:
36,100,225190,1,8,0:0:0:0:
24,108,225498,1,0,0:0:0:0:
28,104,225652,1,8,0:0:0:0:
28,104,225806,1,0,0:0:0:0:
180,112,225960,1,8,0:0:0:0:
64,160,226114,1,0,0:0:0:0:
92,148,226267,1,8,0:0:0:0:
32,224,226575,1,0,0:0:0:0:
44,108,226883,1,8,0:0:0:0:
40,104,227037,1,0,0:0:0:0:
40,104,227190,1,0,0:0:0:0:
252,100,227267,1,0,0:0:0:0:
40,104,227344,1,0,0:0:0:0:
40,104,227498,1,8,0:0:0:0:
36,100,227652,1,8,0:0:0:0:
124,152,227960,1,0,0:0:0:0:
124,152,228114,1,8,0:0:0:0:
124,152,228267,1,0,0:0:0:0:
68,200,228421,1,8,0:0:0:0:
144,104,228575,1,0,0:0:0:0:
168,208,228729,1,8,0:0:0:0:
112,196,229037,1,0,0:0:0:0:
168,140,229344,1,8,0:0:0:0:
116,148,229498,1,0,0:0:0:0:
156,176,229652,1,0,0:0:0:0:
228,116,229729,1,0,0:0:0:0:
240,204,229806,1,0,0:0:0:0:
196,96,229960,1,8,0:0:0:0:
176,168,230114,1,8,0:0:0:0:
76,140,230421,1,0,0:0:0:0:
76,140,230498,1,0,0:0:0:0:
76,140,230575,1,0,0:0:0:0:
76,140,230729,1,8,0:0:0:0:
160,88,230883,1,8,0:0:0:0:
76,140,231037,1,0,0:0:0:0:
76,140,231190,1,8,0:0:0:0:
144,160,231498,1,0,0:0:0:0:
172,144,231806,1,8,0:0:0:0:
176,124,231960,1,0,0:0:0:0:
216,116,232114,1,0,0:0:0:0:
248,248,232267,1,0,0:0:0:0:
256,120,232421,1,8,0:0:0:0:
272,132,232575,1,8,0:0:0:0:
152,184,232729,1,0,0:0:0:0:
344,104,232883,1,0,0:0:0:0:
344,104,232960,1,0,0:0:0:0:
344,104,233037,1,0,0:0:0:0:
344,104,233190,1,0,0:0:0:0:
172,88,233344,1,8,0:0:0:0:
96,128,233498,1,0,0:0:0:0:
204,168,233652,1,8,0:0:0:0:
204,124,233960,1,0,0:0:0:0:
176,156,234037,1,0,0:0:0:0:
152,112,234114,1,0,0:0:0:0:
240,108,234267,1,8,0:0:0:0:
308,124,234421,1,0,0:0:0:0:
156,184,234575,1,0,0:0:0:0:
288,176,234883,1,0,0:0:0:0:
120,208,235037,1,8,0:0:0:0:
8,164,235190,1,0,0:0:0:0:
108,112,235344,1,0,0:0:0:0:
192,144,235498,1,8,0:0:0:0:
144,184,235652,1,0,0:0:0:0:
168,112,235806,1,8,0:0:0:0:
140,268,235883,1,8,0:0:0:0:
108,112,235960,1,8,0:0:0:0:
192,144,236114,1,0,0:0:0:0:
144,184,236421,1,8,0:0:0:0:
108,112,236575,1,0,0:0:0:0:
192,144,236729,1,8,0:0:0:0:
144,184,236883,1,0,0:0:0:0:
80,132,237037,1,0,0:0:0:0:
288,136,237114,1,0,0:0:0:0:
108,112,237190,1,0,0:0:0:0:
192,144,237344,1,8,0:0:0:0:
144,184,237498,1,8,0:0:0:0:
200,76,237652,1,0,0:0:0:0:
192,144,237960,1,8,0:0:0:0:
144,184,238114,1,0,0:0:0:0:
236,120,238267,1,8,0:0:0:0:
320,96,238344,1,8,0:0:0:0:
360,108,238421,1,8,0:0:0:0:
360,108,238575,1,0,0:0:0:0:
140,208,238883,1,0,0:0:0:0:
184,80,239037,1,0,0:0:0:0:
208,232,239190,1,8,0:0:0:0:
212,140,239344,1,0,0:0:0:0:
192,168,239421,1,0,0:0:0:0:
104,164,239498,1,0,0:0:0:0:
284,224,239729,1,0,0:0:0:0:
372,208,239806,1,8,0:0:0:0:
144,120,240114,1,0,0:0:0:0:
200,120,240267,1,0,0:0:0:0:
244,136,240421,1,8,0:0:0:0:
312,160,240575,1,0,0:0:0:0:
144,280,240652,1,0,0:0:0:0:
224,196,240729,1,0,0:0:0:0:
176,224,240960,1,0,0:0:0:0:
132,228,241037,1,8,0:0:0:0:
72,152,241344,1,0,0:0:0:0:
160,152,241498,1,0,0:0:0:0:
232,124,241652,1,8,0:0:0:0:
316,132,241806,1,0,0:0:0:0:
344,184,241960,1,0,0:0:0:0:
160,152,242037,1,0,0:0:0:0:
208,196,242114,1,0,0:0:0:0:
128,252,242267,1,8,0:0:0:0:
232,300,242421,1,8,0:0:0:0:
104,164,242575,1,0,0:0:0:0:
208,188,243806,5,4,0:0:0:0:
