osu file format v14

[General]
AudioFilename: aaa.mp3
AudioLeadIn: 0
PreviewTime: 93344
Countdown: 0
SampleSet: Soft
StackLeniency: 0.7
Mode: 0
LetterboxInBreaks: 0
StoryFireInFront: 0
EpilepsyWarning: 1
WidescreenStoryboard: 1

[Editor]
Bookmarks: 60,19752,24675,30113,34521,44367,55444,60421,65290,74521,88113,94828,114521,134213,144059,155136,164982,174828,184675,224059
DistanceSpacing: 1.5
BeatDivisor: 4
GridSize: 4
TimelineZoom: 1

[Metadata]
Title:Nostalgic (Nightcore Mix)
TitleUnicode:Nostalgic (Nightcore Mix)
Artist:S3RL feat Harri Rush
ArtistUnicode:S3RL feat Harri Rush
Creator:nold_1702
Version:Hard
Source:
Tags:CLuBLioNX Nightcore Regou Hotdog CLSW Minato Yukina Crystal Spec Spectate Spectator Nardoxyribonucleic Nardo nold 1702 Kloyd Drop [ Drop ] yf_bmp yf bmp hybrid old memory recollection Tofu1222 Tofu
BeatmapID:1332881
BeatmapSetID:591442

[Difficulty]
HPDrainRate:4
CircleSize:3.3
OverallDifficulty:5
ApproachRate:7
SliderMultiplier:1.5
SliderTickRate:1

[Events]
//Background and Video events
0,0,"Night Sky.jpg",0,0
//Break Periods
2,20006,23754
//Storyboard Layer 0 (Background)
//Storyboard Layer 1 (Fail)
//Storyboard Layer 2 (Pass)
//Storyboard Layer 3 (Foreground)
Sprite,Foreground,Centre,"11t-fonts\S1.png",320,240 R,0,243806,,0 C,0,243806,,255,255,255 P,0,243806,,A F,0,243806,243883,0,0.8 S,0,243806,250488,0.25 MX,0,243806,250488,80 MY,0,243806,250488,380 F,0,250334,250488,0.8,0
Sprite,Foreground,Centre,"11t-fonts\t.png",320,240 R,0,243806,,0 C,0,243806,,255,255,255 P,0,243806,,A F,0,243806,243883,0,0.8 S,0,243806,250488,0.25 MX,0,243806,250488,94.06 MY,0,243806,250488,380 F,0,250334,250488,0.8,0
Sprite,Foreground,Centre,"11t-fonts\o.png",320,240 R,0,243806,,0 C,0,243806,,255,255,255 P,0,243806,,A F,0,243806,243883,0,0.8 S,0,243806,250488,0.25 MX,0,243806,250488,107.38 MY,0,243806,250488,380 F,0,250334,250488,0.8,0
Sprite,Foreground,Centre,"11t-fonts\r.png",320,240 R,0,243806,,0 C,0,243806,,255,255,255 P,0,243806,,A F,0,243806,243883,0,0.8 S,0,243806,250488,0.25 MX,0,243806,250488,121.62 MY,0,243806,250488,380 F,0,250334,250488,0.8,0
Sprite,Foreground,Centre,"11t-fonts\y.png",320,240 R,0,243806,,0 C,0,243806,,255,255,255 P,0,243806,,A F,0,243806,243883,0,0.8 S,0,243806,250488,0.25 MX,0,243806,250488,133.65 MY,0,243806,250488,380 F,0,250334,250488,0.8,0
Sprite,Foreground,Centre,"11t-fonts\b.png",320,240 R,0,243806,,0 C,0,243806,,255,255,255 P,0,243806,,A F,0,243806,243883,0,0.8 S,0,243806,250488,0.25 MX,0,243806,250488,149.96 MY,0,243806,250488,380 F,0,250334,250488,0.8,0
Sprite,Foreground,Centre,"11t-fonts\o.png",320,240 R,0,243806,,0 C,0,243806,,255,255,255 P,0,243806,,A F,0,243806,243883,0,0.8 S,0,243806,250488,0.25 MX,0,243806,250488,166.65 MY,0,243806,250488,380 F,0,250334,250488,0.8,0
Sprite,Foreground,Centre,"11t-fonts\a.png",320,240 R,0,243806,,0 C,0,243806,,255,255,255 P,0,243806,,A F,0,243806,243883,0,0.8 S,0,243806,250488,0.25 MX,0,243806,250488,183.34 MY,0,243806,250488,380 F,0,250334,250488,0.8,0
Sprite,Foreground,Centre,"11t-fonts\r.png",320,240 R,0,243806,,0 C,0,243806,,255,255,255 P,0,243806,,A F,0,243806,243883,0,0.8 S,0,243806,250488,0.25 MX,0,243806,250488,197.4 MY,0,243806,250488,380 F,0,250334,250488,0.8,0
Sprite,Foreground,Centre,"11t-fonts\d.png",320,240 R,0,243806,,0 C,0,243806,,255,255,255 P,0,243806,,A F,0,243806,243883,0,0.8 S,0,243806,250488,0.25 MX,0,243806,250488,209.59 MY,0,243806,250488,380 F,0,250334,250488,0.8,0
Sprite,Foreground,Centre,"11t-fonts\b.png",320,240 R,0,243806,,0 C,0,243806,,255,255,255 P,0,243806,,A F,0,243806,243883,0,0.8 S,0,243806,250488,0.25 MX,0,243806,250488,236.34 MY,0,243806,250488,380 F,0,250334,250488,0.8,0
Sprite,Foreground,Centre,"11t-fonts\y.png",320,240 R,0,243806,,0 C,0,243806,,255,255,255 P,0,243806,,A F,0,243806,243883,0,0.8 S,0,243806,250488,0.25 MX,0,243806,250488,252.65 MY,0,243806,250488,380 F,0,250334,250488,0.8,0
Sprite,Foreground,Centre,"11t-fonts\N1.png",320,240 R,0,243806,,0 C,0,243806,,255,255,255 P,0,243806,,A F,0,243806,243883,0,0.8 S,0,243806,250488,0.25 MX,0,243806,250488,280.34 MY,0,243806,250488,380 F,0,250334,250488,0.8,0
Sprite,Foreground,Centre,"11t-fonts\o.png",320,240 R,0,243806,,0 C,0,243806,,255,255,255 P,0,243806,,A F,0,243806,243883,0,0.8 S,0,243806,250488,0.25 MX,0,243806,250488,297.96 MY,0,243806,250488,380 F,0,250334,250488,0.8,0
Sprite,Foreground,Centre,"11t-fonts\l.png",320,240 R,0,243806,,0 C,0,243806,,255,255,255 P,0,243806,,A F,0,243806,243883,0,0.8 S,0,243806,250488,0.25 MX,0,243806,250488,310.15 MY,0,243806,250488,380 F,0,250334,250488,0.8,0
Sprite,Foreground,Centre,"11t-fonts\d.png",320,240 R,0,243806,,0 C,0,243806,,255,255,255 P,0,243806,,A F,0,243806,243883,0,0.8 S,0,243806,250488,0.25 MX,0,243806,250488,322.15 MY,0,243806,250488,380 F,0,250334,250488,0.8,0
Sprite,Foreground,Centre,"11t-fonts\S1.png",320,240 R,0,243806,,0 C,0,243806,,255,255,255 P,0,243806,,A F,0,243806,243883,0,0.8 S,0,243806,250488,0.25 MX,0,243806,250488,80 MY,0,243806,250488,380 F,0,250334,250488,0.8,0
Sprite,Foreground,Centre,"11t-fonts\t.png",320,240 R,0,243806,,0 C,0,243806,,255,255,255 P,0,243806,,A F,0,243806,243883,0,0.8 S,0,243806,250488,0.25 MX,0,243806,250488,94.06 MY,0,243806,250488,380 F,0,250334,250488,0.8,0
Sprite,Foreground,Centre,"11t-fonts\o.png",320,240 R,0,243806,,0 C,0,243806,,255,255,255 P,0,243806,,A F,0,243806,243883,0,0.8 S,0,243806,250488,0.25 MX,0,243806,250488,107.38 MY,0,243806,250488,380 F,0,250334,250488,0.8,0
Sprite,Foreground,Centre,"11t-fonts\r.png",320,240 R,0,243806,,0 C,0,243806,,255,255,255 P,0,243806,,A F,0,243806,243883,0,0.8 S,0,243806,250488,0.25 MX,0,243806,250488,121.62 MY,0,243806,250488,380 F,0,250334,250488,0.8,0
Sprite,Foreground,Centre,"11t-fonts\y.png",320,240 R,0,243806,,0 C,0,243806,,255,255,255 P,0,243806,,A F,0,243806,243883,0,0.8 S,0,243806,250488,0.25 MX,0,243806,250488,133.65 MY,0,243806,250488,380 F,0,250334,250488,0.8,0
Sprite,Foreground,Centre,"11t-fonts\b.png",320,240 R,0,243806,,0 C,0,243806,,255,255,255 P,0,243806,,A F,0,243806,243883,0,0.8 S,0,243806,250488,0.25 MX,0,243806,250488,149.96 MY,0,243806,250488,380 F,0,250334,250488,0.8,0
Sprite,Foreground,Centre,"11t-fonts\o.png",320,240 R,0,243806,,0 C,0,243806,,255,255,255 P,0,243806,,A F,0,243806,243883,0,0.8 S,0,243806,250488,0.25 MX,0,243806,250488,166.65 MY,0,243806,250488,380 F,0,250334,250488,0.8,0
Sprite,Foreground,Centre,"11t-fonts\a.png",320,240 R,0,243806,,0 C,0,243806,,255,255,255 P,0,243806,,A F,0,243806,243883,0,0.8 S,0,243806,250488,0.25 MX,0,243806,250488,183.34 MY,0,243806,250488,380 F,0,250334,250488,0.8,0
Sprite,Foreground,Centre,"11t-fonts\r.png",320,240 R,0,243806,,0 C,0,243806,,255,255,255 P,0,243806,,A F,0,243806,243883,0,0.8 S,0,243806,250488,0.25 MX,0,243806,250488,197.4 MY,0,243806,250488,380 F,0,250334,250488,0.8,0
Sprite,Foreground,Centre,"11t-fonts\d.png",320,240 R,0,243806,,0 C,0,243806,,255,255,255 P,0,243806,,A F,0,243806,243883,0,0.8 S,0,243806,250488,0.25 MX,0,243806,250488,209.59 MY,0,243806,250488,380 F,0,250334,250488,0.8,0
Sprite,Foreground,Centre,"11t-fonts\b.png",320,240 R,0,243806,,0 C,0,243806,,255,255,255 P,0,243806,,A F,0,243806,243883,0,0.8 S,0,243806,250488,0.25 MX,0,243806,250488,236.34 MY,0,243806,250488,380 F,0,250334,250488,0.8,0
Sprite,Foreground,Centre,"11t-fonts\y.png",320,240 R,0,243806,,0 C,0,243806,,255,255,255 P,0,243806,,A F,0,243806,243883,0,0.8 S,0,243806,250488,0.25 MX,0,243806,250488,252.65 MY,0,243806,250488,380 F,0,250334,250488,0.8,0
Sprite,Foreground,Centre,"11t-fonts\N1.png",320,240 R,0,243806,,0 C,0,243806,,255,255,255 P,0,243806,,A F,0,243806,243883,0,0.8 S,0,243806,250488,0.25 MX,0,243806,250488,280.34 MY,0,243806,250488,380 F,0,250334,250488,0.8,0
Sprite,Foreground,Centre,"11t-fonts\o.png",320,240 R,0,243806,,0 C,0,243806,,255,255,255 P,0,243806,,A F,0,243806,243883,0,0.8 S,0,243806,250488,0.25 MX,0,243806,250488,297.96 MY,0,243806,250488,380 F,0,250334,250488,0.8,0
Sprite,Foreground,Centre,"11t-fonts\l.png",320,240 R,0,243806,,0 C,0,243806,,255,255,255 P,0,243806,,A F,0,243806,243883,0,0.8 S,0,243806,250488,0.25 MX,0,243806,250488,310.15 MY,0,243806,250488,380 F,0,250334,250488,0.8,0
Sprite,Foreground,Centre,"11t-fonts\d.png",320,240 R,0,243806,,0 C,0,243806,,255,255,255 P,0,243806,,A F,0,243806,243883,0,0.8 S,0,243806,250488,0.25 MX,0,243806,250488,322.15 MY,0,243806,250488,380 F,0,250334,250488,0.8,0
Sprite,Foreground,Centre,"11t-fonts\M1.png",320,240 R,0,243806,,0 C,0,243806,,255,255,255 P,0,243806,,A F,0,243806,243883,0,0.8 S,0,243806,250488,0.25 MX,0,243806,250488,83 MY,0,243806,250488,420 F,0,250334,250488,0.8,0
Sprite,Foreground,Centre,"11t-fonts\a.png",320,240 R,0,243806,,0 C,0,243806,,255,255,255 P,0,243806,,A F,0,243806,243883,0,0.8 S,0,243806,250488,0.25 MX,0,243806,250488,102.12 MY,0,243806,250488,420 F,0,250334,250488,0.8,0
Sprite,Foreground,Centre,"11t-fonts\p.png",320,240 R,0,243806,,0 C,0,243806,,255,255,255 P,0,243806,,A F,0,243806,243883,0,0.8 S,0,243806,250488,0.25 MX,0,243806,250488,118.62 MY,0,243806,250488,420 F,0,250334,250488,0.8,0
Sprite,Foreground,Centre,"11t-fonts\p.png",320,240 R,0,243806,,0 C,0,243806,,255,255,255 P,0,243806,,A F,0,243806,243883,0,0.8 S,0,243806,250488,0.25 MX,0,243806,250488,135.12 MY,0,243806,250488,420 F,0,250334,250488,0.8,0
Sprite,Foreground,Centre,"11t-fonts\e.png",320,240 R,0,243806,,0 C,0,243806,,255,255,255 P,0,243806,,A F,0,243806,243883,0,0.8 S,0,243806,250488,0.25 MX,0,243806,250488,151.62 MY,0,243806,250488,420 F,0,250334,250488,0.8,0
Sprite,Foreground,Centre,"11t-fonts\d.png",320,240 R,0,243806,,0 C,0,243806,,255,255,255 P,0,243806,,A F,0,243806,243883,0,0.8 S,0,243806,250488,0.25 MX,0,243806,250488,168.12 MY,0,243806,250488,420 F,0,250334,250488,0.8,0
Sprite,Foreground,Centre,"11t-fonts\b.png",320,240 R,0,243806,,0 C,0,243806,,255,255,255 P,0,243806,,A F,0,243806,243883,0,0.8 S,0,243806,250488,0.25 MX,0,243806,250488,194.88 MY,0,243806,250488,420 F,0,250334,250488,0.8,0
Sprite,Foreground,Centre,"11t-fonts\y.png",320,240 R,0,243806,,0 C,0,243806,,255,255,255 P,0,243806,,A F,0,243806,243883,0,0.8 S,0,243806,250488,0.25 MX,0,243806,250488,211.19 MY,0,243806,250488,420 F,0,250334,250488,0.8,0
Sprite,Foreground,Centre,"11t-fonts\N1.png",320,240 R,0,243806,,0 C,0,243806,,255,255,255 P,0,243806,,A F,0,243806,243883,0,0.8 S,0,243806,250488,0.25 MX,0,243806,250488,238.88 MY,0,243806,250488,420 F,0,250334,250488,0.8,0
Sprite,Foreground,Centre,"11t-fonts\o.png",320,240 R,0,243806,,0 C,0,243806,,255,255,255 P,0,243806,,A F,0,243806,243883,0,0.8 S,0,243806,250488,0.25 MX,0,243806,250488,256.5 MY,0,243806,250488,420 F,0,250334,250488,0.8,0
Sprite,Foreground,Centre,"11t-fonts\l.png",320,240 R,0,243806,,0 C,0,243806,,255,255,255 P,0,243806,,A F,0,243806,243883,0,0.8 S,0,243806,250488,0.25 MX,0,243806,250488,268.69 MY,0,243806,250488,420 F,0,250334,250488,0.8,0
Sprite,Foreground,Centre,"11t-fonts\d.png",320,240 R,0,243806,,0 C,0,243806,,255,255,255 P,0,243806,,A F,0,243806,243883,0,0.8 S,0,243806,250488,0.25 MX,0,243806,250488,280.69 MY,0,243806,250488,420 F,0,250334,250488,0.8,0
Sprite,Foreground,Centre,"11t-fonts\M1.png",320,240 R,0,243806,,0 C,0,243806,,255,255,255 P,0,243806,,A F,0,243806,243883,0,0.8 S,0,243806,250488,0.25 MX,0,243806,250488,83 MY,0,243806,250488,420 F,0,250334,250488,0.8,0
Sprite,Foreground,Centre,"11t-fonts\a.png",320,240 R,0,243806,,0 C,0,243806,,255,255,255 P,0,243806,,A F,0,243806,243883,0,0.8 S,0,243806,250488,0.25 MX,0,243806,250488,102.12 MY,0,243806,250488,420 F,0,250334,250488,0.8,0
Sprite,Foreground,Centre,"11t-fonts\p.png",320,240 R,0,243806,,0 C,0,243806,,255,255,255 P,0,243806,,A F,0,243806,243883,0,0.8 S,0,243806,250488,0.25 MX,0,243806,250488,118.62 MY,0,243806,250488,420 F,0,250334,250488,0.8,0
Sprite,Foreground,Centre,"11t-fonts\p.png",320,240 R,0,243806,,0 C,0,243806,,255,255,255 P,0,243806,,A F,0,243806,243883,0,0.8 S,0,243806,250488,0.25 MX,0,243806,250488,135.12 MY,0,243806,250488,420 F,0,250334,250488,0.8,0
Sprite,Foreground,Centre,"11t-fonts\e.png",320,240 R,0,243806,,0 C,0,243806,,255,255,255 P,0,243806,,A F,0,243806,243883,0,0.8 S,0,243806,250488,0.25 MX,0,243806,250488,151.62 MY,0,243806,250488,420 F,0,250334,250488,0.8,0
Sprite,Foreground,Centre,"11t-fonts\d.png",320,240 R,0,243806,,0 C,0,243806,,255,255,255 P,0,243806,,A F,0,243806,243883,0,0.8 S,0,243806,250488,0.25 MX,0,243806,250488,168.12 MY,0,243806,250488,420 F,0,250334,250488,0.8,0
Sprite,Foreground,Centre,"11t-fonts\b.png",320,240 R,0,243806,,0 C,0,243806,,255,255,255 P,0,243806,,A F,0,243806,243883,0,0.8 S,0,243806,250488,0.25 MX,0,243806,250488,194.88 MY,0,243806,250488,420 F,0,250334,250488,0.8,0
Sprite,Foreground,Centre,"11t-fonts\y.png",320,240 R,0,243806,,0 C,0,243806,,255,255,255 P,0,243806,,A F,0,243806,243883,0,0.8 S,0,243806,250488,0.25 MX,0,243806,250488,211.19 MY,0,243806,250488,420 F,0,250334,250488,0.8,0
Sprite,Foreground,Centre,"11t-fonts\N1.png",320,240 R,0,243806,,0 C,0,243806,,255,255,255 P,0,243806,,A F,0,243806,243883,0,0.8 S,0,243806,250488,0.25 MX,0,243806,250488,238.88 MY,0,243806,250488,420 F,0,250334,250488,0.8,0
Sprite,Foreground,Centre,"11t-fonts\o.png",320,240 R,0,243806,,0 C,0,243806,,255,255,255 P,0,243806,,A F,0,243806,243883,0,0.8 S,0,243806,250488,0.25 MX,0,243806,250488,256.5 MY,0,243806,250488,420 F,0,250334,250488,0.8,0
Sprite,Foreground,Centre,"11t-fonts\l.png",320,240 R,0,243806,,0 C,0,243806,,255,255,255 P,0,243806,,A F,0,243806,243883,0,0.8 S,0,243806,250488,0.25 MX,0,243806,250488,268.69 MY,0,243806,250488,420 F,0,250334,250488,0.8,0
Sprite,Foreground,Centre,"11t-fonts\d.png",320,240 R,0,243806,,0 C,0,243806,,255,255,255 P,0,243806,,A F,0,243806,243883,0,0.8 S,0,243806,250488,0.25 MX,0,243806,250488,280.69 MY,0,243806,250488,420 F,0,250334,250488,0.8,0
//Storyboard Sound Samples

[TimingPoints]
114,307.692307692308,4,2,21,20,1,0
114,-125,4,2,21,20,0,0
575,-125,4,2,21,20,0,0
1652,-125,4,2,21,20,0,0
3190,-125,4,2,21,20,0,0
4421,-83.3333333333333,4,1,22,30,0,0
5037,-100,4,1,30,30,0,0
8729,-125,4,1,31,20,0,0
9344,-100,4,1,31,20,0,0
9960,-100,4,1,32,40,0,0
14267,-83.3333333333333,4,1,22,40,0,0
14883,-100,4,1,33,40,0,0
17344,-100,4,1,33,50,0,0
18575,-125,4,1,31,60,0,0
18652,-125,4,1,3,30,0,0
19806,-125,4,1,99,80,0,0
24729,-133.333333333333,4,2,1,20,0,0
33344,-133.333333333333,4,2,1,20,0,0
34575,-200,4,2,34,30,0,0
44344,-125,4,2,34,30,0,0
44421,-125,4,2,35,50,0,0
54267,-200,4,1,98,60,0,0
55498,-125,4,1,13,80,0,0
55517,-100,4,2,0,80,0,0
55575,-125,4,2,12,10,0,0
55805,-125,4,1,14,80,0,0
55825,-100,4,2,0,80,0,0
55882,-125,4,2,12,10,0,0
56267,-125,4,1,14,80,0,0
56287,-100,4,2,0,80,0,0
56344,-125,4,2,12,10,0,0
56729,-125,4,1,15,80,0,0
56748,-100,4,2,0,80,0,0
56805,-125,4,2,12,10,0,0
57190,-125,4,1,16,80,0,0
57210,-100,4,2,0,80,0,0
57267,-125,4,2,12,10,0,0
57652,-125,4,1,17,80,0,0
57671,-100,4,2,0,80,0,0
57729,-125,4,2,12,10,0,0
57959,-125,4,1,14,80,0,0
57979,-100,4,2,0,80,0,0
58036,-125,4,2,12,10,0,0
58267,-125,4,1,13,80,0,0
58287,-100,4,2,0,80,0,0
58344,-125,4,2,12,10,0,0
58729,-125,4,1,14,80,0,0
58748,-100,4,2,0,80,0,0
58805,-125,4,2,12,10,0,0
59190,-125,4,1,13,80,0,0
59210,-100,4,2,0,80,0,0
59267,-125,4,2,12,10,0,0
59652,-125,4,1,16,80,0,0
59671,-100,4,2,0,80,0,0
59729,-125,4,2,12,10,0,0
60113,-125,4,1,18,80,0,0
60133,-100,4,2,0,80,0,0
60190,-125,4,2,12,10,0,0
60421,-125,4,1,19,80,0,0
60440,-100,4,2,0,80,0,0
60498,-125,4,2,12,10,0,0
60729,-125,4,1,19,80,0,0
60748,-100,4,2,0,80,0,0
60805,-125,4,2,12,10,0,0
61190,-125,4,1,18,80,0,0
61210,-100,4,2,0,80,0,0
61267,-125,4,2,12,10,0,0
61652,-125,4,1,16,80,0,0
61671,-100,4,2,0,80,0,0
61729,-125,4,2,12,10,0,0
62113,-125,4,1,15,80,0,0
62133,-100,4,2,0,80,0,0
62190,-125,4,2,12,10,0,0
62575,-125,4,1,13,80,0,0
62594,-100,4,2,0,80,0,0
62652,-125,4,2,12,10,0,0
62882,-125,4,1,19,80,0,0
62902,-100,4,2,0,80,0,0
62959,-125,4,2,12,10,0,0
63190,-125,4,1,19,80,0,0
63210,-100,4,2,0,80,0,0
63267,-125,4,2,12,10,0,0
63652,-125,4,1,18,80,0,0
63671,-100,4,2,0,80,0,0
63729,-125,4,2,12,10,0,0
64113,-125,4,1,19,80,0,0
64133,-100,4,2,0,80,0,0
64190,-125,4,2,12,10,0,0
64575,-125,4,1,18,80,0,0
64594,-100,4,2,0,80,0,0
64652,-125,4,2,12,10,0,0
65036,-125,4,1,17,80,0,0
65056,-100,4,2,0,80,0,0
65113,-125,4,2,12,10,0,0
65190,-125,4,1,12,80,0,0
65344,-125,4,2,20,75,0,0
65498,-125,4,2,20,40,0,0
65652,-125,4,2,14,40,0,0
66114,-125,4,2,14,40,0,0
66575,-125,4,2,15,40,0,0
67037,-125,4,2,16,40,0,0
67498,-125,4,2,17,40,0,0
67806,-125,4,2,14,40,0,0
68114,-125,4,2,13,40,0,0
68575,-125,4,2,14,40,0,0
68729,-125,4,2,20,40,0,0
69036,-125,4,2,20,40,0,0
69037,-100,4,2,13,40,0,0
69498,-125,4,2,16,40,0,0
69652,-125,4,2,20,40,0,0
69960,-125,4,2,18,40,0,0
70267,-125,4,2,19,40,0,0
70575,-125,4,2,19,40,0,0
71037,-125,4,2,18,40,0,0
71498,-125,4,2,16,40,0,0
71960,-125,4,2,16,40,0,0
72421,-125,4,2,13,40,0,0
72729,-125,4,2,19,40,0,0
73037,-125,4,2,19,40,0,0
73498,-125,4,2,18,40,0,0
73959,-125,4,1,22,60,0,0
74190,-125,4,1,22,60,0,0
74421,-125,4,1,22,60,0,0
74575,-125,4,1,50,60,0,0
77498,-125,4,1,50,60,0,0
80113,-125,4,1,50,60,0,0
85036,-125,4,1,50,60,0,0
85344,-125,4,1,30,60,0,0
87498,-125,4,1,30,60,0,0
90729,-125,4,1,30,60,0,0
93652,-125,4,1,98,60,0,0
93959,-125,4,2,0,60,0,0
94267,-125,4,1,22,60,0,0
94882,-100,4,1,60,60,0,0
94959,-100,4,1,61,60,0,0
95652,-100,4,1,61,60,0,0
96113,-100,4,1,61,60,0,0
96575,-100,4,1,61,60,0,0
97036,-100,4,1,61,60,0,0
97344,-100,4,1,61,60,0,0
97652,-100,4,1,61,60,0,0
98113,-100,4,1,61,60,0,0
99190,-100,4,1,61,60,0,0
99498,-100,4,1,61,60,0,0
99805,-100,4,1,61,60,0,0
100113,-100,4,1,61,60,0,0
100575,-100,4,1,61,60,0,0
100729,-100,4,1,61,60,0,0
101036,-100,4,1,61,60,0,0
101498,-100,4,1,61,60,0,0
102113,-100,4,1,61,60,0,0
102267,-100,4,1,61,60,0,0
104729,-100,4,1,60,60,0,0
104805,-100,4,1,60,60,0,0
104882,-100,4,1,61,60,0,0
105036,-100,4,1,61,60,0,0
105190,-100,4,1,61,61,0,0
105344,-100,4,1,61,60,0,0
105498,-100,4,1,61,60,0,0
105652,-100,4,1,61,60,0,0
105959,-100,4,1,61,60,0,0
106421,-100,4,1,61,60,0,0
106882,-100,4,1,61,60,0,0
107190,-100,4,1,61,60,0,0
107498,-100,4,1,61,60,0,0
107652,-100,4,1,61,61,0,0
108113,-100,4,1,61,60,0,0
108882,-100,4,1,61,60,0,0
109036,-100,4,1,61,60,0,0
109344,-100,4,1,61,60,0,0
109652,-100,4,1,61,60,0,0
110267,-100,4,1,61,60,0,0
110575,-100,4,1,61,60,0,0
110882,-100,4,1,61,60,0,0
111344,-100,4,1,61,60,0,0
111959,-100,4,1,61,60,0,0
112729,-100,4,1,61,61,0,0
113190,-100,4,1,5,60,0,0
113344,-100,4,1,22,60,0,0
114575,-100,4,1,60,60,0,0
114652,-100,4,1,61,60,0,0
114882,-100,4,1,61,60,0,0
115190,-100,4,1,61,60,0,0
118882,-100,4,1,61,60,0,0
119498,-100,4,1,61,60,0,0
120421,-100,4,1,61,60,0,0
120729,-100,4,1,61,60,0,0
121652,-100,4,1,61,60,0,0
121959,-100,4,1,61,60,0,0
123190,-100,4,1,61,60,0,0
123652,-100,4,1,61,60,0,0
124729,-100,4,1,61,60,0,0
125036,-100,4,1,61,60,0,0
127805,-100,4,1,61,60,0,0
128113,-100,4,1,61,60,0,0
129652,-100,4,1,61,60,0,0
129959,-100,4,1,61,60,0,0
131498,-100,4,1,61,60,0,0
131805,-100,4,1,61,60,0,0
133036,-100,4,1,98,70,0,0
134267,-125,4,2,34,40,0,0
142882,-125,4,1,70,60,0,0
143344,-100,4,2,5,60,0,0
143498,-100,4,1,22,60,0,0
144113,-100,4,2,35,65,0,0
149036,-100,4,2,35,65,0,0
149344,-100,4,2,35,65,0,0
149421,-100,4,2,35,10,0,0
149498,-100,4,2,35,65,0,0
150036,-100,4,2,35,10,0,0
150113,-100,4,2,35,65,0,0
150267,-100,4,2,35,65,0,0
150575,-100,4,2,35,65,0,0
150652,-100,4,2,35,10,0,0
150729,-100,4,2,35,65,0,0
151190,-100,4,2,35,65,0,0
151267,-100,4,2,35,10,0,0
151344,-100,4,2,35,65,0,0
151498,-100,4,2,35,65,0,0
151805,-100,4,2,35,65,0,0
151882,-100,4,2,35,10,0,0
151959,-100,4,2,35,65,0,0
152498,-100,4,2,35,10,0,0
152575,-100,4,2,35,65,0,0
152729,-125,4,2,5,60,0,0
153882,-100,4,1,98,80,0,0
155190,-153.846153846154,4,2,20,30,0,0
155267,-133.333333333333,4,2,0,60,0,0
159805,-133.333333333333,4,2,5,60,0,0
160421,-133.333333333333,4,2,5,60,0,0
163805,-133.333333333333,4,2,5,60,0,0
165036,-111.111111111111,4,2,20,20,0,0
165113,-111.111111111111,4,2,0,60,0,0
165498,-111.111111111111,4,1,5,60,0,0
166267,-111.111111111111,4,1,5,60,0,0
166729,-111.111111111111,4,1,5,60,0,0
167036,-111.111111111111,4,1,5,60,0,0
167652,-111.111111111111,4,1,5,60,0,0
168729,-111.111111111111,4,1,5,60,0,0
174421,-111.111111111111,4,1,61,60,0,0
174882,-111.111111111111,4,1,70,60,0,0
179805,-100,4,1,70,60,0,0
183498,-111.111111111111,4,1,98,80,0,0
183959,-111.111111111111,4,1,22,60,0,0
184729,-100,4,1,60,60,0,0
184805,-100,4,1,61,60,0,0
185498,-100,4,1,61,60,0,0
185959,-100,4,1,61,60,0,0
186344,-100,4,1,61,60,0,0
186882,-100,4,1,61,60,0,0
187190,-100,4,1,61,60,0,0
187498,-100,4,1,61,60,0,0
188729,-100,4,1,61,60,0,0
189036,-100,4,1,61,60,0,0
189344,-100,4,1,61,60,0,0
189652,-100,4,1,61,60,0,0
189959,-100,4,1,61,60,0,0
190421,-100,4,1,61,60,0,0
190882,-100,4,1,61,60,0,0
191344,-100,4,1,61,60,0,0
192113,-100,4,1,61,60,0,0
194113,-100,4,1,61,61,0,0
194267,-100,4,1,61,60,0,0
194575,-100,4,1,60,60,0,0
194652,-100,4,1,60,60,0,0
194729,-100,4,1,61,60,0,0
195344,-100,4,1,61,60,0,0
195805,-100,4,1,61,60,0,0
196267,-100,4,1,61,60,0,0
196729,-100,4,1,61,60,0,0
197036,-100,4,1,61,60,0,0
197959,-100,4,1,61,60,0,0
199190,-100,4,1,61,60,0,0
199498,-100,4,1,61,60,0,0
199805,-100,4,1,61,60,0,0
200113,-100,4,1,61,60,0,0
200729,-100,4,1,61,60,0,0
201190,-100,4,1,61,60,0,0
201959,-100,4,1,61,60,0,0
202882,-100,4,1,61,60,0,0
203036,-100,4,1,22,60,0,0
203344,-100,4,1,22,60,0,0
204421,-100,4,1,60,60,0,0
204498,-100,4,1,61,60,0,0
204729,-100,4,1,61,60,0,0
205036,-100,4,1,61,60,0,0
208729,-100,4,1,61,60,0,0
209036,-100,4,1,61,60,0,0
210267,-100,4,1,61,60,0,0
210575,-100,4,1,61,60,0,0
216882,-100,4,1,61,60,0,0
217113,-100,4,1,61,60,0,0
217498,-100,4,1,61,60,0,0
217652,-100,4,1,61,60,0,0
217959,-100,4,1,61,60,0,0
219267,-100,4,1,61,30,0,0
219498,-100,4,1,61,60,0,0
219575,-100,4,1,61,30,0,0
219805,-100,4,1,61,60,0,0
219882,-100,4,1,61,30,0,0
220113,-100,4,1,61,60,0,0
220190,-100,4,1,61,30,0,0
220421,-100,4,1,61,60,0,0
220498,-100,4,1,61,30,0,0
220729,-100,4,1,61,60,0,0
220805,-100,4,1,61,30,0,0
221036,-100,4,1,61,70,0,0
221344,-100,4,1,61,60,0,0
221652,-100,4,1,61,60,0,0
222882,-100,4,1,98,60,0,0
224113,-125,4,2,21,40,0,0
232729,-125,4,1,31,20,0,0
233344,-100,4,1,31,12,0,0
233959,-100,4,1,32,40,0,0
237652,-100,4,1,32,40,0,0
238267,-83.3333333333333,4,1,22,40,0,0
238882,-100,4,1,33,30,0,0
241344,-100,4,1,33,40,0,0
242575,-125,4,1,31,30,0,0
243805,-100,4,1,99,80,0,0

[Colours]
Combo1 : 193,255,132
Combo2 : 255,121,57
Combo3 : 0,227,227
Combo4 : 155,55,255
Combo5 : 255,115,255
Combo6 : 100,177,255
SliderBorder : 80,80,80

[HitObjects]
76,360,114,6,0,P|114:319|119:251,1,120,6|12,0:0|0:0,0:0:0:0:
168,192,575,2,0,L|140:76,1,120,0|0,0:0|0:0,0:0:0:0:
68,36,1037,1,12,0:0:0:0:
224,80,1344,6,0,L|240:152,1,60,6|0,0:0|0:0,0:0:0:0:
244,220,1652,1,12,0:0:0:0:
312,172,1806,2,0,P|326:226|292:288,1,120,0|8,0:0|0:0,0:0:0:0:
224,304,2267,1,12,0:0:0:0:
237,138,2575,6,0,P|277:98|347:97,1,120,6|12,0:0|0:0,0:0:0:0:
416,64,3037,2,0,P|466:89|488:156,1,120,0|0,0:0|0:0,0:0:0:0:
408,148,3498,2,0,L|392:220,1,60,12|0,0:0|0:0,0:0:0:0:
472,228,3806,6,0,L|440:372,1,120,6|12,0:0|0:0,0:0:0:0:
372,316,4267,1,0,0:0:0:0:
308,224,4421,6,0,L|350:32,1,179.999994506836,4|12,0:0|0:0,0:0:0:0:
346,48,5037,6,0,P|284:80|200:48,1,150,4|12,0:0|0:0,0:0:0:0:
136,84,5498,1,0,0:0:0:0:
68,124,5652,2,0,P|36:186|68:270,1,150,4|12,0:0|0:0,0:0:0:0:
192,340,6267,6,0,L|228:264,1,75,4|0,0:0|0:0,0:0:0:0:
304,284,6575,2,0,L|340:208,1,75,12|0,0:0|0:0,0:0:0:0:
416,228,6883,2,0,L|488:76,1,150,4|12,0:0|0:0,0:0:0:0:
328,132,7498,6,0,P|290:73|201:59,1,150,4|12,0:0|0:0,0:0:0:0:
136,68,7960,1,0,0:0:0:0:
184,132,8114,2,0,P|152:193|183:278,1,150,4|12,0:0|0:0,0:0:0:0:
312,344,8729,6,0,P|352:268|312:176,1,180,6|0,0:0|2:0,0:0:0:0:
252,136,9344,2,0,L|236:72,6,37.5,10|2|2|2|10|2|2,2:1|2:1|2:1|2:1|2:1|2:1|2:1,0:0:0:0:
244,220,9960,6,0,P|175:234|102:181,1,150,4|8,0:0|0:0,0:0:0:0:
32,212,10421,2,0,P|-3:151|24:65,1,150,2|0,0:0|0:0,0:0:0:0:
84,36,10883,2,0,L|160:60,1,75,8|0,0:0|0:0,0:0:0:0:
228,88,11190,6,0,P|297:74|370:127,1,150,4|8,0:0|0:0,0:0:0:0:
420,192,11652,2,0,P|351:206|278:153,1,150,2|0,0:0|0:0,0:0:0:0:
184,164,12114,2,0,L|208:240,1,75,8|0,0:0|0:0,0:0:0:0:
192,328,12421,6,0,P|176:259|98:214,1,150,4|8,0:0|0:0,0:0:0:0:
156,140,12883,2,0,P|208:93|298:102,1,150,2|0,0:0|0:0,0:0:0:0:
372,144,13344,2,0,L|448:120,1,75,8|0,0:0|0:0,0:0:0:0:
448,232,13652,6,0,L|376:254,1,75,4|0,0:0|0:0,0:0:0:0:
300,276,13960,1,8,0:0:0:0:
223,297,14114,1,2,0:0:0:0:
113,149,14267,6,0,L|284:94,1,179.999994506836,4|4,0:0|0:0,0:0:0:0:
284,93,14883,6,0,P|354:96|411:166,1,150,6|8,0:0|0:0,0:0:0:0:
472,224,15344,2,0,P|409:191|325:223,1,150,6|2,0:0|0:0,0:0:0:0:
256,268,15806,2,0,L|228:182,1,75,8|2,0:0|0:0,0:0:0:0:
136,188,16114,6,0,P|168:125|136:41,1,150,4|8,0:0|0:0,0:0:0:0:
68,112,16575,2,0,P|35:174|67:258,1,150,14|2,0:0|0:0,0:0:0:0:
144,292,17037,1,8,0:0:0:0:
256,132,17344,5,0,0:0:0:0:
252,116,17421,1,0,0:0:0:0:
248,100,17498,2,0,L|236:44,12,37.5,0|0|8|0|8|0|0|0|0|0|8|0|0,0:0|0:0|0:0|0:0|0:0|0:0|0:0|0:0|0:0|0:0|0:0|0:0|0:0,0:0:0:0:
177,137,18575,6,0,B|233:138|293:237|256:270|256:270|218:237|278:138|334:137,1,360.000013732911,4|0,0:0|0:0,0:0:0:0:
484,232,19806,5,14,0:0:0:0:
40,204,24729,6,0,P|92:212|144:180,1,112.500004291535,6|0,0:0|0:0,0:0:0:0:
108,112,25190,2,0,P|152:83|212:91,1,112.500004291535,10|8,0:0|0:0,0:0:0:0:
264,148,25652,2,0,L|248:220,1,56.2500021457673,14|0,0:0|0:0,0:0:0:0:
228,280,25960,6,0,P|280:277|324:234,1,112.500004291535,14|0,0:0|0:0,0:0:0:0:
384,184,26421,2,0,L|408:74,1,112.500004291535,10|8,0:0|0:0,0:0:0:0:
340,36,26883,1,14,0:0:0:0:
184,68,27190,5,14,0:0:0:0:
96,200,27498,2,0,L|83:254,2,56.2500021457673,2|10|4,0:0|0:0|0:0,0:0:0:0:
164,244,27960,2,0,L|151:298,2,56.2500021457673,14|10|8,0:0|0:0|0:0,0:0:0:0:
204,176,28421,6,0,P|228:156|268:156,1,56.2500021457673,14|12,0:0|0:0,0:0:0:0:
332,164,28729,2,0,P|358:180|370:218,1,56.2500021457673,2|8,0:0|0:0,0:0:0:0:
382,282,29037,2,0,P|374:312|341:335,1,56.2500021457673,4|10,0:0|0:0,0:0:0:0:
285,366,29344,2,0,P|253:368|221:344,1,56.2500021457673,10|0,0:0|0:0,0:0:0:0:
175,299,29652,6,0,L|152:180,1,112.500004291535,14|0,0:0|0:0,0:0:0:0:
76,188,30114,2,0,P|94:139|149:110,1,112.500004291535,10|10,0:0|0:0,0:0:0:0:
220,136,30575,2,0,L|230:191,1,56.2500021457673,14|0,0:0|0:0,0:0:0:0:
244,268,30883,6,0,P|291:288|350:270,1,112.500004291535,14|2,0:0|0:0,0:0:0:0:
420,240,31344,2,0,P|425:188|389:137,1,112.500004291535,8|10,0:0|0:0,0:0:0:0:
364,68,31806,2,0,L|308:57,1,56.2500021457673,14|0,0:0|0:0,0:0:0:0:
228,52,32114,6,0,P|197:56|171:85,1,56.2500021457673,14|14,0:0|0:0,0:0:0:0:
100,72,32421,1,2,0:0:0:0:
136,144,32575,2,0,L|164:256,1,112.500004291535,12|14,0:0|0:0,0:0:0:0:
224,304,33037,1,10,0:0:0:0:
302,297,33190,1,14,0:0:0:0:
352,235,33344,6,0,B|456:165|391:88|438:39|438:39|374:66|281:-21|207:74,1,450.000017166138,4|6,0:0|2:0,0:0:0:0:
222,57,35037,6,0,L|134:41,1,75,0|0,0:0|0:0,0:0:0:0:
120,88,35498,2,0,L|32:72,1,75,8|0,0:0|0:0,0:0:0:0:
40,232,36267,6,0,P|72:248|124:240,1,75,0|0,0:0|0:0,0:0:0:0:
148,208,36729,2,0,P|183:206|227:234,1,75,8|0,0:0|0:0,0:0:0:0:
348,316,37498,6,0,L|356:224,1,75,0|0,0:0|0:0,0:0:0:0:
408,236,37960,2,0,L|416:144,1,75,12|0,0:0|0:0,0:0:0:0:
344,20,38729,6,0,P|314:39|295:88,1,75,0|0,0:0|0:0,0:0:0:0:
244,68,39190,2,0,P|236:103|258:151,1,75,8|6,0:0|0:0,0:0:0:0:
116,228,39960,6,0,L|128:316,1,75,0|0,0:0|0:0,0:0:0:0:
172,276,40421,2,0,L|184:364,1,75,8|0,0:0|0:0,0:0:0:0:
336,316,41190,6,0,P|362:292|373:241,1,75,0|12,0:0|0:0,0:0:0:0:
426,253,41652,2,0,P|428:217|399:173,1,75,8|0,0:0|0:0,0:0:0:0:
284,88,42421,6,0,L|196:100,1,75,0|0,0:0|0:0,0:0:0:0:
236,144,42883,2,0,L|148:156,1,75,8|0,0:0|0:0,0:0:0:0:
16,212,43652,6,0,P|23:246|2:294,1,75,0|0,0:0|0:0,0:0:0:0:
32,332,44114,1,8,0:0:0:0:
192,284,44421,6,0,L|320:244,1,120,4|8,1:2|0:0,0:0:0:0:
384,220,44883,2,0,P|420:200|444:128,1,120,4|0,0:0|0:0,0:0:0:0:
364,140,45344,2,0,L|340:63,1,60,12|0,0:0|0:0,0:0:0:0:
272,120,45652,6,0,P|233:135|162:108,1,120,4|8,0:0|0:0,0:0:0:0:
120,176,46114,2,0,P|81:160|10:187,1,120,4|0,0:0|0:0,0:0:0:0:
72,240,46575,1,12,0:0:0:0:
232,256,46883,6,0,L|244:196,2,60,4|0|8,0:0|0:0|0:0,0:0:0:0:
216,336,47344,2,0,P|257:333|311:280,1,120,4|0,0:0|0:0,0:0:0:0:
376,228,47806,2,0,L|388:168,1,60,12|0,0:0|0:0,0:0:0:0:
460,136,48114,6,0,P|433:104|358:92,1,120,4|8,0:0|0:0,0:0:0:0:
280,72,48575,2,0,P|241:87|206:154,1,120,4|4,0:0|0:0,0:0:0:0:
200,236,49037,2,0,L|208:308,1,60,12|0,0:0|0:0,0:0:0:0:
124,300,49344,6,0,L|112:176,1,120,4|8,0:0|0:0,0:0:0:0:
52,128,49806,2,0,P|89:143|162:121,1,120,4|0,0:0|0:0,0:0:0:0:
244,124,50267,2,0,L|306:130,1,60,12|0,0:0|0:0,0:0:0:0:
384,148,50575,6,0,P|399:185|377:258,1,120,4|8,0:0|0:0,0:0:0:0:
340,332,51037,2,0,P|309:357|233:359,1,120,4|0,0:0|0:0,0:0:0:0:
156,328,51498,1,12,0:0:0:0:
104,176,51806,6,0,L|80:104,2,60,4|0|8,0:0|0:0|0:0,0:0:0:0:
184,200,52267,2,0,P|215:175|291:173,1,120,4|0,0:0|0:0,0:0:0:0:
360,220,52729,2,0,P|329:245|253:247,1,120,12|4,0:0|0:0,0:0:0:0:
180,284,53190,1,4,0:0:0:0:
224,128,53498,5,4,0:0:0:0:
296,92,53652,1,8,0:0:0:0:
365,132,53806,1,4,0:0:0:0:
292,173,53960,1,12,0:0:0:0:
256,332,54267,5,14,0:0:0:0:
256,332,54729,2,0,L|248:168,1,150,0|0,2:0|2:0,0:0:0:0:
172,152,55498,6,0,L|112:164,1,60,2|0,2:1|0:0,0:0:0:0:
140,240,55806,6,0,L|80:252,1,60,2|0,2:1|0:0,0:0:0:0:
108,328,56267,6,0,L|48:340,1,60,2|0,2:1|0:0,0:0:0:0:
212,356,56729,6,0,P|240:336|248:292,1,60,2|0,2:1|0:0,0:0:0:0:
384,224,57190,6,0,P|352:209|310:224,1,60,2|0,2:1|0:0,0:0:0:0:
184,141,57652,6,0,P|187:175|221:204,1,60,2|0,2:1|0:0,0:0:0:0:
260,252,57960,6,0,L|272:312,1,60,2|0,2:1|0:0,0:0:0:0:
348,280,58267,6,0,L|360:340,1,60,2|0,2:1|0:0,0:0:0:0:
436,308,58729,6,0,L|448:368,1,60,2|0,2:1|0:0,0:0:0:0:
476,208,59190,6,0,P|456:180|412:172,1,60,2|0,2:1|0:0,0:0:0:0:
344,36,59652,6,0,P|329:67|344:109,1,60,2|0,2:1|0:0,0:0:0:0:
261,236,60114,6,0,P|295:232|324:198,1,60,2|0,2:1|0:0,0:0:0:0:
360,148,60421,6,0,L|348:88,1,60,2|0,2:1|0:0,0:0:0:0:
272,120,60729,6,0,L|260:60,1,60,2|0,2:1|0:0,0:0:0:0:
184,92,61190,6,0,L|172:32,1,60,2|0,2:1|0:0,0:0:0:0:
92,172,61652,6,0,P|112:200|156:208,1,60,2|0,2:1|0:0,0:0:0:0:
224,344,62114,6,0,P|238:312|223:270,1,60,2|0,2:1|0:0,0:0:0:0:
307,144,62575,6,0,P|272:147|243:181,1,60,2|0,2:1|0:0,0:0:0:0:
304,228,62883,6,0,L|364:216,1,60,2|0,2:1|0:0,0:0:0:0:
384,136,63190,6,0,L|444:124,1,60,2|0,2:1|0:0,0:0:0:0:
292,68,63652,6,0,L|352:56,1,60,2|0,2:1|0:0,0:0:0:0:
272,196,64114,6,0,P|245:174|200:177,1,60,2|0,2:1|0:0,0:0:0:0:
100,63,64575,6,0,P|94:96|119:133,1,60,2|0,2:1|0:0,0:0:0:0:
71,278,65037,6,0,P|103:265|122:225,1,60,2|0,2:1|2:0,0:0:0:0:
156,172,65344,6,0,L|192:52,1,120,4|2,0:0|2:1,0:0:0:0:
252,136,65806,2,0,L|217:250,1,120,0|2,0:0|2:1,0:0:0:0:
148,296,66267,1,0,0:0:0:0:
190,57,66575,6,0,P|248:32|316:60,1,120,2|0,2:1|0:0,0:0:0:0:
362,125,67037,2,0,P|304:150|236:122,1,120,2|0,2:1|0:0,0:0:0:0:
172,140,67498,1,2,2:1:0:0:
172,140,67806,6,0,L|96:128,1,60,2|0,2:1|0:0,0:0:0:0:
92,212,68114,2,0,L|151:221,1,60,2|0,2:1|0:0,0:0:0:0:
256,344,68575,5,2,2:1:0:0:
256,264,68729,2,0,B|232:224|288:192|248:136,1,120,2|2,0:1|2:1,0:0:0:0:
380,252,69344,5,0,2:0:0:0:
380,252,69498,2,0,B|356:212|412:180|372:124,1,120,2|0,2:1|0:0,0:0:0:0:
379,135,69960,1,2,2:1:0:0:
232,68,70267,6,0,L|104:96,1,120,2|2,2:1|2:1,0:0:0:0:
104,180,70729,2,0,L|221:154,1,120,0|2,0:0|2:1,0:0:0:0:
296,124,71190,1,0,0:0:0:0:
304,284,71498,6,0,P|246:259|178:287,1,120,2|0,2:1|0:0,0:0:0:0:
132,328,71960,2,0,P|190:353|258:325,1,120,2|0,2:1|0:0,0:0:0:0:
304,284,72421,1,2,2:1:0:0:
352,128,72729,6,0,L|340:60,2,60,2|0|2,2:1|0:0|2:1,0:0:0:0:
424,88,73190,2,0,L|448:212,1,120,0|2,0:0|2:1,0:0:0:0:
420,284,73652,1,0,0:0:0:0:
393,362,73806,1,0,0:0:0:0:
340,300,73960,6,0,P|344:248|376:216,2,90,4|4|12,0:0|0:0|0:0,0:0:0:0:
260,288,74575,2,0,L|124:268,1,120,0|8,0:0|0:0,0:0:0:0:
16,168,75190,6,0,L|8:84,2,60,14|0|0,0:0|0:0|0:0,0:0:0:0:
96,172,75652,6,0,L|105:88,2,60,4|0|0,0:0|0:0|0:0,0:0:0:0:
173,192,76114,6,0,L|199:112,2,60,4|0|0,0:0|0:0|0:0,0:0:0:0:
244,227,76575,6,0,L|286:154,2,60,4|0|0,0:0|0:0|0:0,0:0:0:0:
306,276,77037,6,0,L|363:213,1,60,4|0,0:0|0:0,0:0:0:0:
357,337,77344,5,4,0:0:0:0:
428,220,77498,2,0,P|396:164|324:152,1,120,4|0,0:0|0:0,0:0:0:0:
263,76,77960,6,0,P|295:132|367:144,1,120,4|0,0:0|0:0,0:0:0:0:
448,113,78421,6,0,P|383:112|337:169,1,120,4|0,0:0|0:0,0:0:0:0:
242,183,78883,6,0,P|306:183|352:126,1,120,4|0,0:0|0:0,0:0:0:0:
366,39,79344,6,0,P|333:94|359:163,1,120,4|0,0:0|0:0,0:0:0:0:
324,253,79806,6,0,P|356:197|330:128,1,120,4|6,0:0|1:0,0:0:0:0:
276,188,80267,1,0,0:0:0:0:
200,196,80421,6,0,L|112:207,1,60,4|0,1:0|0:0,0:0:0:0:
20,132,80729,2,0,L|73:202,1,60,4|0,1:0|0:0,0:0:0:0:
54,319,81037,2,0,L|88:237,1,60,4|0,1:0|0:0,0:0:0:0:
120,120,81344,6,0,L|154:38,1,60,4|0,1:0|0:0,0:0:0:0:
224,108,81652,2,0,L|306:74,1,60,4|0,1:0|0:0,0:0:0:0:
306,173,81960,2,0,L|387:207,1,60,4|0,1:0|0:0,0:0:0:0:
318,276,82267,2,0,L|351:358,1,60,4|0,1:0|0:0,0:0:0:0:
228,320,82575,6,0,P|216:280|236:236,1,60,4|0,1:0|0:0,0:0:0:0:
136,244,82883,2,0,P|155:207|201:190,1,60,4|0,1:0|0:0,0:0:0:0:
124,125,83190,2,0,P|164:112|208:132,1,60,4|0,1:0|0:0,0:0:0:0:
199,32,83498,2,0,P|235:51|252:97,1,60,4|0,1:0|0:0,0:0:0:0:
260,152,83806,6,0,L|396:184,1,120,6|2,1:0|0:0,0:0:0:0:
288,244,84267,2,0,L|424:276,1,120,6|4,1:0|1:0,0:0:0:0:
316,336,84729,1,4,1:0:0:0:
180,248,85037,6,0,P|128:260|68:220,1,120,12|8,0:0|0:0,0:0:0:0:
136,180,85498,1,0,0:0:0:0:
198,132,85652,2,0,P|250:120|310:160,1,120,8|8,0:0|0:0,0:0:0:0:
272,312,86267,6,0,L|144:340,1,120,8|8,0:0|0:0,0:0:0:0:
60,204,86883,1,8,0:0:0:0:
16,136,87037,1,0,0:0:0:0:
96,128,87190,1,8,0:0:0:0:
140,196,87344,1,0,0:0:0:0:
184,264,87498,6,0,P|236:276|296:236,1,120,8|8,0:0|0:0,0:0:0:0:
368,272,87960,1,0,0:0:0:0:
352,192,88114,2,0,L|328:64,1,120,8|8,0:0|0:0,0:0:0:0:
464,168,88729,6,0,L|486:285,1,120,8|8,0:0|0:0,0:0:0:0:
336,352,89344,1,8,0:0:0:0:
284,288,89498,1,0,0:0:0:0:
256,364,89652,1,8,0:0:0:0:
204,300,89806,1,0,0:0:0:0:
152,236,89960,6,0,L|80:140,1,120,0|8,0:0|0:0,0:0:0:0:
8,100,90421,2,0,P|-4:152|36:212,1,120,0|0,0:0|0:0,0:0:0:0:
28,206,90883,1,8,0:0:0:0:
164,120,91190,6,0,L|212:184,2,60,0|0|8,0:0|0:0|0:0,0:0:0:0:
204,48,91652,1,0,0:0:0:0:
256,108,91806,2,0,P|308:96|368:136,1,120,0|8,0:0|0:0,0:0:0:0:
372,208,92267,1,0,0:0:0:0:
296,180,92421,6,0,L|280:236,7,30,4|0|0|0|8|0|0|0,0:0|0:0|0:0|0:0|0:0|0:0|0:0|0:0,0:0:0:0:
256,176,93037,6,0,L|264:233,7,30,4|0|0|0|8|0|0|0,0:0|0:0|0:0|0:0|0:0|0:0|0:0|0:0,0:0:0:0:
216,192,93652,5,12,0:0:0:0:
32,312,94883,6,0,P|112:320|172:260,1,150,6|10,0:0|0:0,0:0:0:0:
240,244,95344,2,0,P|302:193|384:224,1,150,2|2,0:0|1:0,0:0:0:0:
316,272,95806,2,0,L|296:356,1,75,8|2,0:0|0:0,0:0:0:0:
416,284,96114,6,0,P|455:214|425:134,1,150,6|8,0:0|0:0,0:0:0:0:
360,120,96575,2,0,P|305:60|221:64,1,150,2|2,0:0|0:0,0:0:0:0:
164,84,97037,1,10,0:0:0:0:
226,136,97190,1,0,0:0:0:0:
288,188,97344,6,0,L|200:210,1,75,6|2,0:0|0:0,0:0:0:0:
256,280,97652,1,8,0:0:0:0:
192,332,97806,2,0,P|112:340|52:280,1,150,2|2,0:0|0:0,0:0:0:0:
12,232,98267,2,0,L|36:144,1,75,8|2,0:0|0:0,0:0:0:0:
116,164,98575,6,0,P|108:84|168:24,1,150,6|8,0:0|0:0,0:0:0:0:
192,116,99037,2,0,P|200:196|140:256,1,150,2|0,0:0|0:0,0:0:0:0:
158,247,99498,1,10,0:0:0:0:
304,324,99806,6,0,P|384:332|444:272,1,150,6|10,0:0|0:0,0:0:0:0:
424,208,100267,2,0,P|456:134|417:58,1,150,0|2,0:0|0:0,0:0:0:0:
352,96,100729,2,0,L|248:128,1,75,8|2,0:0|0:0,0:0:0:0:
236,188,101037,6,0,P|155:187|102:121,1,150,6|8,0:0|0:0,0:0:0:0:
24,144,101498,2,0,L|40:312,1,150,0|0,0:0|0:0,0:0:0:0:
100,348,101960,1,8,0:0:0:0:
232,248,102267,6,0,L|224:152,1,75,4|2,0:0|0:0,0:0:0:0:
308,192,102575,2,0,L|314:266,1,75,8|2,0:0|0:0,0:0:0:0:
284,112,102883,2,0,P|208:140|56:76,1,225,6|2,0:0|0:0,0:0:0:0:
20,36,103498,5,4,0:0:0:0:
0,120,103652,2,0,P|12:148|52:176,1,75,2|8,0:0|0:0,0:0:0:0:
120,252,103960,2,0,P|148:263|196:254,1,75,2|4,0:0|0:0,0:0:0:0:
298,260,104267,2,0,P|325:247|353:207,1,75,0|8,0:0|0:0,0:0:0:0:
276,180,104575,1,0,0:0:0:0:
340,128,104729,6,0,L|476:32,1,150,2|8,0:0|0:0,0:0:0:0:
474,126,105190,2,0,L|351:212,1,150,2|2,0:0|0:0,0:0:0:0:
284,264,105652,1,8,0:0:0:0:
199,252,105806,1,2,0:0:0:0:
147,183,105960,6,0,P|132:148|137:111,1,75,6|0,0:0|0:0,0:0:0:0:
72,60,106267,1,8,0:0:0:0:
52,140,106421,2,0,L|16:308,1,150,2|2,0:0|0:0,0:0:0:0:
92,332,106883,2,0,L|107:258,1,75,10|0,0:0|0:0,0:0:0:0:
148,184,107190,5,4,0:0:0:0:
188,109,107344,2,0,P|223:124|260:119,1,75,2|8,0:0|0:0,0:0:0:0:
340,104,107652,2,0,L|524:68,1,150,2|2,0:0|0:0,0:0:0:0:
488,156,108114,5,10,0:0:0:0:
360,260,108421,2,0,B|280:288|304:228|216:244,1,150,6|8,0:0|0:0,0:0:0:0:
240,324,108883,2,0,B|132:340|160:224|20:260,1,225,2|10,0:0|0:0,0:0:0:0:
36,92,109652,6,0,L|172:68,1,75,6|2,0:0|0:0,0:0:0:0:
192,80,109960,2,0,L|168:216,1,75,10|2,0:0|0:0,0:0:0:0:
240,212,110267,1,4,0:0:0:0:
160,236,110421,2,0,P|140:314|190:382,1,150,2|2,0:0|0:0,0:0:0:0:
248,332,110883,6,0,P|325:310|360:232,1,150,6|8,0:0|0:0,0:0:0:0:
332,176,111344,1,2,0:0:0:0:
192,80,111652,1,2,0:0:0:0:
25,111,111960,1,2,0:0:0:0:
104,140,112114,6,0,L|200:168,1,75,4|0,0:0|0:0,0:0:0:0:
216,264,112421,2,0,L|144:243,1,75,10|0,0:0|0:0,0:0:0:0:
256,140,112729,5,6,0:0:0:0:
288,216,112883,2,0,P|366:196|428:256,1,150,0|2,0:0|0:0,0:0:0:0:
348,276,113344,6,0,L|376:372,2,75,4|4|8,0:0|0:0|0:0,0:0:0:0:
276,316,113806,2,0,L|234:172,1,150,4|4,0:0|0:0,0:0:0:0:
204,96,114267,1,8,0:0:0:0:
336,196,114575,6,0,P|408:201|464:153,1,150,4|8,0:0|0:0,0:0:0:0:
484,72,115037,1,0,0:0:0:0:
320,48,115344,1,0,0:0:0:0:
187,146,115652,1,0,0:0:0:0:
172,228,115806,6,0,L|144:384,1,150,4|8,0:0|0:0,0:0:0:0:
76,332,116267,2,0,L|89:258,1,75,0|4,0:0|1:0,0:0:0:0:
104,176,116575,1,0,0:0:0:0:
172,228,116729,6,0,P|240:203|260:132,1,150,8|4,0:0|0:0,0:0:0:0:
200,76,117190,2,0,L|186:149,1,75,0|8,0:0|0:0,0:0:0:0:
104,176,117498,1,0,0:0:0:0:
196,312,117806,1,0,0:0:0:0:
357,343,118114,1,0,0:0:0:0:
312,272,118267,6,0,P|281:205|317:141,1,150,4|8,0:0|0:0,0:0:0:0:
368,80,118729,2,0,P|398:146|362:210,1,150,0|0,0:0|0:0,0:0:0:0:
312,272,119190,1,8,0:0:0:0:
148,248,119498,6,0,L|-32:220,1,150,4|8,0:0|0:0,0:0:0:0:
28,148,119960,1,0,0:0:0:0:
180,88,120267,1,0,0:0:0:0:
307,189,120575,1,0,0:0:0:0:
272,264,120729,6,0,P|345:265|388:205,1,150,4|8,0:0|0:0,0:0:0:0:
368,128,121190,2,0,P|316:104|280:112,1,75,0|4,0:0|0:0,0:0:0:0:
232,156,121498,2,0,P|225:212|243:244,1,75,0|8,0:0|0:0,0:0:0:0:
216,308,121806,1,0,0:0:0:0:
152,256,121960,6,0,L|0:152,1,150,4|8,0:0|0:0,0:0:0:0:
60,96,122421,2,0,L|183:180,1,150,0|0,0:0|0:0,0:0:0:0:
236,244,122883,1,8,0:0:0:0:
319,253,123037,1,0,0:0:0:0:
384,200,123190,6,0,P|407:130|363:71,1,150,6|8,0:0|0:0,0:0:0:0:
299,124,123652,2,0,P|226:123|183:183,1,150,2|2,0:0|0:0,0:0:0:0:
180,264,124114,1,8,0:0:0:0:
228,332,124267,1,2,0:0:0:0:
148,344,124421,6,0,P|75:352|26:297,1,150,4|8,0:0|0:0,0:0:0:0:
52,220,124883,2,0,L|28:32,1,150,0|0,0:0|0:0,0:0:0:0:
108,36,125344,1,8,0:0:0:0:
140,200,125652,6,0,P|198:156|268:179,1,150,4|8,0:0|0:0,0:0:0:0:
216,244,126114,2,0,P|287:260|341:210,1,150,2|0,0:0|0:0,0:0:0:0:
266,177,126575,1,10,0:0:0:0:
416,248,126883,5,4,0:0:0:0:
408,164,127037,2,0,L|400:88,2,75,0|8|0,0:0|0:0|0:0,0:0:0:0:
484,136,127498,1,4,0:0:0:0:
322,103,127806,1,8,0:0:0:0:
164,44,128114,6,0,P|144:80|156:128,2,75,4|0|8,0:0|0:0|0:0,0:0:0:0:
228,96,128575,2,0,P|258:162|220:225,1,150,0|0,0:0|0:0,0:0:0:0:
188,300,129037,1,8,0:0:0:0:
114,155,129344,6,0,P|156:95|229:96,1,150,4|8,0:0|0:0,0:0:0:0:
296,144,129806,1,0,0:0:0:0:
360,296,130114,1,0,0:0:0:0:
460,164,130421,1,0,0:0:0:0:
380,176,130575,6,0,L|184:204,1,150,4|8,0:0|0:0,0:0:0:0:
148,204,131037,2,0,P|78:182|57:111,1,150,0|0,0:0|0:0,0:0:0:0:
140,116,131498,1,8,0:0:0:0:
200,268,131806,6,0,P|253:219|325:235,1,150,4|8,0:0|0:0,0:0:0:0:
380,296,132267,1,0,0:0:0:0:
480,164,132575,1,0,0:0:0:0:
415,12,132883,1,0,0:0:0:0:
344,56,133037,5,12,0:0:0:0:
48,252,134267,6,0,L|160:208,1,120,6|8,1:2|1:2,0:0:0:0:
236,176,134729,1,8,0:0:0:0:
76,156,135037,1,8,0:0:0:0:
12,304,135344,1,0,0:0:0:0:
84,340,135498,6,0,P|123:351|191:317,1,120,0|8,1:0|1:2,0:0:0:0:
228,248,135960,1,0,0:0:0:0:
300,100,136267,1,0,0:0:0:0:
464,88,136575,1,0,0:0:0:0:
444,168,136729,6,0,L|404:320,1,120,4|8,1:2|1:2,0:0:0:0:
392,364,137190,1,0,0:0:0:0:
260,268,137498,1,0,2:2:0:0:
212,204,137652,2,0,L|227:145,1,60,12|0,1:2|0:0,0:0:0:0:
256,68,137960,6,0,P|220:64|184:80,1,60,12|8,1:2|0:0,0:0:0:0:
132,120,138267,2,0,P|107:170|111:209,1,60,0|8,1:0|0:2,0:0:0:0:
115,253,138575,2,0,P|146:299|182:315,1,60,4|8,1:2|0:0,0:0:0:0:
221,334,138883,2,0,P|277:330|309:307,1,60,8|8,1:2|0:0,0:0:0:0:
340,276,139190,6,0,L|370:159,1,120,12|12,1:2|1:2,0:0:0:0:
440,116,139652,1,8,0:0:0:0:
280,100,139960,1,0,0:0:0:0:
186,230,140267,1,0,0:2:0:0:
180,312,140421,6,0,P|141:297|106:230,1,120,4|12,1:2|1:2,0:0:0:0:
32,268,140883,2,0,P|24:227|65:163,1,120,0|0,0:0|0:0,0:0:0:0:
148,156,141344,1,8,1:2:0:0:
252,280,141652,6,0,P|288:299|361:280,1,120,4|8,1:2|1:2,0:0:0:0:
416,220,142114,2,0,L|388:72,1,120,0|0,0:0|0:0,0:0:0:0:
312,96,142575,2,0,P|320:64|344:40,1,60,12|0,1:2|0:0,0:0:0:0:
393,102,142883,6,0,L|489:122,2,90,4|12|0,0:0|0:0|0:0,0:0:0:0:
312,96,143498,2,0,L|135:59,1,150,4|8,0:0|0:0,0:0:0:0:
92,212,144114,6,0,L|280:256,1,150,4|8,1:2|1:2,0:0:0:0:
256,328,144575,2,0,P|292:308|304:200,1,150,8|0,0:2|0:2,0:0:0:0:
240,160,145037,2,0,L|212:64,1,75,12|0,1:2|2:2,0:0:0:0:
296,64,145344,6,0,P|326:35|432:57,1,150,4|8,1:2|1:2,0:0:0:0:
364,108,145806,2,0,P|400:128|412:236,1,150,0|8,0:0|0:0,0:0:0:0:
344,188,146267,1,12,1:2:0:0:
396,344,146575,6,0,L|472:332,2,75,4|0|8,1:2|0:0|1:2,0:0:0:0:
312,352,147037,2,0,P|271:344|226:245,1,150,8|0,0:0|0:0,0:0:0:0:
180,184,147498,2,0,L|200:104,1,75,8|8,1:2|0:0,0:0:0:0:
116,112,147806,6,0,P|84:104|52:72,1,75,4|8,1:2|0:0,0:0:0:0:
272,152,148114,2,0,P|302:163|347:155,1,75,8|4,1:2|0:0,0:0:0:0:
136,192,148421,2,0,P|107:208|62:208,1,75,4|4,1:2|0:2,0:0:0:0:
216,216,148729,2,0,P|229:246|266:272,1,75,8|0,1:2|0:0,0:0:0:0:
304,340,149037,6,0,L|472:324,1,150,4|8,1:2|1:2,0:0:0:0:
464,244,149498,2,0,L|480:76,1,150,8|0,0:0|0:2,0:0:0:0:
396,76,149960,2,0,L|388:164,1,75,8|0,1:2|0:0,0:0:0:0:
380,232,150267,6,0,P|345:255|243:217,1,150,4|8,1:2|1:2,0:0:0:0:
216,304,150729,2,0,P|183:278|187:169,1,150,8|8,0:0|0:2,0:0:0:0:
256,140,151190,1,8,1:2:0:0:
400,56,151498,6,0,P|447:110|434:182,1,150,4|8,1:2|1:2,0:0:0:0:
456,260,151960,2,0,L|268:280,1,150,8|0,0:0|0:2,0:0:0:0:
224,280,152421,1,8,1:2:0:0:
144,264,152575,2,0,P|104:244|88:192,1,75,0|0,0:0|0:0,0:0:0:0:
160,184,152883,5,2,0:1:0:0:
56,60,153190,1,2,0:1:0:0:
12,216,153498,1,2,0:1:0:0:
116,340,153806,1,2,0:1:0:0:
116,340,153960,5,12,0:0:0:0:
420,136,155190,6,0,B|480:224|480:224|428:276|348:276|292:220|280:144,1,341.249984378815,4|0,0:0|0:0,0:0:0:0:
480,336,156883,1,2,0:0:0:0:
480,336,157344,2,0,L|408:348,1,56.2500021457673,0|2,0:0|0:0,0:0:0:0:
316,284,157806,6,0,B|264:280|220:208|232:156|196:144|196:144|164:164|188:208|156:284|88:300,1,393.750015020371,2|2,0:0|0:0,0:0:0:0:
88,299,159806,5,2,0:1:0:0:
24,192,160114,2,0,P|128:172|188:64,1,225.000008583069,2|2,0:1|0:0,0:0:0:0:
186,75,161344,6,0,P|248:164|225:271,1,225.000008583069,2|2,0:1|0:0,0:0:0:0:
225,271,162575,5,2,0:1:0:0:
280,160,162883,1,2,0:0:0:0:
402,178,163190,1,2,0:0:0:0:
422,300,163498,1,2,0:0:0:0:
313,357,163806,1,2,0:0:0:0:
312,356,165037,6,0,L|164:304,1,134.999995880127,4|6,0:0|0:0,0:0:0:0:
216,236,165498,2,0,L|40:176,1,134.999995880127,2|2,2:1|2:1,0:0:0:0:
236,124,166114,1,0,2:0:0:0:
308,88,166267,5,2,2:1:0:0:
472,268,166729,1,2,2:1:0:0:
234,320,167190,1,2,2:1:0:0:
124,204,167498,5,4,1:0:0:0:
124,204,167652,2,0,B|300:284|288:80|448:140,1,337.499989700318,2|2,2:1|2:1,0:0:0:0:
484,196,168575,1,2,2:2:0:0:
404,212,168729,5,2,2:1:0:0:
200,88,169190,1,2,2:1:0:0:
15,242,169652,1,2,2:1:0:0:
160,312,169960,5,2,2:1:0:0:
160,312,170267,2,0,P|264:320|336:240,1,202.499993820191,2|2,2:1|2:1,0:0:0:0:
330,255,171190,6,0,L|358:39,2,202.499993820191,2|2|2,2:1|2:1|2:1,0:0:0:0:
268,104,172421,5,2,2:1:0:0:
236,264,172729,2,0,P|287:345|383:335,1,202.499993820191,2|2,2:1|2:1,0:0:0:0:
383,335,173652,6,0,L|402:184,1,134.999995880127,2|2,2:1|2:0,0:0:0:0:
448,136,174114,2,0,P|396:120|328:164,1,134.999995880127,2|2,2:1|2:0,0:0:0:0:
284,228,174575,1,8,2:1:0:0:
204,248,174729,1,2,2:0:0:0:
128,220,174883,6,0,L|108:69,1,134.999995880127,12|0,0:0|0:0,0:0:0:0:
330,159,175344,2,0,L|310:8,1,134.999995880127,12|0,0:0|0:0,0:0:0:0:
244,300,175806,6,0,L|224:149,1,134.999995880127,12|0,0:0|0:0,0:0:0:0:
44,204,176267,2,0,L|24:53,1,134.999995880127,12|0,0:0|0:0,0:0:0:0:
144,268,176729,6,0,L|134:192,1,67.4999979400635,12|2,0:0|0:0,0:0:0:0:
330,159,177037,2,0,L|320:83,1,67.4999979400635,12|2,0:0|0:0,0:0:0:0:
492,292,177344,6,0,L|472:141,1,134.999995880127,12|0,0:0|0:0,0:0:0:0:
260,336,177806,2,0,L|240:185,1,134.999995880127,12|0,0:0|0:0,0:0:0:0:
48,288,178267,6,0,L|28:137,1,134.999995880127,12|0,0:0|0:0,0:0:0:0:
242,202,178729,2,0,L|222:51,1,134.999995880127,12|0,0:0|0:0,0:0:0:0:
330,159,179190,6,0,L|320:83,1,67.4999979400635,12|2,0:0|0:0,0:0:0:0:
144,268,179498,2,0,L|134:192,1,67.4999979400635,8|2,0:0|0:0,0:0:0:0:
242,202,179806,6,0,L|252:282,2,75,12|4|4,0:0|0:0|0:0,0:0:0:0:
321,92,180267,6,0,L|311:17,2,75,12|4|4,0:0|0:0|0:0,0:0:0:0:
125,126,180729,6,0,L|135:206,2,75,12|4|4,0:0|0:0|0:0,0:0:0:0:
376,248,181190,6,0,L|366:173,2,75,12|4|4,0:0|0:0|0:0,0:0:0:0:
160,280,181652,6,0,L|170:360,1,75,12|4,0:0|0:0,0:0:0:0:
242,202,181960,2,0,L|232:127,1,75,12|4,0:0|0:0,0:0:0:0:
376,248,182267,6,0,L|381:288,3,37.5,0|4|4|0,0:0|0:0|0:0|0:0,0:0:0:0:
404,228,182575,6,0,L|435:252,3,37.5,12|4|0|4,0:0|0:0|0:0|0:0,0:0:0:0:
409,194,182883,6,0,L|448:189,3,37.5,12|0|4|4,0:0|0:0|0:0|0:0,0:0:0:0:
388,166,183190,6,0,L|412:134,3,37.5,8|4|4|4,0:0|0:0|0:0|0:0,0:0:0:0:
353,161,183498,5,12,0:0:0:0:
76,336,184729,6,0,P|84:256|24:196,1,150,6|10,0:0|0:0,0:0:0:0:
164,232,185190,2,0,L|200:76,1,150,2|2,0:0|0:0,0:0:0:0:
264,220,185652,2,0,L|244:304,1,75,4|2,0:0|0:0,0:0:0:0:
284,368,185960,6,0,P|354:329|434:359,1,150,6|8,0:0|0:0,0:0:0:0:
472,280,186421,2,0,P|496:202|450:131,1,150,2|2,0:0|0:0,0:0:0:0:
400,96,186883,1,10,0:0:0:0:
336,148,187037,1,2,0:0:0:0:
368,224,187190,6,0,L|280:246,1,75,6|2,0:0|0:0,0:0:0:0:
216,264,187498,1,8,0:0:0:0:
164,200,187652,2,0,P|87:175|20:228,1,150,2|2,0:0|0:0,0:0:0:0:
100,256,188114,2,0,P|80:280|84:336,1,75,8|2,0:0|0:0,0:0:0:0:
240,252,188421,6,0,P|248:172|188:112,1,150,6|8,0:0|0:0,0:0:0:0:
328,152,188883,2,0,P|378:89|463:89,1,150,2|0,0:0|0:0,0:0:0:0:
512,132,189344,1,10,0:0:0:0:
380,232,189652,6,0,P|300:240|240:180,1,150,6|10,0:0|0:0,0:0:0:0:
164,200,190114,2,0,P|196:126|157:50,1,150,0|2,0:0|0:0,0:0:0:0:
92,88,190575,2,0,L|-12:120,1,75,8|2,0:0|0:0,0:0:0:0:
12,192,190883,6,0,P|13:273|79:326,1,150,6|8,0:0|0:0,0:0:0:0:
124,268,191344,2,0,P|201:292|272:245,1,150,0|0,0:0|0:0,0:0:0:0:
308,192,191806,1,8,0:0:0:0:
308,192,192114,6,0,L|300:96,1,75,4|2,0:0|0:0,0:0:0:0:
460,152,192421,2,0,L|454:78,1,75,8|2,0:0|0:0,0:0:0:0:
392,260,192729,2,0,L|372:24,1,225,6|2,0:0|0:0,0:0:0:0:
288,32,193344,5,4,0:0:0:0:
220,80,193498,2,0,P|208:108|217:156,1,75,2|8,0:0|0:0,0:0:0:0:
292,196,193806,2,0,P|303:168|294:120,1,75,2|4,0:0|0:0,0:0:0:0:
140,188,194114,2,0,L|56:220,1,75,2|8,0:0|0:0,0:0:0:0:
12,276,194421,1,0,0:0:0:0:
84,316,194575,6,0,L|236:260,1,150,2|8,0:0|0:0,0:0:0:0:
308,268,195037,2,0,P|368:288|456:232,1,150,2|2,0:0|0:0,0:0:0:0:
484,180,195498,1,8,0:0:0:0:
444,108,195652,1,2,0:0:0:0:
400,176,195806,6,0,P|362:172|328:188,1,75,6|0,0:0|0:0,0:0:0:0:
292,112,196114,1,8,0:0:0:0:
248,184,196267,2,0,L|103:277,1,150,2|2,0:0|0:0,0:0:0:0:
40,256,196729,1,10,0:0:0:0:
152,132,197037,5,4,0:0:0:0:
152,132,197190,2,0,L|240:76,1,75,2|8,0:0|0:0,0:0:0:0:
292,112,197498,2,0,P|352:92|440:148,1,150,2|2,0:0|0:0,0:0:0:0:
432,212,197960,5,10,0:0:0:0:
336,344,198267,2,0,B|364:264|300:272|320:200,1,150,6|8,0:0|0:0,0:0:0:0:
400,224,198729,2,0,L|160:268,1,225,2|10,0:0|0:0,0:0:0:0:
220,104,199498,6,0,L|324:84,1,75,6|2,0:0|0:0,0:0:0:0:
372,112,199806,2,0,P|400:100|448:109,1,75,10|2,0:0|0:0,0:0:0:0:
500,168,200114,1,4,0:0:0:0:
448,232,200267,2,0,P|372:260|299:217,1,150,2|2,0:0|0:0,0:0:0:0:
244,280,200729,6,0,P|240:199|308:152,1,150,6|8,0:0|0:0,0:0:0:0:
372,172,201190,1,2,0:0:0:0:
312,324,201498,1,2,0:0:0:0:
156,272,201806,1,2,0:0:0:0:
132,192,201960,6,0,L|104:96,1,75,6|2,0:0|0:0,0:0:0:0:
40,196,202267,2,0,L|61:268,1,75,10|2,0:0|0:0,0:0:0:0:
48,352,202575,5,4,0:0:0:0:
128,328,202729,2,0,P|206:348|268:288,1,150,0|2,0:0|0:0,0:0:0:0:
332,272,203190,6,0,L|360:368,2,75,4|4|8,0:0|0:0|0:0,0:0:0:0:
264,224,203652,2,0,L|222:80,1,150,4|4,0:0|0:0,0:0:0:0:
280,20,204114,1,8,0:0:0:0:
152,124,204421,6,0,P|88:90|17:111,1,150,4|8,0:0|0:0,0:0:0:0:
129,211,204883,2,0,P|192:244|263:223,1,150,0|0,0:0|0:0,0:0:0:0:
340,192,205344,2,0,L|414:205,1,75,8|0,0:0|0:0,0:0:0:0:
472,304,205652,6,0,L|316:276,1,150,4|8,0:0|0:0,0:0:0:0:
278,148,206114,2,0,L|264:221,1,75,2|4,0:0|1:0,0:0:0:0:
204,280,206421,1,0,0:0:0:0:
184,200,206575,6,0,P|121:167|50:188,1,150,10|4,0:0|0:0,0:0:0:0:
120,292,207037,2,0,B|280:352|260:168|420:244,1,300,2|0,0:0|0:0,0:0:0:0:
464,280,207806,1,10,0:0:0:0:
420,352,207960,1,0,0:0:0:0:
352,304,208114,6,0,P|311:241|338:173,1,150,6|8,0:0|0:0,0:0:0:0:
452,72,208575,2,0,P|492:134|465:202,1,150,0|0,0:0|0:0,0:0:0:0:
395,233,209037,2,0,P|336:256|304:244,1,75,10|2,0:0|0:0,0:0:0:0:
244,244,209344,6,0,L|64:216,1,150,6|8,0:0|0:0,0:0:0:0:
40,280,209806,2,0,P|17:221|29:189,1,75,0|6,0:0|0:1,0:0:0:0:
68,144,210114,2,0,P|117:103|151:105,1,75,2|10,0:1|0:0,0:0:0:0:
208,112,210421,1,0,0:0:0:0:
272,164,210575,6,0,L|452:192,1,150,6|10,0:0|0:0,0:0:0:0:
476,128,211037,2,0,P|424:104|388:112,1,75,0|6,0:0|0:0,0:0:0:0:
440,268,211344,2,0,P|486:235|498:200,1,75,0|10,0:0|0:0,0:0:0:0:
420,187,211652,1,2,0:0:0:0:
360,244,211806,6,0,L|224:356,1,150,4|8,0:0|0:0,0:0:0:0:
208,264,212267,1,0,0:0:0:0:
268,208,212421,2,0,L|325:160,1,75,4|0,0:0|0:0,0:0:0:0:
128,244,212729,2,0,L|70:291,1,75,8|0,0:0|0:0,0:0:0:0:
188,180,213037,5,4,0:0:0:0:
188,180,213190,1,0,0:0:0:0:
300,304,213498,1,0,0:0:0:0:
432,208,213806,1,2,0:0:0:0:
420,124,213960,1,10,0:0:0:0:
472,60,214114,1,2,0:0:0:0:
492,140,214267,6,0,P|517:208|488:288,1,150,6|8,0:0|0:0,0:0:0:0:
444,344,214729,2,0,P|373:366|304:340,1,150,2|2,0:0|0:0,0:0:0:0:
252,280,215190,2,0,L|256:196,1,75,8|0,0:0|0:0,0:0:0:0:
172,192,215498,6,0,P|176:117|225:62,1,150,6|8,0:0|0:0,0:0:0:0:
280,128,215960,2,0,P|354:129|411:175,1,150,2|0,0:0|0:0,0:0:0:0:
432,256,216421,1,10,0:0:0:0:
296,352,216729,5,4,0:0:0:0:
296,352,216883,2,0,L|136:320,1,150,2|0,0:0|0:0,0:0:0:0:
72,292,217344,2,0,P|118:259|130:224,1,75,4|0,0:0|0:0,0:0:0:0:
184,184,217652,2,0,P|132:160|96:167,1,75,10|0,0:0|0:0,0:0:0:0:
36,144,217960,6,0,P|41:200|65:228,2,75,6|2|10,0:0|0:0|0:0,0:0:0:0:
115,161,218421,2,0,L|272:80,1,150,2|2,0:0|0:0,0:0:0:0:
324,56,218883,1,8,0:0:0:0:
444,172,219190,6,0,P|467:241|424:299,1,150,4|4,0:0|0:0,0:0:0:0:
360,352,219652,2,0,P|336:282|379:224,1,150,4|4,0:0|0:0,0:0:0:0:
364,144,220114,1,4,0:0:0:0:
292,100,220267,1,4,0:0:0:0:
288,184,220421,6,0,L|196:202,1,75,4|4,0:0|0:0,0:0:0:0:
140,168,220729,1,4,0:0:0:0:
148,248,220883,2,0,L|-17:280,1,150,4|4,0:0|0:0,0:0:0:0:
0,276,221344,1,8,0:0:0:0:
152,340,221652,6,0,P|188:332|236:236,1,150,4|8,0:0|0:0,0:0:0:0:
196,164,222114,1,0,0:0:0:0:
356,116,222421,1,0,0:0:0:0:
472,232,222729,1,0,0:0:0:0:
452,312,222883,5,12,0:0:0:0:
56,176,224114,6,0,L|44:108,2,60,6|0|8,0:0|0:0|0:0,0:0:0:0:
8,244,224575,2,0,P|70:256|135:208,1,120,0|0,0:0|0:0,0:0:0:0:
176,288,225037,2,0,L|244:300,1,60,8|0,0:0|0:0,0:0:0:0:
280,228,225344,6,0,P|268:166|315:101,1,120,6|8,0:0|0:0,0:0:0:0:
372,128,225806,2,0,P|427:97|503:122,1,120,0|0,0:0|0:0,0:0:0:0:
440,176,226267,1,8,0:0:0:0:
396,332,226575,6,0,L|332:316,1,60,6|0,0:0|0:0,0:0:0:0:
260,296,226883,1,8,0:0:0:0:
180,276,227037,2,0,P|118:264|53:311,1,120,0|0,0:0|0:0,0:0:0:0:
12,228,227498,2,0,L|28:164,1,60,8|0,0:0|0:0,0:0:0:0:
20,88,227806,6,0,P|75:107|104:160,1,120,6|8,0:0|0:0,0:0:0:0:
96,240,228267,2,0,L|232:228,1,120,0|0,0:0|0:0,0:0:0:0:
296,208,228729,1,8,0:0:0:0:
416,100,229037,6,0,L|280:88,1,120,6|8,0:0|0:0,0:0:0:0:
216,80,229498,2,0,P|158:68|107:100,1,120,0|0,0:0|0:0,0:0:0:0:
172,148,229960,2,0,L|164:229,1,60,8|0,0:0|0:0,0:0:0:0:
208,276,230267,6,0,P|265:287|316:255,1,120,6|8,0:0|0:0,0:0:0:0:
392,228,230729,2,0,L|380:92,1,120,0|0,0:0|0:0,0:0:0:0:
316,60,231190,1,8,0:0:0:0:
468,120,231498,6,0,L|462:60,2,60,6|0|8,0:0|0:0|0:0,0:0:0:0:
468,200,231960,2,0,P|435:248|376:261,1,120,0|0,0:0|0:0,0:0:0:0:
304,224,232421,1,8,0:0:0:0:
200,344,232729,6,0,P|160:268|200:176,1,180,6|0,0:1|2:0,0:0:0:0:
260,136,233344,2,0,L|276:72,6,37.5,10|2|2|2|10|2|2,2:1|2:1|2:1|2:1|2:1|2:1|2:1,0:0:0:0:
268,220,233960,6,0,P|337:234|410:181,1,150,4|8,0:0|0:0,0:0:0:0:
480,212,234421,2,0,P|515:151|488:65,1,150,2|0,0:0|0:0,0:0:0:0:
428,36,234883,2,0,L|352:60,1,75,8|0,0:0|0:0,0:0:0:0:
284,88,235190,6,0,P|215:74|142:127,1,150,4|8,0:0|0:0,0:0:0:0:
92,192,235652,2,0,P|161:206|234:153,1,150,2|0,0:0|0:0,0:0:0:0:
328,164,236114,2,0,L|304:240,1,75,8|0,0:0|0:0,0:0:0:0:
320,328,236421,6,0,P|336:259|414:214,1,150,4|8,0:0|0:0,0:0:0:0:
356,140,236883,2,0,P|304:93|214:102,1,150,2|0,0:0|0:0,0:0:0:0:
140,144,237344,2,0,L|64:120,1,75,8|0,0:0|0:0,0:0:0:0:
64,232,237652,6,0,L|136:254,1,75,4|0,0:0|0:0,0:0:0:0:
212,276,237960,1,8,0:0:0:0:
289,297,238114,1,2,0:0:0:0:
399,149,238267,6,0,L|228:94,1,179.999994506836,4|4,0:0|0:0,0:0:0:0:
228,93,238883,6,0,P|158:96|101:166,1,150,6|8,0:0|0:0,0:0:0:0:
40,224,239344,2,0,P|103:191|187:223,1,150,6|0,0:0|0:0,0:0:0:0:
256,268,239806,2,0,L|284:182,1,75,8|0,0:0|0:0,0:0:0:0:
376,188,240114,6,0,P|344:125|376:41,1,150,4|8,0:0|0:0,0:0:0:0:
444,112,240575,2,0,P|477:174|445:258,1,150,4|12,0:0|0:0,0:0:0:0:
368,292,241037,1,8,0:0:0:0:
256,132,241344,5,0,0:0:0:0:
260,116,241421,1,0,0:0:0:0:
264,100,241498,2,0,L|276:44,12,37.5,0|0|8|0|8|0|0|0|0|0|8|0|0,0:0|0:0|0:0|0:0|0:0|0:0|0:0|0:0|0:0|0:0|0:0|0:0|0:0,0:0:0:0:
335,137,242575,6,0,B|279:138|219:237|256:270|256:270|294:237|234:138|178:137,1,360.000013732911,4|0,0:0|0:0,0:0:0:0:
28,232,243806,5,14,0:0:0:0:
