osu file format v14

[General]
AudioFilename: aaa.mp3
AudioLeadIn: 0
PreviewTime: 93344
Countdown: 0
SampleSet: Soft
StackLeniency: 0.7
Mode: 0
LetterboxInBreaks: 0
StoryFireInFront: 0
EpilepsyWarning: 1
WidescreenStoryboard: 1

[Editor]
Bookmarks: 60,19752,24675,34521,44367,53036,55444,60421,65290,74521,88113,94828,114521,134213,144059,155136,164982,174828,184675,224059
DistanceSpacing: 0.8
BeatDivisor: 4
GridSize: 4
TimelineZoom: 1

[Metadata]
Title:Nostalgic (Nightcore Mix)
TitleUnicode:Nostalgic (Nightcore Mix)
Artist:S3RL feat Harri Rush
ArtistUnicode:S3RL feat Harri Rush
Creator:nold_1702
Version:Easy
Source:
Tags:CLuBLioNX Nightcore Regou Hotdog CLSW Minato Yukina Crystal Spec Spectate Spectator Nardoxyribonucleic Nardo nold 1702 Kloyd Drop [ Drop ] yf_bmp yf bmp hybrid old memory recollection Tofu1222 Tofu
BeatmapID:1313276
BeatmapSetID:591442

[Difficulty]
HPDrainRate:3
CircleSize:3
OverallDifficulty:2
ApproachRate:3
SliderMultiplier:1
SliderTickRate:1

[Events]
//Background and Video events
0,0,"Night Sky.jpg",0,0
//Break Periods
2,20006,23289
//Storyboard Layer 0 (Background)
//Storyboard Layer 1 (Fail)
//Storyboard Layer 2 (Pass)
//Storyboard Layer 3 (Foreground)
Sprite,Foreground,Centre,"11t-fonts\S1.png",320,240 R,0,243806,,0 C,0,243806,,255,255,255 P,0,243806,,A F,0,243806,243883,0,0.8 S,0,243806,250488,0.25 MX,0,243806,250488,80 MY,0,243806,250488,380 F,0,250334,250488,0.8,0
Sprite,Foreground,Centre,"11t-fonts\t.png",320,240 R,0,243806,,0 C,0,243806,,255,255,255 P,0,243806,,A F,0,243806,243883,0,0.8 S,0,243806,250488,0.25 MX,0,243806,250488,94.06 MY,0,243806,250488,380 F,0,250334,250488,0.8,0
Sprite,Foreground,Centre,"11t-fonts\o.png",320,240 R,0,243806,,0 C,0,243806,,255,255,255 P,0,243806,,A F,0,243806,243883,0,0.8 S,0,243806,250488,0.25 MX,0,243806,250488,107.38 MY,0,243806,250488,380 F,0,250334,250488,0.8,0
Sprite,Foreground,Centre,"11t-fonts\r.png",320,240 R,0,243806,,0 C,0,243806,,255,255,255 P,0,243806,,A F,0,243806,243883,0,0.8 S,0,243806,250488,0.25 MX,0,243806,250488,121.62 MY,0,243806,250488,380 F,0,250334,250488,0.8,0
Sprite,Foreground,Centre,"11t-fonts\y.png",320,240 R,0,243806,,0 C,0,243806,,255,255,255 P,0,243806,,A F,0,243806,243883,0,0.8 S,0,243806,250488,0.25 MX,0,243806,250488,133.65 MY,0,243806,250488,380 F,0,250334,250488,0.8,0
Sprite,Foreground,Centre,"11t-fonts\b.png",320,240 R,0,243806,,0 C,0,243806,,255,255,255 P,0,243806,,A F,0,243806,243883,0,0.8 S,0,243806,250488,0.25 MX,0,243806,250488,149.96 MY,0,243806,250488,380 F,0,250334,250488,0.8,0
Sprite,Foreground,Centre,"11t-fonts\o.png",320,240 R,0,243806,,0 C,0,243806,,255,255,255 P,0,243806,,A F,0,243806,243883,0,0.8 S,0,243806,250488,0.25 MX,0,243806,250488,166.65 MY,0,243806,250488,380 F,0,250334,250488,0.8,0
Sprite,Foreground,Centre,"11t-fonts\a.png",320,240 R,0,243806,,0 C,0,243806,,255,255,255 P,0,243806,,A F,0,243806,243883,0,0.8 S,0,243806,250488,0.25 MX,0,243806,250488,183.34 MY,0,243806,250488,380 F,0,250334,250488,0.8,0
Sprite,Foreground,Centre,"11t-fonts\r.png",320,240 R,0,243806,,0 C,0,243806,,255,255,255 P,0,243806,,A F,0,243806,243883,0,0.8 S,0,243806,250488,0.25 MX,0,243806,250488,197.4 MY,0,243806,250488,380 F,0,250334,250488,0.8,0
Sprite,Foreground,Centre,"11t-fonts\d.png",320,240 R,0,243806,,0 C,0,243806,,255,255,255 P,0,243806,,A F,0,243806,243883,0,0.8 S,0,243806,250488,0.25 MX,0,243806,250488,209.59 MY,0,243806,250488,380 F,0,250334,250488,0.8,0
Sprite,Foreground,Centre,"11t-fonts\b.png",320,240 R,0,243806,,0 C,0,243806,,255,255,255 P,0,243806,,A F,0,243806,243883,0,0.8 S,0,243806,250488,0.25 MX,0,243806,250488,236.34 MY,0,243806,250488,380 F,0,250334,250488,0.8,0
Sprite,Foreground,Centre,"11t-fonts\y.png",320,240 R,0,243806,,0 C,0,243806,,255,255,255 P,0,243806,,A F,0,243806,243883,0,0.8 S,0,243806,250488,0.25 MX,0,243806,250488,252.65 MY,0,243806,250488,380 F,0,250334,250488,0.8,0
Sprite,Foreground,Centre,"11t-fonts\N1.png",320,240 R,0,243806,,0 C,0,243806,,255,255,255 P,0,243806,,A F,0,243806,243883,0,0.8 S,0,243806,250488,0.25 MX,0,243806,250488,280.34 MY,0,243806,250488,380 F,0,250334,250488,0.8,0
Sprite,Foreground,Centre,"11t-fonts\o.png",320,240 R,0,243806,,0 C,0,243806,,255,255,255 P,0,243806,,A F,0,243806,243883,0,0.8 S,0,243806,250488,0.25 MX,0,243806,250488,297.96 MY,0,243806,250488,380 F,0,250334,250488,0.8,0
Sprite,Foreground,Centre,"11t-fonts\l.png",320,240 R,0,243806,,0 C,0,243806,,255,255,255 P,0,243806,,A F,0,243806,243883,0,0.8 S,0,243806,250488,0.25 MX,0,243806,250488,310.15 MY,0,243806,250488,380 F,0,250334,250488,0.8,0
Sprite,Foreground,Centre,"11t-fonts\d.png",320,240 R,0,243806,,0 C,0,243806,,255,255,255 P,0,243806,,A F,0,243806,243883,0,0.8 S,0,243806,250488,0.25 MX,0,243806,250488,322.15 MY,0,243806,250488,380 F,0,250334,250488,0.8,0
Sprite,Foreground,Centre,"11t-fonts\S1.png",320,240 R,0,243806,,0 C,0,243806,,255,255,255 P,0,243806,,A F,0,243806,243883,0,0.8 S,0,243806,250488,0.25 MX,0,243806,250488,80 MY,0,243806,250488,380 F,0,250334,250488,0.8,0
Sprite,Foreground,Centre,"11t-fonts\t.png",320,240 R,0,243806,,0 C,0,243806,,255,255,255 P,0,243806,,A F,0,243806,243883,0,0.8 S,0,243806,250488,0.25 MX,0,243806,250488,94.06 MY,0,243806,250488,380 F,0,250334,250488,0.8,0
Sprite,Foreground,Centre,"11t-fonts\o.png",320,240 R,0,243806,,0 C,0,243806,,255,255,255 P,0,243806,,A F,0,243806,243883,0,0.8 S,0,243806,250488,0.25 MX,0,243806,250488,107.38 MY,0,243806,250488,380 F,0,250334,250488,0.8,0
Sprite,Foreground,Centre,"11t-fonts\r.png",320,240 R,0,243806,,0 C,0,243806,,255,255,255 P,0,243806,,A F,0,243806,243883,0,0.8 S,0,243806,250488,0.25 MX,0,243806,250488,121.62 MY,0,243806,250488,380 F,0,250334,250488,0.8,0
Sprite,Foreground,Centre,"11t-fonts\y.png",320,240 R,0,243806,,0 C,0,243806,,255,255,255 P,0,243806,,A F,0,243806,243883,0,0.8 S,0,243806,250488,0.25 MX,0,243806,250488,133.65 MY,0,243806,250488,380 F,0,250334,250488,0.8,0
Sprite,Foreground,Centre,"11t-fonts\b.png",320,240 R,0,243806,,0 C,0,243806,,255,255,255 P,0,243806,,A F,0,243806,243883,0,0.8 S,0,243806,250488,0.25 MX,0,243806,250488,149.96 MY,0,243806,250488,380 F,0,250334,250488,0.8,0
Sprite,Foreground,Centre,"11t-fonts\o.png",320,240 R,0,243806,,0 C,0,243806,,255,255,255 P,0,243806,,A F,0,243806,243883,0,0.8 S,0,243806,250488,0.25 MX,0,243806,250488,166.65 MY,0,243806,250488,380 F,0,250334,250488,0.8,0
Sprite,Foreground,Centre,"11t-fonts\a.png",320,240 R,0,243806,,0 C,0,243806,,255,255,255 P,0,243806,,A F,0,243806,243883,0,0.8 S,0,243806,250488,0.25 MX,0,243806,250488,183.34 MY,0,243806,250488,380 F,0,250334,250488,0.8,0
Sprite,Foreground,Centre,"11t-fonts\r.png",320,240 R,0,243806,,0 C,0,243806,,255,255,255 P,0,243806,,A F,0,243806,243883,0,0.8 S,0,243806,250488,0.25 MX,0,243806,250488,197.4 MY,0,243806,250488,380 F,0,250334,250488,0.8,0
Sprite,Foreground,Centre,"11t-fonts\d.png",320,240 R,0,243806,,0 C,0,243806,,255,255,255 P,0,243806,,A F,0,243806,243883,0,0.8 S,0,243806,250488,0.25 MX,0,243806,250488,209.59 MY,0,243806,250488,380 F,0,250334,250488,0.8,0
Sprite,Foreground,Centre,"11t-fonts\b.png",320,240 R,0,243806,,0 C,0,243806,,255,255,255 P,0,243806,,A F,0,243806,243883,0,0.8 S,0,243806,250488,0.25 MX,0,243806,250488,236.34 MY,0,243806,250488,380 F,0,250334,250488,0.8,0
Sprite,Foreground,Centre,"11t-fonts\y.png",320,240 R,0,243806,,0 C,0,243806,,255,255,255 P,0,243806,,A F,0,243806,243883,0,0.8 S,0,243806,250488,0.25 MX,0,243806,250488,252.65 MY,0,243806,250488,380 F,0,250334,250488,0.8,0
Sprite,Foreground,Centre,"11t-fonts\N1.png",320,240 R,0,243806,,0 C,0,243806,,255,255,255 P,0,243806,,A F,0,243806,243883,0,0.8 S,0,243806,250488,0.25 MX,0,243806,250488,280.34 MY,0,243806,250488,380 F,0,250334,250488,0.8,0
Sprite,Foreground,Centre,"11t-fonts\o.png",320,240 R,0,243806,,0 C,0,243806,,255,255,255 P,0,243806,,A F,0,243806,243883,0,0.8 S,0,243806,250488,0.25 MX,0,243806,250488,297.96 MY,0,243806,250488,380 F,0,250334,250488,0.8,0
Sprite,Foreground,Centre,"11t-fonts\l.png",320,240 R,0,243806,,0 C,0,243806,,255,255,255 P,0,243806,,A F,0,243806,243883,0,0.8 S,0,243806,250488,0.25 MX,0,243806,250488,310.15 MY,0,243806,250488,380 F,0,250334,250488,0.8,0
Sprite,Foreground,Centre,"11t-fonts\d.png",320,240 R,0,243806,,0 C,0,243806,,255,255,255 P,0,243806,,A F,0,243806,243883,0,0.8 S,0,243806,250488,0.25 MX,0,243806,250488,322.15 MY,0,243806,250488,380 F,0,250334,250488,0.8,0
Sprite,Foreground,Centre,"11t-fonts\M1.png",320,240 R,0,243806,,0 C,0,243806,,255,255,255 P,0,243806,,A F,0,243806,243883,0,0.8 S,0,243806,250488,0.25 MX,0,243806,250488,83 MY,0,243806,250488,420 F,0,250334,250488,0.8,0
Sprite,Foreground,Centre,"11t-fonts\a.png",320,240 R,0,243806,,0 C,0,243806,,255,255,255 P,0,243806,,A F,0,243806,243883,0,0.8 S,0,243806,250488,0.25 MX,0,243806,250488,102.12 MY,0,243806,250488,420 F,0,250334,250488,0.8,0
Sprite,Foreground,Centre,"11t-fonts\p.png",320,240 R,0,243806,,0 C,0,243806,,255,255,255 P,0,243806,,A F,0,243806,243883,0,0.8 S,0,243806,250488,0.25 MX,0,243806,250488,118.62 MY,0,243806,250488,420 F,0,250334,250488,0.8,0
Sprite,Foreground,Centre,"11t-fonts\p.png",320,240 R,0,243806,,0 C,0,243806,,255,255,255 P,0,243806,,A F,0,243806,243883,0,0.8 S,0,243806,250488,0.25 MX,0,243806,250488,135.12 MY,0,243806,250488,420 F,0,250334,250488,0.8,0
Sprite,Foreground,Centre,"11t-fonts\e.png",320,240 R,0,243806,,0 C,0,243806,,255,255,255 P,0,243806,,A F,0,243806,243883,0,0.8 S,0,243806,250488,0.25 MX,0,243806,250488,151.62 MY,0,243806,250488,420 F,0,250334,250488,0.8,0
Sprite,Foreground,Centre,"11t-fonts\d.png",320,240 R,0,243806,,0 C,0,243806,,255,255,255 P,0,243806,,A F,0,243806,243883,0,0.8 S,0,243806,250488,0.25 MX,0,243806,250488,168.12 MY,0,243806,250488,420 F,0,250334,250488,0.8,0
Sprite,Foreground,Centre,"11t-fonts\b.png",320,240 R,0,243806,,0 C,0,243806,,255,255,255 P,0,243806,,A F,0,243806,243883,0,0.8 S,0,243806,250488,0.25 MX,0,243806,250488,194.88 MY,0,243806,250488,420 F,0,250334,250488,0.8,0
Sprite,Foreground,Centre,"11t-fonts\y.png",320,240 R,0,243806,,0 C,0,243806,,255,255,255 P,0,243806,,A F,0,243806,243883,0,0.8 S,0,243806,250488,0.25 MX,0,243806,250488,211.19 MY,0,243806,250488,420 F,0,250334,250488,0.8,0
Sprite,Foreground,Centre,"11t-fonts\N1.png",320,240 R,0,243806,,0 C,0,243806,,255,255,255 P,0,243806,,A F,0,243806,243883,0,0.8 S,0,243806,250488,0.25 MX,0,243806,250488,238.88 MY,0,243806,250488,420 F,0,250334,250488,0.8,0
Sprite,Foreground,Centre,"11t-fonts\o.png",320,240 R,0,243806,,0 C,0,243806,,255,255,255 P,0,243806,,A F,0,243806,243883,0,0.8 S,0,243806,250488,0.25 MX,0,243806,250488,256.5 MY,0,243806,250488,420 F,0,250334,250488,0.8,0
Sprite,Foreground,Centre,"11t-fonts\l.png",320,240 R,0,243806,,0 C,0,243806,,255,255,255 P,0,243806,,A F,0,243806,243883,0,0.8 S,0,243806,250488,0.25 MX,0,243806,250488,268.69 MY,0,243806,250488,420 F,0,250334,250488,0.8,0
Sprite,Foreground,Centre,"11t-fonts\d.png",320,240 R,0,243806,,0 C,0,243806,,255,255,255 P,0,243806,,A F,0,243806,243883,0,0.8 S,0,243806,250488,0.25 MX,0,243806,250488,280.69 MY,0,243806,250488,420 F,0,250334,250488,0.8,0
Sprite,Foreground,Centre,"11t-fonts\M1.png",320,240 R,0,243806,,0 C,0,243806,,255,255,255 P,0,243806,,A F,0,243806,243883,0,0.8 S,0,243806,250488,0.25 MX,0,243806,250488,83 MY,0,243806,250488,420 F,0,250334,250488,0.8,0
Sprite,Foreground,Centre,"11t-fonts\a.png",320,240 R,0,243806,,0 C,0,243806,,255,255,255 P,0,243806,,A F,0,243806,243883,0,0.8 S,0,243806,250488,0.25 MX,0,243806,250488,102.12 MY,0,243806,250488,420 F,0,250334,250488,0.8,0
Sprite,Foreground,Centre,"11t-fonts\p.png",320,240 R,0,243806,,0 C,0,243806,,255,255,255 P,0,243806,,A F,0,243806,243883,0,0.8 S,0,243806,250488,0.25 MX,0,243806,250488,118.62 MY,0,243806,250488,420 F,0,250334,250488,0.8,0
Sprite,Foreground,Centre,"11t-fonts\p.png",320,240 R,0,243806,,0 C,0,243806,,255,255,255 P,0,243806,,A F,0,243806,243883,0,0.8 S,0,243806,250488,0.25 MX,0,243806,250488,135.12 MY,0,243806,250488,420 F,0,250334,250488,0.8,0
Sprite,Foreground,Centre,"11t-fonts\e.png",320,240 R,0,243806,,0 C,0,243806,,255,255,255 P,0,243806,,A F,0,243806,243883,0,0.8 S,0,243806,250488,0.25 MX,0,243806,250488,151.62 MY,0,243806,250488,420 F,0,250334,250488,0.8,0
Sprite,Foreground,Centre,"11t-fonts\d.png",320,240 R,0,243806,,0 C,0,243806,,255,255,255 P,0,243806,,A F,0,243806,243883,0,0.8 S,0,243806,250488,0.25 MX,0,243806,250488,168.12 MY,0,243806,250488,420 F,0,250334,250488,0.8,0
Sprite,Foreground,Centre,"11t-fonts\b.png",320,240 R,0,243806,,0 C,0,243806,,255,255,255 P,0,243806,,A F,0,243806,243883,0,0.8 S,0,243806,250488,0.25 MX,0,243806,250488,194.88 MY,0,243806,250488,420 F,0,250334,250488,0.8,0
Sprite,Foreground,Centre,"11t-fonts\y.png",320,240 R,0,243806,,0 C,0,243806,,255,255,255 P,0,243806,,A F,0,243806,243883,0,0.8 S,0,243806,250488,0.25 MX,0,243806,250488,211.19 MY,0,243806,250488,420 F,0,250334,250488,0.8,0
Sprite,Foreground,Centre,"11t-fonts\N1.png",320,240 R,0,243806,,0 C,0,243806,,255,255,255 P,0,243806,,A F,0,243806,243883,0,0.8 S,0,243806,250488,0.25 MX,0,243806,250488,238.88 MY,0,243806,250488,420 F,0,250334,250488,0.8,0
Sprite,Foreground,Centre,"11t-fonts\o.png",320,240 R,0,243806,,0 C,0,243806,,255,255,255 P,0,243806,,A F,0,243806,243883,0,0.8 S,0,243806,250488,0.25 MX,0,243806,250488,256.5 MY,0,243806,250488,420 F,0,250334,250488,0.8,0
Sprite,Foreground,Centre,"11t-fonts\l.png",320,240 R,0,243806,,0 C,0,243806,,255,255,255 P,0,243806,,A F,0,243806,243883,0,0.8 S,0,243806,250488,0.25 MX,0,243806,250488,268.69 MY,0,243806,250488,420 F,0,250334,250488,0.8,0
Sprite,Foreground,Centre,"11t-fonts\d.png",320,240 R,0,243806,,0 C,0,243806,,255,255,255 P,0,243806,,A F,0,243806,243883,0,0.8 S,0,243806,250488,0.25 MX,0,243806,250488,280.69 MY,0,243806,250488,420 F,0,250334,250488,0.8,0
//Storyboard Sound Samples

[TimingPoints]
114,307.692307692308,4,2,21,20,1,0
114,-125,4,2,21,20,0,0
575,-125,4,2,21,20,0,0
1652,-125,4,2,21,20,0,0
3190,-125,4,2,21,20,0,0
4421,-125,4,1,22,30,0,0
5037,-100,4,1,30,30,0,0
8729,-125,4,1,31,20,0,0
9344,-125,4,1,31,20,0,0
9960,-100,4,1,32,40,0,0
14267,-125,4,1,22,40,0,0
14883,-100,4,1,33,40,0,0
17344,-100,4,1,33,50,0,0
18575,-100,4,1,31,60,0,0
18652,-125,4,1,3,30,0,0
19806,-125,4,1,99,80,0,0
24729,-125,4,2,1,20,0,0
33344,-133.333333333333,4,2,1,20,0,0
34575,-125,4,2,34,30,0,0
44344,-125,4,2,35,50,0,0
54267,-125,4,1,98,60,0,0
55498,-125,4,2,13,80,0,0
55517,-125,4,2,0,80,0,0
55805,-125,4,2,14,80,0,0
55825,-125,4,2,0,80,0,0
56267,-125,4,2,14,80,0,0
56287,-125,4,2,0,80,0,0
56729,-125,4,2,15,80,0,0
56748,-125,4,2,0,80,0,0
57190,-125,4,2,16,80,0,0
57210,-125,4,2,0,80,0,0
57652,-125,4,2,17,80,0,0
57671,-125,4,2,0,80,0,0
57959,-125,4,2,14,80,0,0
57979,-125,4,2,0,80,0,0
58267,-125,4,2,13,80,0,0
58287,-125,4,2,0,80,0,0
58729,-125,4,2,14,80,0,0
58748,-125,4,2,0,80,0,0
59190,-125,4,2,13,80,0,0
59210,-125,4,2,0,80,0,0
59652,-125,4,2,16,80,0,0
59671,-125,4,2,0,80,0,0
60113,-125,4,2,18,80,0,0
60133,-125,4,2,0,80,0,0
60421,-125,4,2,19,80,0,0
60440,-125,4,2,0,80,0,0
60729,-125,4,2,19,80,0,0
60748,-125,4,2,0,80,0,0
61190,-125,4,2,18,80,0,0
61210,-125,4,2,0,80,0,0
61652,-125,4,2,16,80,0,0
61671,-125,4,2,0,80,0,0
62113,-125,4,2,15,80,0,0
62133,-125,4,2,0,80,0,0
62575,-125,4,2,13,80,0,0
62594,-125,4,2,0,80,0,0
62882,-125,4,2,19,80,0,0
62902,-125,4,2,0,80,0,0
63190,-125,4,2,19,80,0,0
63210,-125,4,2,0,80,0,0
63652,-125,4,2,18,80,0,0
63671,-125,4,2,0,80,0,0
64113,-125,4,2,19,80,0,0
64133,-125,4,2,0,80,0,0
64575,-125,4,2,18,80,0,0
64594,-125,4,2,0,80,0,0
65036,-125,4,2,17,80,0,0
65056,-125,4,2,0,80,0,0
65344,-125,4,2,20,75,0,0
65498,-125,4,2,20,40,0,0
65652,-125,4,2,14,40,0,0
66114,-125,4,2,14,40,0,0
66575,-125,4,2,15,40,0,0
67037,-125,4,2,16,40,0,0
67498,-125,4,2,17,40,0,0
67806,-125,4,2,14,40,0,0
68114,-125,4,2,13,40,0,0
68575,-125,4,2,14,40,0,0
68729,-125,4,2,20,40,0,0
69036,-125,4,2,20,40,0,0
69037,-125,4,2,13,40,0,0
69498,-125,4,2,16,40,0,0
69652,-125,4,2,20,40,0,0
69960,-125,4,2,18,40,0,0
70267,-125,4,2,19,40,0,0
70575,-125,4,2,19,40,0,0
71037,-125,4,2,18,40,0,0
71498,-125,4,2,16,40,0,0
71960,-125,4,2,16,40,0,0
72421,-125,4,2,13,40,0,0
72729,-125,4,2,19,40,0,0
73037,-125,4,2,19,40,0,0
73498,-125,4,2,18,40,0,0
73959,-125,4,1,22,60,0,0
74190,-125,4,1,22,60,0,0
74421,-125,4,1,22,60,0,0
74575,-100,4,1,50,60,0,0
77498,-100,4,1,50,60,0,0
80113,-100,4,1,50,60,0,0
85036,-100,4,1,50,60,0,0
85344,-100,4,1,30,60,0,0
87498,-100,4,1,30,60,0,0
90729,-100,4,1,30,60,0,0
93652,-125,4,1,98,60,0,0
93959,-125,4,2,0,60,0,0
94267,-125,4,1,22,60,0,0
94882,-100,4,1,60,60,0,0
94959,-100,4,1,61,60,0,0
95652,-100,4,1,61,60,0,0
96113,-100,4,1,61,60,0,0
96575,-100,4,1,61,60,0,0
97036,-100,4,1,61,60,0,0
97344,-100,4,1,61,60,0,0
97652,-100,4,1,61,60,0,0
98113,-100,4,1,61,60,0,0
99190,-100,4,1,61,60,0,0
99498,-100,4,1,61,60,0,0
99805,-100,4,1,61,60,0,0
100113,-100,4,1,61,60,0,0
100575,-100,4,1,61,60,0,0
100729,-100,4,1,61,60,0,0
101036,-100,4,1,61,60,0,0
101498,-100,4,1,61,60,0,0
102113,-100,4,1,61,60,0,0
102267,-100,4,1,61,60,0,0
104729,-100,4,1,60,60,0,0
104805,-100,4,1,60,60,0,0
104882,-100,4,1,61,60,0,0
105036,-100,4,1,61,60,0,0
105190,-100,4,1,61,61,0,0
105344,-100,4,1,61,60,0,0
105498,-100,4,1,61,60,0,0
105652,-100,4,1,61,60,0,0
105959,-100,4,1,61,60,0,0
106421,-100,4,1,61,60,0,0
106882,-100,4,1,61,60,0,0
107190,-100,4,1,61,60,0,0
107498,-100,4,1,61,60,0,0
107652,-100,4,1,61,61,0,0
108113,-100,4,1,61,60,0,0
108882,-100,4,1,61,60,0,0
109036,-100,4,1,61,60,0,0
109344,-100,4,1,61,60,0,0
109652,-100,4,1,61,60,0,0
110267,-100,4,1,61,60,0,0
110575,-100,4,1,61,60,0,0
110882,-100,4,1,61,60,0,0
111344,-100,4,1,61,60,0,0
111959,-100,4,1,61,60,0,0
112729,-100,4,1,61,61,0,0
113190,-100,4,1,5,60,0,0
113344,-100,4,1,22,60,0,0
114575,-100,4,1,60,60,0,0
114652,-100,4,1,61,60,0,0
114882,-100,4,1,61,60,0,0
115190,-100,4,1,61,60,0,0
118882,-100,4,1,61,60,0,0
119498,-100,4,1,61,60,0,0
120421,-100,4,1,61,60,0,0
120729,-100,4,1,61,60,0,0
121652,-100,4,1,61,60,0,0
121959,-100,4,1,61,60,0,0
123190,-100,4,1,61,60,0,0
123652,-100,4,1,61,60,0,0
124729,-100,4,1,61,60,0,0
125036,-100,4,1,61,60,0,0
127805,-100,4,1,61,60,0,0
128113,-100,4,1,61,60,0,0
129652,-100,4,1,61,60,0,0
129959,-100,4,1,61,60,0,0
131498,-100,4,1,61,60,0,0
131805,-100,4,1,61,60,0,0
133036,-100,4,1,98,70,0,0
134267,-125,4,2,34,40,0,0
142882,-125,4,1,70,60,0,0
143498,-100,4,1,22,60,0,0
144113,-100,4,2,35,65,0,0
149036,-100,4,2,35,65,0,0
149344,-100,4,2,35,65,0,0
149421,-100,4,2,35,10,0,0
149498,-100,4,2,35,65,0,0
150036,-100,4,2,35,10,0,0
150113,-100,4,2,35,65,0,0
150267,-100,4,2,35,65,0,0
150575,-100,4,2,35,65,0,0
150652,-100,4,2,35,10,0,0
150729,-100,4,2,35,65,0,0
151190,-100,4,2,35,65,0,0
151267,-100,4,2,35,10,0,0
151344,-100,4,2,35,65,0,0
151498,-100,4,2,35,65,0,0
151805,-100,4,2,35,65,0,0
151882,-100,4,2,35,10,0,0
151959,-100,4,2,35,65,0,0
152498,-100,4,2,35,10,0,0
152575,-100,4,2,35,65,0,0
152729,-125,4,2,5,60,0,0
153882,-100,4,1,98,80,0,0
155190,-133.333333333333,4,2,20,30,0,0
155267,-133.333333333333,4,2,0,60,0,0
159805,-133.333333333333,4,2,5,60,0,0
160421,-133.333333333333,4,2,5,60,0,0
163805,-133.333333333333,4,2,5,60,0,0
165036,-111.111111111111,4,2,20,20,0,0
165113,-111.111111111111,4,2,0,60,0,0
165498,-111.111111111111,4,1,5,60,0,0
166267,-111.111111111111,4,1,5,60,0,0
166729,-111.111111111111,4,1,5,60,0,0
167036,-111.111111111111,4,1,5,60,0,0
167652,-111.111111111111,4,1,5,60,0,0
168729,-111.111111111111,4,1,5,60,0,0
174421,-111.111111111111,4,1,61,60,0,0
174882,-100,4,1,70,60,0,0
179805,-100,4,1,70,60,0,0
183498,-111.111111111111,4,1,98,80,0,0
183959,-111.111111111111,4,1,22,60,0,0
184729,-100,4,1,60,60,0,0
184805,-100,4,1,61,60,0,0
185498,-100,4,1,61,60,0,0
185959,-100,4,1,61,60,0,0
186344,-100,4,1,61,60,0,0
186882,-100,4,1,61,60,0,0
187190,-100,4,1,61,60,0,0
187498,-100,4,1,61,60,0,0
188729,-100,4,1,61,60,0,0
189036,-100,4,1,61,60,0,0
189344,-100,4,1,61,60,0,0
189652,-100,4,1,61,60,0,0
189959,-100,4,1,61,60,0,0
190421,-100,4,1,61,60,0,0
190882,-100,4,1,61,60,0,0
191344,-100,4,1,61,60,0,0
192113,-100,4,1,61,60,0,0
194575,-100,4,1,60,60,0,0
194652,-100,4,1,60,60,0,0
194729,-100,4,1,61,60,0,0
195344,-100,4,1,61,60,0,0
195805,-100,4,1,61,60,0,0
196267,-100,4,1,61,60,0,0
196729,-100,4,1,61,60,0,0
197036,-100,4,1,61,60,0,0
197959,-100,4,1,61,60,0,0
199190,-100,4,1,61,60,0,0
199498,-100,4,1,61,60,0,0
199805,-100,4,1,61,60,0,0
200113,-100,4,1,61,60,0,0
200729,-100,4,1,61,60,0,0
201190,-100,4,1,61,60,0,0
201959,-100,4,1,61,60,0,0
202882,-100,4,1,61,60,0,0
203036,-100,4,1,22,60,0,0
203344,-100,4,1,22,60,0,0
204421,-100,4,1,60,60,0,0
204498,-100,4,1,61,60,0,0
204729,-100,4,1,61,60,0,0
205036,-100,4,1,61,60,0,0
208729,-100,4,1,61,60,0,0
209036,-100,4,1,61,60,0,0
210267,-100,4,1,61,60,0,0
210575,-100,4,1,61,60,0,0
216882,-100,4,1,61,60,0,0
217113,-100,4,1,61,60,0,0
217498,-100,4,1,61,60,0,0
217652,-100,4,1,61,60,0,0
217959,-100,4,1,61,60,0,0
219267,-100,4,1,61,30,0,0
219498,-100,4,1,61,60,0,0
219575,-100,4,1,61,30,0,0
219805,-100,4,1,61,60,0,0
219882,-100,4,1,61,30,0,0
220113,-100,4,1,61,60,0,0
220190,-100,4,1,61,30,0,0
220421,-100,4,1,61,60,0,0
220498,-100,4,1,61,30,0,0
220729,-100,4,1,61,60,0,0
220805,-100,4,1,61,30,0,0
221036,-100,4,1,61,70,0,0
221344,-100,4,1,61,60,0,0
221652,-100,4,1,61,60,0,0
222882,-100,4,1,98,60,0,0
224113,-125,4,2,21,40,0,0
232729,-125,4,1,31,20,0,0
233344,-100,4,1,31,12,0,0
233959,-100,4,1,32,40,0,0
237652,-100,4,1,32,40,0,0
238267,-100,4,1,22,40,0,0
238882,-100,4,1,33,30,0,0
241344,-100,4,1,33,40,0,0
242575,-100,4,1,31,30,0,0
243805,-100,4,1,99,80,0,0

[Colours]
Combo1 : 193,255,132
Combo2 : 255,121,57
Combo3 : 0,227,227
Combo4 : 155,55,255
Combo5 : 255,115,255
Combo6 : 100,177,255
SliderBorder : 80,80,80

[HitObjects]
40,228,114,6,0,L|32:132,1,80,6|12,0:0|0:0,0:0:0:0:
112,168,729,1,6,0:0:0:0:
192,188,1037,2,0,L|184:92,2,80,12|6|12,0:0|0:0|0:0,0:0:0:0:
236,256,1960,1,6,0:0:0:0:
316,273,2267,1,12,0:0:0:0:
384,228,2575,6,0,P|399:196|387:140,1,80,6|12,0:0|0:0,0:0:0:0:
356,84,3190,1,6,0:0:0:0:
276,96,3498,2,0,L|196:108,2,80,12|6|12,0:0|0:0|0:0,0:0:0:0:
268,16,4421,6,0,L|212:24,2,40,4|4|12,0:0|0:0|0:0,0:0:0:0:
344,40,5037,6,0,B|372:80|364:132|332:160|332:160|316:240,1,200,4|12,0:0|0:0,0:0:0:0:
160,256,6267,2,0,L|194:106,2,150,4|12|12,0:0|0:0|0:0,0:0:0:0:
144,336,7498,6,0,P|228:372|332:316,1,200,4|12,0:0|0:0,0:0:0:0:
444,364,8729,2,0,B|500:268|364:240|420:128,1,240,6|10,0:0|2:1,0:0:0:0:
368,76,9960,6,0,L|333:25,2,50,4|0|8,0:0|0:0|0:0,0:0:0:0:
304,122,10575,2,0,L|251:90,2,50,4|0|8,0:0|0:0|0:0,0:0:0:0:
253,185,11190,2,0,L|192:177,2,50,4|0|8,0:0|0:0|0:0,0:0:0:0:
224,260,11806,2,0,L|166:277,2,50,4|0|8,0:0|0:0|0:0,0:0:0:0:
280,316,12421,6,0,P|283:350|268:383,2,50,4|0|8,0:0|0:0|0:0,0:0:0:0:
355,290,13037,2,0,P|377:315|385:351,2,50,4|0|8,0:0|0:0|0:0,0:0:0:0:
401,224,13652,2,0,P|434:231|461:255,2,50,4|0|8,0:0|0:0|0:0,0:0:0:0:
388,144,14267,6,0,L|376:56,1,80,4|8,0:0|0:0,0:0:0:0:
300,48,14883,6,0,L|216:88,6,50,6|2|8|6|0|2|8,0:0|0:0|0:0|0:0|0:0|0:0|0:0,0:0:0:0:
377,64,16114,6,0,L|461:24,6,50,6|2|8|6|0|2|8,0:0|0:0|0:0|0:0|0:0|0:0|0:0,0:0:0:0:
332,128,17344,6,0,L|248:168,6,50,6|2|8|14|0|2|8,0:0|0:0|0:0|0:0|0:0|0:0|0:0,0:0:0:0:
412,144,18575,6,0,B|504:96|504:96|488:216|488:216|408:248,1,300,4|0,0:0|0:0,0:0:0:0:
344,268,19806,5,14,0:0:0:0:
8,192,24729,6,0,L|256:192,1,240,6|14,0:0|0:0,0:0:0:0:
328,192,25960,2,0,L|500:192,2,160,14|2|14,0:0|0:0|0:0,0:0:0:0:
168,192,27806,1,4,0:0:0:0:
8,192,28421,1,14,0:0:0:0:
168,192,29037,2,0,L|260:192,1,80,4|10,0:0|0:0,0:0:0:0:
328,192,29652,6,0,L|500:192,2,160,14|0|14,0:0|0:0|0:0,0:0:0:0:
8,192,32114,6,0,L|64:192,1,40,14|14,0:0|0:0,0:0:0:0:
168,192,32729,2,0,L|224:192,2,40,6|14|14,0:0|0:0|0:0,0:0:0:0:
256,192,33344,12,6,34575,2:0:0:0:
92,280,35806,6,0,B|120:288|192:264|196:164|128:108|128:108|216:64,1,320,4|2,0:0|0:0,0:0:0:0:
512,148,38267,2,0,B|484:140|412:164|408:264|476:320|476:320|388:364,1,320,4|6,0:0|0:0,0:0:0:0:
104,232,40729,6,0,B|136:248|212:244|244:176,1,160,4|8,0:0|0:0,0:0:0:0:
368,280,41960,2,0,B|336:264|260:268|228:336,1,160,4|8,0:0|0:0,0:0:0:0:
164,184,43190,2,0,B|197:172|248:116|223:45,1,160,4|12,0:0|0:0,0:0:0:0:
92,140,44421,6,0,P|76:180|88:224,1,80,4|8,1:2|0:0,0:0:0:0:
196,328,45344,1,12,0:0:0:0:
268,292,45652,2,0,L|352:256,1,80,4|8,0:0|0:0,0:0:0:0:
452,144,46575,1,12,0:0:0:0:
440,64,46883,6,0,P|399:78|374:117,1,80,4|8,2:2|0:0,0:0:0:0:
341,260,47806,1,12,0:0:0:0:
268,292,48114,2,0,L|176:328,1,80,4|8,0:0|0:0,0:0:0:0:
116,340,48729,2,0,P|76:332|48:305,1,80,8|12,0:0|0:0,0:0:0:0:
20,232,49344,6,0,L|-4:148,1,80,4|8,0:0|0:0,0:0:0:0:
140,76,50267,1,12,0:0:0:0:
212,44,50575,2,0,P|218:84|203:120,1,80,4|8,0:0|0:0,0:0:0:0:
256,272,51498,1,12,0:0:0:0:
332,252,51806,6,0,L|416:232,1,80,4|8,0:0|0:0,0:0:0:0:
464,84,52729,1,12,0:0:0:0:
392,116,53037,2,0,P|351:122|315:107,1,80,4|8,0:0|0:0,0:0:0:0:
248,64,53652,2,0,L|164:84,1,80,8|12,0:0|0:0,0:0:0:0:
92,100,54267,5,14,0:0:0:0:
92,100,55498,5,2,2:1:0:0:
172,112,55806,2,0,L|308:136,1,120,2|2,2:1|2:1,0:0:0:0:
304,252,56729,2,0,L|185:231,2,120,2|2|2,2:1|2:1|2:1,0:0:0:0:
364,304,57960,5,2,2:1:0:0:
444,296,58267,2,0,B|467:264|493:257|493:257|504:188,1,120,2|2,2:1|2:1,0:0:0:0:
452,92,59190,2,0,B|428:123|402:130|402:130|392:200,2,120,2|2|2,2:1|2:1|2:1,0:0:0:0:
380,52,60421,5,2,2:1:0:0:
324,108,60729,2,0,L|304:232,1,120,2|2,2:1|2:1,0:0:0:0:
188,248,61652,2,0,L|207:129,2,120,2|2|2,2:1|2:1|2:1,0:0:0:0:
148,316,62883,5,2,2:1:0:0:
92,372,63190,2,0,P|69:316|104:252,1,120,2|2,2:1|2:1,0:0:0:0:
168,168,64114,2,0,P|190:112|156:48,2,120,2|2|2,2:1|2:1|2:1,0:0:0:0:
112,112,65344,6,0,L|28:128,1,80,4|2,0:0|2:1,0:0:0:0:
28,208,65960,2,0,B|96:196|96:196|108:224|128:240|148:248|176:244,1,160,0|2,0:0|2:1,0:0:0:0:
244,228,66883,1,0,0:0:0:0:
272,152,67190,1,0,0:0:0:0:
400,248,67806,6,0,P|434:252|485:225,1,80,2|2,2:1|2:1,0:0:0:0:
424,172,68421,2,0,L|436:88,1,80,0|0,0:0|0:0,0:0:0:0:
360,68,69037,2,0,L|340:192,2,120,2|2|2,2:1|2:1|2:1,0:0:0:0:
280,64,70267,6,0,P|247:53|192:68,1,80,2|2,2:1|2:1,0:0:0:0:
236,136,70883,2,0,P|183:169|150:262,1,160,0|2,0:0|2:1,0:0:0:0:
172,336,71806,1,0,0:0:0:0:
243,376,72114,1,0,0:0:0:0:
304,228,72729,6,0,P|286:199|291:142,1,80,2|2,2:1|2:1,0:0:0:0:
344,100,73344,2,0,L|364:180,1,80,0|0,0:0|0:0,0:0:0:0:
444,172,73960,6,0,P|434:216|368:259,2,120,4|12|0,0:0|0:0|0:0,0:0:0:0:
364,178,75190,6,0,P|312:162|224:194,1,150,14|4,0:0|0:0,0:0:0:0:
164,296,76114,2,0,P|216:312|304:280,1,150,4|4,0:0|0:0,0:0:0:0:
364,178,77037,6,0,L|352:10,1,150,4|4,0:0|0:0,0:0:0:0:
236,60,77960,2,0,L|246:210,1,150,4|4,0:0|0:0,0:0:0:0:
252,328,78883,6,0,P|213:290|120:279,1,150,4|4,0:0|0:0,0:0:0:0:
32,200,79806,1,4,0:0:0:0:
52,124,80114,6,0,L|80:12,1,100,6|4,1:0|1:0,0:0:0:0:
148,60,80729,2,0,P|171:34|240:24,1,100,4|4,1:0|1:0,0:0:0:0:
216,100,81344,6,0,P|247:113|278:176,1,100,4|4,1:0|1:0,0:0:0:0:
200,180,81960,2,0,L|175:277,1,100,4|4,1:0|1:0,0:0:0:0:
160,356,82575,6,0,P|194:356|248:311,1,100,4|4,1:0|1:0,0:0:0:0:
324,304,83190,2,0,L|348:206,1,100,4|4,1:0|1:0,0:0:0:0:
428,216,83806,6,0,L|468:52,2,150,4|14|4,1:0|1:0|1:0,0:0:0:0:
400,292,85037,6,0,P|328:332|220:292,1,200,12|8,0:0|0:0,0:0:0:0:
164,240,85960,1,8,0:0:0:0:
192,164,86267,6,0,P|120:124|12:164,1,200,8|8,0:0|0:0,0:0:0:0:
28,240,87190,1,8,0:0:0:0:
52,316,87498,6,0,P|124:356|232:316,1,200,8|8,0:0|0:0,0:0:0:0:
268,252,88421,1,8,0:0:0:0:
248,176,88729,2,0,L|224:72,2,100,8|8|8,0:0|0:0|0:0,0:0:0:0:
304,324,89960,6,0,P|224:268|130:290,1,200,4|8,0:0|0:0,0:0:0:0:
40,160,91190,2,0,L|240:120,1,200,4|8,0:0|0:0,0:0:0:0:
392,92,92421,6,0,L|456:80,8,50,4|0|8|0|4|0|8|0|12,0:0|0:0|0:0|0:0|0:0|0:0|0:0|0:0|0:0,0:0:0:0:
204,352,94883,6,0,L|-8:352,1,200,6|4,0:0|0:0,0:0:0:0:
20,272,95806,1,8,0:0:0:0:
100,272,96114,2,0,L|252:272,2,150,6|2|10,0:0|0:0|0:0,0:0:0:0:
60,200,97344,6,0,L|60:96,1,100,6|8,0:0|0:0,0:0:0:0:
208,40,98267,1,8,0:0:0:0:
256,104,98575,2,0,L|256:216,1,100,6|8,0:0|0:0,0:0:0:0:
256,284,99190,1,6,0:0:0:0:
336,284,99498,1,10,0:0:0:0:
416,284,99806,6,0,L|416:168,1,100,6|10,0:0|0:0,0:0:0:0:
416,24,100729,1,8,0:0:0:0:
348,68,101037,6,0,P|252:92|156:68,1,200,6|4,0:0|0:0,0:0:0:0:
88,24,101960,1,8,0:0:0:0:
12,48,102267,6,0,L|12:164,1,100,4|8,0:0|0:0,0:0:0:0:
52,216,102883,1,6,0:0:0:0:
212,216,103498,1,4,0:0:0:0:
292,216,103806,1,8,0:0:0:0:
372,216,104114,1,4,0:0:0:0:
496,112,104729,6,0,B|496:32|496:32|372:32,1,200,2|4,0:0|0:0,0:0:0:0:
296,32,105652,1,8,0:0:0:0:
296,112,105960,2,0,L|296:280,2,150,6|2|10,0:0|0:0|0:0,0:0:0:0:
216,112,107190,6,0,L|116:112,1,100,4|8,0:0|0:0,0:0:0:0:
20,240,108114,1,10,0:0:0:0:
56,312,108421,2,0,L|224:312,1,150,6|2,0:0|0:0,0:0:0:0:
252,200,109344,1,10,0:0:0:0:
252,120,109652,6,0,B|252:72|252:72|316:72,1,100,6|10,0:0|0:0,0:0:0:0:
464,72,110575,1,8,0:0:0:0:
464,152,110883,6,0,L|464:352,1,200,6|4,0:0|0:0,0:0:0:0:
384,352,111806,1,8,0:0:0:0:
384,272,112114,6,0,L|384:164,1,100,4|10,0:0|0:0,0:0:0:0:
304,176,112729,2,0,L|304:76,1,100,6|10,0:0|0:0,0:0:0:0:
232,40,113344,1,4,0:0:0:0:
152,40,113652,1,8,0:0:0:0:
152,120,113960,1,4,0:0:0:0:
296,188,114575,6,0,B|280:236|308:272|308:272|288:348,2,150,4|0|8,0:0|0:0|0:0,0:0:0:0:
368,220,115806,2,0,B|384:172|356:136|356:136|376:60,1,150,4|0,0:0|0:0,0:0:0:0:
256,116,116729,1,8,0:0:0:0:
180,136,117037,6,0,L|20:172,1,150,4|0,0:0|0:0,0:0:0:0:
116,256,117960,1,8,0:0:0:0:
172,312,118267,2,0,L|12:348,2,150,4|0|8,0:0|0:0|0:0,0:0:0:0:
252,296,119498,6,0,P|304:276|340:184,1,150,4|0,0:0|0:0,0:0:0:0:
332,76,120421,1,8,0:0:0:0:
260,44,120729,2,0,L|228:200,2,150,4|0|8,0:0|0:0|0:0,0:0:0:0:
332,76,121960,5,4,0:0:0:0:
320,156,122267,2,0,L|300:256,1,100,8|0,0:0|0:0,0:0:0:0:
224,276,122883,1,8,0:0:0:0:
156,316,123190,6,0,P|147:260|208:196,2,150,6|2|10,0:0|0:0|0:0,0:0:0:0:
224,276,124421,6,0,P|293:286|376:256,1,150,4|0,0:0|0:0,0:0:0:0:
444,168,125344,1,8,0:0:0:0:
384,116,125652,2,0,P|314:105|232:136,2,150,4|2|10,0:0|0:0|0:0,0:0:0:0:
444,168,126883,6,0,L|464:336,1,150,4|0,0:0|0:0,0:0:0:0:
368,240,127806,1,8,0:0:0:0:
292,212,128114,2,0,L|309:360,2,150,4|0|8,0:0|0:0|0:0,0:0:0:0:
280,132,129344,5,4,0:0:0:0:
356,108,129652,2,0,P|333:75|216:84,1,150,8|0,0:0|0:0,0:0:0:0:
168,172,130575,2,0,P|191:205|308:196,2,150,4|0|8,0:0|0:0|0:0,0:0:0:0:
128,104,131806,5,4,0:0:0:0:
52,132,132114,2,0,L|16:288,1,150,8|0,0:0|0:0,0:0:0:0:
124,332,133037,5,12,0:0:0:0:
124,332,134267,6,0,B|228:372|228:264|360:300,1,240,6|0,1:2|1:0,0:0:0:0:
424,336,135498,2,0,L|416:168,1,160,0|0,1:0|1:2,0:0:0:0:
312,56,136729,6,0,P|236:24|48:148,1,320,4|12,1:2|1:2,0:0:0:0:
116,188,138267,2,0,L|204:208,2,80,0|4|8,1:0|1:2|0:0,0:0:0:0:
50,138,139190,6,0,B|20:172|28:244|76:264|100:272|100:272|114:342,1,240,12|8,1:2|1:2,0:0:0:0:
192,328,140421,2,0,B|178:257|178:257|198:241|235:204|215:135|174:114,1,240,4|8,1:2|1:2,0:0:0:0:
96,104,141652,6,0,P|104:80|224:52,1,160,4|12,1:2|1:2,0:0:0:0:
276,108,142575,1,12,1:2:0:0:
288,188,142883,6,8,L|304:320,2,120,4|8|4,0:0|0:0|0:0,0:0:0:0:
208,188,144114,6,0,L|220:292,1,100,4|8,1:2|1:2,0:0:0:0:
364,356,145037,1,8,1:2:0:0:
428,308,145344,6,0,P|436:256|416:212,1,100,4|8,1:2|1:2,0:0:0:0:
300,104,146267,1,8,1:2:0:0:
224,128,146575,6,0,L|116:156,1,100,4|8,1:2|1:2,0:0:0:0:
28,280,147498,1,8,1:2:0:0:
80,340,147806,6,0,P|112:364|172:360,1,100,4|8,1:2|1:2,0:0:0:0:
232,308,148421,2,0,P|200:284|140:288,1,100,12|8,1:2|1:2,0:0:0:0:
80,340,149037,6,0,L|64:240,1,100,4|8,1:2|1:2,0:0:0:0:
152,108,149960,1,8,1:2:0:0:
168,28,150267,6,0,P|212:50|232:95,1,100,4|8,1:2|1:2,0:0:0:0:
284,244,151190,1,8,1:2:0:0:
364,248,151498,6,0,L|476:256,1,100,4|8,1:2|1:2,0:0:0:0:
464,96,152421,1,8,1:2:0:0:
384,104,152729,6,0,B|272:140|216:36|64:84,1,320,2|12,0:0|0:0,0:0:0:0:
324,320,155190,6,0,B|391:340|420:279|420:279|388:215|317:237,1,225.000008583069,4|0,0:0|0:0,0:0:0:0:
260,272,156421,2,0,P|252:248|288:168,2,112.500004291535,0|2|0,0:0|0:0|0:0,0:0:0:0:
284,352,157652,6,0,L|60:332,1,225.000008583069,0|0,0:0|0:0,0:0:0:0:
8,276,158883,1,0,0:0:0:0:
200,160,159806,6,0,P|232:144|256:96,1,75.0000028610231,2|2,0:1|0:1,0:0:0:0:
392,172,160729,1,2,0:0:0:0:
260,240,161344,2,0,P|196:208|112:224,1,150.000005722046,2|2,0:1|0:0,0:0:0:0:
172,360,162575,1,2,0:1:0:0:
260,240,163190,1,2,0:0:0:0:
208,100,163806,2,0,L|440:80,1,225.000008583069,2|0,0:0|0:0,0:0:0:0:
488,140,165037,6,0,P|500:184|488:236,1,89.9999972534181,4|6,0:0|0:0,0:0:0:0:
372,336,165960,1,2,2:0:0:0:
348,260,166267,2,0,L|316:112,2,134.999995880127,2|2|2,2:1|2:1|2:1,0:0:0:0:
372,336,167498,6,0,B|334:349|293:337|268:283|268:283|245:229|191:218|164:231|133:254,1,269.999991760254,4|2,1:0|2:1,0:0:0:0:
192,312,168729,1,2,2:1:0:0:
364,68,169960,6,0,L|208:80,2,134.999995880127,2|2|2,2:1|2:1|2:1,0:0:0:0:
392,144,171190,2,0,P|420:124|432:28,2,134.999995880127,2|2|2,2:1|2:1|2:1,0:0:0:0:
316,168,172421,5,2,2:1:0:0:
236,176,172729,2,0,L|84:192,1,134.999995880127,2|2,2:1|2:1,0:0:0:0:
172,292,173652,2,0,L|306:277,2,134.999995880127,2|2|8,2:1|2:1|2:1,0:0:0:0:
104,332,174883,6,0,B|84:280|116:240|116:240|96:168,1,150,12|12,0:0|0:0,0:0:0:0:
220,208,175806,2,0,B|240:260|208:300|208:300|228:372,1,150,12|12,0:0|0:0,0:0:0:0:
328,296,176729,2,0,P|336:232|324:184,1,100,12|12,0:0|0:0,0:0:0:0:
272,140,177344,6,0,L|120:104,1,150,12|12,0:0|0:0,0:0:0:0:
80,216,178267,2,0,L|232:252,1,150,12|12,0:0|0:0,0:0:0:0:
344,280,179190,2,0,P|396:260|424:208,1,100,12|8,0:0|0:0,0:0:0:0:
344,200,179806,6,0,L|324:48,3,150,12|12|12|12,0:0|0:0|0:0|0:0,0:0:0:0:
220,108,181652,2,0,L|104:120,1,100,12|12,0:0|0:0,0:0:0:0:
68,176,182267,6,0,L|4:184,8,50,4|4|4|4|4|4|4|4|12,0:0|0:0|0:0|0:0|0:0|0:0|0:0|0:0|0:0,0:0:0:0:
344,340,184729,6,0,B|476:340|476:340|476:252,1,200,6|4,0:0|0:0,0:0:0:0:
476,192,185652,1,8,0:0:0:0:
396,192,185960,2,0,L|396:36,2,150,6|2|8,0:0|0:0|0:0,0:0:0:0:
316,192,187190,6,0,L|206:193,1,100,6|8,0:0|0:0,0:0:0:0:
88,288,188114,1,8,0:0:0:0:
156,332,188421,2,0,L|272:332,1,100,6|8,0:0|0:0,0:0:0:0:
404,276,189344,1,10,0:0:0:0:
404,196,189652,6,0,L|404:92,1,100,6|10,0:0|0:0,0:0:0:0:
256,152,190575,1,8,0:0:0:0:
176,152,190883,6,0,L|176:356,1,200,6|4,0:0|0:0,0:0:0:0:
256,352,191806,1,8,0:0:0:0:
336,352,192114,6,0,L|336:244,1,100,4|8,0:0|0:0,0:0:0:0:
336,172,192729,1,6,0:0:0:0:
176,172,193344,1,4,0:0:0:0:
176,92,193652,1,8,0:0:0:0:
96,92,193960,1,4,0:0:0:0:
96,252,194575,6,0,B|216:251|216:251|216:160,1,200,2|4,0:0|0:0,0:0:0:0:
296,172,195498,1,8,0:0:0:0:
376,172,195806,2,0,L|376:336,2,150,4|0|10,0:0|0:0|0:0,0:0:0:0:
456,172,197037,6,0,L|456:64,1,100,4|8,0:0|0:0,0:0:0:0:
304,124,197960,1,10,0:0:0:0:
304,204,198267,2,0,L|304:356,1,150,6|2,0:0|0:0,0:0:0:0:
184,352,199190,1,10,0:0:0:0:
184,272,199498,6,0,L|184:156,1,100,6|8,0:0|0:0,0:0:0:0:
256,28,200421,1,8,0:0:0:0:
328,64,200729,6,0,L|328:276,1,200,6|4,0:0|0:0,0:0:0:0:
256,300,201652,1,8,0:0:0:0:
184,264,201960,6,0,L|184:160,1,100,6|8,0:0|0:0,0:0:0:0:
104,164,202575,2,0,L|104:60,1,100,4|8,0:0|0:0,0:0:0:0:
184,64,203190,1,0,0:0:0:0:
264,64,203498,1,8,0:0:0:0:
264,144,203806,1,4,0:0:0:0:
264,304,204421,6,0,P|339:310|407:271,2,150,4|0|4,0:0|0:0|0:0,0:0:0:0:
188,284,205652,2,0,B|36:240,1,150,4|2,0:0|0:0,0:0:0:0:
96,136,206575,1,10,0:0:0:0:
172,164,206883,6,0,P|247:170|315:131,1,150,4|0,0:0|0:0,0:0:0:0:
396,52,207806,1,10,0:0:0:0:
464,96,208114,2,0,L|472:256,2,150,6|0|8,0:0|0:0|0:0,0:0:0:0:
396,52,209344,6,0,P|345:47|292:83,1,100,6|8,0:0|0:0,0:0:0:0:
252,132,209960,1,6,0:0:0:0:
228,292,210575,2,0,L|80:324,2,150,6|0|8,0:0|0:0|0:0,0:0:0:0:
304,272,211806,5,4,0:0:0:0:
380,252,212114,2,0,P|454:261|513:314,2,150,8|0|0,0:0|0:0|0:0,0:0:0:0:
264,288,213498,2,0,P|225:255|236:160,1,150,0|8,0:0|0:0,0:0:0:0:
292,216,214267,6,0,L|308:64,2,150,6|2|4,0:0|0:0|0:0,0:0:0:0:
212,212,215498,2,0,L|52:240,1,150,10|0,0:0|0:0,0:0:0:0:
100,124,216421,1,10,0:0:0:0:
48,64,216729,6,0,P|95:45|154:66,1,100,6|8,0:0|0:0,0:0:0:0:
184,124,217344,2,0,L|296:104,1,100,4|10,0:0|0:0,0:0:0:0:
336,168,217960,2,0,L|508:144,2,150,4|0|8,0:0|0:0|0:0,0:0:0:0:
296,240,219190,5,4,0:0:0:0:
348,304,219498,2,0,P|311:320|220:264,1,150,12|0,0:0|0:0,0:0:0:0:
172,160,220421,6,0,L|181:60,2,100,4|12|4,0:0|0:0|0:0,0:0:0:0:
112,216,221344,1,8,0:0:0:0:
109,298,221652,1,4,0:0:0:0:
164,358,221960,2,0,P|220:366|284:291,1,150,8|0,0:0|0:0,0:0:0:0:
296,184,222883,5,12,0:0:0:0:
296,184,224114,6,0,L|288:88,1,80,6|8,0:0|0:0,0:0:0:0:
215,136,224729,1,4,0:0:0:0:
140,164,225037,2,0,L|132:68,2,80,8|6|8,0:0|0:0|0:0,0:0:0:0:
92,228,225960,1,4,0:0:0:0:
104,308,226267,1,8,0:0:0:0:
169,356,226575,6,0,P|204:352|246:314,1,80,6|8,0:0|0:0,0:0:0:0:
272,252,227190,1,4,0:0:0:0:
352,240,227498,2,0,L|432:228,2,80,8|6|8,0:0|0:0|0:0,0:0:0:0:
272,252,228421,2,0,P|238:239|207:191,1,80,4|8,0:0|0:0,0:0:0:0:
144,164,229037,6,0,L|152:68,1,80,6|8,0:0|0:0,0:0:0:0:
80,44,229652,1,4,0:0:0:0:
68,124,229960,2,0,L|60:212,2,80,8|6|8,0:0|0:0|0:0,0:0:0:0:
80,44,230883,1,4,0:0:0:0:
150,84,231190,1,8,0:0:0:0:
220,124,231498,6,0,L|316:116,1,80,6|8,0:0|0:0,0:0:0:0:
372,156,232114,2,0,P|412:151|460:172,1,80,4|8,0:0|0:0,0:0:0:0:
404,232,232729,2,0,B|315:295|271:163|166:232,1,240,6|10,0:1|2:1,0:0:0:0:
112,272,233960,6,0,L|57:298,2,50,4|0|8,0:0|0:0|0:0,0:0:0:0:
60,212,234575,2,0,L|9:177,2,50,4|0|8,0:0|0:0|0:0,0:0:0:0:
85,136,235190,2,0,L|89:75,2,50,4|0|8,0:0|0:0|0:0,0:0:0:0:
163,119,235806,2,0,L|218:93,2,50,4|0|8,0:0|0:0|0:0,0:0:0:0:
216,178,236421,6,0,L|266:212,2,50,4|0|8,0:0|0:0|0:0,0:0:0:0:
184,252,237037,2,0,L|234:286,2,50,4|0|8,0:0|0:0|0:0,0:0:0:0:
152,326,237652,2,0,L|202:360,2,50,4|0|8,0:0|0:0|0:0,0:0:0:0:
84,288,238267,2,0,P|36:268|8:216,1,100,4|4,0:0|0:0,0:0:0:0:
88,204,238883,6,0,L|108:144,6,50,6|0|8|6|0|0|8,0:0|0:0|0:0|0:0|0:0|0:0|0:0,0:0:0:0:
168,216,240114,6,0,L|188:156,6,50,4|0|8|4|0|12|8,0:0|0:0|0:0|0:0|0:0|0:0|0:0,0:0:0:0:
248,224,241344,6,0,L|268:164,6,50,0|0|8|8|0|0|8,0:0|0:0|0:0|0:0|0:0|0:0|0:0,0:0:0:0:
316,264,242575,6,0,B|348:167|348:167|432:136|496:192|480:264,1,300,0|0,0:0|0:0,0:0:0:0:
456,332,243806,5,14,0:0:0:0:
