osu file format v14

[General]
AudioFilename: audio.mp3
AudioLeadIn: 0
PreviewTime: 53637
Countdown: 0
SampleSet: Soft
StackLeniency: 0.7
Mode: 0
LetterboxInBreaks: 0
WidescreenStoryboard: 1

[Editor]
Bookmarks: 18760
DistanceSpacing: 0.9
BeatDivisor: 2
GridSize: 8
TimelineZoom: 2.899999

[Metadata]
Title:Spoiler Alert
TitleUnicode:Spoiler Alert
Artist:S3RL feat DEFI BRILATOR
ArtistUnicode:S3RL feat DEFI BRILATOR
Creator:DCVLIVE
Version:Easy
Source:
Tags:electronic happy hardcore hackSL Saltssaumure
BeatmapID:1458297
BeatmapSetID:687098

[Difficulty]
HPDrainRate:1
CircleSize:2
OverallDifficulty:1
ApproachRate:2
SliderMultiplier:0.800000005960464
SliderTickRate:1

[Events]
//Background and Video events
0,0,"Saitama-One-Punch-Man-Wallpapers-11.png",0,0
//Break Periods
2,32923,49334
2,88123,98706
//Storyboard Layer 0 (Background)
//Storyboard Layer 1 (Fail)
//Storyboard Layer 2 (Pass)
//Storyboard Layer 3 (Foreground)
//Storyboard Sound Samples

[TimingPoints]
152,342.857142857143,4,2,1,100,1,0
3237,-83.3333333333333,4,2,1,100,0,0
4609,-100,4,2,1,100,0,0
56380,-100,4,2,1,100,0,1
76952,-100,4,2,1,100,0,0
100266,-100,4,2,1,60,0,0
122209,-100,4,2,1,100,0,0
150323,-100,4,2,1,5,0,0

[Colours]
Combo1 : 90,129,150
Combo2 : 235,175,52
Combo3 : 242,121,97
Combo4 : 114,83,41

[HitObjects]
336,88,1523,5,8,0:0:0:0:
389,163,1866,1,8,0:0:0:0:
338,242,2209,2,8,B|290:250|290:250|242:242,1,80.0000005960464
206,174,2894,1,8,0:0:0:0:
241,90,3237,6,8,P|289:82|345:90,1,95.9999977855682
385,156,3923,2,8,P|356:169|320:170,2,47.9999988927841
430,100,4609,1,8,0:0:0:0:
464,163,4952,1,8,0:0:0:0:
425,223,5294,1,8,0:0:0:0:
353,225,5637,2,8,B|269:225|269:225,2,80.0000005960464
256,192,7009,12,0,9752,0:0:0:0:
256,96,11123,6,0,B|320:128|320:128|360:312,1,240.000001788139
288,336,12494,5,8,0:0:0:0:
208,328,12837,1,8,0:0:0:0:
160,264,13180,2,8,P|152:216|168:168,1,80.0000005960464
232,224,13866,2,8,P|224:137|88:144,1,240.000001788139
64,208,15237,5,8,0:0:0:0:
80,288,15580,1,8,0:0:0:0:
144,336,15923,2,8,B|176:344|176:344|312:344,1,160.000001192093
368,304,16952,1,8,0:0:0:0:
408,232,17294,2,0,P|416:176|400:136,1,80.0000005960464,8|0,0:0|0:0,0:0:0:0:
344,104,17980,5,8,0:0:0:0:
272,128,18323,2,8,P|224:168|208:200,2,80.0000005960464
272,55,19352,1,8,0:0:0:0:
200,48,19694,2,8,P|128:120|96:184,1,160.000001192093
105,258,20723,6,8,P|161:234|185:202,1,80.0000005960464
235,158,21409,1,8,0:0:0:0:
235,158,21752,1,8,0:0:0:0:
256,192,23466,12,0,24837,0:0:0:0:
387,64,26209,6,8,P|398:103|386:155,1,80.0000005960464
322,195,26894,2,8,P|315:246|331:295,1,80.0000005960464
361,351,27580,2,0,B|292:360|292:360|126:310,1,240.000001788139,8|0,0:0|0:0,0:0:0:0:
256,192,28952,12,0,32723,0:0:0:0:
256,192,50894,12,0,53637,0:0:0:0:
406,65,56380,6,8,B|423:114|423:114|411:157,1,80.0000005960464
384,223,57066,1,8,0:0:0:0:
384,223,57409,1,8,0:0:0:0:
329,292,57752,6,8,P|290:226|321:155,1,160.000001192093
387,96,58780,1,8,0:0:0:0:
308,57,59123,6,8,P|254:46|209:54,1,80.0000005960464
169,112,59809,1,8,0:0:0:0:
169,112,60152,1,8,0:0:0:0:
113,180,60494,6,8,P|197:201|249:157,1,160.000001192093
280,75,61523,1,8,0:0:0:0:
335,143,61866,6,8,P|359:187|401:207,1,80.0000005960464
469,224,62552,1,8,0:0:0:0:
469,224,62894,1,8,0:0:0:0:
425,300,63237,6,8,P|329:281|255:298,1,160.000001192093
192,336,64266,1,8,0:0:0:0:
123,281,64609,6,8,P|111:226|125:188,1,80.0000005960464
143,120,65294,1,8,0:0:0:0:
143,120,65637,1,8,0:0:0:0:
208,179,65980,6,8,P|284:208|370:175,1,160.000001192093
426,132,67009,1,8,0:0:0:0:
365,68,67352,6,8,P|326:58|276:80,1,80.0000005960464
203,88,68037,1,8,0:0:0:0:
203,88,68380,1,8,0:0:0:0:
115,75,68723,6,8,B|132:176|132:176|110:265,1,160.000001192093
86,314,69752,1,8,0:0:0:0:
172,301,70094,6,8,B|225:293|225:293|272:309,1,80.0000005960464
324,348,70780,1,8,0:0:0:0:
324,348,71123,1,8,0:0:0:0:
385,284,71466,6,8,P|410:203|382:117,1,160.000001192093
315,87,72494,1,8,0:0:0:0:
243,138,72837,6,8,P|195:147|150:133,1,80.0000005960464
93,88,73523,1,8,0:0:0:0:
93,88,73866,1,8,0:0:0:0:
38,157,74209,6,8,P|14:241|53:309,1,160.000001192093
127,332,75237,1,8,0:0:0:0:
199,281,75580,2,8,P|250:271|299:286,1,80.0000005960464
348,327,76266,1,8,0:0:0:0:
348,327,76609,1,8,0:0:0:0:
256,192,78323,12,0,87923,0:0:0:0:
410,36,100266,6,0,P|425:84|419:129,1,80.0000005960464,12|0,0:0|0:0,0:0:0:0:
374,186,100952,2,0,P|369:245|388:281,1,80.0000005960464,4|0,0:0|0:0,0:0:0:0:
326,336,101637,6,0,P|265:324|227:337,1,80.0000005960464,12|4,0:0|0:0,0:0:0:0:
163,350,102323,2,0,B|141:298|141:298|154:257,1,80.0000005960464,4|0,0:0|0:0,0:0:0:0:
189,197,103009,6,0,L|114:130,2,80.0000005960464,12|0|4,0:0|0:0|0:0,0:0:0:0:
254,255,104037,1,0,0:0:0:0:
317,194,104380,6,0,B|347:161|347:161|359:113,1,80.0000005960464,12|4,0:0|0:0,0:0:0:0:
309,51,105066,2,0,B|279:84|279:84|267:132,1,80.0000005960464,4|4,0:0|0:0,0:0:0:0:
194,163,105752,6,0,L|174:68,1,80.0000005960464,12|0,0:0|0:0,0:0:0:0:
98,123,106437,2,0,L|82:215,1,80.0000005960464
134,274,107123,6,0,P|175:259|220:268,2,80.0000005960464,12|0|4,0:0|0:0|0:0,0:0:0:0:
61,324,108152,1,0,0:0:0:0:
31,241,108494,6,0,P|19:177|30:142,1,80.0000005960464,12|0,0:0|0:0,0:0:0:0:
77,95,109180,2,0,P|107:129|109:177,1,80.0000005960464,4|0,0:0|0:0,0:0:0:0:
119,250,109866,1,12,0:0:0:0:
417,62,111237,6,8,P|437:111|421:149,1,80.0000005960464
357,185,111923,2,8,P|348:244|368:284,1,80.0000005960464
429,307,112609,6,8,P|444:256|423:213,1,80.0000005960464
353,262,113294,2,8,L|268:262,1,80.0000005960464
197,307,113980,6,8,L|212:212,1,80.0000005960464
188,142,114666,2,8,B|244:150|244:150|278:135,1,80.0000005960464
232,58,115352,6,8,P|145:55|96:118,1,160.000001192093
86,192,116380,1,8,0:0:0:0:
256,192,116723,12,0,119466,0:0:0:0:
111,68,122209,6,8,P|105:128|118:164,1,80.0000005960464
169,210,122894,1,8,0:0:0:0:
169,210,123237,1,8,0:0:0:0:
233,150,123580,6,8,P|289:142|328:153,1,80.0000005960464
380,201,124266,1,8,0:0:0:0:
380,201,124609,1,8,0:0:0:0:
316,262,124952,6,8,P|260:270|221:259,1,80.0000005960464
160,307,125637,1,8,0:0:0:0:
160,307,125980,1,8,0:0:0:0:
106,236,126323,6,8,P|73:281|75:320,2,80.0000005960464
175,181,127352,1,8,0:0:0:0:
111,120,127694,6,8,P|168:95|207:102,1,80.0000005960464
257,145,128380,1,8,0:0:0:0:
257,145,128723,1,8,0:0:0:0:
323,202,129066,6,8,P|345:160|340:111,1,80.0000005960464
301,51,129752,1,8,0:0:0:0:
301,51,130094,1,8,0:0:0:0:
388,58,130437,6,8,P|437:68|482:51,1,80.0000005960464
494,143,131123,1,8,0:0:0:0:
494,143,131466,1,8,0:0:0:0:
412,177,131809,6,0,P|450:222|489:235,2,80.0000005960464,8|0|8,0:0|0:0|0:0,0:0:0:0:
396,90,132837,1,0,0:0:0:0:
333,152,133180,6,8,P|277:166|234:155,1,80.0000005960464
180,116,133866,1,8,0:0:0:0:
180,116,134209,1,8,0:0:0:0:
98,149,134552,6,8,P|83:201|98:250,1,80.0000005960464
134,299,135237,1,8,0:0:0:0:
134,299,135580,1,8,0:0:0:0:
219,276,135923,6,8,B|264:265|264:265|314:273,1,80.0000005960464
379,302,136609,1,8,0:0:0:0:
379,302,136952,1,8,0:0:0:0:
325,232,137294,6,8,B|370:217|370:217|421:224,2,80.0000005960464
248,276,138323,1,8,0:0:0:0:
172,321,138666,6,8,P|158:267|175:223,1,80.0000005960464
219,176,139352,1,8,0:0:0:0:
219,176,139694,1,8,0:0:0:0:
304,153,140037,6,8,P|275:104|232:86,1,80.0000005960464
168,82,140723,1,8,0:0:0:0:
168,82,141066,1,8,0:0:0:0:
108,146,141409,6,8,P|105:204|117:235,1,80.0000005960464
178,281,142094,1,8,0:0:0:0:
178,281,142437,1,8,0:0:0:0:
266,282,142780,6,0,B|355:275|355:275|432:103,1,240.000001788139
