osu file format v14

[General]
AudioFilename: audio.mp3
AudioLeadIn: 0
PreviewTime: 53637
Countdown: 0
SampleSet: Soft
StackLeniency: 0.2
Mode: 0
LetterboxInBreaks: 0
WidescreenStoryboard: 1

[Editor]
Bookmarks: 45409
DistanceSpacing: 1.8
BeatDivisor: 4
GridSize: 8
TimelineZoom: 2.899999

[Metadata]
Title:Spoiler Alert
TitleUnicode:Spoiler Alert
Artist:S3RL feat DEFI BRILATOR
ArtistUnicode:S3RL feat DEFI BRILATOR
Creator:DCVLIVE
Version:Demonic
Source:
Tags:electronic happy hardcore hackSL Saltssaumure
BeatmapID:1459056
BeatmapSetID:687098

[Difficulty]
HPDrainRate:6
CircleSize:4
OverallDifficulty:9
ApproachRate:9.4
SliderMultiplier:2
SliderTickRate:1

[Events]
//Background and Video events
0,0,"Saitama-One-Punch-Man-Wallpapers-11.png",0,0
//Break Periods
2,53837,55497
2,89494,94126
2,119666,121326
//Storyboard Layer 0 (Background)
//Storyboard Layer 1 (Fail)
//Storyboard Layer 2 (Pass)
//Storyboard Layer 3 (Foreground)
//Storyboard Sound Samples

[TimingPoints]
152,342.857142857143,4,2,1,75,1,0
1523,-76.9230769230769,4,2,1,50,0,0
7009,-76.9230769230769,4,2,1,60,0,0
12152,-76.9230769230769,4,2,1,75,0,0
13180,-62.5,4,2,1,75,0,0
13437,-76.9230769230769,4,2,1,75,0,0
15580,-62.5,4,2,1,75,0,0
15923,-50,4,2,1,75,0,0
16094,-76.9230769230769,4,2,1,75,0,0
18323,-45.4545454545455,4,2,1,75,0,0
18666,-62.5,4,2,1,75,0,0
19009,-200,4,2,1,75,0,0
19180,-76.9230769230769,4,2,1,75,0,0
21066,-62.5,4,2,1,75,0,0
21409,-76.9230769230769,4,2,1,75,0,0
21752,-100,4,2,1,75,0,0
22094,-133.333333333333,4,2,1,50,0,0
22780,-76.9230769230769,4,2,1,50,0,0
23466,-76.9230769230769,4,2,1,45,0,0
25866,-45.4545454545455,4,2,1,45,0,0
26209,-76.9230769230769,4,2,1,45,0,0
28266,-500,4,2,1,45,0,0
28609,-76.9230769230769,4,2,1,45,0,0
32037,-62.5,4,2,1,30,0,0
32380,-76.9230769230769,4,2,1,45,0,0
32723,-100,4,2,1,45,0,0
34437,-83.3333333333333,4,2,1,40,0,0
56037,-66.6666666666667,4,2,1,75,0,0
56380,-66.6666666666667,4,2,1,75,0,1
58609,-50,4,2,1,75,0,1
58780,-66.6666666666667,4,2,1,75,0,1
61352,-50,4,2,1,75,0,1
61523,-66.6666666666667,4,2,1,75,0,1
64094,-50,4,2,1,75,0,1
64266,-66.6666666666667,4,2,1,75,0,1
66837,-50,4,2,1,75,0,1
67009,-66.6666666666667,4,2,1,75,0,1
69580,-50,4,2,1,75,0,1
69752,-66.6666666666667,4,2,1,75,0,1
72323,-50,4,2,1,75,0,1
72494,-66.6666666666667,4,2,1,75,0,1
75066,-50,4,2,1,75,0,1
75237,-66.6666666666667,4,2,1,75,0,1
76952,-100,4,2,1,30,0,0
78323,-100,4,2,1,60,0,0
83809,-100,4,2,1,60,0,0
94666,-100,4,2,1,15,0,0
99580,-100,4,2,1,35,0,0
100266,-100,4,2,1,35,0,0
111237,-83.3333333333333,4,2,1,50,0,0
119466,-83.3333333333333,4,2,1,10,0,0
121866,-83.3333333333333,4,2,1,50,0,0
122209,-76.9230769230769,4,2,1,70,0,0

[Colours]
Combo1 : 90,129,150
Combo2 : 235,175,52
Combo3 : 242,121,97
Combo4 : 114,83,41

[HitObjects]
256,192,152,12,0,1180,0:0:0:0:
354,66,1523,6,0,P|396:118|401:191,1,129.999994049073,2|0,1:0|0:0,0:0:0:0:
312,336,1866,1,2,1:0:0:0:
296,160,2037,1,0,0:0:0:0:
429,289,2209,2,0,B|373:305|373:305|349:329|349:329|301:337,1,129.999994049073,2|0,1:0|0:0,0:0:0:0:
144,264,2552,1,2,1:0:0:0:
296,160,2723,1,0,0:0:0:0:
224,310,2894,6,0,P|160:352|88:336,1,129.999994049073,2|0,1:0|0:0,0:0:0:0:
32,216,3237,2,0,P|48:152|48:88,1,129.999994049073,2|0,1:0|0:0,0:0:0:0:
200,16,3580,2,0,L|166:151,1,129.999994049073,2|0,1:0|0:0,0:0:0:0:
109,347,3923,1,2,1:0:0:0:
296,160,4094,1,2,1:0:0:0:
72,32,4266,6,0,P|96:96|80:168,1,129.999994049073,2|0,1:0|0:0,0:0:0:0:
109,347,4609,1,2,1:0:0:0:
32,216,4780,1,0,0:0:0:0:
192,272,4952,2,0,B|266:271|266:271|328:248,1,129.999994049073,2|0,1:0|0:0,0:0:0:0:
432,120,5294,1,2,1:0:0:0:
264,88,5466,1,0,0:0:0:0:
416,224,5637,6,0,B|408:288|408:288|386:309|386:309|384:352,1,129.999994049073,2|0,1:0|0:0,0:0:0:0:
512,216,5980,1,2,1:0:0:0:
344,160,6152,1,0,0:0:0:0:
232,304,6323,2,0,P|272:192|224:48,1,259.999988098145,2|0,1:0|0:0,0:0:0:0:
88,184,7009,5,4,0:0:0:0:
352,312,7180,2,0,L|320:248,1,64.9999970245363,4|0,0:0|0:0,0:0:0:0:
233,60,7352,1,4,0:0:0:0:
144,312,7523,1,4,0:0:0:0:
144,312,7609,1,0,0:0:0:0:
144,312,7694,1,4,0:0:0:0:
64,56,7866,2,0,L|137:84,1,64.9999970245363,4|0,0:0|0:0,0:0:0:0:
344,160,8037,1,4,0:0:0:0:
88,184,8209,2,0,L|160:152,1,64.9999970245363,4|0,0:0|0:0,0:0:0:0:
344,56,8380,5,4,0:0:0:0:
272,336,8552,1,4,0:0:0:0:
272,336,8637,1,0,0:0:0:0:
272,336,8723,1,4,0:0:0:0:
496,136,8894,2,0,L|416:128,1,64.9999970245363,4|0,0:0|0:0,0:0:0:0:
191,106,9066,1,4,0:0:0:0:
440,288,9237,1,4,0:0:0:0:
440,288,9323,1,0,0:0:0:0:
440,288,9409,1,4,0:0:0:0:
128,272,9580,2,0,L|184:224,1,64.9999970245363,4|0,0:0|0:0,0:0:0:0:
360,64,9752,5,4,0:0:0:0:
376,96,9837,1,4,0:0:0:0:
376,128,9923,1,4,0:0:0:0:
360,160,10009,1,4,0:0:0:0:
328,184,10094,1,4,0:0:0:0:
288,192,10180,1,4,0:0:0:0:
256,184,10266,1,4,0:0:0:0:
216,160,10352,1,4,0:0:0:0:
192,136,10437,1,4,0:0:0:0:
152,112,10523,1,4,0:0:0:0:
112,112,10609,1,4,0:0:0:0:
80,136,10694,1,4,0:0:0:0:
72,176,10780,1,4,0:0:0:0:
80,208,10866,1,4,0:0:0:0:
112,240,10952,2,4,P|152:256|184:256,1,64.9999970245363
256,192,11123,12,0,11980,0:0:0:0:
224,224,12152,6,0,P|304:184|224:160,1,194.999991073609
190,122,12494,2,0,P|257:91|325:120,1,129.999994049073,14|0,1:0|0:0,0:0:0:0:
345,237,12837,2,0,P|287:289|177:252,1,194.999991073609,10|0,1:0|0:0,0:0:0:0:
163,180,13180,2,0,P|215:101|344:144,1,240,10|0,1:0|0:0,0:0:0:0:
416,168,13523,2,0,L|424:96,1,64.9999970245363,10|0,1:0|0:0,0:0:0:0:
512,200,13694,2,0,L|504:280,1,64.9999970245363,2|0,0:0|0:0,0:0:0:0:
416,344,13866,6,0,B|368:320|319:341|319:341|272:360|224:344,1,194.999991073609,10|0,1:0|0:0,0:0:0:0:
160,248,14209,2,0,L|163:172,1,64.9999970245363,10|0,1:0|0:0,0:0:0:0:
304,64,14380,2,0,L|301:140,1,64.9999970245363,2|0,0:0|0:0,0:0:0:0:
136,224,14552,2,0,L|139:148,1,64.9999970245363,10|0,1:0|0:0,0:0:0:0:
280,40,14723,2,0,L|277:116,1,64.9999970245363,2|0,0:0|0:0,0:0:0:0:
152,88,14894,2,0,P|122:67|176:83,1,194.999991073609,10|0,1:0|0:0,0:0:0:0:
160,48,15237,6,0,B|200:112|200:112|208:176|208:176|248:232,1,194.999991073609,10|0,1:0|0:0,0:0:0:0:
328,240,15580,2,0,P|272:152|160:200,1,240,10|0,1:0|0:0,0:0:0:0:
136,272,15923,2,0,P|163:254|113:254,1,100,10|0,1:0|0:0,0:0:0:0:
32,256,16094,2,0,B|24:232|32:216|32:216|40:200|32:184,1,64.9999970245363,2|0,0:0|0:0,0:0:0:0:
160,48,16266,2,0,L|168:120,1,64.9999970245363,10|0,1:0|0:0,0:0:0:0:
240,240,16437,2,0,L|248:160,1,64.9999970245363,2|0,0:0|0:0,0:0:0:0:
312,96,16609,6,0,B|232:104|232:104|184:128|184:128|120:136,1,194.999991073609,10|0,1:0|0:0,0:0:0:0:
56,56,16952,2,0,L|136:48,1,64.9999970245363,10|0,1:0|0:0,0:0:0:0:
272,32,17123,1,2,0:0:0:0:
240,240,17294,1,10,1:0:0:0:
160,48,17466,2,0,L|216:112,1,64.9999970245363,2|0,0:0|0:0,0:0:0:0:
278,167,17637,2,0,P|318:247|238:319,1,194.999991073609,2|0,0:0|0:0,0:0:0:0:
240,240,17980,6,0,B|288:264|288:264|328:264|328:264|360:296|360:296|424:328,1,194.999991073609,14|0,1:0|0:0,0:0:0:0:
416,224,18323,2,0,P|445:187|408:216,1,110.000003356934,10|0,1:0|0:0,0:0:0:0:
320,168,18494,2,0,P|277:160|312:135,1,110.000003356934,2|0,0:0|0:0,0:0:0:0:
392,93,18666,2,0,P|315:44|184:135,1,240,10|0,1:0|0:0,0:0:0:0:
208,176,19009,2,0,L|176:192,1,25,10|0,1:0|0:0,0:0:0:0:
64,160,19180,2,0,P|104:144|128:128,1,64.9999970245363,2|0,0:0|0:0,0:0:0:0:
32,80,19352,6,0,B|24:224|24:224|48:272,1,194.999991073609,10|0,1:0|0:0,0:0:0:0:
118,250,19694,2,0,P|142:218|110:210,1,64.9999970245363,10|0,1:0|0:0,0:0:0:0:
232,160,19866,2,0,L|224:232,1,64.9999970245363,2|0,0:0|0:0,0:0:0:0:
288,360,20037,2,0,B|328:353|328:353|360:325,1,64.9999970245363,10|0,1:0|0:0,0:0:0:0:
430,120,20209,2,0,B|389:126|389:126|357:154,1,64.9999970245363,2|0,0:0|0:0,0:0:0:0:
333,377,20380,2,0,B|368:357|368:357|389:319,1,64.9999970245363,10|0,1:0|0:0,0:0:0:0:
385,103,20552,2,0,B|349:122|349:122|328:160,1,64.9999970245363,2|0,0:0|0:0,0:0:0:0:
368,280,20723,6,0,P|408:232|336:264,1,194.999991073609,10|0,1:0|0:0,0:0:0:0:
248,328,21066,2,0,L|256:152,1,160,2|0,1:0|0:0,0:0:0:0:
160,328,21409,2,0,L|168:183,1,129.999994049073,2|0,1:0|0:0,0:0:0:0:
72,328,21752,2,0,L|78:214,1,100,2|2,1:0|1:0,1:0:0:0:
32,56,22094,6,0,B|64:48|92:58|92:58|126:70|152:56,1,112.500004291535,2|0,1:0|0:0,0:0:0:0:
224,24,22437,2,0,L|216:80,1,37.5000014305115,2|0,1:0|0:0,0:0:0:0:
288,128,22609,2,0,L|296:80,1,37.5000014305115,2|0,1:0|0:0,0:0:0:0:
200,136,22780,1,2,1:0:0:0:
216,176,22866,1,0,0:0:0:0:
248,200,22952,1,0,0:0:0:0:
288,208,23037,1,0,0:0:0:0:
336,200,23123,2,0,P|368:168|376:128,1,64.9999970245363,2|0,1:0|0:0,0:0:0:0:
368,296,23294,2,0,P|336:328|328:368,1,64.9999970245363,2|0,0:0|0:0,0:0:0:0:
456,256,23466,6,0,B|368:248|368:248|328:272|328:272|248:264,1,194.999991073609,6|0,1:0|0:0,0:0:0:0:
200,320,23809,2,0,L|193:242,1,64.9999970245363,2|0,0:0|0:0,0:0:0:0:
184,88,23980,1,2,0:0:0:0:
408,160,24152,2,0,L|336:168,1,64.9999970245363,6|0,0:0|0:0,0:0:0:0:
168,184,24323,1,2,0:0:0:0:
296,64,24494,2,0,L|288:96,6,32.4999985122681,2|0|0|0|2|0|0,0:0|0:0|0:0|0:0|0:0|0:0|0:0,0:0:0:0:
112,32,24837,6,0,L|96:104,1,64.9999970245363,10|0,0:0|0:0,0:0:0:0:
64,272,25009,2,0,L|136:256,1,64.9999970245363,2|0,1:0|0:0,0:0:0:0:
296,216,25180,1,2,0:0:0:0:
64,168,25352,1,2,0:0:0:0:
208,352,25523,2,0,L|216:272,1,64.9999970245363,6|0,0:0|0:0,0:0:0:0:
232,120,25694,1,2,0:0:0:0:
408,64,25866,6,0,P|443:104|403:78,1,110.000003356934,0|0,3:0|3:0,3:0:0:0:
304,80,26037,2,0,P|256:40|192:48,1,110.000003356934,2|0,1:0|0:0,0:0:0:0:
152,120,26209,6,0,P|192:192|296:168,1,194.999991073609,14|0,1:0|0:0,0:0:0:0:
386,143,26552,2,0,P|362:247|402:327,1,194.999991073609,10|0,1:0|0:0,0:0:0:0:
304,320,26894,2,0,B|264:344|215:324|215:324|160:304|112:328,1,194.999991073609,10|0,1:0|0:0,0:0:0:0:
8,352,27237,2,0,P|48:264|8:176,1,194.999991073609,10|0,1:0|0:0,0:0:0:0:
112,116,27580,6,0,P|107:180|147:116,1,194.999991073609,10|0,1:0|0:0,0:0:0:0:
144,40,27923,2,0,P|112:32|80:40,1,64.9999970245363,10|0,1:0|0:0,0:0:0:0:
224,88,28094,2,0,P|256:96|288:88,1,64.9999970245363,2|0,0:0|0:0,0:0:0:0:
328,168,28266,6,0,P|309:164|293:167,1,30,10|0,1:0|0:0,0:0:0:0:
336,256,28609,2,0,P|408:208|376:96,1,194.999991073609,10|0,1:0|0:0,0:0:0:0:
296,80,28952,6,0,P|224:128|256:240,1,194.999991073609,10|0,0:0|0:0,0:0:0:0:
272,312,29294,2,0,L|200:288,1,64.9999970245363,10|0,1:0|0:0,0:0:0:0:
24,232,29466,1,2,0:0:0:0:
128,24,29637,2,0,L|132:106,1,64.9999970245363,10|0,1:0|0:0,0:0:0:0:
136,272,29809,1,2,0:0:0:0:
16,72,29980,1,10,1:0:0:0:
240,88,30152,5,2,0:0:0:0:
240,88,30237,1,2,0:0:0:0:
240,88,30323,1,10,1:0:0:0:
320,192,30494,1,2,0:0:0:0:
320,184,30580,1,2,0:0:0:0:
320,176,30666,1,10,1:0:0:0:
400,72,30837,1,2,0:0:0:0:
400,88,30923,1,2,0:0:0:0:
400,104,31009,1,10,1:0:0:0:
472,240,31180,1,2,0:0:0:0:
472,216,31266,1,2,0:0:0:0:
472,184,31352,1,10,1:0:0:0:
472,24,31523,1,8,0:0:0:0:
362,165,31694,6,0,P|362:237|322:173,1,194.999991073609,6|0,1:2|0:0,0:0:0:0:
350,198,32037,2,0,L|350:366,1,160,6|0,1:2|0:0,0:0:0:0:
248,200,32380,2,0,L|248:336,1,129.999994049073,6|0,1:2|0:0,0:0:0:0:
144,200,32723,2,0,L|144:312,1,100,6|0,1:2|0:0,0:0:0:0:
256,192,33066,12,0,34094,0:0:0:0:
408,32,34437,6,0,P|392:96|408:168,1,119.999996337891,2|0,1:0|0:0,0:0:0:0:
456,256,34780,2,0,P|384:240|328:256,1,119.999996337891,2|0,1:0|0:0,0:0:0:0:
224,360,35123,1,2,1:0:0:0:
392,344,35294,1,2,0:0:0:0:
240,232,35466,2,0,B|256:184|256:184|248:152|248:152|256:112,1,119.999996337891,2|0,1:0|0:0,0:0:0:0:
408,32,35809,6,0,B|392:80|392:80|400:112|400:112|392:152,1,119.999996337891,2|0,1:0|0:0,0:0:0:0:
320,40,36152,2,0,P|248:16|192:40,1,119.999996337891,2|0,1:0|0:0,0:0:0:0:
96,104,36494,2,0,L|88:168,1,59.9999981689454,2|0,1:0|0:0,0:0:0:0:
160,232,36666,2,0,L|168:160,1,59.9999981689454,2|0,0:0|0:0,0:0:0:0:
255,116,36837,2,0,L|244:251,1,119.999996337891,2|0,1:0|0:0,0:0:0:0:
160,328,37180,6,0,P|232:320|296:336,1,119.999996337891,2|0,1:0|0:0,0:0:0:0:
400,368,37523,2,0,P|384:296|400:240,1,119.999996337891,2|0,1:0|0:0,0:0:0:0:
472,96,37866,1,2,1:0:0:0:
320,176,38037,1,2,0:0:0:0:
480,232,38209,2,0,B|464:192|436:177|436:177|408:160|400:136,1,119.999996337891,2|0,1:0|0:0,0:0:0:0:
296,96,38552,6,0,P|240:152|240:200,1,119.999996337891,2|0,1:0|0:0,0:0:0:0:
320,272,38894,2,0,B|271:274|271:274|245:296|245:296|204:300,1,119.999996337891,2|0,1:0|0:0,0:0:0:0:
104,344,39237,2,0,P|129:287|105:223,1,119.999996337891,2|0,1:0|0:0,0:0:0:0:
152,120,39580,2,0,P|176:80|168:128,1,119.999996337891,2|0,1:0|0:0,0:0:0:0:
64,112,39923,6,0,P|80:48|128:8,1,119.999996337891,2|0,1:0|0:0,0:0:0:0:
248,40,40266,2,0,P|270:102|253:162,1,119.999996337891,2|0,1:0|0:0,0:0:0:0:
344,312,40609,1,2,1:0:0:0:
384,144,40780,1,2,0:0:0:0:
252,262,40952,2,0,B|294:318|294:318|356:310,1,119.999996337891,2|0,1:0|0:0,0:0:0:0:
432,216,41294,6,0,P|472:152|456:96,1,119.999996337891,2|0,1:0|0:0,0:0:0:0:
352,48,41637,2,0,P|288:64|232:48,1,119.999996337891,2|0,1:0|0:0,0:0:0:0:
128,112,41980,2,0,B|104:144|114:178|114:178|128:216|104:248,1,119.999996337891,2|0,1:0|0:0,0:0:0:0:
206,149,42323,2,0,P|206:77|166:37,1,119.999996337891,2|0,1:0|0:0,0:0:0:0:
32,72,42666,6,0,B|40:144|40:144|24:200,1,119.999996337891,2|0,1:0|0:0,0:0:0:0:
120,288,43009,2,0,B|184:272|184:272|248:288,1,119.999996337891,2|0,1:0|0:0,0:0:0:0:
400,328,43352,1,2,1:0:0:0:
185,365,43523,1,2,0:0:0:0:
344,232,43694,2,0,B|336:152|336:152|320:104,1,119.999996337891,2|0,1:0|0:0,0:0:0:0:
256,24,44037,6,0,P|328:40|384:24,1,119.999996337891,2|0,1:0|0:0,0:0:0:0:
480,120,44380,2,0,P|408:104|352:120,1,119.999996337891,2|0,1:0|0:0,0:0:0:0:
224,208,44723,1,2,1:0:0:0:
376,264,44894,2,0,L|376:200,1,59.9999981689454,2|0,0:0|0:0,0:0:0:0:
304,152,45066,2,0,L|304:216,1,59.9999981689454,2|0,1:0|0:0,0:0:0:0:
224,268,45237,2,0,L|224:204,1,59.9999981689454,2|0,0:0|0:0,0:0:0:0:
144,160,45409,6,0,L|144:296,1,119.999996337891,6|0,0:0|0:0,0:0:0:0:
248,352,45752,2,0,P|320:336|384:352,1,119.999996337891,6|0,0:0|0:0,0:0:0:0:
224,208,46094,1,6,0:0:0:0:
96,336,46266,1,2,0:0:0:0:
48,176,46437,2,0,P|64:104|40:48,1,119.999996337891,6|0,0:0|0:0,0:0:0:0:
216,32,46780,5,6,0:0:0:0:
224,208,46952,1,2,0:0:0:0:
400,160,47123,1,6,0:0:0:0:
230,113,47294,1,2,0:0:0:0:
400,248,47466,2,0,P|464:224|488:160,1,119.999996337891,6|0,0:0|0:0,0:0:0:0:
376,40,47809,1,6,0:0:0:0:
230,113,47980,1,2,0:0:0:0:
296,296,48152,6,0,L|312:160,1,119.999996337891,6|0,0:0|0:0,0:0:0:0:
288,56,48494,2,0,P|216:32|168:64,1,119.999996337891,6|0,0:0|0:0,0:0:0:0:
112,208,48837,1,6,0:0:0:0:
80,40,49009,1,2,0:0:0:0:
216,160,49180,2,0,L|192:288,1,119.999996337891,6|0,0:0|0:0,0:0:0:0:
256,192,49523,12,0,50552,0:0:0:0:
128,120,50894,5,4,0:0:0:0:
256,272,51066,1,4,0:0:0:0:
256,272,51152,1,4,0:0:0:0:
256,272,51237,1,4,0:0:0:0:
288,96,51409,1,4,0:0:0:0:
144,200,51580,1,4,0:0:0:0:
176,24,51752,1,4,0:0:0:0:
184,32,51837,1,4,0:0:0:0:
184,32,51923,1,4,0:0:0:0:
280,184,52094,1,4,0:0:0:0:
176,280,52266,5,4,0:0:0:0:
134,285,52352,1,4,0:0:0:0:
95,270,52437,1,4,0:0:0:0:
67,240,52523,1,4,0:0:0:0:
56,200,52609,1,4,0:0:0:0:
64,159,52694,1,4,0:0:0:0:
90,127,52780,1,4,0:0:0:0:
128,110,52866,1,4,0:0:0:0:
170,113,52952,1,4,0:0:0:0:
208,136,53037,1,4,0:0:0:0:
248,152,53123,1,4,0:0:0:0:
288,152,53209,1,4,0:0:0:0:
320,120,53294,1,4,0:0:0:0:
320,80,53380,1,4,0:0:0:0:
296,48,53466,2,4,P|264:32|224:24,1,59.9999981689454
160,28,53637,5,0,0:0:0:0:
208,208,56037,6,0,P|256:144|240:240,1,225.000008583069
192,240,56380,6,0,P|171:158|221:111,1,150.000005722046,14|0,1:0|0:0,0:0:0:0:
320,144,56723,2,0,P|341:226|291:273,1,150.000005722046,10|0,1:0|0:0,0:0:0:0:
64,336,57066,1,10,1:0:0:0:
256,192,57237,1,2,0:0:0:0:
456,344,57409,2,0,B|440:248|440:248|448:176,1,150.000005722046,10|0,0:0|0:0,0:0:0:0:
480,48,57752,5,10,1:0:0:0:
192,128,57923,1,2,0:0:0:0:
496,160,58094,5,10,1:0:0:0:
219,45,58266,1,2,0:0:0:0:
352,272,58437,6,0,P|312:296|264:288,1,75.0000028610231,10|0,1:0|0:0,0:0:0:0:
99,148,58609,2,0,P|147:124|206:131,1,100,2|0,0:0|0:0,0:0:0:0:
159,287,58780,2,0,P|135:215|183:287,1,225.000008583069,10|0,1:0|0:0,0:0:0:0:
138,323,59123,6,0,P|79:263|91:196,1,150.000005722046,10|0,1:0|0:0,0:0:0:0:
0,88,59466,2,0,L|160:56,1,150.000005722046,10|0,1:0|0:0,0:0:0:0:
352,184,59809,1,10,1:0:0:0:
99,148,59980,1,2,0:0:0:0:
320,43,60152,2,0,B|325:99|325:99|347:124|347:124|351:196,1,150.000005722046,10|0,1:0|0:0,0:0:0:0:
112,344,60494,5,10,1:0:0:0:
232,48,60666,1,2,0:0:0:0:
432,304,60837,5,10,1:0:0:0:
119,223,61009,1,2,0:0:0:0:
432,192,61180,6,0,L|440:112,1,75.0000028610231,10|0,1:0|0:0,0:0:0:0:
232,48,61352,2,0,L|256:168,1,100,2|0,0:0|0:0,0:0:0:0:
285,307,61523,2,0,P|248:231|120:223,1,225.000008583069
64,152,61866,6,0,P|136:96|136:32,1,150.000005722046,12|0,1:0|0:0,0:0:0:0:
240,136,62209,2,0,L|395:184,1,150.000005722046,10|0,0:0|0:0,0:0:0:0:
208,344,62552,1,10,0:0:0:0:
64,152,62723,1,0,0:0:0:0:
299,241,62894,2,0,B|275:313|275:313|187:353,1,150.000005722046,10|0,1:0|0:0,0:0:0:0:
64,152,63237,5,10,1:0:0:0:
368,88,63409,1,2,0:0:0:0:
34,81,63580,5,10,1:0:0:0:
299,241,63752,1,2,0:0:0:0:
152,32,63923,6,0,B|136:72|136:72|136:128,1,75.0000028610231,10|0,1:0|0:0,0:0:0:0:
257,326,64094,2,0,B|289:294|289:294|300:231,1,100,2|0,0:0|0:0,0:0:0:0:
64,152,64266,2,0,P|96:248|208:256,1,225.000008583069,10|0,1:0|0:0,0:0:0:0:
272,160,64609,6,0,P|352:176|384:248,1,150.000005722046,10|0,1:0|0:0,0:0:0:0:
448,352,64952,2,0,B|456:296|456:296|480:272|480:272|488:208,1,150.000005722046,10|0,1:0|0:0,0:0:0:0:
369,6,65294,1,10,1:0:0:0:
296,240,65466,1,2,0:0:0:0:
481,92,65637,2,0,L|321:76,1,150.000005722046,10|0,1:0|0:0,0:0:0:0:
72,120,65980,5,2,1:0:0:0:
424,176,66152,1,2,0:0:0:0:
112,320,66323,5,2,1:0:0:0:
472,240,66494,1,2,1:0:0:0:
248,40,66666,6,0,L|232:128,1,75.0000028610231,2|0,1:0|0:0,0:0:0:0:
356,218,66837,2,0,P|348:170|332:194,1,100,2|0,0:0|0:0,0:0:0:0:
329,259,67009,2,0,P|406:236|423:175,1,150.000005722046,2|0,0:0|0:0,0:0:0:0:
248,40,67352,6,0,L|221:193,1,150.000005722046,14|0,1:0|0:0,0:0:0:0:
112,280,67694,2,0,P|192:280|248:336,1,150.000005722046,10|0,1:0|0:0,0:0:0:0:
472,240,68037,1,10,1:0:0:0:
221,187,68209,1,2,0:0:0:0:
416,360,68380,2,0,B|398:298|398:298|376:272|376:272|360:200,1,150.000005722046,10|0,1:0|0:0,0:0:0:0:
480,32,68723,5,10,1:0:0:0:
221,187,68894,1,2,0:0:0:0:
472,240,69066,5,10,1:0:0:0:
244,41,69237,1,2,0:0:0:0:
32,280,69409,6,0,P|72:296|112:296,1,75.0000028610231,10|0,1:0|0:0,0:0:0:0:
221,187,69580,2,0,P|168:176|120:176,1,100,2|0,0:0|0:0,0:0:0:0:
232,280,69752,2,0,P|311:223|272:112,1,225.000008583069,10|0,1:0|0:0,0:0:0:0:
331,51,70094,6,0,L|489:30,1,150.000005722046,10|0,1:0|0:0,0:0:0:0:
423,179,70437,2,0,P|391:267|427:313,1,150.000005722046,10|0,1:0|0:0,0:0:0:0:
221,187,70780,1,10,1:0:0:0:
471,93,70952,1,2,0:0:0:0:
480,344,71123,2,0,L|337:255,1,150.000005722046,10|0,1:0|0:0,0:0:0:0:
120,112,71466,5,10,1:0:0:0:
471,93,71637,1,2,0:0:0:0:
168,288,71809,5,10,1:0:0:0:
402,26,71980,1,2,0:0:0:0:
111,38,72152,6,0,B|107:73|107:73|123:125,1,75.0000028610231,10|0,1:0|0:0,0:0:0:0:
288,272,72323,2,0,B|280:216|280:216|256:168,1,100,2|0,0:0|0:0,0:0:0:0:
168,288,72494,2,0,B|256:352|256:352|320:360,1,150.000005722046,2|0,0:0|0:0,0:0:0:0:
483,293,72837,6,0,L|499:133,1,150.000005722046,14|0,1:0|0:0,0:0:0:0:
402,26,73180,2,0,P|320:56|240:40,1,150.000005722046,10|0,1:0|0:0,0:0:0:0:
32,16,73523,1,10,0:0:0:0:
221,187,73694,1,2,0:0:0:0:
32,352,73866,2,0,L|72:184,1,150.000005722046,10|0,1:0|0:0,0:0:0:0:
328,128,74209,5,10,1:0:0:0:
32,16,74380,1,2,0:0:0:0:
208,264,74552,5,10,1:0:0:0:
402,26,74723,1,2,0:0:0:0:
171,130,74894,6,0,L|227:194,1,75.0000028610231,10|0,1:0|0:0,0:0:0:0:
395,202,75066,2,0,L|308:106,1,100,2|0,0:0|0:0,0:0:0:0:
172,48,75237,2,0,P|100:80|92:152,1,150.000005722046,10|0,1:0|0:0,0:0:0:0:
208,264,75580,6,0,B|250:234|285:243|285:243|322:251|354:226,1,150.000005722046,10|0,1:0|0:0,0:0:0:0:
462,136,75923,2,0,L|454:288,1,150.000005722046,10|0,1:0|0:0,0:0:0:0:
192,184,76266,1,10,1:0:0:0:
400,24,76437,1,2,0:0:0:0:
155,38,76609,2,0,L|195:198,1,150.000005722046,10|0,1:0|0:0,0:0:0:0:
320,352,76952,6,0,L|336:248,1,100,0|0,1:0|0:0,0:0:0:0:
304,32,77294,2,0,L|288:136,1,100,0|0,1:0|0:0,0:0:0:0:
192,352,77637,2,0,L|208:248,1,100,0|0,1:0|0:0,0:0:0:0:
176,32,77980,2,0,L|160:136,1,100,0|0,1:0|0:0,0:0:0:0:
48,344,78323,6,0,L|64:232,1,100,4|0,0:2|0:0,0:0:0:0:
48,160,78580,1,0,0:0:0:0:
125,200,78666,2,0,P|181:208|229:176,1,100,4|0,0:2|0:0,0:0:0:0:
272,112,78923,1,0,0:0:0:0:
272,112,79009,1,4,0:2:0:0:
75,63,79180,1,0,0:0:0:0:
75,63,79266,1,0,0:0:0:0:
75,63,79352,2,0,L|43:175,1,100,4|0,0:2|0:0,0:0:0:0:
62,245,79609,1,0,0:0:0:0:
62,245,79694,1,4,0:2:0:0:
216,360,79866,6,0,L|232:296,1,50,0|0,0:0|0:0,0:0:0:0:
256,192,80037,1,4,0:2:0:0:
306,358,80209,6,0,L|287:294,1,50,0|0,0:0|0:0,0:0:0:0:
256,192,80380,1,4,0:2:0:0:
383,311,80552,6,0,L|335:265,1,50,0|0,0:0|0:0,0:0:0:0:
256,192,80723,1,4,0:2:0:0:
426,232,80894,6,0,L|361:216,1,50,0|0,0:0|0:0,0:0:0:0:
256,192,81066,1,4,0:2:0:0:
424,142,81237,6,0,L|359:160,1,50,0|0,0:0|0:0,0:0:0:0:
256,192,81409,1,4,0:2:0:0:
377,65,81580,6,0,L|330:113,1,50,0|0,0:0|0:0,0:0:0:0:
256,192,81752,1,4,0:2:0:0:
298,22,81923,6,0,L|282:86,1,50,0|0,0:0|0:0,0:0:0:0:
256,192,82094,1,4,0:2:0:0:
208,24,82266,6,0,L|226:88,1,50,0|0,0:0|0:0,0:0:0:0:
256,192,82437,1,4,0:2:0:0:
131,71,82609,6,0,L|179:117,1,50,0|0,0:0|0:0,0:0:0:0:
256,192,82780,1,4,0:2:0:0:
88,150,82952,6,0,L|153:165,1,50,0|0,0:0|0:0,0:0:0:0:
256,192,83123,1,4,0:2:0:0:
100,266,83294,6,0,L|160:237,1,50,0|0,0:0|0:0,0:0:0:0:
256,192,83466,1,4,0:2:0:0:
158,335,83637,6,0,L|196:280,1,50,0|0,0:0|0:0,0:0:0:0:
256,192,83809,1,4,0:0:0:0:
377,65,83980,5,4,0:0:0:0:
377,65,84066,1,0,0:0:0:0:
377,65,84152,1,4,0:0:0:0:
256,192,84323,1,4,0:0:0:0:
432,208,84494,1,4,0:0:0:0:
296,96,84666,1,4,0:0:0:0:
296,96,84752,1,0,0:0:0:0:
296,96,84837,1,4,0:0:0:0:
320,264,85009,1,4,0:0:0:0:
176,160,85180,5,4,0:0:0:0:
368,160,85352,1,4,0:0:0:0:
368,160,85437,1,0,0:0:0:0:
368,160,85523,1,4,0:0:0:0:
224,264,85694,1,4,0:0:0:0:
224,264,85780,1,0,0:0:0:0:
224,264,85866,1,4,0:0:0:0:
224,88,86037,1,4,0:0:0:0:
224,88,86123,1,0,0:0:0:0:
224,88,86209,1,4,0:0:0:0:
72,168,86380,1,4,0:0:0:0:
168,320,86552,5,4,0:0:0:0:
206,342,86637,1,4,0:0:0:0:
250,342,86723,1,4,0:0:0:0:
288,319,86809,1,4,0:0:0:0:
309,280,86894,1,4,0:0:0:0:
307,236,86980,1,4,0:0:0:0:
282,199,87066,1,4,0:0:0:0:
242,180,87152,1,4,0:0:0:0:
200,176,87237,1,4,0:0:0:0:
159,158,87323,1,4,0:0:0:0:
131,123,87409,1,4,0:0:0:0:
122,79,87494,1,4,0:0:0:0:
134,36,87580,1,4,0:0:0:0:
164,4,87666,1,4,0:0:0:0:
216,0,87752,2,4,P|248:8|272:24,1,50
256,192,87923,12,0,89294,0:0:0:0:
64,63,94666,5,2,0:0:0:0:
46,146,94780,1,2,0:0:0:0:
163,292,95123,1,2,0:0:0:0:
312,162,95409,1,2,0:0:0:0:
233,140,95466,1,2,0:0:0:0:
52,258,95809,1,2,0:0:0:0:
260,341,96037,5,2,0:0:0:0:
336,307,96152,1,2,0:0:0:0:
416,137,96494,1,2,0:0:0:0:
210,60,96723,1,2,0:0:0:0:
233,140,96837,1,2,0:0:0:0:
161,322,97180,1,2,0:0:0:0:
336,304,97409,5,2,0:0:0:0:
421,299,97523,1,2,0:0:0:0:
484,139,97866,1,2,0:0:0:0:
329,82,98094,1,2,0:0:0:0:
247,93,98209,1,2,0:0:0:0:
179,251,98552,2,0,L|186:277,4,25,2|0|0|0|0,0:0|0:0|0:0|0:0|0:0,0:0:0:0:
177,245,98780,1,2,0:0:0:0:
149,168,98894,1,2,0:0:0:0:
120,91,99009,1,2,0:0:0:0:
272,336,99580,5,0,0:0:0:0:
384,232,99752,1,0,0:0:0:0:
377,181,99837,1,0,0:0:0:0:
344,136,99923,1,0,0:0:0:0:
280,96,100037,1,0,0:0:0:0:
280,96,100094,2,0,L|224:96,1,50
96,56,100266,6,0,P|128:112|88:248,1,200,2|0,1:0|0:0,0:0:0:0:
118,360,100837,1,2,0:0:0:0:
161,297,100952,2,0,P|257:265|353:297,1,200,6|0,0:0|0:0,0:0:0:0:
463,358,101523,1,2,1:0:0:0:
492,289,101637,6,0,P|500:217|484:177,1,100,2|0,1:0|0:0,0:0:0:0:
496,64,101980,2,0,L|358:86,1,133.333333333333,2|0,1:0|0:0,0:0:0:0:
336,168,102323,2,0,P|359:248|353:165,1,200,6|0,0:0|0:0,0:0:0:0:
283,91,102894,1,2,0:0:0:0:
272,168,103009,6,0,P|286:242|398:282,1,200,2|0,1:0|0:0,0:0:0:0:
387,125,103580,1,2,0:0:0:0:
319,91,103694,2,0,B|258:60|210:92|210:92|173:114|115:85,1,200,6|0,0:0|0:0,0:0:0:0:
5,56,104266,1,2,1:0:0:0:
43,122,104380,6,0,P|51:186|35:226,1,100,2|0,1:0|0:0,0:0:0:0:
9,328,104723,2,0,P|65:312|141:335,1,133.333333333333,2|0,1:0|0:0,0:0:0:0:
208,351,105066,2,0,P|256:358|312:237,1,200,6|0,0:0|1:0,0:0:0:0:
434,313,105637,1,2,0:0:0:0:
466,324,105752,6,0,L|472:211,1,100,2|0,1:0|0:0,0:0:0:0:
496,120,106094,2,0,L|356:133,1,133.333333333333,2|0,0:0|0:0,0:0:0:0:
272,72,106437,2,0,P|292:171|244:258,1,200,6|0,0:0|0:0,0:0:0:0:
231,376,107009,1,2,1:0:0:0:
288,328,107123,6,0,P|352:312|400:328,1,100,2|0,1:0|0:0,0:0:0:0:
474,378,107466,2,0,B|466:338|466:338|474:314|474:314|463:247,1,133.333333333333,2|0,1:0|0:0,0:0:0:0:
424,168,107809,2,0,B|384:184|376:232|376:232|320:184|320:120,1,200,6|0,0:0|0:0,0:0:0:0:
277,36,108380,1,2,0:0:0:0:
232,96,108494,6,0,P|175:62|254:62,1,200,2|0,1:0|0:0,0:0:0:0:
285,195,109066,1,2,0:0:0:0:
208,176,109180,2,0,P|128:208|112:312,1,200,6|0,0:0|0:0,0:0:0:0:
237,263,109752,1,2,1:0:0:0:
208,176,109866,1,2,1:0:0:0:
408,72,111237,6,0,P|432:136|416:184,1,119.999996337891,2|0,1:0|0:0,0:0:0:0:
448,288,111580,2,0,L|320:248,1,119.999996337891,2|0,1:0|0:0,0:0:0:0:
272,160,111923,2,0,P|296:112|296:160,1,119.999996337891,2|0,1:0|0:0,0:0:0:0:
240,200,112266,2,0,P|206:129|232:80,1,119.999996337891,2|0,1:0|0:0,0:0:0:0:
320,48,112609,6,0,B|272:40|272:40|248:24|248:24|200:16,1,119.999996337891,2|0,1:0|0:0,0:0:0:0:
104,128,112952,1,2,1:0:0:0:
240,200,113123,1,2,0:0:0:0:
160,72,113294,2,0,P|88:48|48:72,1,119.999996337891,2|0,1:0|0:0,0:0:0:0:
24,176,113637,2,0,L|136:232,1,119.999996337891,2|0,1:0|0:0,0:0:0:0:
224,312,113980,6,0,P|216:240|248:192,1,119.999996337891,2|0,1:0|0:0,0:0:0:0:
320,48,114323,1,2,1:0:0:0:
160,72,114494,1,2,0:0:0:0:
320,152,114666,2,0,P|328:224|296:272,1,119.999996337891,2|0,1:0|0:0,0:0:0:0:
400,352,115009,2,0,P|389:293|414:240,1,119.999996337891,2|0,1:0|0:0,0:0:0:0:
496,64,115352,5,2,1:0:0:0:
320,152,115523,1,2,0:0:0:0:
480,304,115694,1,2,1:0:0:0:
400,104,115866,1,2,0:0:0:0:
160,72,116037,2,0,L|152:136,1,59.9999981689454,2|0,1:0|0:0,0:0:0:0:
224,240,116209,2,0,P|192:216|160:208,1,59.9999981689454,2|0,0:0|0:0,0:0:0:0:
240,320,116380,2,0,P|208:352|200:376,1,59.9999981689454,2|0,0:0|0:0,0:0:0:0:
304,264,116552,2,0,P|343:266|375:255,1,59.9999981689454,2|0,0:0|0:0,0:0:0:0:
400,104,116723,6,4,P|344:128|328:192,1,119.999996337891,6|4,1:2|0:0,0:0:0:0:
392,344,117066,1,6,1:2:0:0:
403,182,117237,1,6,0:0:0:0:
238,120,117409,2,4,L|222:256,1,119.999996337891,6|4,1:2|0:0,0:0:0:0:
403,182,117752,2,4,L|424:40,1,119.999996337891,6|4,1:2|0:0,0:0:0:0:
362,23,118009,1,4,0:0:0:0:
304,64,118094,6,4,P|240:32|176:56,1,119.999996337891,6|4,1:2|0:0,0:0:0:0:
88,176,118437,1,6,1:2:0:0:
96,32,118609,1,6,0:0:0:0:
168,201,118780,2,4,B|159:235|128:249|128:249|94:264|85:299,1,119.999996337891,6|4,1:2|0:0,0:0:0:0:
160,320,119037,1,4,0:0:0:0:
160,320,119123,2,4,P|218:271|241:221,1,119.999996337891,6|4,1:2|0:0,0:0:0:0:
266,142,119466,5,2,0:0:0:0:
192,128,121866,6,0,P|256:120|184:104,1,179.999994506836
120,40,122209,6,0,L|80:176,1,129.999994049073,10|0,1:0|0:0,0:0:0:0:
168,312,122552,1,10,1:0:0:0:
8,256,122723,1,2,0:0:0:0:
176,216,122894,2,0,B|240:248|240:248|256:320,1,129.999994049073,10|0,1:0|0:0,0:0:0:0:
352,368,123237,2,0,L|320:232,1,129.999994049073,10|0,1:0|0:0,0:0:0:0:
264,160,123580,6,0,B|200:128|200:128|184:56,1,129.999994049073,10|0,1:0|0:0,0:0:0:0:
32,8,123923,1,10,1:0:0:0:
112,160,124094,1,2,0:0:0:0:
264,80,124266,2,0,P|336:120|344:168,1,129.999994049073,10|0,1:0|0:0,0:0:0:0:
408,256,124609,2,0,L|432:120,1,129.999994049073,10|0,1:0|0:0,0:0:0:0:
496,48,124952,6,0,B|416:56|416:56|360:40,1,129.999994049073,10|0,1:0|0:0,0:0:0:0:
264,160,125294,1,10,1:0:0:0:
408,256,125466,1,2,0:0:0:0:
224,248,125637,2,0,B|160:168|160:168|160:136,1,129.999994049073,10|0,1:0|0:0,0:0:0:0:
264,80,125980,2,0,P|336:120|344:168,1,129.999994049073,10|0,1:0|0:0,0:0:0:0:
256,336,126323,5,10,1:0:0:0:
72,240,126494,1,2,0:0:0:0:
264,160,126666,1,10,1:0:0:0:
72,72,126837,1,2,0:0:0:0:
72,240,127009,2,0,P|80:280|72:312,1,64.9999970245363,10|0,1:0|0:0,0:0:0:0:
160,200,127180,2,0,P|152:160|160:128,1,64.9999970245363,2|0,0:0|0:0,0:0:0:0:
264,80,127352,2,0,P|336:120|312:224,1,194.999991073609,2|0,0:0|0:0,0:0:0:0:
264,312,127694,6,0,P|328:296|392:312,1,129.999994049073,10|0,1:0|0:0,0:0:0:0:
432,144,128037,1,10,1:0:0:0:
264,160,128209,1,2,0:0:0:0:
448,232,128380,2,0,B|504:184|504:184|512:120,1,129.999994049073,10|0,1:0|0:0,0:0:0:0:
366,79,128723,2,0,L|254:167,1,129.999994049073,10|0,1:0|0:0,0:0:0:0:
131,111,129066,6,0,P|155:183|123:255,1,129.999994049073,10|0,1:0|0:0,0:0:0:0:
24,352,129409,1,10,1:0:0:0:
60,177,129580,1,2,0:0:0:0:
192,344,129752,2,0,B|240:336|240:336|272:312|272:312|320:304,1,129.999994049073,10|0,1:0|0:0,0:0:0:0:
425,360,130094,2,0,L|449:224,1,129.999994049073,10|0,1:0|0:0,0:0:0:0:
336,144,130437,6,0,P|306:215|248:232,1,129.999994049073,10|0,1:0|0:0,0:0:0:0:
96,200,130780,1,10,1:0:0:0:
240,136,130952,1,2,0:0:0:0:
80,75,131123,2,0,B|72:147|72:147|104:219,1,129.999994049073,10|0,1:0|0:0,0:0:0:0:
56,304,131466,2,0,L|192:280,1,129.999994049073,10|0,1:0|0:0,0:0:0:0:
240,136,131809,5,2,1:0:0:0:
56,304,131980,1,2,0:0:0:0:
80,72,132152,1,2,1:0:0:0:
184,281,132323,1,2,1:0:0:0:
16,88,132494,2,0,L|96:68,1,64.9999970245363,2|0,1:0|0:0,0:0:0:0:
240,136,132666,2,0,B|208:160|208:160|176:160,1,64.9999970245363,2|0,0:0|0:0,0:0:0:0:
200,40,132837,2,0,B|232:16|232:16|264:16,1,64.9999970245363,2|0,0:0|0:0,0:0:0:0:
336,80,133180,6,0,B|352:144|352:144|320:208,1,129.999994049073,10|0,1:0|0:0,0:0:0:0:
184,281,133523,1,10,1:0:0:0:
240,136,133694,1,2,0:0:0:0:
296,312,133866,2,0,B|248:328|248:328|224:352|224:352|160:368,1,129.999994049073,10|0,1:0|0:0,0:0:0:0:
88,272,134209,2,0,P|120:200|96:144,1,129.999994049073,10|0,1:0|0:0,0:0:0:0:
172,45,134552,6,0,P|204:125|260:133,1,129.999994049073,10|0,1:0|0:0,0:0:0:0:
408,112,134894,1,10,0:0:0:0:
248,56,135066,1,2,0:0:0:0:
184,216,135237,2,0,B|256:216|256:216|320:248,1,129.999994049073,10|0,1:0|0:0,0:0:0:0:
368,344,135580,2,0,L|432:224,1,129.999994049073,10|0,1:0|0:0,0:0:0:0:
408,112,135923,6,0,P|336:120|288:88,1,129.999994049073,10|0,1:0|0:0,0:0:0:0:
112,48,136266,1,10,1:0:0:0:
184,216,136437,1,2,0:0:0:0:
16,328,136609,2,0,L|56:200,1,129.999994049073,10|0,1:0|0:0,0:0:0:0:
160,128,136952,2,0,B|208:136|208:136|240:160|240:160|288:168,1,129.999994049073,10|0,1:0|0:0,0:0:0:0:
456,208,137294,5,10,1:0:0:0:
264,328,137466,1,2,0:0:0:0:
160,128,137637,1,10,1:0:0:0:
368,248,137809,1,2,0:0:0:0:
104,184,137980,2,0,P|80:152|80:120,1,64.9999970245363,10|0,1:0|0:0,0:0:0:0:
216,64,138152,2,0,P|240:104|240:144,1,64.9999970245363,2|0,0:0|0:0,0:0:0:0:
168,240,138323,2,0,P|136:299|192:248,1,194.999991073609
272,208,138666,6,0,P|312:160|400:152,1,129.999994049073,10|0,1:0|0:0,0:0:0:0:
352,336,139009,1,10,1:0:0:0:
168,240,139180,1,2,0:0:0:0:
24,344,139352,2,0,L|56:208,1,129.999994049073,10|0,1:0|0:0,0:0:0:0:
160,112,139694,2,0,B|181:179|181:179|163:257,1,129.999994049073,10|0,1:0|0:0,0:0:0:0:
72,128,140037,6,0,P|96:48|144:24,1,129.999994049073,10|0,1:0|0:0,0:0:0:0:
296,128,140380,1,10,1:0:0:0:
167,237,140552,1,2,0:0:0:0:
232,56,140723,2,0,B|280:48|280:48|320:56|320:56|384:48,1,129.999994049073,10|0,1:0|0:0,0:0:0:0:
464,144,141066,2,0,P|440:208|464:272,1,129.999994049073,10|0,1:0|0:0,0:0:0:0:
384,336,141409,6,0,B|312:312|312:312|248:320,1,129.999994049073,10|0,1:0|0:0,0:0:0:0:
72,200,141752,1,10,1:0:0:0:
136,376,141923,1,2,0:0:0:0:
224,232,142094,2,0,L|184:104,1,129.999994049073,10|0,1:0|0:0,0:0:0:0:
72,72,142437,2,0,P|87:146|56:224,1,129.999994049073,10|0,1:0|0:0,0:0:0:0:
256,192,142780,12,0,143809,0:0:0:0:
