osu file format v14

[General]
AudioFilename: audio.mp3
AudioLeadIn: 0
PreviewTime: 53637
Countdown: 0
SampleSet: Soft
StackLeniency: 0.4
Mode: 0
LetterboxInBreaks: 0
WidescreenStoryboard: 0

[Editor]
DistanceSpacing: 1.4
BeatDivisor: 4
GridSize: 8
TimelineZoom: 2.899999

[Metadata]
Title:Spoiler Alert
TitleUnicode:Spoiler Alert
Artist:S3RL feat DEFI BRILATOR
ArtistUnicode:S3RL feat DEFI BRILATOR
Creator:DCVLIVE
Version:Insane
Source:
Tags:electronic happy hardcore hackSL Saltssaumure
BeatmapID:1454009
BeatmapSetID:687098

[Difficulty]
HPDrainRate:6
CircleSize:4.3
OverallDifficulty:7.5
ApproachRate:8.5
SliderMultiplier:1.8
SliderTickRate:1

[Events]
//Background and Video events
0,0,"Saitama-One-Punch-Man-Wallpapers-11.png",0,0
//Break Periods
2,89294,99580
2,119494,121534
//Storyboard Layer 0 (Background)
//Storyboard Layer 1 (Fail)
//Storyboard Layer 2 (Pass)
//Storyboard Layer 3 (Foreground)
//Storyboard Sound Samples

[TimingPoints]
152,342.857142857143,4,2,1,50,1,0
10194,-83.3333333333333,4,2,1,60,0,0
12494,-83.3333333333333,4,2,1,75,0,0
32037,-83.3333333333333,4,2,1,35,0,0
34437,-100,4,2,1,35,0,0
50894,-83.3333333333333,4,2,1,35,0,0
56380,-83.3333333333333,4,2,1,70,0,1
76952,-83.3333333333333,4,2,1,40,0,0
78323,-100,4,2,1,40,0,0
83809,-83.3333333333333,4,2,1,40,0,0
100266,-100,4,2,1,40,0,0
111237,-83.3333333333333,4,2,1,60,0,0
122209,-83.3333333333333,4,2,1,70,0,0

[Colours]
Combo1 : 90,129,150
Combo2 : 235,175,52
Combo3 : 242,121,97
Combo4 : 114,83,41

[HitObjects]
280,64,1523,6,0,P|336:56|384:72,1,90,2|0,1:0|0:0,0:0:0:0:
320,160,1866,2,0,P|264:168|216:152,1,90,2|0,1:0|0:0,0:0:0:0:
160,80,2209,2,0,L|152:184,1,90,2|0,1:0|0:0,0:0:0:0:
80,256,2552,2,0,P|128:248|176:256,1,90,2|0,1:0|0:0,0:0:0:0:
264,304,2894,6,0,P|312:312|360:304,1,90,2|0,1:0|0:0,0:0:0:0:
448,344,3237,2,0,B|432:304|432:304|432:280|432:280|416:248,1,90,2|0,1:0|0:0,0:0:0:0:
328,192,3580,2,0,P|304:184|328:208,1,90,2|0,1:0|0:0,0:0:0:0:
456,104,3923,1,2,1:0:0:0:
421,259,4094,1,2,1:0:0:0:
376,120,4266,6,0,B|352:98|328:100|328:100|307:99|283:77,1,90,2|0,1:0|0:0,0:0:0:0:
200,32,4609,2,0,P|200:96|184:128,1,90,2|0,1:0|0:0,0:0:0:0:
120,208,4952,2,0,P|168:200|216:216,1,90,2|0,1:0|0:0,0:0:0:0:
296,168,5294,2,0,L|272:256,1,90,2|0,1:0|0:0,0:0:0:0:
336,344,5637,6,0,L|352:256,1,90,2|0,1:0|0:0,0:0:0:0:
427,169,5980,2,0,L|419:281,1,90,2|0,1:0|0:0,0:0:0:0:
480,352,6323,2,0,L|496:256,1,90,2|0,1:0|0:0,0:0:0:0:
427,169,7009,5,4,0:0:0:0:
320,80,7180,1,4,0:0:0:0:
320,224,7352,1,4,0:0:0:0:
200,128,7523,1,4,0:0:0:0:
343,151,7694,1,4,0:0:0:0:
304,296,7866,1,4,0:0:0:0:
157,277,8037,1,4,0:0:0:0:
264,184,8209,1,4,0:0:0:0:
264,184,8294,1,0,0:0:0:0:
264,184,8380,5,4,0:0:0:0:
192,344,8552,1,4,0:0:0:0:
64,240,8723,1,4,0:0:0:0:
200,128,8894,1,4,0:0:0:0:
157,277,9066,1,4,0:0:0:0:
96,112,9237,1,4,0:0:0:0:
264,184,9409,1,4,0:0:0:0:
424,80,9580,1,4,0:0:0:0:
288,32,9752,1,4,0:0:0:0:
259,33,9837,1,4,0:0:0:0:
230,45,9923,1,4,0:0:0:0:
208,68,10009,1,4,0:0:0:0:
198,97,10094,1,4,0:0:0:0:
200,128,10180,1,4,0:0:0:0:
216,160,10266,2,4,P|240:176|272:184,3,53.9999983520508
376,144,10609,2,4,P|352:128|320:120,3,53.9999983520508
340,228,10952,2,0,P|370:242|402:239,1,53.9999983520508
228,58,12152,6,0,P|304:75|400:54,1,161.999995056153
416,48,12494,6,0,P|432:104|416:160,1,107.999996704102,10|0,0:0|0:0,0:0:0:0:
328,216,12837,2,0,P|316:268|332:319,1,107.999996704102,10|0,0:0|0:0,0:0:0:0:
424,280,13180,2,0,P|412:240|406:280,1,107.999996704102,10|0,0:0|0:0,0:0:0:0:
496,184,13523,1,10,0:0:0:0:
328,216,13694,1,0,0:0:0:0:
256,72,13866,6,0,B|296:80|296:80|328:96|328:96|368:104,1,107.999996704102,10|0,0:0|0:0,0:0:0:0:
424,280,14209,1,10,0:0:0:0:
272,384,14380,1,0,0:0:0:0:
328,216,14552,1,10,0:0:0:0:
408,368,14723,1,0,0:0:0:0:
257,250,14894,2,0,P|257:178|289:146,1,107.999996704102,10|0,0:0|0:0,0:0:0:0:
358,102,15237,6,0,B|328:96|328:96|296:80|296:80|256:72,1,107.999996704102,10|0,0:0|0:0,0:0:0:0:
168,136,15580,2,0,L|152:256,1,107.999996704102,10|0,0:0|0:0,0:0:0:0:
216,336,15923,2,0,P|240:296|200:304,1,107.999996704102,10|0,0:0|0:0,0:0:0:0:
32,352,16266,1,10,0:0:0:0:
80,192,16437,1,0,0:0:0:0:
248,112,16609,6,0,L|232:232,1,107.999996704102,10|0,0:0|0:0,0:0:0:0:
176,88,16952,2,0,P|200:48|256:32,1,107.999996704102,10|0,0:0|0:0,0:0:0:0:
360,72,17294,2,0,B|328:128|328:128|320:184,1,107.999996704102,10|0,0:0|0:0,0:0:0:0:
400,288,17637,2,0,B|408:240|408:240|424:216|424:216|432:176,1,107.999996704102
320,248,17980,6,0,L|200:256,1,107.999996704102,10|0,0:0|0:0,0:0:0:0:
48,208,18323,1,10,0:0:0:0:
160,112,18494,1,0,0:0:0:0:
112,256,18666,2,0,P|56:288|7:276,1,107.999996704102,10|0,0:0|0:0,0:0:0:0:
8,144,19009,2,0,B|30:66|30:66|56:48,1,107.999996704102,10|0,0:0|0:0,0:0:0:0:
192,40,19352,6,0,P|232:88|232:136,1,107.999996704102,10|0,0:0|0:0,0:0:0:0:
192,216,19694,2,0,B|256:200|256:200|312:208,1,107.999996704102,10|0,0:0|0:0,0:0:0:0:
432,296,20037,1,10,0:0:0:0:
256,288,20209,1,0,0:0:0:0:
392,184,20380,1,10,0:0:0:0:
233,131,20552,1,0,0:0:0:0:
176,304,20723,6,0,P|216:360|256:368,1,107.999996704102,2|0,0:0|0:0,0:0:0:0:
432,296,21066,1,2,0:0:0:0:
256,288,21409,1,2,0:0:0:0:
233,131,21752,1,2,0:0:0:0:
233,131,21923,1,2,0:0:0:0:
256,192,22094,12,0,23294,0:0:0:0:
424,56,23466,6,0,B|416:128|416:128|432:184|432:184|424:272,1,215.999993408203,2|0,0:0|0:0,0:0:0:0:
200,336,23980,1,0,0:0:0:0:
360,192,24152,1,4,0:0:0:0:
152,176,24323,1,0,0:0:0:0:
288,336,24494,1,0,0:0:0:0:
80,296,24666,1,0,0:0:0:0:
144,96,24837,6,0,P|208:120|232:160,1,107.999996704102,0|2,0:0|0:0,0:0:0:0:
288,336,25180,1,0,0:0:0:0:
80,296,25352,1,0,0:0:0:0:
256,223,25523,2,0,L|360:191,1,107.999996704102,4|0,0:0|0:0,0:0:0:0:
456,232,25866,2,0,P|456:280|432:248,1,107.999996704102,0|2,0:0|0:0,0:0:0:0:
424,152,26209,6,0,L|456:40,1,107.999996704102,10|0,0:0|0:0,0:0:0:0:
285,119,26552,2,0,L|253:231,1,107.999996704102,10|0,0:0|0:0,0:0:0:0:
304,352,26894,2,0,P|248:336|192:336,1,107.999996704102,10|0,0:0|0:0,0:0:0:0:
88,360,27237,2,0,B|96:312|96:312|112:296|112:296|120:248,1,107.999996704102,10|0,0:0|0:0,0:0:0:0:
72,160,27580,6,0,P|128:160|192:144,1,107.999996704102,10|0,0:0|0:0,0:0:0:0:
296,40,27923,1,10,0:0:0:0:
120,56,28094,1,0,0:0:0:0:
285,119,28266,2,0,L|253:231,1,107.999996704102,10|0,0:0|0:0,0:0:0:0:
42,263,28609,2,0,L|74:151,1,107.999996704102
208,80,28952,6,0,P|296:32|376:128,1,215.999993408203,10|10,0:0|0:0,0:0:0:0:
480,224,29466,1,0,0:0:0:0:
360,320,29637,2,0,L|232:312,1,107.999996704102,10|0,0:0|0:0,0:0:0:0:
373,204,29980,2,0,L|480:224,1,107.999996704102,10|0,0:0|0:0,0:0:0:0:
373,99,30323,5,10,0:0:0:0:
208,80,30494,2,0,L|192:144,2,53.9999983520508,0|0|10,0:0|0:0|0:0,0:0:0:0:
128,80,30837,2,0,L|112:144,2,53.9999983520508,0|0|10,0:0|0:0|0:0,0:0:0:0:
48,80,31180,2,0,L|32:144,2,53.9999983520508,0|0|10,0:0|0:0|0:0,0:0:0:0:
48,80,31523,1,2,0:0:0:0:
40,208,31694,6,0,P|56:272|96:288,1,107.999996704102,10|0,0:0|0:0,0:0:0:0:
272,208,32037,1,2,0:0:0:0:
128,80,32380,1,2,0:0:0:0:
256,96,32723,1,2,0:0:0:0:
430,73,34437,6,0,P|410:135|424:169,1,90,2|0,0:0|0:0,0:0:0:0:
485,279,34780,2,0,P|421:270|383:283,1,90,2|0,0:0|0:0,0:0:0:0:
254,345,35123,1,2,0:0:0:0:
393,381,35294,1,0,0:0:0:0:
293,244,35466,2,0,L|306:144,1,90,2|0,0:0|0:0,0:0:0:0:
146,171,35809,6,0,P|159:224|149:275,1,90,2|0,0:0|0:0,0:0:0:0:
227,143,36152,2,0,P|216:85|229:39,1,90,2|0,0:0|0:0,0:0:0:0:
382,9,36494,1,2,0:0:0:0:
307,136,36666,1,0,0:0:0:0:
148,61,36837,2,0,L|38:64,1,90,2|0,0:0|0:0,0:0:0:0:
127,204,37180,6,0,L|230:189,1,90,2|0,0:0|0:0,0:0:0:0:
351,97,37523,2,0,P|324:152|330:192,1,90,2|0,0:0|0:0,0:0:0:0:
440,322,37866,1,2,0:0:0:0:
414,162,38037,1,0,0:0:0:0:
304,273,38209,2,0,P|244:293|201:282,1,90,2|0,0:0|0:0,0:0:0:0:
61,180,38552,6,0,B|114:160|114:160|163:174,1,90,2|0,0:0|0:0,0:0:0:0:
187,353,38894,2,0,B|139:342|139:342|107:306,1,90,2|0,0:0|0:0,0:0:0:0:
239,205,39237,2,0,L|243:95,1,90,2|0,0:0|0:0,0:0:0:0:
148,35,39580,2,0,P|121:57|163:67,1,90,2|0,0:0|0:0,0:0:0:0:
320,46,39923,6,0,P|385:46|416:60,1,90,2|0,0:0|0:0,0:0:0:0:
468,266,40266,2,0,P|403:266|374:249,1,90,2|0,0:0|0:0,0:0:0:0:
169,286,40609,1,2,0:0:0:0:
293,176,40780,1,0,0:0:0:0:
237,346,40952,2,0,L|132:322,1,90,2|0,0:0|0:0,0:0:0:0:
49,227,41294,6,0,P|71:166|61:133,1,90,2|0,0:0|0:0,0:0:0:0:
7,28,41637,2,0,P|61:35|110:26,1,90,2|0,0:0|0:0,0:0:0:0:
236,4,41980,2,0,L|196:89,1,90,2|0,0:0|0:0,0:0:0:0:
106,167,42323,2,0,B|133:161|160:178|160:178|189:191|214:177,1,90,2|0,0:0|0:0,0:0:0:0:
301,109,42666,6,0,P|281:173|291:213,1,90,2|0,0:0|0:0,0:0:0:0:
446,315,43009,2,0,P|466:251|452:212,1,90,2|0,0:0|0:0,0:0:0:0:
497,58,43352,1,2,0:0:0:0:
382,168,43523,1,2,0:0:0:0:
271,35,43694,2,0,L|159:48,1,90,2|0,0:0|0:0,0:0:0:0:
104,158,44037,6,0,B|164:145|164:145|208:156,1,90,2|0,0:0|0:0,0:0:0:0:
357,297,44380,2,0,B|297:310|297:310|252:296,1,90,2|0,0:0|0:0,0:0:0:0:
382,168,44723,2,0,B|442:155|442:155|481:164,1,90,2|0,0:0|0:0,0:0:0:0:
351,71,45066,1,2,0:0:0:0:
295,223,45237,1,0,0:0:0:0:
189,102,45409,6,0,L|85:117,1,90,4|0,0:0|0:0,0:0:0:0:
39,285,45752,2,0,L|140:248,1,90,4|0,0:0|0:0,0:0:0:0:
324,315,46094,1,4,0:0:0:0:
184,182,46266,1,0,0:0:0:0:
172,377,46437,2,0,L|232:292,1,90,4|0,0:0|0:0,0:0:0:0:
349,131,46780,6,0,P|287:135|250:128,1,90,4|0,0:0|0:0,0:0:0:0:
368,162,47123,2,0,P|306:166|270:156,1,90,4|0,0:0|0:0,0:0:0:0:
186,69,47466,2,0,L|161:166,1,90,4|0,0:0|0:0,0:0:0:0:
248,341,47809,2,0,B|273:281|273:281|275:241,1,90,4|0,0:0|0:0,0:0:0:0:
126,242,48152,6,0,P|60:236|25:245,1,90,4|0,0:0|0:0,0:0:0:0:
97,66,48494,2,0,P|163:72|203:63,1,90,4|0,0:0|0:0,0:0:0:0:
357,22,48837,1,4,0:0:0:0:
264,152,49009,1,0,0:0:0:0:
344,314,49180,2,0,L|369:220,1,90,4|0,0:0|0:0,0:0:0:0:
382,45,50894,5,4,0:0:0:0:
278,171,51066,2,0,L|243:227,2,53.9999983520508,4|0|4,0:0|0:0|0:0,0:0:0:0:
255,31,51409,1,4,0:0:0:0:
381,166,51580,1,4,0:0:0:0:
197,117,51752,1,4,0:0:0:0:
197,117,51837,1,0,0:0:0:0:
197,117,51923,1,4,0:0:0:0:
234,283,52094,1,4,0:0:0:0:
432,231,52266,5,4,0:0:0:0:
454,207,52352,1,4,0:0:0:0:
465,177,52437,1,4,0:0:0:0:
464,145,52523,1,4,0:0:0:0:
452,115,52609,1,4,0:0:0:0:
429,93,52694,1,4,0:0:0:0:
399,81,52780,1,4,0:0:0:0:
367,81,52866,1,4,0:0:0:0:
333,93,52952,2,4,P|310:115|301:148,3,53.9999983520508
322,287,53294,2,4,P|345:265|354:232,3,53.9999983520508
379,167,53637,5,0,0:0:0:0:
213,64,56037,6,0,B|287:91|287:91|391:65,1,161.999995056153
400,55,56380,6,0,P|412:112|399:168,1,107.999996704102,10|0,0:0|0:0,0:0:0:0:
248,316,56723,2,0,P|236:259|249:203,1,107.999996704102,10|0,0:0|0:0,0:0:0:0:
159,69,57066,1,10,0:0:0:0:
307,122,57237,1,0,0:0:0:0:
163,185,57409,1,10,0:0:0:0:
143,180,57752,5,10,0:0:0:0:
388,118,57923,1,0,0:0:0:0:
159,69,58094,1,10,0:0:0:0:
324,236,58266,1,0,0:0:0:0:
265,38,58437,1,10,0:0:0:0:
265,38,58609,2,0,L|237:153,2,107.999996704102,0|10|0,0:0|0:0|0:0,0:0:0:0:
433,53,59123,6,0,P|467:110|456:160,1,107.999996704102,10|0,0:0|0:0,0:0:0:0:
374,325,59466,2,0,P|340:268|351:218,1,107.999996704102,10|0,0:0|0:0,0:0:0:0:
394,118,59809,1,10,0:0:0:0:
420,258,59980,1,0,0:0:0:0:
318,162,60152,1,10,0:0:0:0:
326,151,60494,6,0,P|267:121|213:136,1,107.999996704102,10|0,0:0|0:0,0:0:0:0:
96,240,60837,2,0,P|155:270|209:255,1,107.999996704102,10|0,0:0|0:0,0:0:0:0:
99,113,61180,1,10,0:0:0:0:
99,113,61352,2,0,P|70:158|30:200,2,107.999996704102
243,35,61866,6,0,P|222:90|210:147,1,107.999996704102,10|0,0:0|0:0,0:0:0:0:
311,319,62209,2,0,P|331:263|344:207,1,107.999996704102,10|0,0:0|0:0,0:0:0:0:
424,101,62552,1,10,0:0:0:0:
300,143,62723,1,0,0:0:0:0:
437,195,62894,1,10,0:0:0:0:
453,199,63237,5,10,0:0:0:0:
241,94,63409,1,0,0:0:0:0:
311,319,63580,1,10,0:0:0:0:
424,101,63752,1,0,0:0:0:0:
229,180,63923,1,10,0:0:0:0:
229,180,64094,2,0,L|179:84,2,107.999996704102,0|10|0,0:0|0:0|0:0,0:0:0:0:
179,340,64609,6,0,L|117:231,1,107.999996704102,10|0,0:0|0:0,0:0:0:0:
179,84,64952,2,0,L|235:192,1,107.999996704102,10|0,0:0|0:0,0:0:0:0:
314,344,65294,1,10,0:0:0:0:
329,192,65466,1,0,0:0:0:0:
209,276,65637,1,10,0:0:0:0:
197,284,65980,5,2,0:0:0:0:
389,144,66152,1,0,0:0:0:0:
135,172,66323,1,2,0:0:0:0:
326,43,66494,1,2,0:0:0:0:
316,249,66666,1,2,0:0:0:0:
316,249,66837,2,0,P|372:272|429:269,2,107.999996704102
189,108,67352,6,0,P|126:88|77:106,1,107.999996704102,10|0,0:0|0:0,0:0:0:0:
23,273,67694,2,0,P|86:293|135:275,1,107.999996704102,10|0,0:0|0:0,0:0:0:0:
232,173,68037,1,10,0:0:0:0:
81,209,68209,1,0,0:0:0:0:
241,259,68380,1,10,0:0:0:0:
256,251,68723,6,0,P|304:211|312:169,1,107.999996704102,10|0,0:0|0:0,0:0:0:0:
223,3,69066,2,0,P|175:43|167:85,1,107.999996704102,10|0,0:0|0:0,0:0:0:0:
335,52,69409,1,10,0:0:0:0:
335,52,69580,2,0,P|392:62|428:107,2,107.999996704102,0|10|0,0:0|0:0|0:0,0:0:0:0:
222,168,70094,6,0,L|117:130,1,107.999996704102,10|0,0:0|0:0,0:0:0:0:
1,265,70437,2,10,L|107:291,1,107.999996704102,0|0,0:0|0:0,0:0:0:0:
272,333,70780,1,10,0:0:0:0:
175,221,70952,1,0,0:0:0:0:
162,368,71123,1,10,0:0:0:0:
153,376,71466,5,10,0:0:0:0:
288,203,71637,1,0,0:0:0:0:
79,238,71809,1,10,0:0:0:0:
272,333,71980,1,0,0:0:0:0:
175,165,72152,1,10,0:0:0:0:
175,165,72323,2,0,L|238:64,2,107.999996704102
312,110,72837,6,0,B|343:56|343:56|391:43,1,107.999996704102,10|0,0:0|0:0,0:0:0:0:
423,249,73180,2,0,B|392:303|392:303|344:316,1,107.999996704102,10|0,0:0|0:0,0:0:0:0:
420,162,73523,1,10,0:0:0:0:
471,315,73694,1,0,0:0:0:0:
335,236,73866,1,10,0:0:0:0:
213,348,74209,6,0,L|99:317,1,107.999996704102,10|0,0:0|0:0,0:0:0:0:
62,150,74552,2,0,L|177:186,1,107.999996704102,10|0,0:0|0:0,0:0:0:0:
335,236,74894,1,10,0:0:0:0:
335,236,75066,2,0,L|292:126,2,107.999996704102,0|10|0,0:0|0:0|0:0,0:0:0:0:
471,315,75580,6,0,P|441:257|439:207,1,107.999996704102,10|0,0:0|0:0,0:0:0:0:
474,32,75923,2,0,P|504:90|506:140,1,107.999996704102,10|0,0:0|0:0,0:0:0:0:
328,79,76266,1,2,0:0:0:0:
335,236,76437,1,0,0:0:0:0:
418,114,76609,1,10,0:0:0:0:
237,52,76952,6,0,L|210:161,1,107.999996704102,2|0,0:0|0:0,0:0:0:0:
69,305,77294,2,0,L|96:196,1,107.999996704102,2|0,0:0|0:0,0:0:0:0:
32,85,77637,2,0,L|141:112,1,107.999996704102,2|0,0:0|0:0,0:0:0:0:
285,253,77980,2,0,L|176:226,1,107.999996704102,2|0,0:0|0:0,0:0:0:0:
297,144,78323,6,0,P|336:173|389:175,1,90,6|0,0:0|0:0,0:0:0:0:
508,67,78666,2,0,P|459:33|405:33,1,90,6|0,0:0|0:0,0:0:0:0:
303,77,79009,1,6,0:0:0:0:
419,116,79180,1,0,0:0:0:0:
343,16,79352,1,6,0:0:0:0:
219,153,79694,6,0,B|180:115|180:115|172:58,1,90,6|0,0:0|0:0,0:0:0:0:
293,231,80037,2,0,B|331:270|331:270|340:326,1,90,6|0,0:0|0:0,0:0:0:0:
243,139,80380,6,0,B|231:81|231:81|250:33,1,90,6|0,2:0|2:0,2:0:0:0:
267,244,80723,2,0,B|280:300|280:300|260:350,1,90,6|0,2:0|2:0,2:0:0:0:
271,140,81066,6,0,B|285:86|285:86|330:52,1,90,6|0,2:0|2:0,2:0:0:0:
240,243,81409,2,0,B|226:297|226:297|181:331,1,90,6|0,2:0|2:0,2:0:0:0:
295,155,81752,6,0,B|330:115|330:115|390:108,1,90,6|0,2:0|2:0,2:0:0:0:
217,229,82095,2,0,B|180:269|180:269|121:276,1,90,6|0,2:0|2:0,2:0:0:0:
308,179,82437,6,0,B|366:169|366:169|414:186,1,90,6|0,2:0|2:0,2:0:0:0:
203,204,82780,2,0,B|151:215|151:215|97:197,1,90,6|0,2:0|2:0,2:0:0:0:
307,207,83123,6,0,B|361:224|361:224|395:266,1,90,6|0,2:0|2:0,2:0:0:0:
203,177,83466,2,0,B|148:160|148:160|115:118,1,90,6|0,2:0|2:0,2:0:0:0:
285,104,83809,5,4,0:0:0:0:
227,271,83980,2,4,L|199:328,2,53.9999983520508
357,177,84323,1,4,0:0:0:0:
204,176,84494,1,4,0:0:0:0:
324,277,84666,2,4,L|339:335,2,53.9999983520508
285,104,85009,1,4,0:0:0:0:
117,55,85180,5,4,0:0:0:0:
41,215,85352,1,4,0:0:0:0:
41,215,85437,1,4,0:0:0:0:
41,215,85523,1,4,0:0:0:0:
204,176,85694,1,4,0:0:0:0:
101,318,85866,1,4,0:0:0:0:
88,144,86037,1,4,0:0:0:0:
88,144,86123,1,4,0:0:0:0:
88,144,86208,1,4,0:0:0:0:
232,90,86380,1,0,0:0:0:0:
361,185,86552,5,4,0:0:0:0:
383,161,86638,1,4,0:0:0:0:
394,131,86723,1,4,0:0:0:0:
393,99,86809,1,4,0:0:0:0:
381,69,86895,1,4,0:0:0:0:
358,47,86980,1,4,0:0:0:0:
328,35,87066,1,4,0:0:0:0:
296,35,87152,1,4,0:0:0:0:
262,47,87238,2,4,P|239:69|230:102,3,53.9999983520508
233,242,87580,2,4,P|256:220|265:187,3,53.9999983520508
374,83,100266,6,0,P|277:48|197:78,1,180,2|0,0:0|0:0,0:0:0:0:
58,40,100837,1,0,0:0:0:0:
82,110,100952,2,0,B|45:173|68:206|68:206|91:243|67:300,1,180,4|0,0:0|0:0,0:0:0:0:
208,275,101523,1,2,0:0:0:0:
264,316,101637,6,0,P|320:303|368:320,1,90,2|0,0:0|0:0,0:0:0:0:
448,250,101980,2,0,P|430:165|447:105,1,135,2|0,0:0|0:0,0:0:0:0:
373,43,102323,2,0,P|307:82|362:91,1,180,4|0,0:0|0:0,0:0:0:0:
467,130,102894,1,0,0:0:0:0:
396,125,103009,6,0,P|286:131|252:77,1,180,2|0,0:0|0:0,0:0:0:0:
371,22,103580,1,0,0:0:0:0:
437,42,103694,2,0,P|485:131|444:196,1,180,4|0,0:0|0:0,0:0:0:0:
278,224,104266,1,2,0:0:0:0:
254,291,104380,6,0,P|194:301|150:280,1,90,2|0,0:0|0:0,0:0:0:0:
45,344,104723,2,0,P|65:289|50:208,1,135,2|0,0:0|0:0,0:0:0:0:
0,132,105066,2,0,B|52:113|90:132|90:132|132:151|190:134,1,180,4|0,0:0|0:0,0:0:0:0:
319,66,105637,1,0,0:0:0:0:
371,123,105752,6,0,P|325:202|375:276,1,180,2|0,0:0|0:0,0:0:0:0:
492,186,106323,1,0,0:0:0:0:
492,109,106437,2,0,P|426:43|315:69,1,180,4|0,0:0|0:0,0:0:0:0:
252,159,107009,1,2,0:0:0:0:
204,104,107123,6,0,P|146:86|105:107,1,90,2|0,0:0|0:0,0:0:0:0:
36,194,107466,2,0,P|86:222|163:195,1,135,2|0,0:0|0:0,0:0:0:0:
252,159,107809,2,0,P|303:168|238:202,1,180,4|0,0:0|0:0,0:0:0:0:
136,168,108380,1,0,0:0:0:0:
148,235,108494,6,0,P|193:297|302:317,1,180,2|0,0:0|0:0,0:0:0:0:
409,179,109066,1,0,0:0:0:0:
472,148,109180,2,0,P|446:247|468:328,1,180,4|0,0:0|0:0,0:0:0:0:
308,337,109752,1,2,0:0:0:0:
254,285,109866,1,2,0:0:0:0:
428,64,111237,6,0,P|438:124|419:173,1,107.999996704102,2|0,0:0|0:0,0:0:0:0:
291,304,111580,2,0,P|281:244|300:195,1,107.999996704102,2|0,0:0|0:0,0:0:0:0:
474,266,111923,2,0,P|414:276|365:257,1,107.999996704102,2|0,0:0|0:0,0:0:0:0:
242,97,112266,2,0,P|302:87|351:106,1,107.999996704102,2|0,0:0|0:0,0:0:0:0:
197,208,112609,6,0,P|131:220|83:191,1,107.999996704102,2|0,0:0|0:0,0:0:0:0:
5,99,112952,1,2,0:0:0:0:
53,256,113123,1,0,0:0:0:0:
134,94,113294,2,0,L|251:97,1,107.999996704102,2|0,0:0|0:0,0:0:0:0:
386,210,113637,2,0,L|269:207,1,107.999996704102,2|0,0:0|0:0,0:0:0:0:
315,101,113980,6,0,P|378:109|433:102,1,107.999996704102,2|0,0:0|0:0,0:0:0:0:
376,277,114323,1,2,0:0:0:0:
257,156,114494,1,0,0:0:0:0:
422,209,114666,2,0,P|455:270|441:324,1,107.999996704102,2|0,0:0|0:0,0:0:0:0:
284,252,115009,2,0,P|251:191|265:137,1,107.999996704102,2|0,0:0|0:0,0:0:0:0:
323,63,115352,6,0,P|253:69|214:60,1,107.999996704102,2|0,0:0|0:0,0:0:0:0:
52,26,115694,1,2,0:0:0:0:
100,171,115866,1,0,0:0:0:0:
27,334,116037,2,0,L|144:323,1,107.999996704102,2|0,0:0|0:0,0:0:0:0:
284,252,116380,1,0,0:0:0:0:
190,376,116552,1,0,0:0:0:0:
232,182,116723,6,4,P|298:168|342:186,1,107.999996704102,2|0,0:0|0:0,0:0:0:0:
437,319,117066,1,6,0:0:0:0:
446,153,117237,1,4,0:0:0:0:
342,308,117409,2,0,L|223:320,1,107.999996704102,6|4,0:0|0:0,0:0:0:0:
86,213,117752,1,6,0:0:0:0:
156,347,117923,1,4,0:0:0:0:
156,347,118009,1,4,0:0:0:0:
156,347,118094,6,4,P|143:290|171:232,1,107.999996704102,6|4,0:0|0:0,0:0:0:0:
261,100,118437,1,6,0:0:0:0:
278,272,118609,1,4,0:0:0:0:
154,144,118780,1,6,0:0:0:0:
339,175,118952,1,4,0:0:0:0:
339,175,119037,1,4,0:0:0:0:
339,175,119123,2,0,L|399:275,1,107.999996704102,6|4,0:0|0:0,0:0:0:0:
370,72,122209,6,0,P|413:125|406:172,1,107.999996704102,10|0,0:0|0:0,0:0:0:0:
317,296,122552,1,10,0:0:0:0:
466,216,122723,1,0,0:0:0:0:
285,189,122894,2,0,L|169:168,1,107.999996704102,10|0,0:0|0:0,0:0:0:0:
211,317,123237,2,0,L|323:294,1,107.999996704102,10|0,0:0|0:0,0:0:0:0:
406,266,123580,6,0,P|391:199|416:156,1,107.999996704102,10|0,0:0|0:0,0:0:0:0:
504,57,123923,1,10,0:0:0:0:
360,103,124094,1,0,0:0:0:0:
203,49,124266,2,0,P|127:38|89:48,1,107.999996704102,10|0,0:0|0:0,0:0:0:0:
144,173,124609,2,0,P|220:184|258:174,1,107.999996704102,10|0,0:0|0:0,0:0:0:0:
360,103,124952,6,0,P|352:164|362:216,1,107.999996704102,10|0,0:0|0:0,0:0:0:0:
428,359,125294,1,10,0:0:0:0:
480,230,125466,1,0,0:0:0:0:
336,318,125637,2,0,L|205:299,1,107.999996704102,10|0,0:0|0:0,0:0:0:0:
144,173,125980,2,0,P|220:184|258:174,1,107.999996704102,10|0,0:0|0:0,0:0:0:0:
104,42,126323,5,10,0:0:0:0:
54,222,126494,1,0,0:0:0:0:
200,91,126666,1,10,0:0:0:0:
19,124,126837,1,0,0:0:0:0:
147,248,127009,1,10,0:0:0:0:
147,248,127180,2,0,L|107:351,2,107.999996704102
200,91,127694,6,0,L|314:106,1,107.999996704102,10|0,0:0|0:0,0:0:0:0:
457,52,128037,1,10,0:0:0:0:
370,181,128209,1,0,0:0:0:0:
450,333,128380,2,0,P|473:260|466:218,1,107.999996704102,10|0,0:0|0:0,0:0:0:0:
273,170,128723,2,0,P|250:243|257:285,1,107.999996704102,10|0,0:0|0:0,0:0:0:0:
154,350,129066,6,0,P|174:294|165:229,1,107.999996704102,10|0,0:0|0:0,0:0:0:0:
137,92,129409,1,10,0:0:0:0:
273,170,129580,1,0,0:0:0:0:
83,193,129752,2,0,L|23:90,1,107.999996704102,10|0,0:0|0:0,0:0:0:0:
199,145,130094,2,0,L|259:248,1,107.999996704102,10|0,0:0|0:0,0:0:0:0:
200,338,130437,6,0,P|263:330|312:344,1,107.999996704102,10|0,0:0|0:0,0:0:0:0:
481,298,130780,1,10,0:0:0:0:
323,240,130952,1,0,0:0:0:0:
437,370,131123,2,0,B|443:300|443:300|425:242,1,107.999996704102,10|0,0:0|0:0,0:0:0:0:
319,134,131466,2,0,B|310:185|310:185|328:264,1,107.999996704102,10|0,0:0|0:0,0:0:0:0:
453,75,131809,5,2,0:0:0:0:
262,188,131980,1,0,0:0:0:0:
444,178,132152,1,2,0:0:0:0:
251,64,132323,1,2,0:0:0:0:
322,239,132494,1,2,0:0:0:0:
322,239,132666,2,0,P|341:178|319:134,2,107.999996704102
172,325,133180,6,0,B|137:287|137:287|136:225,1,107.999996704102,10|0,0:0|0:0,0:0:0:0:
195,88,133523,1,10,0:0:0:0:
46,168,133694,1,0,0:0:0:0:
227,195,133865,2,0,L|343:216,1,107.999996704102,10|0,0:0|0:0,0:0:0:0:
301,67,134209,2,0,L|189:90,1,107.999996704102,10|0,0:0|0:0,0:0:0:0:
106,118,134551,6,0,P|121:185|96:228,1,107.999996704102,10|0,0:0|0:0,0:0:0:0:
8,327,134894,1,10,0:0:0:0:
152,281,135065,1,0,0:0:0:0:
309,335,135237,2,0,P|385:346|423:336,1,107.999996704102,10|0,0:0|0:0,0:0:0:0:
368,211,135580,2,0,P|292:200|254:210,1,107.999996704102,10|0,0:0|0:0,0:0:0:0:
152,281,135923,6,0,P|160:220|150:168,1,107.999996704102,10|0,0:0|0:0,0:0:0:0:
84,25,136266,1,10,0:0:0:0:
32,154,136437,1,0,0:0:0:0:
176,66,136608,2,0,B|232:84|232:84|294:84,1,107.999996704102,10|0,0:0|0:0,0:0:0:0:
368,211,136951,2,0,P|292:200|254:210,1,107.999996704102,10|0,0:0|0:0,0:0:0:0:
408,342,137294,5,10,0:0:0:0:
458,162,137465,1,0,0:0:0:0:
312,293,137637,1,10,0:0:0:0:
493,260,137808,1,0,0:0:0:0:
365,136,137980,1,10,0:0:0:0:
365,136,138151,2,0,P|391:83|437:63,2,107.999996704102
254,201,138666,6,0,P|276:146|276:89,1,107.999996704102,10|0,0:0|0:0,0:0:0:0:
144,0,139009,1,10,0:0:0:0:
177,148,139180,1,0,0:0:0:0:
251,24,139352,2,0,L|364:42,1,107.999996704102,10|0,0:0|0:0,0:0:0:0:
444,188,139694,2,0,L|331:170,1,107.999996704102,10|0,0:0|0:0,0:0:0:0:
210,254,140037,6,0,P|271:252|325:275,1,107.999996704102,10|0,0:0|0:0,0:0:0:0:
488,252,140380,1,10,0:0:0:0:
367,348,140552,1,0,0:0:0:0:
270,202,140723,2,0,L|172:145,1,107.999996704102,10|0,0:0|0:0,0:0:0:0:
33,221,141066,2,0,L|131:278,1,107.999996704102,10|0,0:0|0:0,0:0:0:0:
285,282,141409,6,0,P|334:257|355:200,1,107.999996704102,10|0,0:0|0:0,0:0:0:0:
278,55,141752,1,10,0:0:0:0:
442,131,141923,1,0,0:0:0:0:
262,149,142094,2,0,L|143:131,1,107.999996704102,10|0,0:0|0:0,0:0:0:0:
278,55,142437,2,0,L|384:102,1,107.999996704102,10|0,0:0|0:0,0:0:0:0:
256,192,142780,12,0,143809,0:0:0:0:
