osu file format v14

[General]
AudioFilename: audio.mp3
AudioLeadIn: 0
PreviewTime: 47040
Countdown: 0
SampleSet: Soft
StackLeniency: 0.7
Mode: 0
LetterboxInBreaks: 0
WidescreenStoryboard: 0

[Editor]
Bookmarks: 12411,26125,37097,48068,70011,80982,83725,86468,89211,91954,102925,104297,124868,126240,135840,146811,157782,163268,168754
DistanceSpacing: 1.6
BeatDivisor: 4
GridSize: 4
TimelineZoom: 1

[Metadata]
Title:Friendzoned (Nowa Remix)
TitleUnicode:Friendzoned (Nowa Remix)
Artist:S3RL Ft. Mixie Moon
ArtistUnicode:S3RL Ft. Mixie Moon
Creator:fufu-
Version:Just Friends
Source:
Tags:
BeatmapID:1353298
BeatmapSetID:637906

[Difficulty]
HPDrainRate:6
CircleSize:4
OverallDifficulty:7
ApproachRate:9.3
SliderMultiplier:1.2
SliderTickRate:1

[Events]
//Background and Video events
0,0,"anime-girl-lying-down-lazy-one-eye-anime-3586.jpg",0,0
//Break Periods
//Storyboard Layer 0 (Background)
//Storyboard Layer 1 (Fail)
//Storyboard Layer 2 (Pass)
//Storyboard Layer 3 (Foreground)
//Storyboard Sound Samples

[TimingPoints]
411,342.857142857143,4,2,1,40,1,0
1440,342.857142857143,4,2,1,40,1,0
1440,-200,4,2,1,40,0,0
1868,-200,4,3,1,5,0,0
1954,-200,4,2,1,40,0,0
2382,-200,4,3,1,5,0,0
2468,-200,4,2,1,40,0,0
2897,-200,4,3,1,5,0,0
2982,-200,4,2,1,40,0,0
3411,-200,4,3,1,5,0,0
3497,-200,4,2,1,40,0,0
3754,-200,4,3,1,5,0,0
3839,-200,4,2,1,40,0,0
4097,-200,4,3,1,5,0,0
4182,-200,4,2,1,40,0,0
5639,-200,4,3,1,5,0,0
5725,-200,4,2,1,40,0,0
7354,-200,4,3,1,5,0,0
7439,-200,4,2,1,40,0,0
7868,-200,4,3,1,5,0,0
7954,-200,4,2,1,40,0,0
8382,-200,4,3,1,5,0,0
8468,-200,4,2,1,40,0,0
8897,-200,4,3,1,5,0,0
8982,-200,4,2,1,40,0,0
9240,-200,4,3,1,5,0,0
9325,-200,4,2,1,40,0,0
9582,-200,4,3,1,5,0,0
9668,-200,4,2,1,40,0,0
11125,-200,4,3,1,5,0,0
11211,-200,4,2,1,40,0,0
12411,-133.333333333333,4,2,1,60,0,0
12840,-133.333333333333,4,3,1,5,0,0
12925,-133.333333333333,4,2,1,60,0,0
13354,-133.333333333333,4,3,1,5,0,0
13440,-133.333333333333,4,2,1,60,0,0
13868,-133.333333333333,4,3,1,5,0,0
13954,-133.333333333333,4,2,1,60,0,0
14382,-133.333333333333,4,3,1,5,0,0
14468,-133.333333333333,4,2,1,60,0,0
14725,-133.333333333333,4,3,1,5,0,0
14811,-133.333333333333,4,2,1,60,0,0
15068,-133.333333333333,4,3,1,5,0,0
15154,-133.333333333333,4,2,1,60,0,0
16611,-133.333333333333,4,3,1,5,0,0
16697,-133.333333333333,4,2,1,60,0,0
18325,-133.333333333333,4,3,1,5,0,0
18411,-133.333333333333,4,2,1,60,0,0
18840,-133.333333333333,4,3,1,5,0,0
18925,-133.333333333333,4,2,1,60,0,0
19354,-133.333333333333,4,3,1,5,0,0
19440,-133.333333333333,4,2,1,60,0,0
19868,-133.333333333333,4,3,1,5,0,0
19954,-133.333333333333,4,2,1,60,0,0
20211,-133.333333333333,4,3,1,5,0,0
20297,-133.333333333333,4,2,1,60,0,0
20554,-133.333333333333,4,3,1,5,0,0
20640,-133.333333333333,4,2,1,60,0,0
22097,-133.333333333333,4,3,1,5,0,0
22182,-133.333333333333,4,2,1,60,0,0
23382,-133.333333333333,4,2,2,60,0,0
25782,-400,4,2,1,60,0,0
26040,-400,4,3,1,5,0,0
26125,-100,4,2,1,80,0,0
37097,-100,4,2,3,100,0,0
46697,-100,4,2,2,100,0,0
48068,-66.6666666666667,4,2,3,100,0,1
69840,-66.6666666666667,4,2,3,100,0,0
70011,-66.6666666666667,4,2,3,100,0,1
70954,-66.6666666666667,4,3,3,5,0,1
71040,-66.6666666666667,4,2,3,100,0,1
71297,-66.6666666666667,4,3,3,5,0,1
71382,-66.6666666666667,4,2,3,100,0,1
72325,-66.6666666666667,4,3,3,5,0,1
72411,-66.6666666666667,4,2,3,100,0,1
72668,-66.6666666666667,4,3,3,5,0,1
72754,-66.6666666666667,4,2,3,100,0,1
73697,-66.6666666666667,4,3,3,5,0,1
73782,-66.6666666666667,4,2,3,100,0,1
76440,-66.6666666666667,4,3,3,5,0,1
76525,-66.6666666666667,4,2,3,100,0,1
76782,-66.6666666666667,4,3,3,5,0,1
76868,-66.6666666666667,4,2,3,100,0,1
77811,-66.6666666666667,4,3,3,5,0,1
77897,-66.6666666666667,4,2,3,100,0,1
80982,-400,4,2,1,20,0,0
83640,-400,4,3,1,5,0,0
83725,-400,4,2,1,20,0,0
86382,-400,4,3,1,5,0,0
86468,-400,4,2,1,20,0,0
89125,-400,4,3,1,5,0,0
89211,-400,4,2,1,20,0,0
91868,-400,4,3,1,5,0,0
91954,-200,4,2,1,40,0,0
103268,-200,4,3,1,60,0,0
103954,-200,4,2,3,80,0,0
104297,-66.6666666666667,4,2,3,80,0,1
124868,-100,4,2,3,80,0,0
126240,-66.6666666666667,4,2,3,80,0,1
135668,-66.6666666666667,4,2,3,80,0,0
135840,-66.6666666666667,4,2,3,80,0,1
146811,-100,4,2,3,80,0,0
157782,-133.333333333333,4,2,3,80,0,0
163268,-200,4,2,1,80,0,0
163268,-200,4,2,1,80,0,0

[Colours]
Combo1 : 255,255,0
Combo2 : 167,84,84
Combo3 : 0,64,128
Combo4 : 255,128,192
Combo5 : 255,255,128
Combo6 : 255,128,0
Combo7 : 0,255,255
Combo8 : 255,0,255

[HitObjects]
375,88,411,5,2,0:0:0:0:
376,99,754,5,2,0:0:0:0:
377,110,1097,5,2,0:0:0:0:
378,121,1440,6,0,P|345:117|304:134,1,75,6|0,0:0|0:0,0:0:0:0:
326,258,1954,70,0,P|345:231|351:187,1,75,2|0,0:0|0:0,0:0:0:0:
235,143,2468,6,0,P|248:173|283:200,1,75,2|0,0:0|0:0,0:0:0:0:
260,73,2982,6,0,P|227:68|186:85,1,75,2|0,0:0|0:0,0:0:0:0:
150,179,3497,6,0,L|162:232,1,45,2|0,0:0|0:0,0:0:0:0:
236,255,3839,2,0,L|226:308,1,45,2|0,0:0|0:0,0:0:0:0:
159,338,4182,69,0,0:0:0:0:
110,280,4354,1,0,0:0:0:0:
85,351,4525,1,0,0:0:0:0:
181,359,4697,5,0,0:0:0:0:
104,249,4868,1,0,0:0:0:0:
66,376,5039,1,0,0:0:0:0:
269,348,5382,6,0,L|320:342,1,45
396,335,5725,5,0,0:0:0:0:
346,273,5897,1,0,0:0:0:0:
314,343,6239,1,0,0:0:0:0:
301,368,6582,1,0,0:0:0:0:
212,176,6925,70,0,P|230:162|281:145,1,75,2|0,0:0|0:0,0:0:0:0:
351,36,7439,6,0,P|354:58|343:111,1,75,2|0,0:0|0:0,0:0:0:0:
404,229,7954,6,0,P|382:220|342:184,1,75,2|0,0:0|0:0,0:0:0:0:
220,28,8468,6,0,P|241:36|281:72,1,75,2|0,0:0|0:0,0:0:0:0:
280,223,8982,70,0,P|275:240|261:268,1,45,2|0,0:0|0:0,0:0:0:0:
172,329,9325,2,0,L|124:336,1,45,2|0,0:0|0:0,0:0:0:0:
22,348,9668,5,0,0:0:0:0:
65,274,9840,1,0,0:0:0:0:
20,205,10011,1,0,0:0:0:0:
46,368,10182,5,0,0:0:0:0:
97,275,10354,1,0,0:0:0:0:
36,177,10525,1,0,0:0:0:0:
192,257,10868,6,0,L|243:245,1,45
309,224,11211,69,0,0:0:0:0:
292,353,11382,1,0,0:0:0:0:
319,342,11725,1,0,0:0:0:0:
347,332,12068,1,0,0:0:0:0:
451,169,12411,6,0,B|397:157|397:157|339:173,1,112.500004291535,6|0,0:0|0:0,0:0:0:0:
258,160,12925,6,0,B|274:212|274:212|317:254,1,112.500004291535,2|0,0:0|0:0,0:0:0:0:
347,332,13440,6,0,B|384:291|384:291|399:233,1,112.500004291535,2|0,0:0|0:0,0:0:0:0:
309,94,13954,70,0,B|255:82|255:82|197:98,1,112.500004291535,2|0,0:0|0:0,0:0:0:0:
68,121,14468,6,0,B|102:130|102:130|152:116,1,67.5000025749207,2|0,0:0|0:0,0:0:0:0:
254,9,14811,2,0,L|184:28,1,67.5000025749207,2|0,0:0|0:0,0:0:0:0:
187,170,15154,5,0,0:0:0:0:
174,246,15325,1,0,0:0:0:0:
244,220,15497,1,0,0:0:0:0:
180,137,15668,5,0,0:0:0:0:
154,272,15840,1,0,0:0:0:0:
275,230,16011,1,0,0:0:0:0:
61,178,16354,70,0,P|55:217|56:263,1,67.5000025749207
89,311,16697,5,0,0:0:0:0:
245,348,16868,1,0,0:0:0:0:
275,343,17211,1,0,0:0:0:0:
304,338,17554,1,0,0:0:0:0:
349,131,17897,6,0,B|365:103|365:103|397:180,1,112.500004291535,2|0,0:0|0:0,0:0:0:0:
310,196,18411,6,0,B|294:224|294:224|262:147,1,112.500004291535,2|0,0:0|0:0,0:0:0:0:
395,111,18925,70,0,B|426:102|426:102|394:179,1,112.500004291535,2|0,0:0|0:0,0:0:0:0:
263,215,19439,6,0,B|231:223|231:223|263:146,1,112.500004291535,2|0,0:0|0:0,0:0:0:0:
314,18,19954,6,0,L|288:81,1,67.5000025749207,2|0,0:0|0:0,0:0:0:0:
196,120,20297,2,0,L|170:183,1,67.5000025749207,2|0,0:0|0:0,0:0:0:0:
73,225,20640,5,0,0:0:0:0:
143,256,20811,1,0,0:0:0:0:
105,157,20982,1,0,0:0:0:0:
41,237,21154,69,0,0:0:0:0:
154,284,21325,1,0,0:0:0:0:
94,124,21497,1,0,0:0:0:0:
246,53,21840,6,0,B|278:38|278:38|308:60,1,67.5000025749207
360,113,22182,5,0,0:0:0:0:
313,278,22354,1,0,0:0:0:0:
300,251,22697,1,0,0:0:0:0:
286,225,23040,1,0,0:0:0:0:
501,184,23382,1,4,0:0:0:0:
501,184,25782,6,0,L|478:182,1,22.5
400,156,26125,70,0,P|401:214|473:264,1,150,14|0,0:0|0:0,0:0:0:0:
371,148,26811,2,8,L|281:135,2,90
239,272,27497,6,0,P|243:233|137:169,1,180,10|0,0:0|0:0,0:0:0:0:
163,246,28182,1,8,0:0:0:0:
270,284,28440,1,8,0:0:0:0:
377,326,28697,1,8,0:0:0:0:
109,358,28868,6,0,P|106:310|-3:259,1,180,10|0,0:0|0:0,0:0:0:0:
28,337,29554,1,8,0:0:0:0:
16,181,29811,1,8,0:0:0:0:
4,33,30068,1,8,0:0:0:0:
136,101,30240,6,0,L|316:68,1,180,10|0,0:0|0:0,0:0:0:0:
269,245,30925,1,8,0:0:0:0:
291,158,31182,1,8,0:0:0:0:
313,68,31440,1,8,0:0:0:0:
364,342,31611,70,0,L|202:321,1,150,14|0,0:0|0:0,0:0:0:0:
385,321,32297,2,8,L|476:333,2,90
359,188,32982,6,0,P|347:143|437:62,1,180,10|0,0:0|0:0,0:0:0:0:
430,145,33668,1,8,0:0:0:0:
331,212,33925,1,8,0:0:0:0:
226,144,34182,1,8,0:0:0:0:
172,306,34354,6,0,P|162:263|45:236,1,180,10|0,0:0|0:0,0:0:0:0:
91,304,35040,1,8,0:0:0:0:
138,150,35297,1,8,0:0:0:0:
176,8,35554,1,8,0:0:0:0:
241,138,35725,6,0,L|293:313,1,180,10|0,0:0|0:0,0:0:0:0:
375,205,36411,1,8,0:0:0:0:
230,221,36668,1,8,0:0:0:0:
87,235,36925,1,8,0:0:0:0:
295,40,37097,70,0,P|303:91|296:161,1,120,4|0,0:0|0:0,0:0:0:0:
176,100,37611,1,0,0:0:0:0:
339,102,37782,2,0,L|462:106,1,120,8|0,0:0|0:0,0:0:0:0:
435,219,38297,1,0,0:0:0:0:
487,346,38468,6,0,P|457:328|364:313,1,120,4|0,0:0|0:0,0:0:0:0:
256,367,38982,1,0,0:0:0:0:
298,251,39154,2,0,P|291:192|265:139,1,120,8|0,0:0|0:0,0:0:0:0:
115,37,39840,6,0,B|102:97|102:97|128:163,1,120,4|0,0:0|0:0,0:0:0:0:
253,104,40354,1,0,0:0:0:0:
44,146,40525,2,0,B|67:202|67:202|126:241,1,120,8|0,0:0|0:0,0:0:0:0:
253,104,41040,1,0,0:0:0:0:
204,315,41211,6,0,L|330:298,1,120,4|0,0:0|0:0,0:0:0:0:
408,344,41725,1,0,0:0:0:0:
480,212,41897,2,0,L|354:229,1,120,8|0,0:0|0:0,0:0:0:0:
186,56,42582,70,0,P|216:45|255:37,1,60,4|2,0:0|0:0,0:0:0:0:
364,108,42925,2,0,P|335:100|295:94,1,60,4|2,0:0|0:0,0:0:0:0:
163,175,43268,2,0,P|193:162|226:156,1,60,4|2,0:0|0:0,0:0:0:0:
377,235,43611,2,0,P|346:219|313:211,1,60,4|2,0:0|0:0,0:0:0:0:
133,297,43954,6,0,L|124:362,1,60,4|2,0:0|0:0,0:0:0:0:
83,214,44297,2,0,L|66:152,1,60,4|2,0:0|0:0,0:0:0:0:
158,317,44640,2,0,L|154:379,1,60,4|2,0:0|0:0,0:0:0:0:
51,207,44982,2,4,L|31:146,1,60,4|2,0:0|0:0,0:0:0:0:
175,92,45325,5,6,0:0:0:0:
127,243,45497,1,2,0:0:0:0:
98,60,45668,1,6,0:0:0:0:
249,126,45840,1,2,0:0:0:0:
114,271,46011,5,6,0:0:0:0:
322,163,46182,1,6,0:0:0:0:
175,92,46354,1,6,0:0:0:0:
267,340,46525,1,6,0:0:0:0:
474,132,46697,69,4,0:0:0:0:
474,132,48068,54,0,B|382:121|382:121|297:188,1,180.000006866455,4|8,0:0|0:0,0:0:0:0:
348,332,48582,1,0,0:0:0:0:
303,147,48754,2,0,L|284:58,1,90.0000034332277,0|4,0:0|0:0,0:0:0:0:
245,243,49097,1,8,0:0:0:0:
358,37,49268,1,0,0:0:0:0:
290,344,49440,6,0,L|99:313,1,180.000006866455,4|8,0:0|0:0,0:0:0:0:
183,163,49954,1,0,0:0:0:0:
321,348,50125,2,0,L|411:362,1,90.0000034332277,4|0,0:0|0:0,0:0:0:0:
486,201,50468,2,0,L|391:220,1,90.0000034332277,8|0,0:0|0:0,0:0:0:0:
272,252,50811,5,4,0:0:0:0:
423,216,50982,1,0,0:0:0:0:
241,161,51154,1,8,0:0:0:0:
366,288,51325,1,0,0:0:0:0:
406,122,51497,1,0,0:0:0:0:
375,316,51668,1,4,0:0:0:0:
216,142,51840,1,8,0:0:0:0:
421,93,52011,1,0,0:0:0:0:
262,263,52182,5,4,0:0:0:0:
318,59,52354,1,0,0:0:0:0:
118,25,52525,2,0,P|100:60|104:134,1,90.0000034332277,8|4,0:0|0:0,0:0:0:0:
136,173,52782,2,0,P|148:217|132:280,1,90.0000034332277,4|4,0:0|0:0,0:0:0:0:
81,311,53040,2,0,P|120:335|172:333,1,90.0000034332277,4|8,0:0|0:0,0:0:0:0:
282,290,53382,1,0,0:0:0:0:
391,369,53554,70,0,B|388:323|413:292|413:292|377:268|377:268|396:240|396:214,1,180.000006866455,4|8,0:0|0:0,0:0:0:0:
362,82,54068,1,0,0:0:0:0:
469,245,54240,2,0,P|490:201|495:149,1,90.0000034332277,0|4,0:0|0:0,0:0:0:0:
348,57,54582,1,0,0:0:0:0:
484,268,54754,1,8,0:0:0:0:
484,50,54925,5,4,0:0:0:0:
301,218,55097,1,0,0:0:0:0:
464,68,55268,1,8,0:0:0:0:
323,198,55440,1,0,0:0:0:0:
409,8,55611,5,4,0:0:0:0:
382,249,55782,1,0,0:0:0:0:
494,43,55954,1,8,0:0:0:0:
380,280,56125,1,0,0:0:0:0:
480,70,56297,6,0,B|489:137|489:137|457:171|457:171|473:251,1,180.000006866455,4|8,0:0|0:0,0:0:0:0:
491,356,56811,1,0,0:0:0:0:
280,322,56982,1,0,0:0:0:0:
380,280,57154,1,4,0:0:0:0:
175,368,57325,1,8,0:0:0:0:
301,233,57497,1,0,0:0:0:0:
204,362,57668,5,4,0:0:0:0:
286,141,57840,1,0,0:0:0:0:
204,286,58011,2,0,P|157:280|102:240,1,90.0000034332277,8|4,0:0|0:0,0:0:0:0:
49,233,58268,2,0,P|52:181|72:140,1,90.0000034332277,4|4,0:0|0:0,0:0:0:0:
31,81,58525,2,4,P|72:57|132:48,1,90.0000034332277,4|8,0:0|0:0,0:0:0:0:
188,173,58868,1,0,0:0:0:0:
277,52,59040,6,0,P|345:35|457:31,1,180.000006866455,4|8,0:0|0:0,0:0:0:0:
397,243,59554,2,0,L|370:336,1,90.0000034332277
308,155,59897,1,4,0:0:0:0:
470,123,60068,1,8,0:0:0:0:
416,268,60240,1,0,0:0:0:0:
293,126,60411,6,0,L|498:84,1,180.000006866455,4|8,0:0|0:0,0:0:0:0:
339,220,60925,1,0,0:0:0:0:
209,117,61097,2,0,L|121:90,1,90.0000034332277,4|0,0:0|0:0,0:0:0:0:
178,264,61440,2,0,L|269:241,1,90.0000034332277,8|0,0:0|0:0,0:0:0:0:
412,201,61782,6,0,B|426:152|422:132|422:132|384:98|384:98|375:78|380:32,1,180.000006866455,4|8,0:0|0:0,0:0:0:0:
497,27,62297,1,0,0:0:0:0:
340,167,62468,1,0,0:0:0:0:
498,110,62640,1,4,0:0:0:0:
258,58,62811,1,8,0:0:0:0:
434,177,62982,1,0,0:0:0:0:
379,39,63154,1,0,0:0:0:0:
313,255,63325,1,0,0:0:0:0:
462,167,63497,69,8,0:0:0:0:
228,134,63668,1,0,0:0:0:0:
495,158,63840,1,0,0:0:0:0:
217,225,64011,1,4,0:0:0:0:
217,225,64097,1,4,0:0:0:0:
217,225,64182,1,8,0:0:0:0:
440,273,64354,1,0,0:0:0:0:
228,134,64525,6,0,P|174:113|24:124,1,180.000006866455,4|8,0:0|0:0,0:0:0:0:
148,348,65040,2,0,P|174:308|195:261,1,90.0000034332277
118,72,65382,1,4,0:0:0:0:
43,296,65554,1,0,0:0:0:0:
224,266,65725,1,8,0:0:0:0:
396,240,65897,6,0,B|379:286|374:349|374:349|352:285|331:256,1,180.000006866455,4|8,0:0|0:0,0:0:0:0:
297,137,66411,1,0,0:0:0:0:
467,286,66582,2,0,P|478:239|468:194,1,90.0000034332277,4|0,0:0|0:0,0:0:0:0:
324,213,66925,1,8,0:0:0:0:
405,355,67097,1,0,0:0:0:0:
463,119,67268,6,0,B|379:95|379:95|292:139,1,180.000006866455,4|8,0:0|0:0,0:0:0:0:
270,321,67782,1,0,0:0:0:0:
378,96,67954,1,0,0:0:0:0:
171,55,68125,1,4,0:0:0:0:
282,222,68297,1,8,0:0:0:0:
331,32,68468,1,0,0:0:0:0:
201,192,68640,1,4,0:0:0:0:
428,160,68811,1,0,0:0:0:0:
250,371,68982,6,0,P|224:327|212:277,1,90.0000034332277,8|4,0:0|0:0,0:0:0:0:
143,261,69240,2,4,P|155:212|182:167,1,90.0000034332277
156,108,69497,2,0,P|199:82|250:70,1,90.0000034332277,4|8,0:0|0:0,0:0:0:0:
360,64,69840,1,0,0:0:0:0:
119,17,70011,5,6,0:0:0:0:
275,48,70182,1,0,0:0:0:0:
172,163,70354,1,10,0:0:0:0:
129,45,70525,1,0,0:0:0:0:
217,279,70697,2,0,P|256:242|368:244,1,135.000005149841,2|0,0:0|0:0,0:0:0:0:
424,374,71040,2,0,P|357:368|307:326,1,135.000005149841,10|0,0:0|0:0,0:0:0:0:
366,138,71382,5,6,0:0:0:0:
392,292,71554,1,0,0:0:0:0:
261,123,71725,1,10,0:0:0:0:
468,151,71897,1,0,0:0:0:0:
236,253,72068,2,0,L|84:272,1,135.000005149841,6|0,0:0|0:0,0:0:0:0:
11,167,72411,2,0,L|161:182,1,135.000005149841,10|0,0:0|0:0,0:0:0:0:
57,353,72754,69,6,0:0:0:0:
4,138,72925,1,0,0:0:0:0:
119,296,73097,1,10,0:0:0:0:
153,152,73268,1,0,0:0:0:0:
190,346,73440,2,0,B|242:357|242:357|330:317,1,135.000005149841,2|0,0:0|0:0,0:0:0:0:
468,282,73782,2,0,B|416:271|416:271|350:303,1,90.0000034332277,10|2,0:0|0:0,0:0:0:0:
402,141,74125,5,6,0:0:0:0:
494,361,74297,1,0,0:0:0:0:
317,250,74468,2,0,B|300:216|300:216|311:164,1,90.0000034332277,10|4,0:0|0:0,0:0:0:0:
336,93,74725,2,0,P|279:77|208:78,1,90.0000034332277,4|4,0:0|0:0,0:0:0:0:
173,94,74982,2,0,L|183:197,1,90.0000034332277,4|8,0:0|0:0,0:0:0:0:
362,22,75325,1,0,0:0:0:0:
316,323,75497,5,6,0:0:0:0:
231,152,75668,1,0,0:0:0:0:
386,296,75840,1,10,0:0:0:0:
153,170,76011,1,0,0:0:0:0:
352,120,76182,2,0,P|395:103|422:9,1,135.000005149841,2|0,0:0|0:0,0:0:0:0:
216,105,76525,2,0,B|231:154|231:154|304:217,1,135.000005149841,2|8,0:0|0:0,0:0:0:0:
346,36,76868,5,6,0:0:0:0:
180,16,77040,1,0,0:0:0:0:
294,208,77211,1,10,0:0:0:0:
265,29,77382,1,0,0:0:0:0:
220,245,77554,2,0,P|255:281|351:270,1,135.000005149841,6|0,0:0|0:0,0:0:0:0:
375,181,77897,2,0,P|333:181|283:223,1,90.0000034332277,10|2,0:0|0:0,0:0:0:0:
386,343,78240,69,6,0:0:0:0:
454,191,78411,1,0,0:0:0:0:
293,207,78582,1,10,0:0:0:0:
468,287,78754,1,0,0:0:0:0:
366,130,78925,1,2,0:0:0:0:
307,328,79097,1,4,0:0:0:0:
374,102,79268,1,10,0:0:0:0:
463,254,79440,1,0,0:0:0:0:
263,137,79611,5,6,0:0:0:0:
470,98,79782,1,0,0:0:0:0:
284,231,79954,2,0,P|240:227|196:199,1,90.0000034332277,8|4,0:0|0:0,0:0:0:0:
130,175,80211,2,4,B|141:134|141:134|179:102,1,90.0000034332277
156,25,80468,2,4,L|248:42,1,90.0000034332277,4|8,0:0|0:0,0:0:0:0:
416,66,80811,1,0,0:0:0:0:
263,137,80982,54,0,B|259:154|254:198|261:231|279:261|279:261|262:254|237:252|221:256|198:267|185:293,1,232.5,4|0,0:0|0:0,0:0:0:0:
192,116,83725,6,0,B|184:152|182:191|186:219|188:246|194:277|249:330,1,232.5
410,326,86468,6,0,B|394:316|373:314|354:317|335:323|322:353|322:353|326:333|324:316|321:302|313:288|298:274|298:274|309:253|326:242,1,232.5
467,370,89211,6,0,B|481:358|487:324|484:307|474:285|449:266|449:266|455:242|462:226|473:212|496:199|496:199|493:184|483:170,1,232.5
430,110,91954,70,0,P|409:93|368:74,1,60,0|8,0:0|0:0,0:0:0:0:
286,119,92811,2,0,L|320:105,1,30,0|8,0:0|0:0,0:0:0:0:
148,38,93325,6,0,L|143:105,1,60,0|8,0:0|0:0,0:0:0:0:
139,180,94011,2,0,L|134:247,1,60,0|8,0:0|0:0,0:0:0:0:
224,359,94697,6,0,P|214:320|202:297,1,60,0|8,0:0|0:0,0:0:0:0:
18,254,95554,2,0,L|53:262,1,30,0|8,0:0|0:0,0:0:0:0:
223,214,96068,6,0,P|259:202|290:197,1,60,0|8,0:0|0:0,0:0:0:0:
394,55,96668,2,0,L|381:108,1,45
361,178,97097,1,8,0:0:0:0:
427,352,97440,70,0,P|401:346|363:340,1,60,0|8,0:0|0:0,0:0:0:0:
232,313,98297,2,0,P|258:307|296:301,1,60,0|8,0:0|0:0,0:0:0:0:
364,240,98811,6,0,L|370:180,1,60,0|8,0:0|0:0,0:0:0:0:
451,147,99497,2,0,L|444:84,1,60,0|8,0:0|0:0,0:0:0:0:
256,192,100182,12,0,101554,0:0:0:0:
195,110,101897,5,2,0:0:0:0:
197,127,102240,5,2,0:0:0:0:
199,144,102582,69,2,0:0:0:0:
201,161,102925,6,0,L|263:145,1,60,2|8,0:0|0:0,0:0:0:0:
351,118,103440,1,8,0:0:0:0:
351,118,103525,1,8,0:0:0:0:
351,118,103611,1,8,0:0:0:0:
241,293,103782,1,8,0:0:0:0:
116,103,103954,2,0,L|97:72,1,30,4|0,0:0|0:0,0:0:0:0:
290,344,104297,38,0,L|99:313,1,180.000006866455,4|8,0:0|0:0,0:0:0:0:
183,163,104811,1,0,0:0:0:0:
321,348,104982,2,0,L|411:362,1,90.0000034332277,4|0,0:0|0:0,0:0:0:0:
486,201,105325,2,0,L|391:220,1,90.0000034332277,8|0,0:0|0:0,0:0:0:0:
272,252,105668,5,4,0:0:0:0:
423,216,105839,1,0,0:0:0:0:
241,161,106011,1,8,0:0:0:0:
366,288,106182,1,0,0:0:0:0:
406,122,106354,1,0,0:0:0:0:
375,316,106525,1,4,0:0:0:0:
216,142,106697,1,8,0:0:0:0:
421,93,106868,1,0,0:0:0:0:
262,263,107039,5,4,0:0:0:0:
318,59,107211,1,0,0:0:0:0:
118,25,107382,2,0,P|100:60|104:134,1,90.0000034332277,8|4,0:0|0:0,0:0:0:0:
136,173,107639,2,0,P|148:217|132:280,1,90.0000034332277,4|4,0:0|0:0,0:0:0:0:
81,311,107897,2,0,P|120:335|172:333,1,90.0000034332277,4|8,0:0|0:0,0:0:0:0:
282,290,108239,1,0,0:0:0:0:
391,369,108411,6,0,B|388:323|413:292|413:292|377:268|377:268|396:240|396:214,1,180.000006866455,4|8,0:0|0:0,0:0:0:0:
362,82,108925,1,0,0:0:0:0:
469,245,109097,2,0,P|490:201|495:149,1,90.0000034332277,0|4,0:0|0:0,0:0:0:0:
348,57,109439,1,0,0:0:0:0:
484,268,109611,1,8,0:0:0:0:
484,50,109782,69,4,0:0:0:0:
301,218,109954,1,0,0:0:0:0:
464,68,110125,1,8,0:0:0:0:
323,198,110297,1,0,0:0:0:0:
409,8,110468,5,4,0:0:0:0:
382,249,110639,1,0,0:0:0:0:
494,43,110811,1,8,0:0:0:0:
380,280,110982,1,0,0:0:0:0:
480,70,111154,6,0,B|489:137|489:137|457:171|457:171|473:251,1,180.000006866455,4|8,0:0|0:0,0:0:0:0:
491,356,111668,1,0,0:0:0:0:
280,322,111839,1,0,0:0:0:0:
380,280,112011,1,4,0:0:0:0:
175,368,112182,1,8,0:0:0:0:
301,233,112354,1,0,0:0:0:0:
204,362,112525,5,4,0:0:0:0:
286,141,112697,1,0,0:0:0:0:
204,286,112868,2,0,P|157:280|102:240,1,90.0000034332277,8|4,0:0|0:0,0:0:0:0:
49,233,113125,2,0,P|52:181|72:140,1,90.0000034332277,4|4,0:0|0:0,0:0:0:0:
31,81,113382,2,4,P|72:57|132:48,1,90.0000034332277,4|8,0:0|0:0,0:0:0:0:
188,173,113725,1,0,0:0:0:0:
277,52,113897,70,0,P|345:35|457:31,1,180.000006866455,4|8,0:0|0:0,0:0:0:0:
397,243,114411,2,0,L|370:336,1,90.0000034332277
308,155,114754,1,4,0:0:0:0:
470,123,114925,1,8,0:0:0:0:
416,268,115097,1,0,0:0:0:0:
293,126,115268,6,0,L|498:84,1,180.000006866455,4|8,0:0|0:0,0:0:0:0:
339,220,115782,1,0,0:0:0:0:
209,117,115954,2,0,L|121:90,1,90.0000034332277,4|0,0:0|0:0,0:0:0:0:
178,264,116297,2,0,L|269:241,1,90.0000034332277,8|0,0:0|0:0,0:0:0:0:
412,201,116639,6,0,B|426:152|422:132|422:132|384:98|384:98|375:78|380:32,1,180.000006866455,4|8,0:0|0:0,0:0:0:0:
497,27,117154,1,0,0:0:0:0:
340,167,117325,1,0,0:0:0:0:
498,110,117497,1,4,0:0:0:0:
258,58,117668,1,8,0:0:0:0:
434,177,117839,1,0,0:0:0:0:
379,39,118011,1,0,0:0:0:0:
313,255,118182,1,0,0:0:0:0:
462,167,118354,5,8,0:0:0:0:
228,134,118525,1,0,0:0:0:0:
495,158,118697,1,0,0:0:0:0:
217,225,118868,1,4,0:0:0:0:
217,225,118954,1,4,0:0:0:0:
217,225,119039,1,8,0:0:0:0:
440,273,119211,1,0,0:0:0:0:
228,134,119382,70,0,P|174:113|24:124,1,180.000006866455,4|8,0:0|0:0,0:0:0:0:
148,348,119897,2,0,P|174:308|195:261,1,90.0000034332277
118,72,120239,1,4,0:0:0:0:
43,296,120411,1,0,0:0:0:0:
224,266,120582,1,8,0:0:0:0:
396,240,120754,6,0,B|379:286|374:349|374:349|352:285|331:256,1,180.000006866455,4|8,0:0|0:0,0:0:0:0:
297,137,121268,1,0,0:0:0:0:
467,286,121439,2,0,P|478:239|468:194,1,90.0000034332277,4|0,0:0|0:0,0:0:0:0:
324,213,121782,1,8,0:0:0:0:
405,355,121954,1,0,0:0:0:0:
463,119,122125,6,0,B|379:95|379:95|292:139,1,180.000006866455,4|8,0:0|0:0,0:0:0:0:
270,321,122639,1,0,0:0:0:0:
378,96,122811,1,0,0:0:0:0:
171,55,122982,1,4,0:0:0:0:
282,222,123154,1,8,0:0:0:0:
331,32,123325,1,0,0:0:0:0:
201,192,123497,1,4,0:0:0:0:
428,160,123668,1,0,0:0:0:0:
250,371,123839,6,0,P|224:327|212:277,1,90.0000034332277,8|4,0:0|0:0,0:0:0:0:
143,261,124097,2,4,P|155:212|182:167,1,90.0000034332277
156,108,124354,2,0,P|199:82|250:70,1,90.0000034332277,4|8,0:0|0:0,0:0:0:0:
449,145,124697,1,0,0:0:0:0:
277,361,124868,1,0,0:0:0:0:
44,317,125897,1,4,0:0:0:0:
43,344,126240,69,4,0:0:0:0:
114,161,126411,1,0,0:0:0:0:
169,348,126582,1,8,0:0:0:0:
30,186,126754,1,0,0:0:0:0:
246,129,126925,6,0,B|341:103|341:103|318:162,1,135.000005149841,4|0,0:0|0:0,0:0:0:0:
335,301,127268,2,0,P|280:255|301:175,1,135.000005149841,8|0,0:0|0:0,0:0:0:0:
399,171,127611,5,4,0:0:0:0:
252,203,127782,1,0,0:0:0:0:
454,247,127954,1,8,0:0:0:0:
220,114,128125,1,0,0:0:0:0:
454,95,128297,5,0,0:0:0:0:
353,309,128468,1,4,0:0:0:0:
245,101,128640,2,0,P|235:53|250:10,1,90.0000034332277,8|0,0:0|0:0,0:0:0:0:
389,190,128982,69,4,0:0:0:0:
231,260,129154,1,0,0:0:0:0:
90,157,129325,2,0,P|64:117|64:57,1,90.0000034332277,8|0,0:0|0:0,0:0:0:0:
136,92,129582,2,0,L|131:204,1,90.0000034332277,4|0,0:0|0:0,0:0:0:0:
83,239,129840,2,0,L|91:340,1,90.0000034332277,4|8,0:0|0:0,0:0:0:0:
206,222,130182,1,0,0:0:0:0:
16,167,130354,5,4,0:0:0:0:
235,229,130525,1,0,0:0:0:0:
9,263,130697,1,8,0:0:0:0:
231,143,130868,1,0,0:0:0:0:
25,59,131040,6,0,P|19:108|104:164,1,135.000005149841,4|0,0:0|0:0,0:0:0:0:
217,76,131382,2,0,B|136:63|136:63|79:99,1,135.000005149841,8|0,0:0|0:0,0:0:0:0:
129,222,131725,5,4,0:0:0:0:
222,41,131897,1,0,0:0:0:0:
282,187,132068,1,8,0:0:0:0:
374,17,132240,1,0,0:0:0:0:
420,246,132411,70,0,P|438:300|405:376,1,135.000005149841,4|0,0:0|0:0,0:0:0:0:
358,303,132754,1,8,0:0:0:0:
507,271,132925,1,0,0:0:0:0:
276,227,133097,5,4,0:0:0:0:
485,155,133268,1,0,0:0:0:0:
277,308,133440,1,8,0:0:0:0:
346,92,133611,1,0,0:0:0:0:
361,338,133782,5,0,0:0:0:0:
343,62,133954,1,4,0:0:0:0:
396,222,134125,2,0,L|387:315,1,90.0000034332277,8|0,0:0|0:0,0:0:0:0:
183,153,134468,5,4,0:0:0:0:
419,101,134640,1,0,0:0:0:0:
194,34,134811,2,0,L|203:127,1,90.0000034332277,8|0,0:0|0:0,0:0:0:0:
184,268,135068,2,0,P|160:217|170:173,1,90.0000034332277,4|0,0:0|0:0,0:0:0:0:
272,148,135325,2,0,P|296:191|290:253,1,90.0000034332277,4|8,0:0|0:0,0:0:0:0:
128,122,135668,1,0,0:0:0:0:
348,76,135840,69,4,0:0:0:0:
259,310,136011,1,0,0:0:0:0:
200,52,136182,1,8,0:0:0:0:
409,169,136354,1,0,0:0:0:0:
189,269,136525,6,0,B|147:266|147:266|99:280|99:280|25:273,1,135.000005149841,4|0,0:0|0:0,0:0:0:0:
220,205,136868,2,0,B|232:260|232:260|212:337,1,135.000005149841,8|0,0:0|0:0,0:0:0:0:
195,132,137211,5,4,0:0:0:0:
72,100,137382,1,0,0:0:0:0:
260,39,137554,1,8,0:0:0:0:
224,238,137725,1,0,0:0:0:0:
159,26,137897,6,0,P|211:53|311:38,1,135.000005149841,4|0,0:0|0:0,0:0:0:0:
362,23,138240,2,0,P|411:10|501:51,1,135.000005149841,8|0,0:0|0:0,0:0:0:0:
419,103,138582,69,4,0:0:0:0:
448,260,138754,1,0,0:0:0:0:
337,149,138925,1,8,0:0:0:0:
506,204,139097,1,0,0:0:0:0:
325,250,139268,5,0,0:0:0:0:
511,115,139440,1,4,0:0:0:0:
386,340,139611,2,0,B|341:359|341:359|278:348,1,90.0000034332277,8|0,0:0|0:0,0:0:0:0:
188,179,139954,5,4,0:0:0:0:
406,212,140125,1,0,0:0:0:0:
227,329,140297,2,0,B|190:322|190:322|127:272,1,90.0000034332277,8|0,0:0|0:0,0:0:0:0:
186,223,140554,2,0,L|191:115,1,90.0000034332277,4|0,0:0|0:0,0:0:0:0:
116,164,140811,2,0,L|104:63,1,90.0000034332277,4|8,0:0|0:0,0:0:0:0:
316,35,141154,1,0,0:0:0:0:
56,217,141325,5,4,0:0:0:0:
196,32,141497,1,0,0:0:0:0:
232,303,141668,1,8,0:0:0:0:
75,95,141840,1,0,0:0:0:0:
333,127,142011,70,0,P|388:137|456:213,1,135.000005149841,4|0,0:0|0:0,0:0:0:0:
376,361,142354,2,0,L|356:212,1,135.000005149841,8|0,0:0|0:0,0:0:0:0:
339,95,142697,5,4,0:0:0:0:
402,288,142868,1,0,0:0:0:0:
261,138,143040,1,8,0:0:0:0:
228,346,143211,1,0,0:0:0:0:
175,110,143382,5,4,0:0:0:0:
316,354,143554,1,0,0:0:0:0:
125,213,143725,2,0,P|89:199|34:194,1,90.0000034332277,8|0,0:0|0:0,0:0:0:0:
322,158,144068,5,4,0:0:0:0:
147,191,144240,1,0,0:0:0:0:
339,185,144411,1,8,0:0:0:0:
127,166,144582,1,0,0:0:0:0:
346,215,144754,1,0,0:0:0:0:
122,131,144925,1,4,0:0:0:0:
345,246,145097,1,8,0:0:0:0:
129,101,145268,1,0,0:0:0:0:
160,298,145440,69,4,0:0:0:0:
281,82,145611,1,0,0:0:0:0:
312,325,145782,2,0,P|286:267|252:238,1,90.0000034332277,8|0,0:0|0:0,0:0:0:0:
146,132,146040,2,0,P|195:159|249:164,1,90.0000034332277,4|0,0:0|0:0,0:0:0:0:
383,172,146297,2,0,P|336:182|291:213,1,90.0000034332277,8|8,0:0|0:0,0:0:0:0:
226,356,146640,1,0,0:0:0:0:
293,61,146811,54,0,P|319:47|368:45,3,60
408,92,147497,2,0,L|397:161,1,60,2|0,0:0|0:0,0:0:0:0:
429,223,147840,2,0,L|437:286,1,60,2|0,0:0|0:0,0:0:0:0:
385,341,148182,6,0,P|353:353|316:349,3,60
265,304,148868,2,0,P|230:298|190:303,1,60,2|0,0:0|0:0,0:0:0:0:
145,349,149211,2,0,P|103:359|66:354,1,60,2|0,0:0|0:0,0:0:0:0:
37,297,149554,6,0,L|23:227,3,60
76,178,150240,2,0,L|74:108,1,60,2|0,0:0|0:0,0:0:0:0:
144,84,150582,2,0,L|165:21,1,60,2|0,0:0|0:0,0:0:0:0:
240,37,150925,6,0,P|277:46|317:42,3,60
336,114,151611,2,0,P|300:127|266:150,1,60,2|0,0:0|0:0,0:0:0:0:
257,212,151954,2,0,P|290:223|324:243,1,60,2|0,0:0|0:0,0:0:0:0:
349,303,152297,70,0,B|358:338|358:338|353:373,3,60
279,340,152982,2,0,L|206:330,1,60,2|0,0:0|0:0,0:0:0:0:
168,272,153325,2,0,L|99:286,1,60,2|0,0:0|0:0,0:0:0:0:
50,335,153668,6,0,B|35:306|35:306|30:251,3,60
56,204,154354,2,0,B|65:172|65:172|58:121,1,60,2|0,0:0|0:0,0:0:0:0:
33,72,154697,2,0,B|23:36|23:36|27:5,1,60,2|0,0:0|0:0,0:0:0:0:
102,31,155040,6,0,L|175:41,3,60
226,81,155725,2,0,L|291:91,1,60,2|0,0:0|0:0,0:0:0:0:
346,138,156068,2,0,L|405:148,1,60,2|0,0:0|0:0,0:0:0:0:
406,226,156411,6,0,L|333:236,3,60
282,276,157096,2,0,L|217:286,1,60,2|0,0:0|0:0,0:0:0:0:
162,333,157439,2,0,L|103:343,1,60,2|0,0:0|0:0,0:0:0:0:
59,272,157782,70,0,P|51:247|47:211,3,45.0000017166138
107,187,158468,2,0,P|115:162|119:126,3,45.0000017166138,2|0|0|0,0:0|0:0|0:0|0:0,0:0:0:0:
97,74,159154,6,0,L|151:61,3,45.0000017166138
205,95,159840,2,0,L|254:103,3,45.0000017166138,2|0|0|0,0:0|0:0|0:0|0:0,0:0:0:0:
300,52,160525,6,0,P|330:46|350:47,3,45.0000017166138
408,78,161211,2,0,P|418:104|421:138,3,45.0000017166138,2|0|0|0,0:0|0:0|0:0|0:0,0:0:0:0:
391,186,161897,6,0,B|384:210|384:210|387:237,3,45.0000017166138
417,294,162582,2,0,B|424:318|424:318|421:345,3,45.0000017166138,2|0|0|0,0:0|0:0|0:0|0:0,0:0:0:0:
93,292,163268,69,4,0:0:0:0:
256,192,163354,12,0,168754,0:0:0:0:
