osu file format v14

[General]
AudioFilename: S3RL - Nightcore This - S3RL Feat Tamika.mp3
AudioLeadIn: 0
PreviewTime: -1
Countdown: 0
SampleSet: Normal
StackLeniency: 0.7
Mode: 3
LetterboxInBreaks: 0
SpecialStyle: 0
WidescreenStoryboard: 0

[Editor]
DistanceSpacing: 0.8
BeatDivisor: 4
GridSize: 8
TimelineZoom: 1.1

[Metadata]
Title:Nightcore This
TitleUnicode:Nightcore This
Artist:S3RL Feat. Tamika
ArtistUnicode:S3RL Feat. Tamika
Creator:[1st GCorp]
Version:Insane
Source:
Tags:
BeatmapID:971800
BeatmapSetID:453126

[Difficulty]
HPDrainRate:8
CircleSize:4
OverallDifficulty:8
ApproachRate:5
SliderMultiplier:3.59999990463257
SliderTickRate:4

[Events]
//Background and Video events
0,0,"maxresdefault.jpg",0,0
//Break Periods
//Storyboard Layer 0 (Background)
//Storyboard Layer 1 (Fail)
//Storyboard Layer 2 (Pass)
//Storyboard Layer 3 (Foreground)
//Storyboard Sound Samples

[TimingPoints]
392,375,4,1,0,100,1,0
37626,-100,4,1,0,100,0,1
61626,-100,4,1,0,100,0,0
109626,-100,4,1,0,100,0,1
132126,-100,4,1,0,100,0,0
205626,-100,4,1,0,100,0,1
223626,-100,4,1,0,100,0,0

[HitObjects]
448,192,392,128,0,1517:0:0:0:0:
320,192,1517,1,0,0:0:0:0:
64,192,1517,1,0,0:0:0:0:
192,192,1517,1,0,0:0:0:0:
192,192,1704,1,0,0:0:0:0:
320,192,1892,1,0,0:0:0:0:
448,192,2079,1,0,0:0:0:0:
192,192,2267,1,0,0:0:0:0:
448,192,2454,1,0,0:0:0:0:
320,192,2642,128,0,3017:0:0:0:0:
64,192,3017,1,0,0:0:0:0:
192,192,3204,1,0,0:0:0:0:
320,192,3392,1,0,0:0:0:0:
448,192,3673,1,0,0:0:0:0:
320,192,3954,1,0,0:0:0:0:
64,192,4142,128,0,4517:0:0:0:0:
192,192,4329,128,0,4517:0:0:0:0:
448,192,4517,1,0,0:0:0:0:
320,192,4704,1,0,0:0:0:0:
192,192,4892,1,0,0:0:0:0:
64,192,5079,1,0,0:0:0:0:
448,192,5267,1,0,0:0:0:0:
64,192,5454,1,0,0:0:0:0:
320,192,5642,128,0,6017:0:0:0:0:
192,192,6017,1,0,0:0:0:0:
64,192,6204,1,0,0:0:0:0:
192,192,6392,1,0,0:0:0:0:
320,192,6673,1,0,0:0:0:0:
192,192,6954,1,0,0:0:0:0:
448,192,7142,128,0,7517:0:0:0:0:
64,192,7329,128,0,7517:0:0:0:0:
192,192,7517,1,0,0:0:0:0:
320,192,7517,1,0,0:0:0:0:
448,192,7892,1,0,0:0:0:0:
192,192,7892,1,0,0:0:0:0:
448,192,8267,1,0,0:0:0:0:
64,192,8267,1,0,0:0:0:0:
320,192,8454,1,0,0:0:0:0:
64,192,8642,1,0,0:0:0:0:
192,192,8642,128,0,9017:0:0:0:0:
448,192,9017,1,0,0:0:0:0:
320,192,9017,1,0,0:0:0:0:
64,192,9204,1,0,0:0:0:0:
192,192,9392,1,0,0:0:0:0:
320,192,9392,1,0,0:0:0:0:
64,192,9556,1,0,0:0:0:0:
448,192,9767,1,0,0:0:0:0:
320,192,9767,1,0,0:0:0:0:
192,192,9954,1,0,0:0:0:0:
320,192,10142,1,0,0:0:0:0:
448,192,10142,128,0,10517:0:0:0:0:
64,192,10517,1,0,0:0:0:0:
192,192,10517,1,0,0:0:0:0:
320,192,10610,1,0,0:0:0:0:
448,192,10610,1,0,0:0:0:0:
64,192,10704,1,0,0:0:0:0:
192,192,10704,1,0,0:0:0:0:
320,192,10798,1,0,0:0:0:0:
448,192,10798,1,0,0:0:0:0:
64,192,10892,1,0,0:0:0:0:
192,192,10892,1,0,0:0:0:0:
448,192,10985,1,0,0:0:0:0:
320,192,10985,1,0,0:0:0:0:
192,192,11079,1,0,0:0:0:0:
64,192,11079,1,0,0:0:0:0:
320,192,11173,1,0,0:0:0:0:
448,192,11173,1,0,0:0:0:0:
64,192,11267,1,0,0:0:0:0:
192,192,11267,1,0,0:0:0:0:
320,192,11360,1,0,0:0:0:0:
448,192,11360,1,0,0:0:0:0:
64,192,11454,1,0,0:0:0:0:
192,192,11454,1,0,0:0:0:0:
320,192,11548,1,0,0:0:0:0:
448,192,11548,1,0,0:0:0:0:
192,192,11642,1,0,0:0:0:0:
64,192,11642,1,0,0:0:0:0:
320,192,11735,1,0,0:0:0:0:
448,192,11735,1,0,0:0:0:0:
64,192,11829,1,0,0:0:0:0:
192,192,11829,1,0,0:0:0:0:
320,192,11923,1,0,0:0:0:0:
448,192,11923,1,0,0:0:0:0:
192,192,12017,1,0,0:0:0:0:
320,192,12110,1,0,0:0:0:0:
192,192,12204,1,0,0:0:0:0:
64,192,12298,1,0,0:0:0:0:
192,192,12392,1,0,0:0:0:0:
320,192,12485,1,0,0:0:0:0:
448,192,12579,1,0,0:0:0:0:
320,192,12673,1,0,0:0:0:0:
192,192,12767,1,0,0:0:0:0:
64,192,12860,1,0,0:0:0:0:
192,192,12954,1,0,0:0:0:0:
320,192,13048,1,0,0:0:0:0:
448,192,13142,128,0,13517:0:0:0:0:
64,192,13517,1,0,0:0:0:0:
192,192,13517,1,0,0:0:0:0:
320,192,13704,1,0,0:0:0:0:
192,192,13798,1,0,0:0:0:0:
448,192,13892,1,0,0:0:0:0:
64,192,13892,1,0,0:0:0:0:
192,192,14079,1,0,0:0:0:0:
320,192,14173,1,0,0:0:0:0:
448,192,14267,1,0,0:0:0:0:
64,192,14267,1,0,0:0:0:0:
320,192,14454,1,0,0:0:0:0:
192,192,14548,1,0,0:0:0:0:
64,192,14642,1,0,0:0:0:0:
320,192,14642,1,0,0:0:0:0:
448,192,14829,1,0,0:0:0:0:
320,192,14923,1,0,0:0:0:0:
64,192,15017,1,0,0:0:0:0:
192,192,15017,1,0,0:0:0:0:
320,192,15204,1,0,0:0:0:0:
448,192,15298,1,0,0:0:0:0:
192,192,15392,1,0,0:0:0:0:
320,192,15392,1,0,0:0:0:0:
64,192,15579,1,0,0:0:0:0:
192,192,15673,1,0,0:0:0:0:
320,192,15767,1,0,0:0:0:0:
448,192,15767,1,0,0:0:0:0:
192,192,15954,1,0,0:0:0:0:
64,192,16048,1,0,0:0:0:0:
320,192,16142,1,0,0:0:0:0:
192,192,16142,1,0,0:0:0:0:
448,192,16329,1,0,0:0:0:0:
320,192,16423,1,0,0:0:0:0:
64,192,16517,1,0,0:0:0:0:
192,192,16517,1,0,0:0:0:0:
320,192,16704,1,0,0:0:0:0:
448,192,16798,1,0,0:0:0:0:
320,192,16892,1,0,0:0:0:0:
192,192,16892,1,0,0:0:0:0:
64,192,17079,1,0,0:0:0:0:
192,192,17173,1,0,0:0:0:0:
320,192,17267,1,0,0:0:0:0:
448,192,17267,1,0,0:0:0:0:
192,192,17454,1,0,0:0:0:0:
64,192,17548,1,0,0:0:0:0:
320,192,17642,1,0,0:0:0:0:
448,192,17642,1,0,0:0:0:0:
192,192,17829,1,0,0:0:0:0:
320,192,17923,1,0,0:0:0:0:
448,192,18017,1,0,0:0:0:0:
192,192,18017,1,0,0:0:0:0:
320,192,18204,1,0,0:0:0:0:
192,192,18298,1,0,0:0:0:0:
64,192,18392,1,0,0:0:0:0:
320,192,18392,1,0,0:0:0:0:
448,192,18579,1,0,0:0:0:0:
320,192,18673,1,0,0:0:0:0:
64,192,18767,1,0,0:0:0:0:
192,192,18767,1,0,0:0:0:0:
320,192,18954,1,0,0:0:0:0:
448,192,19048,1,0,0:0:0:0:
64,192,19142,1,0,0:0:0:0:
192,192,19142,1,0,0:0:0:0:
320,192,19329,1,0,0:0:0:0:
448,192,19329,1,0,0:0:0:0:
64,192,19517,1,0,0:0:0:0:
192,192,19517,1,0,0:0:0:0:
448,192,19704,1,0,0:0:0:0:
320,192,19798,1,0,0:0:0:0:
64,192,19892,1,0,0:0:0:0:
192,192,19892,1,0,0:0:0:0:
448,192,20079,1,0,0:0:0:0:
320,192,20173,1,0,0:0:0:0:
192,192,20267,1,0,0:0:0:0:
448,192,20267,1,0,0:0:0:0:
320,192,20454,1,0,0:0:0:0:
448,192,20548,1,0,0:0:0:0:
64,192,20642,1,0,0:0:0:0:
192,192,20642,1,0,0:0:0:0:
320,192,20829,1,0,0:0:0:0:
192,192,20923,1,0,0:0:0:0:
64,192,21017,1,0,0:0:0:0:
448,192,21017,1,0,0:0:0:0:
64,192,21204,1,0,0:0:0:0:
192,192,21298,1,0,0:0:0:0:
448,192,21392,1,0,0:0:0:0:
320,192,21392,1,0,0:0:0:0:
448,192,21579,1,0,0:0:0:0:
320,192,21673,1,0,0:0:0:0:
64,192,21767,1,0,0:0:0:0:
192,192,21767,1,0,0:0:0:0:
320,192,21954,1,0,0:0:0:0:
192,192,22048,1,0,0:0:0:0:
64,192,22142,1,0,0:0:0:0:
448,192,22142,1,0,0:0:0:0:
192,192,22329,1,0,0:0:0:0:
320,192,22423,1,0,0:0:0:0:
64,192,22517,1,0,0:0:0:0:
448,192,22517,1,0,0:0:0:0:
192,192,22704,1,0,0:0:0:0:
320,192,22798,1,0,0:0:0:0:
448,192,22892,1,0,0:0:0:0:
192,192,22892,1,0,0:0:0:0:
64,192,23079,1,0,0:0:0:0:
192,192,23173,1,0,0:0:0:0:
448,192,23267,1,0,0:0:0:0:
320,192,23267,1,0,0:0:0:0:
320,192,23454,1,0,0:0:0:0:
192,192,23548,1,0,0:0:0:0:
64,192,23642,1,0,0:0:0:0:
448,192,23642,1,0,0:0:0:0:
192,192,23829,1,0,0:0:0:0:
320,192,23923,1,0,0:0:0:0:
64,192,24017,1,0,0:0:0:0:
448,192,24017,1,0,0:0:0:0:
192,192,24110,1,0,0:0:0:0:
320,192,24204,1,0,0:0:0:0:
448,192,24298,1,0,0:0:0:0:
320,192,24392,1,0,0:0:0:0:
192,192,24485,1,0,0:0:0:0:
64,192,24579,1,0,0:0:0:0:
192,192,24673,1,0,0:0:0:0:
320,192,24767,1,0,0:0:0:0:
448,192,24767,1,0,0:0:0:0:
64,192,24954,1,0,0:0:0:0:
192,192,24954,1,0,0:0:0:0:
192,192,25048,1,0,0:0:0:0:
448,192,25142,128,0,25517:0:0:0:0:
320,192,25142,128,0,25517:0:0:0:0:
64,192,25517,1,0,0:0:0:0:
192,192,25517,1,0,0:0:0:0:
192,192,25704,1,0,0:0:0:0:
320,192,25798,1,0,0:0:0:0:
64,192,25892,1,0,0:0:0:0:
192,192,25892,1,0,0:0:0:0:
448,192,26079,1,0,0:0:0:0:
320,192,26173,1,0,0:0:0:0:
64,192,26267,1,0,0:0:0:0:
192,192,26267,1,0,0:0:0:0:
192,192,26454,1,0,0:0:0:0:
320,192,26548,1,0,0:0:0:0:
64,192,26642,1,0,0:0:0:0:
448,192,26642,1,0,0:0:0:0:
192,192,26829,1,0,0:0:0:0:
64,192,26923,1,0,0:0:0:0:
320,192,27017,1,0,0:0:0:0:
192,192,27017,1,0,0:0:0:0:
448,192,27204,1,0,0:0:0:0:
320,192,27298,1,0,0:0:0:0:
64,192,27392,1,0,0:0:0:0:
192,192,27392,1,0,0:0:0:0:
320,192,27579,1,0,0:0:0:0:
192,192,27673,1,0,0:0:0:0:
64,192,27767,1,0,0:0:0:0:
448,192,27767,1,0,0:0:0:0:
192,192,27954,1,0,0:0:0:0:
320,192,28048,1,0,0:0:0:0:
64,192,28142,1,0,0:0:0:0:
448,192,28142,1,0,0:0:0:0:
192,192,28329,1,0,0:0:0:0:
320,192,28423,1,0,0:0:0:0:
448,192,28517,1,0,0:0:0:0:
192,192,28517,1,0,0:0:0:0:
320,192,28704,1,0,0:0:0:0:
192,192,28798,1,0,0:0:0:0:
320,192,28892,1,0,0:0:0:0:
64,192,28892,1,0,0:0:0:0:
448,192,29079,1,0,0:0:0:0:
320,192,29173,1,0,0:0:0:0:
64,192,29267,1,0,0:0:0:0:
192,192,29267,1,0,0:0:0:0:
320,192,29454,1,0,0:0:0:0:
448,192,29548,1,0,0:0:0:0:
192,192,29642,1,0,0:0:0:0:
320,192,29642,1,0,0:0:0:0:
64,192,29829,1,0,0:0:0:0:
192,192,29923,1,0,0:0:0:0:
320,192,30017,1,0,0:0:0:0:
448,192,30017,1,0,0:0:0:0:
64,192,30204,1,0,0:0:0:0:
192,192,30298,1,0,0:0:0:0:
320,192,30392,1,0,0:0:0:0:
64,192,30392,1,0,0:0:0:0:
192,192,30579,1,0,0:0:0:0:
320,192,30673,1,0,0:0:0:0:
448,192,30767,1,0,0:0:0:0:
192,192,30767,1,0,0:0:0:0:
320,192,30954,1,0,0:0:0:0:
448,192,31048,1,0,0:0:0:0:
320,192,31142,1,0,0:0:0:0:
64,192,31142,1,0,0:0:0:0:
192,192,31329,1,0,0:0:0:0:
320,192,31329,1,0,0:0:0:0:
64,192,31517,1,0,0:0:0:0:
448,192,31517,1,0,0:0:0:0:
320,192,31704,1,0,0:0:0:0:
192,192,31798,1,0,0:0:0:0:
64,192,31892,1,0,0:0:0:0:
448,192,31892,1,0,0:0:0:0:
448,192,32079,1,0,0:0:0:0:
320,192,32173,1,0,0:0:0:0:
64,192,32267,1,0,0:0:0:0:
192,192,32267,1,0,0:0:0:0:
320,192,32454,1,0,0:0:0:0:
448,192,32548,1,0,0:0:0:0:
64,192,32642,1,0,0:0:0:0:
192,192,32642,1,0,0:0:0:0:
320,192,32829,1,0,0:0:0:0:
448,192,32923,1,0,0:0:0:0:
320,192,33017,1,0,0:0:0:0:
192,192,33017,1,0,0:0:0:0:
64,192,33204,1,0,0:0:0:0:
192,192,33298,1,0,0:0:0:0:
320,192,33392,1,0,0:0:0:0:
448,192,33392,1,0,0:0:0:0:
192,192,33579,1,0,0:0:0:0:
64,192,33673,1,0,0:0:0:0:
320,192,33767,1,0,0:0:0:0:
448,192,33767,1,0,0:0:0:0:
192,192,33954,1,0,0:0:0:0:
320,192,34048,1,0,0:0:0:0:
64,192,34142,1,0,0:0:0:0:
448,192,34142,1,0,0:0:0:0:
320,192,34329,1,0,0:0:0:0:
192,192,34423,1,0,0:0:0:0:
320,192,34517,1,0,0:0:0:0:
64,192,34517,1,0,0:0:0:0:
448,192,34704,1,0,0:0:0:0:
192,192,34798,1,0,0:0:0:0:
64,192,34892,1,0,0:0:0:0:
320,192,34892,1,0,0:0:0:0:
192,192,35079,1,0,0:0:0:0:
448,192,35173,1,0,0:0:0:0:
64,192,35267,1,0,0:0:0:0:
320,192,35267,1,0,0:0:0:0:
192,192,35454,1,0,0:0:0:0:
320,192,35548,1,0,0:0:0:0:
448,192,35642,1,0,0:0:0:0:
64,192,35642,1,0,0:0:0:0:
320,192,35829,1,0,0:0:0:0:
192,192,35923,1,0,0:0:0:0:
448,192,36017,1,0,0:0:0:0:
64,192,36017,1,0,0:0:0:0:
192,192,36017,1,0,0:0:0:0:
320,192,36017,1,0,0:0:0:0:
64,192,36204,1,0,0:0:0:0:
448,192,36204,1,0,0:0:0:0:
448,192,36392,1,0,0:0:0:0:
64,192,36392,1,0,0:0:0:0:
64,192,36579,1,0,0:0:0:0:
448,192,36579,1,0,0:0:0:0:
320,192,36767,1,0,0:0:0:0:
192,192,36767,1,0,0:0:0:0:
320,192,36954,1,0,0:0:0:0:
192,192,36954,1,0,0:0:0:0:
320,192,37142,1,0,0:0:0:0:
192,192,37142,1,0,0:0:0:0:
320,192,37329,1,0,0:0:0:0:
192,192,37329,1,0,0:0:0:0:
64,192,37517,128,0,39017:0:0:0:0:
448,192,37517,128,0,38173:0:0:0:0:
192,192,38267,1,0,0:0:0:0:
320,192,38267,128,0,39767:0:0:0:0:
192,192,39017,128,0,40517:0:0:0:0:
448,192,39017,1,0,0:0:0:0:
64,192,39392,1,0,0:0:0:0:
64,192,39767,1,0,0:0:0:0:
448,192,39767,128,0,41267:0:0:0:0:
64,192,40142,1,0,0:0:0:0:
320,192,40517,128,0,42017:0:0:0:0:
64,192,40517,1,0,0:0:0:0:
64,192,41267,128,0,42767:0:0:0:0:
192,192,41267,1,0,0:0:0:0:
448,192,42017,1,0,0:0:0:0:
192,192,42017,128,0,43517:0:0:0:0:
320,192,42392,1,0,0:0:0:0:
448,192,42767,128,0,43517:0:0:0:0:
320,192,42767,1,0,0:0:0:0:
320,192,43306,1,0,0:0:0:0:
64,192,43517,1,0,0:0:0:0:
320,192,43892,128,0,44267:0:0:0:0:
192,192,44267,1,0,0:0:0:0:
448,192,44267,1,0,0:0:0:0:
64,192,44267,128,0,44642:0:0:0:0:
192,192,44642,128,0,45017:0:0:0:0:
448,192,45017,1,0,0:0:0:0:
64,192,45017,128,0,45579:0:0:0:0:
192,192,45392,1,0,0:0:0:0:
448,192,45579,128,0,46142:0:0:0:0:
320,192,45767,1,0,0:0:0:0:
64,192,45767,1,0,0:0:0:0:
192,192,46142,1,0,0:0:0:0:
320,192,46142,128,0,46704:0:0:0:0:
192,192,46517,1,0,0:0:0:0:
64,192,46704,128,0,47267:0:0:0:0:
192,192,46892,128,0,47267:0:0:0:0:
320,192,47267,1,0,0:0:0:0:
448,192,47267,1,0,0:0:0:0:
320,192,48017,1,0,0:0:0:0:
192,192,48392,1,0,0:0:0:0:
64,192,48767,128,0,49142:0:0:0:0:
320,192,48767,128,0,49142:0:0:0:0:
448,192,49517,1,0,0:0:0:0:
64,192,49517,1,0,0:0:0:0:
64,192,49704,1,0,0:0:0:0:
448,192,49704,1,0,0:0:0:0:
64,192,49892,1,0,0:0:0:0:
448,192,49892,1,0,0:0:0:0:
64,192,50079,1,0,0:0:0:0:
448,192,50079,1,0,0:0:0:0:
64,192,50267,1,0,0:0:0:0:
448,192,50267,1,0,0:0:0:0:
64,192,50454,1,0,0:0:0:0:
448,192,50454,1,0,0:0:0:0:
64,192,50642,1,0,0:0:0:0:
448,192,50642,1,0,0:0:0:0:
64,192,50806,1,0,0:0:0:0:
448,192,50806,1,0,0:0:0:0:
192,192,51017,1,0,0:0:0:0:
320,192,51017,1,0,0:0:0:0:
192,192,51204,1,0,0:0:0:0:
320,192,51204,1,0,0:0:0:0:
320,192,51392,1,0,0:0:0:0:
192,192,51392,1,0,0:0:0:0:
192,192,51579,1,0,0:0:0:0:
320,192,51579,1,0,0:0:0:0:
192,192,51767,1,0,0:0:0:0:
320,192,51767,1,0,0:0:0:0:
192,192,51954,1,0,0:0:0:0:
320,192,51954,1,0,0:0:0:0:
192,192,52142,1,0,0:0:0:0:
320,192,52142,1,0,0:0:0:0:
192,192,52329,1,0,0:0:0:0:
320,192,52329,1,0,0:0:0:0:
320,192,52517,1,0,0:0:0:0:
64,192,52517,1,0,0:0:0:0:
64,192,52704,1,0,0:0:0:0:
320,192,52704,1,0,0:0:0:0:
320,192,52892,1,0,0:0:0:0:
64,192,52892,1,0,0:0:0:0:
320,192,53079,1,0,0:0:0:0:
64,192,53079,1,0,0:0:0:0:
320,192,53267,1,0,0:0:0:0:
64,192,53267,1,0,0:0:0:0:
320,192,53454,1,0,0:0:0:0:
64,192,53454,1,0,0:0:0:0:
320,192,53642,1,0,0:0:0:0:
64,192,53642,1,0,0:0:0:0:
320,192,53829,1,0,0:0:0:0:
64,192,53829,1,0,0:0:0:0:
448,192,54017,1,0,0:0:0:0:
192,192,54017,1,0,0:0:0:0:
448,192,54204,1,0,0:0:0:0:
192,192,54204,1,0,0:0:0:0:
448,192,54392,1,0,0:0:0:0:
192,192,54392,1,0,0:0:0:0:
448,192,54579,1,0,0:0:0:0:
192,192,54579,1,0,0:0:0:0:
448,192,54767,1,0,0:0:0:0:
192,192,54767,1,0,0:0:0:0:
448,192,54954,1,0,0:0:0:0:
192,192,54954,1,0,0:0:0:0:
448,192,55142,1,0,0:0:0:0:
192,192,55142,1,0,0:0:0:0:
448,192,55329,1,0,0:0:0:0:
192,192,55329,1,0,0:0:0:0:
320,192,55517,1,0,0:0:0:0:
64,192,55517,1,0,0:0:0:0:
320,192,55704,1,0,0:0:0:0:
64,192,55704,1,0,0:0:0:0:
320,192,55892,1,0,0:0:0:0:
64,192,55892,1,0,0:0:0:0:
320,192,56079,1,0,0:0:0:0:
64,192,56079,1,0,0:0:0:0:
192,192,56267,1,0,0:0:0:0:
320,192,56267,1,0,0:0:0:0:
320,192,56454,1,0,0:0:0:0:
192,192,56454,1,0,0:0:0:0:
192,192,56642,1,0,0:0:0:0:
320,192,56642,1,0,0:0:0:0:
192,192,56829,1,0,0:0:0:0:
320,192,56829,1,0,0:0:0:0:
448,192,57017,1,0,0:0:0:0:
64,192,57017,1,0,0:0:0:0:
64,192,57204,1,0,0:0:0:0:
448,192,57204,1,0,0:0:0:0:
64,192,57392,1,0,0:0:0:0:
448,192,57392,1,0,0:0:0:0:
64,192,57579,1,0,0:0:0:0:
448,192,57579,1,0,0:0:0:0:
192,192,57767,1,0,0:0:0:0:
448,192,57767,1,0,0:0:0:0:
192,192,57954,1,0,0:0:0:0:
448,192,57954,1,0,0:0:0:0:
192,192,58142,1,0,0:0:0:0:
448,192,58142,1,0,0:0:0:0:
448,192,58329,1,0,0:0:0:0:
192,192,58329,1,0,0:0:0:0:
320,192,58517,1,0,0:0:0:0:
192,192,58517,1,0,0:0:0:0:
320,192,58704,1,0,0:0:0:0:
192,192,58704,1,0,0:0:0:0:
320,192,58892,1,0,0:0:0:0:
192,192,58892,1,0,0:0:0:0:
320,192,59079,1,0,0:0:0:0:
192,192,59079,1,0,0:0:0:0:
448,192,59267,1,0,0:0:0:0:
320,192,59267,1,0,0:0:0:0:
448,192,59454,1,0,0:0:0:0:
320,192,59454,1,0,0:0:0:0:
448,192,59642,1,0,0:0:0:0:
320,192,59642,1,0,0:0:0:0:
448,192,59829,1,0,0:0:0:0:
320,192,59829,1,0,0:0:0:0:
448,192,60017,1,0,0:0:0:0:
64,192,60017,128,0,60298:0:0:0:0:
320,192,60017,1,0,0:0:0:0:
448,192,60204,1,0,0:0:0:0:
192,192,60298,128,0,60485:0:0:0:0:
448,192,60392,1,0,0:0:0:0:
320,192,60485,128,0,60673:0:0:0:0:
448,192,60579,1,0,0:0:0:0:
64,192,60673,128,0,61517:0:0:0:0:
192,192,61142,128,0,61517:0:0:0:0:
320,192,61517,1,0,0:0:0:0:
448,192,61517,1,0,0:0:0:0:
64,192,61704,1,0,0:0:0:0:
192,192,61798,1,0,0:0:0:0:
320,192,61892,1,0,0:0:0:0:
448,192,61892,1,0,0:0:0:0:
448,192,62079,1,0,0:0:0:0:
320,192,62173,1,0,0:0:0:0:
192,192,62267,1,0,0:0:0:0:
64,192,62454,1,0,0:0:0:0:
192,192,62548,1,0,0:0:0:0:
320,192,62642,1,0,0:0:0:0:
448,192,62642,128,0,63017:0:0:0:0:
64,192,62829,1,0,0:0:0:0:
192,192,62923,1,0,0:0:0:0:
320,192,63017,1,0,0:0:0:0:
192,192,63204,1,0,0:0:0:0:
320,192,63298,1,0,0:0:0:0:
448,192,63392,1,0,0:0:0:0:
64,192,63579,1,0,0:0:0:0:
192,192,63673,1,0,0:0:0:0:
320,192,63767,1,0,0:0:0:0:
192,192,63954,1,0,0:0:0:0:
320,192,64048,1,0,0:0:0:0:
64,192,64142,128,0,64517:0:0:0:0:
448,192,64142,1,0,0:0:0:0:
192,192,64329,128,0,64517:0:0:0:0:
448,192,64329,1,0,0:0:0:0:
320,192,64423,1,0,0:0:0:0:
448,192,64517,1,0,0:0:0:0:
320,192,64704,1,0,0:0:0:0:
192,192,64798,1,0,0:0:0:0:
64,192,64892,1,0,0:0:0:0:
448,192,64892,1,0,0:0:0:0:
192,192,65079,1,0,0:0:0:0:
320,192,65173,1,0,0:0:0:0:
448,192,65267,1,0,0:0:0:0:
320,192,65454,1,0,0:0:0:0:
192,192,65548,1,0,0:0:0:0:
448,192,65642,128,0,66017:0:0:0:0:
64,192,65642,1,0,0:0:0:0:
192,192,65829,1,0,0:0:0:0:
320,192,65923,1,0,0:0:0:0:
64,192,66017,1,0,0:0:0:0:
448,192,66204,1,0,0:0:0:0:
320,192,66298,1,0,0:0:0:0:
448,192,66392,1,0,0:0:0:0:
192,192,66392,1,0,0:0:0:0:
320,192,66579,1,0,0:0:0:0:
192,192,66673,1,0,0:0:0:0:
64,192,66767,1,0,0:0:0:0:
192,192,66954,1,0,0:0:0:0:
320,192,67048,1,0,0:0:0:0:
64,192,67142,1,0,0:0:0:0:
448,192,67142,1,0,0:0:0:0:
192,192,67329,1,0,0:0:0:0:
320,192,67329,1,0,0:0:0:0:
64,192,67517,1,0,0:0:0:0:
448,192,67517,1,0,0:0:0:0:
320,192,67704,1,0,0:0:0:0:
192,192,67798,1,0,0:0:0:0:
64,192,67892,1,0,0:0:0:0:
448,192,67892,1,0,0:0:0:0:
320,192,68079,1,0,0:0:0:0:
448,192,68173,1,0,0:0:0:0:
320,192,68267,1,0,0:0:0:0:
192,192,68454,1,0,0:0:0:0:
64,192,68548,1,0,0:0:0:0:
192,192,68642,1,0,0:0:0:0:
320,192,68642,128,0,69017:0:0:0:0:
448,192,68829,1,0,0:0:0:0:
192,192,68923,1,0,0:0:0:0:
64,192,69017,1,0,0:0:0:0:
64,192,69204,1,0,0:0:0:0:
192,192,69298,1,0,0:0:0:0:
320,192,69392,1,0,0:0:0:0:
448,192,69392,1,0,0:0:0:0:
192,192,69579,1,0,0:0:0:0:
320,192,69673,1,0,0:0:0:0:
448,192,69767,1,0,0:0:0:0:
448,192,69954,1,0,0:0:0:0:
320,192,70048,1,0,0:0:0:0:
192,192,70142,1,0,0:0:0:0:
64,192,70142,128,0,70517:0:0:0:0:
448,192,70329,1,0,0:0:0:0:
320,192,70423,1,0,0:0:0:0:
192,192,70517,1,0,0:0:0:0:
64,192,70704,1,0,0:0:0:0:
192,192,70798,1,0,0:0:0:0:
320,192,70892,1,0,0:0:0:0:
448,192,70892,1,0,0:0:0:0:
320,192,71079,1,0,0:0:0:0:
192,192,71173,1,0,0:0:0:0:
64,192,71267,1,0,0:0:0:0:
448,192,71454,128,0,71642:0:0:0:0:
64,192,71829,128,0,72017:0:0:0:0:
192,192,72017,128,0,72204:0:0:0:0:
320,192,72298,128,0,72485:0:0:0:0:
448,192,72579,128,0,72767:0:0:0:0:
320,192,72767,128,0,72954:0:0:0:0:
192,192,72954,128,0,73142:0:0:0:0:
64,192,73142,128,0,73517:0:0:0:0:
448,192,73142,128,0,73517:0:0:0:0:
192,192,73517,1,0,0:0:0:0:
320,192,73517,1,0,0:0:0:0:
448,192,73704,1,0,0:0:0:0:
64,192,73704,1,0,0:0:0:0:
192,192,73798,1,0,0:0:0:0:
64,192,73892,1,0,0:0:0:0:
320,192,73892,1,0,0:0:0:0:
192,192,74079,1,0,0:0:0:0:
448,192,74079,1,0,0:0:0:0:
320,192,74173,1,0,0:0:0:0:
64,192,74267,1,0,0:0:0:0:
448,192,74267,1,0,0:0:0:0:
192,192,74454,1,0,0:0:0:0:
320,192,74454,1,0,0:0:0:0:
448,192,74548,1,0,0:0:0:0:
320,192,74642,1,0,0:0:0:0:
64,192,74642,1,0,0:0:0:0:
448,192,74829,1,0,0:0:0:0:
192,192,74829,1,0,0:0:0:0:
64,192,74923,1,0,0:0:0:0:
320,192,75017,1,0,0:0:0:0:
448,192,75017,1,0,0:0:0:0:
192,192,75181,1,0,0:0:0:0:
320,192,75181,1,0,0:0:0:0:
448,192,75298,1,0,0:0:0:0:
64,192,75392,1,0,0:0:0:0:
320,192,75392,1,0,0:0:0:0:
192,192,75579,1,0,0:0:0:0:
448,192,75579,1,0,0:0:0:0:
64,192,75673,1,0,0:0:0:0:
320,192,75743,1,0,0:0:0:0:
192,192,75743,1,0,0:0:0:0:
448,192,75954,1,0,0:0:0:0:
192,192,75954,1,0,0:0:0:0:
64,192,76048,1,0,0:0:0:0:
320,192,76142,1,0,0:0:0:0:
448,192,76142,1,0,0:0:0:0:
192,192,76329,1,0,0:0:0:0:
320,192,76329,1,0,0:0:0:0:
448,192,76423,1,0,0:0:0:0:
64,192,76517,1,0,0:0:0:0:
320,192,76517,1,0,0:0:0:0:
192,192,76704,1,0,0:0:0:0:
320,192,76704,1,0,0:0:0:0:
64,192,76798,1,0,0:0:0:0:
320,192,76892,1,0,0:0:0:0:
192,192,76892,1,0,0:0:0:0:
448,192,77056,1,0,0:0:0:0:
320,192,77056,1,0,0:0:0:0:
192,192,77173,1,0,0:0:0:0:
320,192,77267,1,0,0:0:0:0:
64,192,77267,1,0,0:0:0:0:
192,192,77454,1,0,0:0:0:0:
448,192,77454,1,0,0:0:0:0:
320,192,77548,1,0,0:0:0:0:
64,192,77618,1,0,0:0:0:0:
448,192,77618,1,0,0:0:0:0:
192,192,77829,1,0,0:0:0:0:
320,192,77829,1,0,0:0:0:0:
64,192,77923,1,0,0:0:0:0:
320,192,78017,1,0,0:0:0:0:
192,192,78017,1,0,0:0:0:0:
448,192,78204,1,0,0:0:0:0:
320,192,78204,1,0,0:0:0:0:
64,192,78298,1,0,0:0:0:0:
320,192,78392,1,0,0:0:0:0:
192,192,78392,1,0,0:0:0:0:
192,192,78579,1,0,0:0:0:0:
320,192,78579,1,0,0:0:0:0:
448,192,78673,1,0,0:0:0:0:
64,192,78767,1,0,0:0:0:0:
320,192,78767,1,0,0:0:0:0:
192,192,78931,1,0,0:0:0:0:
448,192,78931,1,0,0:0:0:0:
64,192,79048,1,0,0:0:0:0:
320,192,79142,1,0,0:0:0:0:
192,192,79142,1,0,0:0:0:0:
448,192,79329,1,0,0:0:0:0:
192,192,79329,1,0,0:0:0:0:
320,192,79423,1,0,0:0:0:0:
192,192,79493,1,0,0:0:0:0:
64,192,79493,1,0,0:0:0:0:
448,192,79610,1,0,0:0:0:0:
320,192,79610,1,0,0:0:0:0:
192,192,79704,1,0,0:0:0:0:
64,192,79704,1,0,0:0:0:0:
448,192,79798,1,0,0:0:0:0:
320,192,79798,1,0,0:0:0:0:
192,192,79892,1,0,0:0:0:0:
64,192,79892,1,0,0:0:0:0:
448,192,79985,1,0,0:0:0:0:
320,192,79985,1,0,0:0:0:0:
192,192,80079,1,0,0:0:0:0:
64,192,80079,1,0,0:0:0:0:
448,192,80173,1,0,0:0:0:0:
320,192,80173,1,0,0:0:0:0:
192,192,80267,1,0,0:0:0:0:
64,192,80267,1,0,0:0:0:0:
448,192,80337,1,0,0:0:0:0:
320,192,80337,1,0,0:0:0:0:
192,192,80454,1,0,0:0:0:0:
64,192,80454,1,0,0:0:0:0:
448,192,80548,1,0,0:0:0:0:
320,192,80548,1,0,0:0:0:0:
192,192,80642,1,0,0:0:0:0:
64,192,80642,1,0,0:0:0:0:
320,192,80735,1,0,0:0:0:0:
448,192,80735,1,0,0:0:0:0:
192,192,80806,1,0,0:0:0:0:
64,192,80806,1,0,0:0:0:0:
448,192,80923,1,0,0:0:0:0:
320,192,80923,1,0,0:0:0:0:
192,192,81017,1,0,0:0:0:0:
64,192,81017,1,0,0:0:0:0:
320,192,81110,1,0,0:0:0:0:
64,192,81204,1,0,0:0:0:0:
448,192,81204,1,0,0:0:0:0:
192,192,81298,1,0,0:0:0:0:
320,192,81298,1,0,0:0:0:0:
64,192,81368,1,0,0:0:0:0:
448,192,81368,1,0,0:0:0:0:
192,192,81485,1,0,0:0:0:0:
320,192,81485,1,0,0:0:0:0:
64,192,81579,1,0,0:0:0:0:
448,192,81579,1,0,0:0:0:0:
192,192,81673,1,0,0:0:0:0:
320,192,81673,1,0,0:0:0:0:
64,192,81767,1,0,0:0:0:0:
448,192,81767,1,0,0:0:0:0:
192,192,81860,1,0,0:0:0:0:
320,192,81860,1,0,0:0:0:0:
64,192,81954,1,0,0:0:0:0:
448,192,81954,1,0,0:0:0:0:
192,192,82048,1,0,0:0:0:0:
320,192,82048,1,0,0:0:0:0:
64,192,82142,1,0,0:0:0:0:
192,192,82188,1,0,0:0:0:0:
320,192,82212,1,0,0:0:0:0:
448,192,82282,1,0,0:0:0:0:
64,192,82329,1,0,0:0:0:0:
192,192,82376,1,0,0:0:0:0:
320,192,82423,1,0,0:0:0:0:
448,192,82470,1,0,0:0:0:0:
64,192,82517,1,0,0:0:0:0:
192,192,82563,1,0,0:0:0:0:
320,192,82610,1,0,0:0:0:0:
448,192,82634,1,0,0:0:0:0:
448,192,82892,1,0,0:0:0:0:
320,192,82938,1,0,0:0:0:0:
192,192,82985,1,0,0:0:0:0:
64,192,83032,1,0,0:0:0:0:
448,192,83173,1,0,0:0:0:0:
320,192,83173,1,0,0:0:0:0:
192,192,83243,1,0,0:0:0:0:
64,192,83243,1,0,0:0:0:0:
448,192,83360,1,0,0:0:0:0:
320,192,83360,1,0,0:0:0:0:
192,192,83454,1,0,0:0:0:0:
64,192,83454,1,0,0:0:0:0:
448,192,83548,1,0,0:0:0:0:
320,192,83548,1,0,0:0:0:0:
64,192,83642,1,0,0:0:0:0:
192,192,83688,1,0,0:0:0:0:
320,192,83735,1,0,0:0:0:0:
448,192,83782,1,0,0:0:0:0:
192,192,84017,1,0,0:0:0:0:
448,192,84017,1,0,0:0:0:0:
64,192,84017,1,0,0:0:0:0:
320,192,84017,1,0,0:0:0:0:
64,192,84298,128,0,84673:0:0:0:0:
192,192,84673,128,0,85048:0:0:0:0:
320,192,85048,128,0,85423:0:0:0:0:
64,192,85329,1,0,0:0:0:0:
192,192,85423,1,0,0:0:0:0:
64,192,85517,1,0,0:0:0:0:
448,192,85517,1,0,0:0:0:0:
448,192,85704,128,0,86079:0:0:0:0:
320,192,85704,1,0,0:0:0:0:
192,192,85798,1,0,0:0:0:0:
64,192,85892,1,0,0:0:0:0:
320,192,86079,128,0,86431:0:0:0:0:
192,192,86079,1,0,0:0:0:0:
64,192,86173,1,0,0:0:0:0:
448,192,86267,1,0,0:0:0:0:
192,192,86431,128,0,86829:0:0:0:0:
64,192,86431,1,0,0:0:0:0:
448,192,86548,1,0,0:0:0:0:
320,192,86642,1,0,0:0:0:0:
64,192,86829,128,0,87204:0:0:0:0:
320,192,86829,1,0,0:0:0:0:
448,192,86923,1,0,0:0:0:0:
320,192,86993,1,0,0:0:0:0:
192,192,87204,128,0,87579:0:0:0:0:
448,192,87204,1,0,0:0:0:0:
320,192,87298,1,0,0:0:0:0:
64,192,87392,1,0,0:0:0:0:
320,192,87579,128,0,87954:0:0:0:0:
448,192,87579,1,0,0:0:0:0:
64,192,87673,1,0,0:0:0:0:
192,192,87767,1,0,0:0:0:0:
448,192,87954,128,0,88306:0:0:0:0:
64,192,87954,1,0,0:0:0:0:
192,192,88048,1,0,0:0:0:0:
320,192,88142,1,0,0:0:0:0:
64,192,88306,128,0,88704:0:0:0:0:
192,192,88306,1,0,0:0:0:0:
320,192,88423,1,0,0:0:0:0:
448,192,88517,1,0,0:0:0:0:
192,192,88704,128,0,89079:0:0:0:0:
448,192,88704,1,0,0:0:0:0:
320,192,88798,1,0,0:0:0:0:
64,192,88868,1,0,0:0:0:0:
320,192,89079,128,0,89454:0:0:0:0:
448,192,89079,1,0,0:0:0:0:
64,192,89173,1,0,0:0:0:0:
192,192,89267,1,0,0:0:0:0:
448,192,89454,128,0,89829:0:0:0:0:
64,192,89454,1,0,0:0:0:0:
192,192,89548,1,0,0:0:0:0:
64,192,89642,1,0,0:0:0:0:
320,192,89829,128,0,90181:0:0:0:0:
192,192,89829,1,0,0:0:0:0:
64,192,89923,1,0,0:0:0:0:
448,192,90017,1,0,0:0:0:0:
192,192,90181,128,0,90579:0:0:0:0:
64,192,90181,1,0,0:0:0:0:
448,192,90298,1,0,0:0:0:0:
64,192,90392,128,0,90743:0:0:0:0:
320,192,90392,1,0,0:0:0:0:
448,192,90579,1,0,0:0:0:0:
320,192,90673,1,0,0:0:0:0:
448,192,90743,1,0,0:0:0:0:
192,192,90743,1,0,0:0:0:0:
192,192,90954,1,0,0:0:0:0:
320,192,90954,1,0,0:0:0:0:
448,192,91048,1,0,0:0:0:0:
64,192,91142,1,0,0:0:0:0:
192,192,91142,1,0,0:0:0:0:
448,192,91329,128,0,91517:0:0:0:0:
192,192,91329,1,0,0:0:0:0:
64,192,91423,1,0,0:0:0:0:
320,192,91517,1,0,0:0:0:0:
192,192,91517,1,0,0:0:0:0:
64,192,91704,128,0,92056:0:0:0:0:
192,192,91704,1,0,0:0:0:0:
320,192,91798,1,0,0:0:0:0:
448,192,91892,1,0,0:0:0:0:
192,192,92056,128,0,92454:0:0:0:0:
448,192,92056,1,0,0:0:0:0:
320,192,92173,1,0,0:0:0:0:
64,192,92267,1,0,0:0:0:0:
320,192,92454,128,0,92829:0:0:0:0:
64,192,92454,1,0,0:0:0:0:
448,192,92548,1,0,0:0:0:0:
64,192,92618,1,0,0:0:0:0:
448,192,92829,128,0,93204:0:0:0:0:
64,192,92829,1,0,0:0:0:0:
192,192,92923,1,0,0:0:0:0:
320,192,93017,1,0,0:0:0:0:
64,192,93204,128,0,93579:0:0:0:0:
192,192,93204,1,0,0:0:0:0:
320,192,93298,1,0,0:0:0:0:
448,192,93392,1,0,0:0:0:0:
192,192,93579,128,0,93931:0:0:0:0:
448,192,93579,1,0,0:0:0:0:
320,192,93673,1,0,0:0:0:0:
64,192,93767,1,0,0:0:0:0:
320,192,93931,128,0,94329:0:0:0:0:
64,192,93931,1,0,0:0:0:0:
448,192,94048,1,0,0:0:0:0:
192,192,94142,1,0,0:0:0:0:
448,192,94329,128,0,94704:0:0:0:0:
64,192,94329,1,0,0:0:0:0:
192,192,94423,1,0,0:0:0:0:
320,192,94493,1,0,0:0:0:0:
64,192,94704,128,0,95079:0:0:0:0:
192,192,94704,1,0,0:0:0:0:
320,192,94798,1,0,0:0:0:0:
448,192,94892,1,0,0:0:0:0:
320,192,95079,128,0,95454:0:0:0:0:
192,192,95079,1,0,0:0:0:0:
448,192,95173,1,0,0:0:0:0:
64,192,95267,1,0,0:0:0:0:
192,192,95454,128,0,95806:0:0:0:0:
448,192,95454,1,0,0:0:0:0:
64,192,95548,1,0,0:0:0:0:
320,192,95642,1,0,0:0:0:0:
448,192,95806,128,0,96204:0:0:0:0:
64,192,95806,1,0,0:0:0:0:
320,192,95923,1,0,0:0:0:0:
64,192,96017,1,0,0:0:0:0:
320,192,96204,128,0,96579:0:0:0:0:
64,192,96204,1,0,0:0:0:0:
192,192,96298,1,0,0:0:0:0:
448,192,96368,1,0,0:0:0:0:
192,192,96579,128,0,96954:0:0:0:0:
448,192,96579,1,0,0:0:0:0:
64,192,96673,1,0,0:0:0:0:
448,192,96767,1,0,0:0:0:0:
320,192,96767,1,0,0:0:0:0:
320,192,96954,1,0,0:0:0:0:
448,192,96954,1,0,0:0:0:0:
64,192,96954,128,0,97329:0:0:0:0:
320,192,97142,128,0,97517:0:0:0:0:
448,192,97142,128,0,97517:0:0:0:0:
64,192,97517,1,0,0:0:0:0:
192,192,97517,1,0,0:0:0:0:
64,192,97681,128,0,98079:0:0:0:0:
192,192,97681,1,0,0:0:0:0:
320,192,97798,1,0,0:0:0:0:
448,192,97892,1,0,0:0:0:0:
192,192,98079,128,0,98454:0:0:0:0:
448,192,98079,1,0,0:0:0:0:
320,192,98173,1,0,0:0:0:0:
64,192,98243,1,0,0:0:0:0:
320,192,98454,128,0,98829:0:0:0:0:
64,192,98454,1,0,0:0:0:0:
448,192,98548,1,0,0:0:0:0:
192,192,98642,1,0,0:0:0:0:
448,192,98829,128,0,99204:0:0:0:0:
64,192,98829,1,0,0:0:0:0:
192,192,98923,1,0,0:0:0:0:
320,192,99017,1,0,0:0:0:0:
64,192,99204,128,0,99556:0:0:0:0:
192,192,99204,1,0,0:0:0:0:
320,192,99298,1,0,0:0:0:0:
448,192,99392,1,0,0:0:0:0:
192,192,99556,128,0,99954:0:0:0:0:
448,192,99556,1,0,0:0:0:0:
320,192,99673,1,0,0:0:0:0:
64,192,99767,1,0,0:0:0:0:
320,192,99954,128,0,100329:0:0:0:0:
448,192,99954,1,0,0:0:0:0:
64,192,100048,1,0,0:0:0:0:
192,192,100118,1,0,0:0:0:0:
448,192,100329,128,0,100704:0:0:0:0:
64,192,100329,1,0,0:0:0:0:
192,192,100423,1,0,0:0:0:0:
64,192,100517,1,0,0:0:0:0:
320,192,100704,128,0,101079:0:0:0:0:
192,192,100704,1,0,0:0:0:0:
64,192,100798,1,0,0:0:0:0:
448,192,100892,1,0,0:0:0:0:
192,192,101079,128,0,101431:0:0:0:0:
64,192,101079,1,0,0:0:0:0:
448,192,101173,1,0,0:0:0:0:
320,192,101267,1,0,0:0:0:0:
64,192,101431,128,0,101829:0:0:0:0:
448,192,101431,1,0,0:0:0:0:
320,192,101548,1,0,0:0:0:0:
192,192,101642,1,0,0:0:0:0:
448,192,101829,128,0,102204:0:0:0:0:
320,192,101829,1,0,0:0:0:0:
192,192,101923,1,0,0:0:0:0:
64,192,101993,1,0,0:0:0:0:
320,192,102204,128,0,102579:0:0:0:0:
64,192,102204,1,0,0:0:0:0:
192,192,102298,1,0,0:0:0:0:
448,192,102392,1,0,0:0:0:0:
192,192,102579,128,0,102954:0:0:0:0:
448,192,102579,1,0,0:0:0:0:
64,192,102673,1,0,0:0:0:0:
320,192,102767,1,0,0:0:0:0:
448,192,102767,1,0,0:0:0:0:
64,192,102954,128,0,103306:0:0:0:0:
192,192,103142,1,0,0:0:0:0:
448,192,103142,1,0,0:0:0:0:
448,192,103306,128,0,103704:0:0:0:0:
192,192,103306,1,0,0:0:0:0:
320,192,103306,1,0,0:0:0:0:
192,192,103517,1,0,0:0:0:0:
320,192,103517,1,0,0:0:0:0:
64,192,103704,128,0,104079:0:0:0:0:
192,192,103704,1,0,0:0:0:0:
320,192,103798,1,0,0:0:0:0:
448,192,103868,1,0,0:0:0:0:
192,192,104079,128,0,104454:0:0:0:0:
448,192,104079,1,0,0:0:0:0:
320,192,104173,1,0,0:0:0:0:
64,192,104267,1,0,0:0:0:0:
320,192,104454,128,0,104829:0:0:0:0:
64,192,104454,1,0,0:0:0:0:
448,192,104548,1,0,0:0:0:0:
192,192,104642,1,0,0:0:0:0:
448,192,104829,128,0,105181:0:0:0:0:
64,192,104829,1,0,0:0:0:0:
192,192,104923,1,0,0:0:0:0:
320,192,105017,1,0,0:0:0:0:
64,192,105181,128,0,105579:0:0:0:0:
192,192,105181,1,0,0:0:0:0:
320,192,105298,1,0,0:0:0:0:
448,192,105392,1,0,0:0:0:0:
320,192,105579,128,0,105954:0:0:0:0:
448,192,105579,1,0,0:0:0:0:
192,192,105673,1,0,0:0:0:0:
64,192,105743,1,0,0:0:0:0:
192,192,105954,128,0,106329:0:0:0:0:
448,192,105954,1,0,0:0:0:0:
64,192,106048,1,0,0:0:0:0:
320,192,106142,1,0,0:0:0:0:
448,192,106329,128,0,106704:0:0:0:0:
64,192,106329,1,0,0:0:0:0:
320,192,106423,1,0,0:0:0:0:
192,192,106517,1,0,0:0:0:0:
64,192,106704,128,0,107056:0:0:0:0:
192,192,106704,1,0,0:0:0:0:
320,192,106798,1,0,0:0:0:0:
448,192,106892,1,0,0:0:0:0:
192,192,107056,128,0,107454:0:0:0:0:
448,192,107056,1,0,0:0:0:0:
320,192,107173,1,0,0:0:0:0:
64,192,107267,1,0,0:0:0:0:
320,192,107454,128,0,107829:0:0:0:0:
64,192,107454,1,0,0:0:0:0:
448,192,107548,1,0,0:0:0:0:
192,192,107618,1,0,0:0:0:0:
448,192,107829,1,0,0:0:0:0:
192,192,107923,1,0,0:0:0:0:
64,192,108017,5,0,0:0:0:0:
320,192,108017,1,0,0:0:0:0:
64,192,108204,1,0,0:0:0:0:
320,192,108204,1,0,0:0:0:0:
64,192,108392,1,0,0:0:0:0:
320,192,108392,1,0,0:0:0:0:
64,192,108579,1,0,0:0:0:0:
320,192,108579,1,0,0:0:0:0:
448,192,108767,1,0,0:0:0:0:
192,192,108767,1,0,0:0:0:0:
448,192,108931,1,0,0:0:0:0:
192,192,108931,1,0,0:0:0:0:
448,192,109142,1,0,0:0:0:0:
192,192,109142,1,0,0:0:0:0:
448,192,109329,1,0,0:0:0:0:
192,192,109329,1,0,0:0:0:0:
64,192,109493,128,0,110267:0:0:0:0:
192,192,109493,1,0,0:0:0:0:
448,192,109493,1,0,0:0:0:0:
320,192,109704,1,0,0:0:0:0:
448,192,109798,1,0,0:0:0:0:
192,192,109892,1,0,0:0:0:0:
320,192,110079,1,0,0:0:0:0:
448,192,110173,1,0,0:0:0:0:
192,192,110267,128,0,111017:0:0:0:0:
320,192,110267,1,0,0:0:0:0:
64,192,110454,1,0,0:0:0:0:
320,192,110548,1,0,0:0:0:0:
448,192,110642,1,0,0:0:0:0:
64,192,110806,1,0,0:0:0:0:
448,192,110923,1,0,0:0:0:0:
320,192,111017,128,0,111767:0:0:0:0:
64,192,111017,1,0,0:0:0:0:
448,192,111204,1,0,0:0:0:0:
192,192,111298,1,0,0:0:0:0:
64,192,111368,1,0,0:0:0:0:
448,192,111579,1,0,0:0:0:0:
192,192,111673,1,0,0:0:0:0:
448,192,111767,128,0,112517:0:0:0:0:
64,192,111767,1,0,0:0:0:0:
192,192,111954,1,0,0:0:0:0:
64,192,112048,1,0,0:0:0:0:
320,192,112142,1,0,0:0:0:0:
192,192,112329,1,0,0:0:0:0:
64,192,112423,1,0,0:0:0:0:
320,192,112517,128,0,113243:0:0:0:0:
192,192,112517,1,0,0:0:0:0:
64,192,112681,1,0,0:0:0:0:
192,192,112798,1,0,0:0:0:0:
448,192,112892,1,0,0:0:0:0:
64,192,113079,1,0,0:0:0:0:
448,192,113173,1,0,0:0:0:0:
192,192,113243,128,0,114017:0:0:0:0:
64,192,113243,1,0,0:0:0:0:
448,192,113454,1,0,0:0:0:0:
320,192,113548,1,0,0:0:0:0:
64,192,113642,1,0,0:0:0:0:
448,192,113829,1,0,0:0:0:0:
320,192,113923,1,0,0:0:0:0:
64,192,114017,128,0,114767:0:0:0:0:
448,192,114017,1,0,0:0:0:0:
448,192,114204,1,0,0:0:0:0:
320,192,114298,1,0,0:0:0:0:
192,192,114392,1,0,0:0:0:0:
320,192,114556,1,0,0:0:0:0:
192,192,114673,1,0,0:0:0:0:
448,192,114767,128,0,115517:0:0:0:0:
320,192,114767,1,0,0:0:0:0:
192,192,114954,1,0,0:0:0:0:
320,192,115048,1,0,0:0:0:0:
64,192,115118,1,0,0:0:0:0:
192,192,115118,1,0,0:0:0:0:
320,192,115329,1,0,0:0:0:0:
192,192,115329,1,0,0:0:0:0:
64,192,115517,1,0,0:0:0:0:
192,192,115517,1,0,0:0:0:0:
192,192,115704,1,0,0:0:0:0:
320,192,115798,1,0,0:0:0:0:
64,192,115892,128,0,116267:0:0:0:0:
448,192,115892,1,0,0:0:0:0:
192,192,116079,1,0,0:0:0:0:
320,192,116173,1,0,0:0:0:0:
192,192,116267,128,0,116642:0:0:0:0:
448,192,116267,1,0,0:0:0:0:
448,192,116454,1,0,0:0:0:0:
64,192,116548,1,0,0:0:0:0:
320,192,116642,128,0,117017:0:0:0:0:
448,192,116642,1,0,0:0:0:0:
64,192,116829,1,0,0:0:0:0:
192,192,116923,1,0,0:0:0:0:
64,192,117017,1,0,0:0:0:0:
448,192,117017,128,0,117579:0:0:0:0:
192,192,117204,1,0,0:0:0:0:
64,192,117298,1,0,0:0:0:0:
320,192,117392,1,0,0:0:0:0:
64,192,117579,128,0,118142:0:0:0:0:
192,192,117579,1,0,0:0:0:0:
320,192,117673,1,0,0:0:0:0:
448,192,117767,1,0,0:0:0:0:
448,192,117954,1,0,0:0:0:0:
320,192,118048,1,0,0:0:0:0:
192,192,118142,128,0,118704:0:0:0:0:
448,192,118142,1,0,0:0:0:0:
448,192,118329,1,0,0:0:0:0:
320,192,118423,1,0,0:0:0:0:
64,192,118517,1,0,0:0:0:0:
448,192,118704,128,0,119267:0:0:0:0:
320,192,118704,1,0,0:0:0:0:
64,192,118798,1,0,0:0:0:0:
320,192,118892,1,0,0:0:0:0:
64,192,119079,1,0,0:0:0:0:
192,192,119173,1,0,0:0:0:0:
320,192,119267,1,0,0:0:0:0:
64,192,119454,1,0,0:0:0:0:
192,192,119548,1,0,0:0:0:0:
320,192,119642,1,0,0:0:0:0:
448,192,119829,1,0,0:0:0:0:
320,192,119923,1,0,0:0:0:0:
192,192,120017,1,0,0:0:0:0:
64,192,120204,1,0,0:0:0:0:
192,192,120298,1,0,0:0:0:0:
320,192,120392,1,0,0:0:0:0:
192,192,120579,1,0,0:0:0:0:
320,192,120673,1,0,0:0:0:0:
64,192,120767,1,0,0:0:0:0:
448,192,120767,1,0,0:0:0:0:
192,192,120954,1,0,0:0:0:0:
320,192,120954,1,0,0:0:0:0:
64,192,121142,128,0,121517:0:0:0:0:
448,192,121142,128,0,121517:0:0:0:0:
192,192,121517,1,0,0:0:0:0:
320,192,121517,1,0,0:0:0:0:
192,192,121704,1,0,0:0:0:0:
320,192,121798,1,0,0:0:0:0:
64,192,121892,1,0,0:0:0:0:
192,192,121892,1,0,0:0:0:0:
448,192,121892,1,0,0:0:0:0:
448,192,122079,1,0,0:0:0:0:
320,192,122173,1,0,0:0:0:0:
448,192,122267,1,0,0:0:0:0:
64,192,122267,1,0,0:0:0:0:
192,192,122267,1,0,0:0:0:0:
192,192,122454,1,0,0:0:0:0:
320,192,122548,1,0,0:0:0:0:
64,192,122642,1,0,0:0:0:0:
192,192,122642,1,0,0:0:0:0:
448,192,122642,1,0,0:0:0:0:
320,192,122829,1,0,0:0:0:0:
192,192,122923,1,0,0:0:0:0:
64,192,123017,1,0,0:0:0:0:
320,192,123017,1,0,0:0:0:0:
448,192,123017,1,0,0:0:0:0:
64,192,123204,1,0,0:0:0:0:
192,192,123298,1,0,0:0:0:0:
64,192,123392,1,0,0:0:0:0:
320,192,123392,1,0,0:0:0:0:
448,192,123392,1,0,0:0:0:0:
320,192,123579,1,0,0:0:0:0:
448,192,123673,1,0,0:0:0:0:
64,192,123767,1,0,0:0:0:0:
192,192,123767,1,0,0:0:0:0:
320,192,123767,1,0,0:0:0:0:
192,192,123954,1,0,0:0:0:0:
64,192,124048,1,0,0:0:0:0:
192,192,124142,1,0,0:0:0:0:
320,192,124142,1,0,0:0:0:0:
448,192,124142,1,0,0:0:0:0:
64,192,124329,1,0,0:0:0:0:
192,192,124423,1,0,0:0:0:0:
448,192,124517,1,0,0:0:0:0:
320,192,124517,1,0,0:0:0:0:
64,192,124517,1,0,0:0:0:0:
448,192,124704,1,0,0:0:0:0:
320,192,124798,1,0,0:0:0:0:
64,192,124892,1,0,0:0:0:0:
448,192,124892,1,0,0:0:0:0:
192,192,124892,1,0,0:0:0:0:
320,192,125079,1,0,0:0:0:0:
192,192,125173,1,0,0:0:0:0:
64,192,125267,1,0,0:0:0:0:
320,192,125267,1,0,0:0:0:0:
448,192,125267,1,0,0:0:0:0:
192,192,125454,1,0,0:0:0:0:
320,192,125548,1,0,0:0:0:0:
64,192,125642,1,0,0:0:0:0:
192,192,125642,1,0,0:0:0:0:
448,192,125642,1,0,0:0:0:0:
448,192,125829,1,0,0:0:0:0:
320,192,125923,1,0,0:0:0:0:
192,192,126017,1,0,0:0:0:0:
448,192,126017,1,0,0:0:0:0:
64,192,126017,1,0,0:0:0:0:
64,192,126204,1,0,0:0:0:0:
192,192,126298,1,0,0:0:0:0:
320,192,126392,1,0,0:0:0:0:
64,192,126392,1,0,0:0:0:0:
448,192,126392,1,0,0:0:0:0:
448,192,126579,1,0,0:0:0:0:
192,192,126673,1,0,0:0:0:0:
64,192,126767,1,0,0:0:0:0:
320,192,126767,1,0,0:0:0:0:
448,192,126767,1,0,0:0:0:0:
64,192,126954,1,0,0:0:0:0:
320,192,127048,1,0,0:0:0:0:
64,192,127142,1,0,0:0:0:0:
192,192,127142,1,0,0:0:0:0:
448,192,127142,1,0,0:0:0:0:
192,192,127329,1,0,0:0:0:0:
448,192,127329,1,0,0:0:0:0:
320,192,127329,1,0,0:0:0:0:
64,192,127517,1,0,0:0:0:0:
192,192,127517,1,0,0:0:0:0:
320,192,127517,1,0,0:0:0:0:
448,192,127704,1,0,0:0:0:0:
64,192,127798,1,0,0:0:0:0:
192,192,127892,1,0,0:0:0:0:
320,192,127892,1,0,0:0:0:0:
448,192,127892,1,0,0:0:0:0:
320,192,128079,1,0,0:0:0:0:
64,192,128173,1,0,0:0:0:0:
320,192,128267,1,0,0:0:0:0:
448,192,128267,1,0,0:0:0:0:
192,192,128267,1,0,0:0:0:0:
192,192,128454,1,0,0:0:0:0:
448,192,128548,1,0,0:0:0:0:
64,192,128642,1,0,0:0:0:0:
192,192,128642,1,0,0:0:0:0:
320,192,128642,1,0,0:0:0:0:
320,192,128829,1,0,0:0:0:0:
192,192,128923,1,0,0:0:0:0:
64,192,129017,1,0,0:0:0:0:
320,192,129017,1,0,0:0:0:0:
448,192,129017,1,0,0:0:0:0:
192,192,129204,1,0,0:0:0:0:
320,192,129298,1,0,0:0:0:0:
192,192,129392,1,0,0:0:0:0:
448,192,129392,1,0,0:0:0:0:
64,192,129392,1,0,0:0:0:0:
64,192,129579,1,0,0:0:0:0:
320,192,129673,1,0,0:0:0:0:
64,192,129767,1,0,0:0:0:0:
192,192,129767,1,0,0:0:0:0:
448,192,129767,1,0,0:0:0:0:
448,192,129954,1,0,0:0:0:0:
320,192,130048,1,0,0:0:0:0:
64,192,130142,1,0,0:0:0:0:
192,192,130142,1,0,0:0:0:0:
448,192,130142,1,0,0:0:0:0:
64,192,130329,1,0,0:0:0:0:
192,192,130423,1,0,0:0:0:0:
448,192,130517,1,0,0:0:0:0:
64,192,130517,1,0,0:0:0:0:
320,192,130517,1,0,0:0:0:0:
320,192,130704,1,0,0:0:0:0:
192,192,130798,1,0,0:0:0:0:
64,192,130892,1,0,0:0:0:0:
320,192,130892,1,0,0:0:0:0:
448,192,130892,1,0,0:0:0:0:
448,192,131079,1,0,0:0:0:0:
192,192,131173,1,0,0:0:0:0:
64,192,131267,1,0,0:0:0:0:
320,192,131267,1,0,0:0:0:0:
448,192,131267,1,0,0:0:0:0:
64,192,131454,1,0,0:0:0:0:
448,192,131548,1,0,0:0:0:0:
64,192,131642,1,0,0:0:0:0:
192,192,131642,1,0,0:0:0:0:
320,192,131642,1,0,0:0:0:0:
448,192,131829,128,0,132017:0:0:0:0:
64,192,132017,1,0,0:0:0:0:
192,192,132110,1,0,0:0:0:0:
320,192,132204,1,0,0:0:0:0:
448,192,132298,1,0,0:0:0:0:
320,192,132392,1,0,0:0:0:0:
192,192,132485,1,0,0:0:0:0:
64,192,132579,1,0,0:0:0:0:
192,192,132673,1,0,0:0:0:0:
320,192,132767,1,0,0:0:0:0:
448,192,132860,1,0,0:0:0:0:
320,192,132954,1,0,0:0:0:0:
192,192,133048,1,0,0:0:0:0:
64,192,133142,128,0,133517:0:0:0:0:
448,192,133142,128,0,133517:0:0:0:0:
192,192,133517,1,0,0:0:0:0:
320,192,133517,1,0,0:0:0:0:
192,192,133704,1,0,0:0:0:0:
320,192,133798,1,0,0:0:0:0:
64,192,133892,1,0,0:0:0:0:
448,192,133892,1,0,0:0:0:0:
64,192,134079,1,0,0:0:0:0:
192,192,134173,1,0,0:0:0:0:
320,192,134267,1,0,0:0:0:0:
448,192,134267,1,0,0:0:0:0:
192,192,134454,1,0,0:0:0:0:
64,192,134548,1,0,0:0:0:0:
320,192,134642,1,0,0:0:0:0:
448,192,134642,1,0,0:0:0:0:
448,192,134829,1,0,0:0:0:0:
320,192,134923,1,0,0:0:0:0:
64,192,135017,1,0,0:0:0:0:
192,192,135017,1,0,0:0:0:0:
192,192,135204,1,0,0:0:0:0:
320,192,135298,1,0,0:0:0:0:
192,192,135392,1,0,0:0:0:0:
448,192,135392,1,0,0:0:0:0:
64,192,135579,1,0,0:0:0:0:
192,192,135673,1,0,0:0:0:0:
448,192,135767,1,0,0:0:0:0:
320,192,135767,1,0,0:0:0:0:
192,192,135954,1,0,0:0:0:0:
320,192,136048,1,0,0:0:0:0:
64,192,136142,1,0,0:0:0:0:
192,192,136142,1,0,0:0:0:0:
448,192,136329,1,0,0:0:0:0:
320,192,136423,1,0,0:0:0:0:
64,192,136517,1,0,0:0:0:0:
192,192,136517,1,0,0:0:0:0:
320,192,136704,1,0,0:0:0:0:
448,192,136798,1,0,0:0:0:0:
192,192,136892,1,0,0:0:0:0:
320,192,136892,1,0,0:0:0:0:
64,192,137079,1,0,0:0:0:0:
448,192,137173,1,0,0:0:0:0:
192,192,137267,1,0,0:0:0:0:
320,192,137267,1,0,0:0:0:0:
448,192,137454,1,0,0:0:0:0:
64,192,137548,1,0,0:0:0:0:
192,192,137642,1,0,0:0:0:0:
320,192,137642,1,0,0:0:0:0:
192,192,137829,1,0,0:0:0:0:
320,192,137923,1,0,0:0:0:0:
64,192,138017,1,0,0:0:0:0:
448,192,138017,1,0,0:0:0:0:
320,192,138204,1,0,0:0:0:0:
192,192,138298,1,0,0:0:0:0:
64,192,138392,1,0,0:0:0:0:
448,192,138392,1,0,0:0:0:0:
192,192,138579,1,0,0:0:0:0:
320,192,138673,1,0,0:0:0:0:
448,192,138767,1,0,0:0:0:0:
64,192,138767,1,0,0:0:0:0:
320,192,138954,1,0,0:0:0:0:
448,192,139048,1,0,0:0:0:0:
64,192,139142,1,0,0:0:0:0:
192,192,139142,1,0,0:0:0:0:
320,192,139329,1,0,0:0:0:0:
448,192,139329,1,0,0:0:0:0:
64,192,139517,1,0,0:0:0:0:
448,192,139517,1,0,0:0:0:0:
64,192,139704,1,0,0:0:0:0:
192,192,139798,1,0,0:0:0:0:
64,192,139892,1,0,0:0:0:0:
320,192,139892,1,0,0:0:0:0:
448,192,140079,1,0,0:0:0:0:
320,192,140173,1,0,0:0:0:0:
64,192,140267,1,0,0:0:0:0:
192,192,140267,1,0,0:0:0:0:
192,192,140454,1,0,0:0:0:0:
448,192,140548,1,0,0:0:0:0:
64,192,140642,1,0,0:0:0:0:
320,192,140642,1,0,0:0:0:0:
64,192,140829,1,0,0:0:0:0:
320,192,140923,1,0,0:0:0:0:
192,192,141017,1,0,0:0:0:0:
448,192,141017,1,0,0:0:0:0:
320,192,141204,1,0,0:0:0:0:
448,192,141298,1,0,0:0:0:0:
192,192,141392,1,0,0:0:0:0:
320,192,141392,1,0,0:0:0:0:
64,192,141579,1,0,0:0:0:0:
320,192,141673,1,0,0:0:0:0:
192,192,141767,1,0,0:0:0:0:
64,192,141767,1,0,0:0:0:0:
320,192,141954,1,0,0:0:0:0:
64,192,142048,1,0,0:0:0:0:
192,192,142142,1,0,0:0:0:0:
320,192,142142,1,0,0:0:0:0:
448,192,142329,1,0,0:0:0:0:
64,192,142423,1,0,0:0:0:0:
192,192,142517,1,0,0:0:0:0:
320,192,142517,1,0,0:0:0:0:
64,192,142704,1,0,0:0:0:0:
448,192,142798,1,0,0:0:0:0:
320,192,142892,1,0,0:0:0:0:
192,192,142892,1,0,0:0:0:0:
448,192,143079,1,0,0:0:0:0:
320,192,143173,1,0,0:0:0:0:
64,192,143267,1,0,0:0:0:0:
448,192,143267,1,0,0:0:0:0:
192,192,143454,1,0,0:0:0:0:
320,192,143548,1,0,0:0:0:0:
64,192,143642,1,0,0:0:0:0:
448,192,143642,1,0,0:0:0:0:
192,192,143829,1,0,0:0:0:0:
448,192,143923,1,0,0:0:0:0:
320,192,144017,1,0,0:0:0:0:
192,192,144017,1,0,0:0:0:0:
320,192,144204,1,0,0:0:0:0:
192,192,144298,1,0,0:0:0:0:
64,192,144392,1,0,0:0:0:0:
448,192,144392,1,0,0:0:0:0:
192,192,144579,1,0,0:0:0:0:
320,192,144673,1,0,0:0:0:0:
448,192,144767,1,0,0:0:0:0:
64,192,144767,1,0,0:0:0:0:
192,192,144954,1,0,0:0:0:0:
320,192,144954,1,0,0:0:0:0:
64,192,145142,128,0,145517:0:0:0:0:
448,192,145142,128,0,145517:0:0:0:0:
192,192,145517,1,0,0:0:0:0:
320,192,145517,1,0,0:0:0:0:
448,192,145704,1,0,0:0:0:0:
320,192,145798,1,0,0:0:0:0:
192,192,145892,1,0,0:0:0:0:
64,192,145892,1,0,0:0:0:0:
64,192,146079,1,0,0:0:0:0:
320,192,146173,1,0,0:0:0:0:
192,192,146267,1,0,0:0:0:0:
448,192,146267,1,0,0:0:0:0:
64,192,146454,1,0,0:0:0:0:
192,192,146548,1,0,0:0:0:0:
320,192,146642,1,0,0:0:0:0:
448,192,146642,1,0,0:0:0:0:
320,192,146829,1,0,0:0:0:0:
192,192,146923,1,0,0:0:0:0:
448,192,147017,1,0,0:0:0:0:
64,192,147017,1,0,0:0:0:0:
192,192,147204,1,0,0:0:0:0:
320,192,147298,1,0,0:0:0:0:
448,192,147392,1,0,0:0:0:0:
192,192,147392,1,0,0:0:0:0:
64,192,147579,1,0,0:0:0:0:
320,192,147673,1,0,0:0:0:0:
448,192,147767,1,0,0:0:0:0:
192,192,147767,1,0,0:0:0:0:
64,192,147954,1,0,0:0:0:0:
320,192,148048,1,0,0:0:0:0:
192,192,148142,1,0,0:0:0:0:
448,192,148142,1,0,0:0:0:0:
192,192,148329,1,0,0:0:0:0:
320,192,148423,1,0,0:0:0:0:
448,192,148517,1,0,0:0:0:0:
64,192,148517,1,0,0:0:0:0:
192,192,148704,1,0,0:0:0:0:
320,192,148798,1,0,0:0:0:0:
64,192,148868,1,0,0:0:0:0:
448,192,148868,1,0,0:0:0:0:
320,192,149079,1,0,0:0:0:0:
192,192,149173,1,0,0:0:0:0:
64,192,149267,1,0,0:0:0:0:
320,192,149267,1,0,0:0:0:0:
448,192,149454,1,0,0:0:0:0:
320,192,149548,1,0,0:0:0:0:
64,192,149642,1,0,0:0:0:0:
192,192,149642,1,0,0:0:0:0:
320,192,149829,1,0,0:0:0:0:
192,192,149923,1,0,0:0:0:0:
64,192,150017,1,0,0:0:0:0:
448,192,150017,1,0,0:0:0:0:
192,192,150181,1,0,0:0:0:0:
448,192,150298,1,0,0:0:0:0:
320,192,150392,1,0,0:0:0:0:
192,192,150392,1,0,0:0:0:0:
64,192,150579,1,0,0:0:0:0:
320,192,150673,1,0,0:0:0:0:
64,192,150743,1,0,0:0:0:0:
192,192,150743,1,0,0:0:0:0:
448,192,150954,1,0,0:0:0:0:
320,192,151048,1,0,0:0:0:0:
448,192,151142,1,0,0:0:0:0:
192,192,151142,1,0,0:0:0:0:
192,192,151329,1,0,0:0:0:0:
320,192,151329,1,0,0:0:0:0:
64,192,151517,1,0,0:0:0:0:
320,192,151517,1,0,0:0:0:0:
448,192,151704,1,0,0:0:0:0:
320,192,151798,1,0,0:0:0:0:
192,192,151892,1,0,0:0:0:0:
448,192,151892,1,0,0:0:0:0:
64,192,152056,1,0,0:0:0:0:
320,192,152173,1,0,0:0:0:0:
192,192,152267,1,0,0:0:0:0:
448,192,152267,1,0,0:0:0:0:
320,192,152454,1,0,0:0:0:0:
192,192,152548,1,0,0:0:0:0:
64,192,152618,1,0,0:0:0:0:
448,192,152618,1,0,0:0:0:0:
320,192,152829,1,0,0:0:0:0:
448,192,152923,1,0,0:0:0:0:
64,192,153017,1,0,0:0:0:0:
192,192,153017,1,0,0:0:0:0:
192,192,153204,1,0,0:0:0:0:
64,192,153298,1,0,0:0:0:0:
320,192,153392,1,0,0:0:0:0:
448,192,153392,1,0,0:0:0:0:
320,192,153579,1,0,0:0:0:0:
448,192,153673,1,0,0:0:0:0:
64,192,153767,1,0,0:0:0:0:
192,192,153767,1,0,0:0:0:0:
192,192,153931,1,0,0:0:0:0:
320,192,154048,1,0,0:0:0:0:
192,192,154142,1,0,0:0:0:0:
448,192,154142,1,0,0:0:0:0:
64,192,154329,1,0,0:0:0:0:
192,192,154423,1,0,0:0:0:0:
320,192,154493,1,0,0:0:0:0:
448,192,154493,1,0,0:0:0:0:
64,192,154704,1,0,0:0:0:0:
64,192,154798,1,0,0:0:0:0:
192,192,154892,1,0,0:0:0:0:
320,192,154892,1,0,0:0:0:0:
192,192,155079,1,0,0:0:0:0:
192,192,155173,1,0,0:0:0:0:
320,192,155267,1,0,0:0:0:0:
448,192,155267,1,0,0:0:0:0:
320,192,155454,1,0,0:0:0:0:
320,192,155548,1,0,0:0:0:0:
448,192,155642,128,0,156017:0:0:0:0:
320,192,155806,128,0,157142:0:0:0:0:
192,192,156017,128,0,157517:0:0:0:0:
64,192,156017,1,0,0:0:0:0:
64,192,157517,5,0,0:0:0:0:
320,192,157517,1,0,0:0:0:0:
448,192,157517,1,0,0:0:0:0:
64,192,157892,128,0,158243:0:0:0:0:
448,192,157892,1,0,0:0:0:0:
192,192,157892,128,0,158290:0:0:0:0:
448,192,158243,1,0,0:0:0:0:
320,192,158642,128,0,159017:0:0:0:0:
448,192,158642,1,0,0:0:0:0:
448,192,159017,128,0,159579:0:0:0:0:
64,192,159017,1,0,0:0:0:0:
64,192,159392,1,0,0:0:0:0:
320,192,159556,128,0,160118:0:0:0:0:
64,192,159767,1,0,0:0:0:0:
448,192,160142,1,0,0:0:0:0:
192,192,160142,128,0,160517:0:0:0:0:
64,192,160517,128,0,161267:0:0:0:0:
448,192,160517,1,0,0:0:0:0:
448,192,160892,1,0,0:0:0:0:
192,192,161267,1,0,0:0:0:0:
448,192,161642,1,0,0:0:0:0:
320,192,161642,128,0,161829:0:0:0:0:
192,192,161829,128,0,162017:0:0:0:0:
64,192,162017,128,0,162392:0:0:0:0:
448,192,162017,1,0,0:0:0:0:
448,192,162392,1,0,0:0:0:0:
192,192,162392,128,0,162767:0:0:0:0:
320,192,162767,128,0,163142:0:0:0:0:
64,192,162767,1,0,0:0:0:0:
448,192,163142,128,0,163517:0:0:0:0:
192,192,163142,1,0,0:0:0:0:
64,192,163517,128,0,163892:0:0:0:0:
192,192,163517,1,0,0:0:0:0:
320,192,163892,1,0,0:0:0:0:
320,192,164267,1,0,0:0:0:0:
64,192,164642,128,0,165017:0:0:0:0:
448,192,164642,1,0,0:0:0:0:
192,192,165017,128,0,165392:0:0:0:0:
448,192,165017,1,0,0:0:0:0:
64,192,165392,1,0,0:0:0:0:
320,192,165392,128,0,165767:0:0:0:0:
448,192,165415,128,0,165884:0:0:0:0:
64,192,165767,1,0,0:0:0:0:
320,192,166142,128,0,166892:0:0:0:0:
192,192,166142,1,0,0:0:0:0:
64,192,166517,1,0,0:0:0:0:
192,192,166892,128,0,167267:0:0:0:0:
448,192,166892,1,0,0:0:0:0:
448,192,167267,1,0,0:0:0:0:
192,192,167642,1,0,0:0:0:0:
448,192,167642,1,0,0:0:0:0:
192,192,168017,1,0,0:0:0:0:
320,192,168017,1,0,0:0:0:0:
192,192,168392,1,0,0:0:0:0:
64,192,168392,1,0,0:0:0:0:
192,192,168767,1,0,0:0:0:0:
320,192,168767,1,0,0:0:0:0:
192,192,169142,128,0,169517:0:0:0:0:
448,192,169142,1,0,0:0:0:0:
64,192,169517,1,0,0:0:0:0:
320,192,169517,128,0,169892:0:0:0:0:
192,192,169892,1,0,0:0:0:0:
448,192,170079,128,0,170267:0:0:0:0:
320,192,170267,128,0,170642:0:0:0:0:
64,192,170267,1,0,0:0:0:0:
192,192,170642,128,0,171017:0:0:0:0:
448,192,170642,1,0,0:0:0:0:
448,192,171017,1,0,0:0:0:0:
64,192,171204,128,0,171579:0:0:0:0:
448,192,171392,1,0,0:0:0:0:
192,192,171579,128,0,171767:0:0:0:0:
320,192,171767,128,0,171954:0:0:0:0:
64,192,171767,1,0,0:0:0:0:
448,192,171954,128,0,172142:0:0:0:0:
320,192,172142,128,0,172329:0:0:0:0:
64,192,172142,1,0,0:0:0:0:
192,192,172329,128,0,172517:0:0:0:0:
64,192,172517,128,0,172892:0:0:0:0:
448,192,172517,1,0,0:0:0:0:
192,192,172892,1,0,0:0:0:0:
320,192,173079,128,0,173267:0:0:0:0:
64,192,173267,1,0,0:0:0:0:
448,192,173267,128,0,173642:0:0:0:0:
192,192,173642,128,0,174017:0:0:0:0:
320,192,173642,1,0,0:0:0:0:
448,192,174017,1,0,0:0:0:0:
64,192,174204,128,0,174392:0:0:0:0:
320,192,174392,128,0,174579:0:0:0:0:
448,192,174392,1,0,0:0:0:0:
192,192,174579,128,0,174767:0:0:0:0:
448,192,174767,128,0,174954:0:0:0:0:
64,192,174767,1,0,0:0:0:0:
192,192,174954,128,0,175142:0:0:0:0:
448,192,175142,1,0,0:0:0:0:
320,192,175142,128,0,175329:0:0:0:0:
64,192,175329,128,0,175517:0:0:0:0:
192,192,175517,1,0,0:0:0:0:
320,192,175610,1,0,0:0:0:0:
448,192,175704,1,0,0:0:0:0:
320,192,175798,1,0,0:0:0:0:
192,192,175892,1,0,0:0:0:0:
64,192,175985,1,0,0:0:0:0:
192,192,176079,128,0,176267:0:0:0:0:
448,192,176173,1,0,0:0:0:0:
320,192,176267,128,0,176642:0:0:0:0:
64,192,176267,1,0,0:0:0:0:
448,192,176360,1,0,0:0:0:0:
64,192,176454,1,0,0:0:0:0:
192,192,176548,1,0,0:0:0:0:
64,192,176642,128,0,177017:0:0:0:0:
448,192,176642,1,0,0:0:0:0:
192,192,176735,1,0,0:0:0:0:
320,192,176829,1,0,0:0:0:0:
448,192,176923,1,0,0:0:0:0:
320,192,177017,1,0,0:0:0:0:
192,192,177110,1,0,0:0:0:0:
448,192,177204,128,0,177392:0:0:0:0:
320,192,177204,1,0,0:0:0:0:
192,192,177298,1,0,0:0:0:0:
64,192,177392,1,0,0:0:0:0:
192,192,177485,1,0,0:0:0:0:
320,192,177579,128,0,177767:0:0:0:0:
448,192,177579,1,0,0:0:0:0:
64,192,177673,1,0,0:0:0:0:
192,192,177767,128,0,177954:0:0:0:0:
448,192,177767,1,0,0:0:0:0:
64,192,177837,1,0,0:0:0:0:
448,192,177954,128,0,178142:0:0:0:0:
320,192,177954,1,0,0:0:0:0:
64,192,178048,1,0,0:0:0:0:
320,192,178142,128,0,178329:0:0:0:0:
192,192,178142,1,0,0:0:0:0:
64,192,178235,1,0,0:0:0:0:
448,192,178329,1,0,0:0:0:0:
192,192,178329,128,0,178517:0:0:0:0:
64,192,178423,1,0,0:0:0:0:
64,192,178517,128,0,178892:0:0:0:0:
448,192,178517,1,0,0:0:0:0:
320,192,178610,1,0,0:0:0:0:
192,192,178704,1,0,0:0:0:0:
448,192,178798,1,0,0:0:0:0:
192,192,178892,128,0,179267:0:0:0:0:
320,192,178892,1,0,0:0:0:0:
448,192,178985,1,0,0:0:0:0:
64,192,179079,1,0,0:0:0:0:
448,192,179173,1,0,0:0:0:0:
320,192,179267,128,0,179642:0:0:0:0:
64,192,179267,1,0,0:0:0:0:
448,192,179360,1,0,0:0:0:0:
192,192,179454,1,0,0:0:0:0:
64,192,179548,1,0,0:0:0:0:
448,192,179642,128,0,180017:0:0:0:0:
192,192,179642,1,0,0:0:0:0:
64,192,179735,1,0,0:0:0:0:
192,192,179829,1,0,0:0:0:0:
320,192,179923,1,0,0:0:0:0:
64,192,180017,1,0,0:0:0:0:
192,192,180204,128,0,180392:0:0:0:0:
320,192,180392,128,0,180579:0:0:0:0:
64,192,180579,128,0,180767:0:0:0:0:
192,192,180767,128,0,180954:0:0:0:0:
320,192,180954,128,0,181142:0:0:0:0:
448,192,181142,128,0,181329:0:0:0:0:
192,192,181329,128,0,181517:0:0:0:0:
64,192,181517,128,0,181892:0:0:0:0:
320,192,181517,1,0,0:0:0:0:
448,192,181704,1,0,0:0:0:0:
192,192,181892,128,0,182079:0:0:0:0:
320,192,181892,1,0,0:0:0:0:
448,192,182079,128,0,182267:0:0:0:0:
320,192,182267,128,0,182618:0:0:0:0:
64,192,182267,1,0,0:0:0:0:
192,192,182454,1,0,0:0:0:0:
64,192,182618,128,0,183017:0:0:0:0:
448,192,182618,1,0,0:0:0:0:
192,192,182829,1,0,0:0:0:0:
448,192,183017,1,0,0:0:0:0:
192,192,183204,128,0,183392:0:0:0:0:
320,192,183204,1,0,0:0:0:0:
64,192,183392,1,0,0:0:0:0:
320,192,183579,128,0,183767:0:0:0:0:
192,192,183579,1,0,0:0:0:0:
448,192,183767,128,0,183954:0:0:0:0:
64,192,183767,1,0,0:0:0:0:
320,192,183954,128,0,184142:0:0:0:0:
192,192,183954,1,0,0:0:0:0:
64,192,184048,1,0,0:0:0:0:
192,192,184142,128,0,184329:0:0:0:0:
448,192,184142,1,0,0:0:0:0:
64,192,184329,128,0,184517:0:0:0:0:
320,192,184329,1,0,0:0:0:0:
448,192,184517,1,0,0:0:0:0:
192,192,184517,128,0,184892:0:0:0:0:
448,192,184704,1,0,0:0:0:0:
320,192,184892,1,0,0:0:0:0:
64,192,184892,1,0,0:0:0:0:
448,192,184985,128,0,185173:0:0:0:0:
320,192,185173,1,0,0:0:0:0:
64,192,185267,128,0,185454:0:0:0:0:
192,192,185267,1,0,0:0:0:0:
448,192,185454,1,0,0:0:0:0:
320,192,185642,128,0,186017:0:0:0:0:
192,192,185642,1,0,0:0:0:0:
448,192,185829,1,0,0:0:0:0:
64,192,186017,1,0,0:0:0:0:
448,192,186204,128,0,186392:0:0:0:0:
192,192,186204,1,0,0:0:0:0:
64,192,186392,128,0,186579:0:0:0:0:
320,192,186392,1,0,0:0:0:0:
320,192,186579,128,0,186767:0:0:0:0:
192,192,186767,128,0,186954:0:0:0:0:
64,192,186767,1,0,0:0:0:0:
448,192,186954,128,0,187142:0:0:0:0:
320,192,187142,128,0,187329:0:0:0:0:
64,192,187142,1,0,0:0:0:0:
192,192,187329,128,0,187517:0:0:0:0:
64,192,187517,128,0,187892:0:0:0:0:
448,192,187517,1,0,0:0:0:0:
320,192,187704,1,0,0:0:0:0:
192,192,187892,128,0,188079:0:0:0:0:
320,192,187892,1,0,0:0:0:0:
448,192,188079,128,0,188267:0:0:0:0:
64,192,188267,1,0,0:0:0:0:
320,192,188267,128,0,188454:0:0:0:0:
192,192,188454,1,0,0:0:0:0:
192,192,188642,128,0,189017:0:0:0:0:
448,192,188642,1,0,0:0:0:0:
320,192,188829,1,0,0:0:0:0:
64,192,189017,1,0,0:0:0:0:
320,192,189204,128,0,189579:0:0:0:0:
448,192,189204,1,0,0:0:0:0:
192,192,189392,1,0,0:0:0:0:
448,192,189579,128,0,189767:0:0:0:0:
64,192,189579,1,0,0:0:0:0:
192,192,189767,128,0,189954:0:0:0:0:
64,192,189767,1,0,0:0:0:0:
320,192,189954,128,0,190142:0:0:0:0:
448,192,190142,1,0,0:0:0:0:
64,192,190142,128,0,190329:0:0:0:0:
192,192,190329,128,0,190517:0:0:0:0:
448,192,190517,128,0,190892:0:0:0:0:
320,192,190517,1,0,0:0:0:0:
64,192,190704,1,0,0:0:0:0:
320,192,190892,128,0,191079:0:0:0:0:
192,192,190892,1,0,0:0:0:0:
64,192,191079,128,0,191267:0:0:0:0:
192,192,191267,128,0,191454:0:0:0:0:
448,192,191267,1,0,0:0:0:0:
320,192,191454,1,0,0:0:0:0:
448,192,191642,128,0,192017:0:0:0:0:
64,192,191642,1,0,0:0:0:0:
192,192,191829,1,0,0:0:0:0:
320,192,192017,1,0,0:0:0:0:
192,192,192204,128,0,192392:0:0:0:0:
64,192,192204,1,0,0:0:0:0:
448,192,192392,1,0,0:0:0:0:
320,192,192579,128,0,192767:0:0:0:0:
64,192,192579,1,0,0:0:0:0:
192,192,192767,1,0,0:0:0:0:
64,192,192954,128,0,193142:0:0:0:0:
320,192,192954,1,0,0:0:0:0:
448,192,193142,128,0,193329:0:0:0:0:
192,192,193142,1,0,0:0:0:0:
320,192,193329,128,0,193517:0:0:0:0:
64,192,193329,1,0,0:0:0:0:
192,192,193517,128,0,193892:0:0:0:0:
64,192,193517,1,0,0:0:0:0:
448,192,193704,1,0,0:0:0:0:
64,192,193892,128,0,194079:0:0:0:0:
320,192,193892,1,0,0:0:0:0:
320,192,194079,128,0,194267:0:0:0:0:
448,192,194267,128,0,194642:0:0:0:0:
192,192,194267,1,0,0:0:0:0:
64,192,194454,1,0,0:0:0:0:
192,192,194642,128,0,195017:0:0:0:0:
320,192,194642,1,0,0:0:0:0:
64,192,194829,1,0,0:0:0:0:
448,192,195017,1,0,0:0:0:0:
320,192,195204,128,0,195392:0:0:0:0:
64,192,195204,1,0,0:0:0:0:
192,192,195392,1,0,0:0:0:0:
448,192,195579,128,0,195767:0:0:0:0:
192,192,195579,1,0,0:0:0:0:
64,192,195767,1,0,0:0:0:0:
320,192,195767,128,0,195954:0:0:0:0:
192,192,195954,128,0,196142:0:0:0:0:
64,192,196142,128,0,196329:0:0:0:0:
448,192,196142,1,0,0:0:0:0:
320,192,196329,128,0,196517:0:0:0:0:
448,192,196517,128,0,196892:0:0:0:0:
192,192,196517,1,0,0:0:0:0:
64,192,196704,1,0,0:0:0:0:
320,192,196892,1,0,0:0:0:0:
192,192,196985,128,0,197173:0:0:0:0:
64,192,197173,1,0,0:0:0:0:
448,192,197267,128,0,197454:0:0:0:0:
320,192,197267,1,0,0:0:0:0:
64,192,197454,1,0,0:0:0:0:
192,192,197642,1,0,0:0:0:0:
320,192,197642,128,0,198017:0:0:0:0:
64,192,197829,1,0,0:0:0:0:
448,192,198017,1,0,0:0:0:0:
64,192,198204,128,0,198392:0:0:0:0:
320,192,198204,1,0,0:0:0:0:
192,192,198392,128,0,198579:0:0:0:0:
448,192,198392,1,0,0:0:0:0:
320,192,198579,128,0,198767:0:0:0:0:
448,192,198767,128,0,198954:0:0:0:0:
64,192,198767,1,0,0:0:0:0:
320,192,198954,128,0,199142:0:0:0:0:
192,192,198954,1,0,0:0:0:0:
192,192,199142,128,0,199329:0:0:0:0:
64,192,199142,1,0,0:0:0:0:
64,192,199329,128,0,199517:0:0:0:0:
448,192,199517,128,0,199892:0:0:0:0:
320,192,199517,1,0,0:0:0:0:
192,192,199704,1,0,0:0:0:0:
64,192,199892,128,0,200079:0:0:0:0:
320,192,199892,1,0,0:0:0:0:
192,192,200079,128,0,200267:0:0:0:0:
448,192,200267,128,0,200642:0:0:0:0:
320,192,200267,1,0,0:0:0:0:
64,192,200454,1,0,0:0:0:0:
192,192,200642,128,0,200829:0:0:0:0:
64,192,200642,1,0,0:0:0:0:
320,192,200829,128,0,201017:0:0:0:0:
448,192,200829,1,0,0:0:0:0:
448,192,201017,128,0,201392:0:0:0:0:
64,192,201017,1,0,0:0:0:0:
192,192,201204,1,0,0:0:0:0:
320,192,201392,1,0,0:0:0:0:
64,192,201392,128,0,201579:0:0:0:0:
192,192,201579,128,0,201767:0:0:0:0:
320,192,201579,1,0,0:0:0:0:
448,192,201767,128,0,202142:0:0:0:0:
64,192,201767,1,0,0:0:0:0:
320,192,201954,1,0,0:0:0:0:
192,192,202142,128,0,202329:0:0:0:0:
64,192,202142,1,0,0:0:0:0:
320,192,202329,128,0,202517:0:0:0:0:
448,192,202517,128,0,202892:0:0:0:0:
64,192,202517,1,0,0:0:0:0:
192,192,202610,1,0,0:0:0:0:
320,192,202704,1,0,0:0:0:0:
192,192,202798,1,0,0:0:0:0:
320,192,202892,128,0,203079:0:0:0:0:
64,192,202892,1,0,0:0:0:0:
192,192,202985,1,0,0:0:0:0:
64,192,203079,128,0,203267:0:0:0:0:
448,192,203079,1,0,0:0:0:0:
192,192,203173,1,0,0:0:0:0:
320,192,203267,1,0,0:0:0:0:
448,192,203267,128,0,203642:0:0:0:0:
192,192,203360,1,0,0:0:0:0:
64,192,203454,1,0,0:0:0:0:
320,192,203548,1,0,0:0:0:0:
64,192,203642,128,0,203829:0:0:0:0:
192,192,203642,1,0,0:0:0:0:
320,192,203735,1,0,0:0:0:0:
448,192,203829,1,0,0:0:0:0:
192,192,203829,128,0,204017:0:0:0:0:
320,192,203923,1,0,0:0:0:0:
64,192,204017,1,0,0:0:0:0:
448,192,204017,1,0,0:0:0:0:
64,192,204392,128,0,205517:0:0:0:0:
192,192,204767,128,0,205517:0:0:0:0:
320,192,205142,128,0,205517:0:0:0:0:
448,192,205517,128,0,206267:0:0:0:0:
192,192,205704,1,0,0:0:0:0:
320,192,205798,1,0,0:0:0:0:
64,192,205892,1,0,0:0:0:0:
320,192,206079,1,0,0:0:0:0:
192,192,206173,1,0,0:0:0:0:
64,192,206267,128,0,207017:0:0:0:0:
320,192,206267,1,0,0:0:0:0:
448,192,206431,1,0,0:0:0:0:
320,192,206548,1,0,0:0:0:0:
192,192,206642,1,0,0:0:0:0:
448,192,206829,1,0,0:0:0:0:
192,192,206923,1,0,0:0:0:0:
448,192,207017,1,0,0:0:0:0:
320,192,207017,128,0,207767:0:0:0:0:
192,192,207204,1,0,0:0:0:0:
64,192,207298,1,0,0:0:0:0:
448,192,207392,1,0,0:0:0:0:
192,192,207579,1,0,0:0:0:0:
448,192,207673,1,0,0:0:0:0:
64,192,207767,1,0,0:0:0:0:
192,192,207767,128,0,208517:0:0:0:0:
448,192,207954,1,0,0:0:0:0:
320,192,208048,1,0,0:0:0:0:
64,192,208142,1,0,0:0:0:0:
320,192,208329,1,0,0:0:0:0:
64,192,208423,1,0,0:0:0:0:
448,192,208517,128,0,209267:0:0:0:0:
320,192,208517,1,0,0:0:0:0:
192,192,208704,1,0,0:0:0:0:
320,192,208798,1,0,0:0:0:0:
64,192,208892,1,0,0:0:0:0:
192,192,209079,1,0,0:0:0:0:
320,192,209173,1,0,0:0:0:0:
64,192,209267,128,0,210017:0:0:0:0:
192,192,209267,1,0,0:0:0:0:
320,192,209454,1,0,0:0:0:0:
448,192,209548,1,0,0:0:0:0:
192,192,209642,1,0,0:0:0:0:
320,192,209829,1,0,0:0:0:0:
448,192,209923,1,0,0:0:0:0:
192,192,210017,128,0,210767:0:0:0:0:
320,192,210017,1,0,0:0:0:0:
448,192,210204,1,0,0:0:0:0:
64,192,210298,1,0,0:0:0:0:
320,192,210392,1,0,0:0:0:0:
64,192,210579,1,0,0:0:0:0:
448,192,210673,1,0,0:0:0:0:
320,192,210767,128,0,211517:0:0:0:0:
64,192,210767,1,0,0:0:0:0:
192,192,210954,1,0,0:0:0:0:
448,192,211048,1,0,0:0:0:0:
64,192,211142,1,0,0:0:0:0:
192,192,211142,1,0,0:0:0:0:
192,192,211329,1,0,0:0:0:0:
448,192,211329,1,0,0:0:0:0:
64,192,211517,1,0,0:0:0:0:
192,192,211517,1,0,0:0:0:0:
320,192,211704,1,0,0:0:0:0:
192,192,211798,1,0,0:0:0:0:
448,192,211892,128,0,212267:0:0:0:0:
64,192,211892,1,0,0:0:0:0:
192,192,212079,1,0,0:0:0:0:
64,192,212173,1,0,0:0:0:0:
320,192,212267,128,0,212642:0:0:0:0:
192,192,212267,1,0,0:0:0:0:
448,192,212454,1,0,0:0:0:0:
64,192,212548,1,0,0:0:0:0:
192,192,212642,128,0,213017:0:0:0:0:
448,192,212642,1,0,0:0:0:0:
320,192,212829,1,0,0:0:0:0:
448,192,212923,1,0,0:0:0:0:
64,192,213017,128,0,213579:0:0:0:0:
320,192,213017,1,0,0:0:0:0:
320,192,213204,1,0,0:0:0:0:
192,192,213298,1,0,0:0:0:0:
448,192,213392,1,0,0:0:0:0:
192,192,213579,128,0,214142:0:0:0:0:
448,192,213579,1,0,0:0:0:0:
320,192,213673,1,0,0:0:0:0:
64,192,213767,1,0,0:0:0:0:
448,192,213954,1,0,0:0:0:0:
64,192,214048,1,0,0:0:0:0:
320,192,214142,128,0,214704:0:0:0:0:
448,192,214142,1,0,0:0:0:0:
192,192,214329,1,0,0:0:0:0:
448,192,214423,1,0,0:0:0:0:
192,192,214517,1,0,0:0:0:0:
448,192,214704,128,0,215267:0:0:0:0:
64,192,214704,1,0,0:0:0:0:
192,192,214798,1,0,0:0:0:0:
320,192,214892,1,0,0:0:0:0:
320,192,215079,1,0,0:0:0:0:
192,192,215173,1,0,0:0:0:0:
64,192,215267,1,0,0:0:0:0:
320,192,215454,1,0,0:0:0:0:
192,192,215548,1,0,0:0:0:0:
64,192,215642,1,0,0:0:0:0:
448,192,215642,1,0,0:0:0:0:
192,192,215806,1,0,0:0:0:0:
64,192,215923,1,0,0:0:0:0:
320,192,216017,1,0,0:0:0:0:
448,192,216017,1,0,0:0:0:0:
192,192,216204,1,0,0:0:0:0:
448,192,216298,1,0,0:0:0:0:
64,192,216392,1,0,0:0:0:0:
320,192,216392,1,0,0:0:0:0:
448,192,216579,1,0,0:0:0:0:
320,192,216673,1,0,0:0:0:0:
64,192,216767,1,0,0:0:0:0:
192,192,216767,1,0,0:0:0:0:
320,192,216954,1,0,0:0:0:0:
448,192,216954,1,0,0:0:0:0:
64,192,217142,128,0,217517:0:0:0:0:
192,192,217142,128,0,217517:0:0:0:0:
320,192,217517,128,0,218267:0:0:0:0:
448,192,217517,1,0,0:0:0:0:
192,192,217704,1,0,0:0:0:0:
448,192,217798,1,0,0:0:0:0:
64,192,217892,1,0,0:0:0:0:
192,192,218079,1,0,0:0:0:0:
64,192,218173,1,0,0:0:0:0:
448,192,218267,128,0,219017:0:0:0:0:
192,192,218267,1,0,0:0:0:0:
320,192,218454,1,0,0:0:0:0:
192,192,218548,1,0,0:0:0:0:
64,192,218642,1,0,0:0:0:0:
192,192,218829,1,0,0:0:0:0:
320,192,218923,1,0,0:0:0:0:
64,192,219017,128,0,219767:0:0:0:0:
192,192,219017,1,0,0:0:0:0:
448,192,219204,1,0,0:0:0:0:
192,192,219298,1,0,0:0:0:0:
320,192,219392,1,0,0:0:0:0:
448,192,219556,1,0,0:0:0:0:
192,192,219673,1,0,0:0:0:0:
320,192,219767,128,0,220517:0:0:0:0:
448,192,219767,1,0,0:0:0:0:
192,192,219954,1,0,0:0:0:0:
64,192,220048,1,0,0:0:0:0:
448,192,220142,1,0,0:0:0:0:
192,192,220329,1,0,0:0:0:0:
64,192,220423,1,0,0:0:0:0:
448,192,220517,128,0,221267:0:0:0:0:
192,192,220517,1,0,0:0:0:0:
320,192,220704,1,0,0:0:0:0:
192,192,220798,1,0,0:0:0:0:
64,192,220892,1,0,0:0:0:0:
64,192,221079,1,0,0:0:0:0:
320,192,221173,1,0,0:0:0:0:
192,192,221267,128,0,222017:0:0:0:0:
64,192,221267,1,0,0:0:0:0:
448,192,221454,1,0,0:0:0:0:
320,192,221548,1,0,0:0:0:0:
64,192,221642,1,0,0:0:0:0:
64,192,221829,1,0,0:0:0:0:
448,192,221923,1,0,0:0:0:0:
64,192,222017,1,0,0:0:0:0:
320,192,222017,128,0,222767:0:0:0:0:
192,192,222204,1,0,0:0:0:0:
64,192,222298,1,0,0:0:0:0:
448,192,222392,1,0,0:0:0:0:
448,192,222579,1,0,0:0:0:0:
192,192,222673,1,0,0:0:0:0:
448,192,222767,1,0,0:0:0:0:
64,192,222767,128,0,223517:0:0:0:0:
192,192,222954,1,0,0:0:0:0:
320,192,223048,1,0,0:0:0:0:
192,192,223142,1,0,0:0:0:0:
448,192,223142,1,0,0:0:0:0:
448,192,223329,1,0,0:0:0:0:
320,192,223329,1,0,0:0:0:0:
192,192,223517,1,0,0:0:0:0:
320,192,223517,1,0,0:0:0:0:
448,192,223892,128,0,224267:0:0:0:0:
320,192,224267,128,0,224642:0:0:0:0:
192,192,224642,128,0,225017:0:0:0:0:
64,192,225017,128,0,227267:0:0:0:0:
192,192,225579,128,0,227267:0:0:0:0:
320,192,226142,128,0,227267:0:0:0:0:
448,192,226704,128,0,227267:0:0:0:0:
