osu file format v14

[General]
AudioFilename: S3RL - Nightcore This - S3RL Feat Tamika.mp3
AudioLeadIn: 0
PreviewTime: -1
Countdown: 0
SampleSet: Normal
StackLeniency: 0.7
Mode: 3
LetterboxInBreaks: 0
SpecialStyle: 0
WidescreenStoryboard: 1

[Editor]
DistanceSpacing: 0.8
BeatDivisor: 4
GridSize: 8
TimelineZoom: 1

[Metadata]
Title:Nightcore This
TitleUnicode:Nightcore This
Artist:S3RL Feat. Tamika
ArtistUnicode:S3RL Feat. Tamika
Creator:[1st GCorp]
Version:Hard
Source:
Tags:
BeatmapID:971799
BeatmapSetID:453126

[Difficulty]
HPDrainRate:7
CircleSize:4
OverallDifficulty:7
ApproachRate:5
SliderMultiplier:3.59999990463257
SliderTickRate:4

[Events]
//Background and Video events
0,0,"maxresdefault.jpg",0,0
//Break Periods
//Storyboard Layer 0 (Background)
//Storyboard Layer 1 (Fail)
//Storyboard Layer 2 (Pass)
//Storyboard Layer 3 (Foreground)
//Storyboard Sound Samples

[TimingPoints]
392,375,4,1,0,100,1,0
37626,-100,4,1,0,100,0,1
61626,-100,4,1,0,100,0,0
109626,-100,4,1,0,100,0,1
132126,-100,4,1,0,100,0,0
205626,-100,4,1,0,100,0,1
223626,-100,4,1,0,100,0,0

[HitObjects]
64,192,1517,5,0,0:0:0:0:
448,192,1517,1,0,0:0:0:0:
192,192,1704,1,0,0:0:0:0:
320,192,1892,1,0,0:0:0:0:
448,192,2079,1,0,0:0:0:0:
320,192,2267,1,0,0:0:0:0:
192,192,2454,1,0,0:0:0:0:
64,192,2642,128,0,3017:0:0:0:0:
320,192,3204,1,0,0:0:0:0:
448,192,3392,1,0,0:0:0:0:
192,192,3673,1,0,0:0:0:0:
448,192,3954,1,0,0:0:0:0:
320,192,4142,128,0,4517:0:0:0:0:
192,192,4329,128,0,4517:0:0:0:0:
64,192,4704,1,0,0:0:0:0:
320,192,4892,1,0,0:0:0:0:
448,192,5079,1,0,0:0:0:0:
192,192,5267,1,0,0:0:0:0:
64,192,5454,1,0,0:0:0:0:
448,192,5642,128,0,6017:0:0:0:0:
64,192,6204,1,0,0:0:0:0:
192,192,6392,1,0,0:0:0:0:
448,192,6673,1,0,0:0:0:0:
320,192,6954,1,0,0:0:0:0:
192,192,7142,128,0,7517:0:0:0:0:
64,192,7329,128,0,7517:0:0:0:0:
320,192,7517,1,0,0:0:0:0:
448,192,7517,1,0,0:0:0:0:
192,192,7892,1,0,0:0:0:0:
320,192,7892,1,0,0:0:0:0:
64,192,8267,1,0,0:0:0:0:
448,192,8267,1,0,0:0:0:0:
320,192,8642,1,0,0:0:0:0:
448,192,8642,1,0,0:0:0:0:
64,192,9017,1,0,0:0:0:0:
192,192,9017,1,0,0:0:0:0:
320,192,9392,1,0,0:0:0:0:
448,192,9392,1,0,0:0:0:0:
192,192,9767,1,0,0:0:0:0:
320,192,9767,1,0,0:0:0:0:
64,192,10142,1,0,0:0:0:0:
448,192,10142,1,0,0:0:0:0:
192,192,10517,1,0,0:0:0:0:
320,192,10517,1,0,0:0:0:0:
320,192,10892,1,0,0:0:0:0:
448,192,10892,1,0,0:0:0:0:
64,192,11267,1,0,0:0:0:0:
192,192,11267,1,0,0:0:0:0:
320,192,11642,1,0,0:0:0:0:
448,192,11642,1,0,0:0:0:0:
64,192,12017,1,0,0:0:0:0:
192,192,12110,1,0,0:0:0:0:
320,192,12204,1,0,0:0:0:0:
448,192,12298,1,0,0:0:0:0:
320,192,12392,1,0,0:0:0:0:
192,192,12485,1,0,0:0:0:0:
64,192,12579,1,0,0:0:0:0:
192,192,12673,1,0,0:0:0:0:
320,192,12767,1,0,0:0:0:0:
448,192,12860,1,0,0:0:0:0:
320,192,12954,1,0,0:0:0:0:
192,192,13048,1,0,0:0:0:0:
64,192,13142,128,0,13517:0:0:0:0:
320,192,13517,1,0,0:0:0:0:
192,192,13517,1,0,0:0:0:0:
448,192,13704,1,0,0:0:0:0:
192,192,13892,1,0,0:0:0:0:
320,192,13892,1,0,0:0:0:0:
64,192,14079,1,0,0:0:0:0:
192,192,14267,1,0,0:0:0:0:
448,192,14267,1,0,0:0:0:0:
320,192,14454,1,0,0:0:0:0:
64,192,14642,1,0,0:0:0:0:
192,192,14642,1,0,0:0:0:0:
448,192,14829,1,0,0:0:0:0:
192,192,15017,1,0,0:0:0:0:
320,192,15017,1,0,0:0:0:0:
64,192,15204,1,0,0:0:0:0:
192,192,15392,1,0,0:0:0:0:
448,192,15392,1,0,0:0:0:0:
320,192,15579,1,0,0:0:0:0:
64,192,15767,1,0,0:0:0:0:
448,192,15767,1,0,0:0:0:0:
192,192,15954,1,0,0:0:0:0:
320,192,16142,1,0,0:0:0:0:
448,192,16142,1,0,0:0:0:0:
64,192,16329,1,0,0:0:0:0:
192,192,16517,1,0,0:0:0:0:
320,192,16517,1,0,0:0:0:0:
448,192,16704,1,0,0:0:0:0:
64,192,16892,1,0,0:0:0:0:
320,192,16892,1,0,0:0:0:0:
192,192,17079,1,0,0:0:0:0:
320,192,17267,1,0,0:0:0:0:
448,192,17267,1,0,0:0:0:0:
64,192,17454,1,0,0:0:0:0:
192,192,17642,1,0,0:0:0:0:
448,192,17642,1,0,0:0:0:0:
320,192,17829,1,0,0:0:0:0:
64,192,18017,1,0,0:0:0:0:
192,192,18017,1,0,0:0:0:0:
448,192,18204,1,0,0:0:0:0:
192,192,18392,1,0,0:0:0:0:
320,192,18392,1,0,0:0:0:0:
448,192,18579,1,0,0:0:0:0:
64,192,18767,1,0,0:0:0:0:
320,192,18767,1,0,0:0:0:0:
448,192,18954,1,0,0:0:0:0:
64,192,19142,1,0,0:0:0:0:
192,192,19142,1,0,0:0:0:0:
320,192,19329,1,0,0:0:0:0:
448,192,19329,1,0,0:0:0:0:
64,192,19517,1,0,0:0:0:0:
192,192,19517,1,0,0:0:0:0:
320,192,19704,1,0,0:0:0:0:
192,192,19892,1,0,0:0:0:0:
448,192,19892,1,0,0:0:0:0:
64,192,20079,1,0,0:0:0:0:
192,192,20267,1,0,0:0:0:0:
320,192,20267,1,0,0:0:0:0:
448,192,20454,1,0,0:0:0:0:
64,192,20642,1,0,0:0:0:0:
192,192,20642,1,0,0:0:0:0:
320,192,20829,1,0,0:0:0:0:
64,192,21017,1,0,0:0:0:0:
448,192,21017,1,0,0:0:0:0:
192,192,21204,1,0,0:0:0:0:
320,192,21392,1,0,0:0:0:0:
448,192,21392,1,0,0:0:0:0:
64,192,21579,1,0,0:0:0:0:
192,192,21767,1,0,0:0:0:0:
320,192,21767,1,0,0:0:0:0:
448,192,21954,1,0,0:0:0:0:
64,192,22142,1,0,0:0:0:0:
320,192,22142,1,0,0:0:0:0:
192,192,22329,1,0,0:0:0:0:
320,192,22517,1,0,0:0:0:0:
448,192,22517,1,0,0:0:0:0:
64,192,22704,1,0,0:0:0:0:
192,192,22892,1,0,0:0:0:0:
448,192,22892,1,0,0:0:0:0:
320,192,23079,1,0,0:0:0:0:
64,192,23267,1,0,0:0:0:0:
192,192,23267,1,0,0:0:0:0:
448,192,23454,1,0,0:0:0:0:
192,192,23642,1,0,0:0:0:0:
320,192,23642,1,0,0:0:0:0:
64,192,23829,1,0,0:0:0:0:
320,192,24017,1,0,0:0:0:0:
448,192,24017,1,0,0:0:0:0:
192,192,24204,1,0,0:0:0:0:
64,192,24392,1,0,0:0:0:0:
320,192,24392,1,0,0:0:0:0:
448,192,24579,1,0,0:0:0:0:
192,192,24767,1,0,0:0:0:0:
320,192,24767,1,0,0:0:0:0:
64,192,24954,1,0,0:0:0:0:
448,192,24954,1,0,0:0:0:0:
192,192,25142,128,0,25517:0:0:0:0:
320,192,25142,128,0,25517:0:0:0:0:
64,192,25517,1,0,0:0:0:0:
448,192,25517,1,0,0:0:0:0:
320,192,25704,1,0,0:0:0:0:
64,192,25892,1,0,0:0:0:0:
192,192,25892,1,0,0:0:0:0:
448,192,26079,1,0,0:0:0:0:
192,192,26267,1,0,0:0:0:0:
320,192,26267,1,0,0:0:0:0:
64,192,26454,1,0,0:0:0:0:
192,192,26642,1,0,0:0:0:0:
448,192,26642,1,0,0:0:0:0:
320,192,26829,1,0,0:0:0:0:
64,192,27017,1,0,0:0:0:0:
448,192,27017,1,0,0:0:0:0:
192,192,27204,1,0,0:0:0:0:
320,192,27392,1,0,0:0:0:0:
448,192,27392,1,0,0:0:0:0:
64,192,27579,1,0,0:0:0:0:
192,192,27767,1,0,0:0:0:0:
320,192,27767,1,0,0:0:0:0:
448,192,27954,1,0,0:0:0:0:
64,192,28142,1,0,0:0:0:0:
320,192,28142,1,0,0:0:0:0:
192,192,28329,1,0,0:0:0:0:
320,192,28517,1,0,0:0:0:0:
448,192,28517,1,0,0:0:0:0:
64,192,28704,1,0,0:0:0:0:
192,192,28892,1,0,0:0:0:0:
320,192,28892,1,0,0:0:0:0:
448,192,29079,1,0,0:0:0:0:
64,192,29267,1,0,0:0:0:0:
320,192,29267,1,0,0:0:0:0:
192,192,29454,1,0,0:0:0:0:
320,192,29642,1,0,0:0:0:0:
448,192,29642,1,0,0:0:0:0:
64,192,29829,1,0,0:0:0:0:
192,192,30017,1,0,0:0:0:0:
320,192,30017,1,0,0:0:0:0:
448,192,30204,1,0,0:0:0:0:
64,192,30392,1,0,0:0:0:0:
320,192,30392,1,0,0:0:0:0:
448,192,30579,1,0,0:0:0:0:
192,192,30767,1,0,0:0:0:0:
320,192,30767,1,0,0:0:0:0:
64,192,30954,1,0,0:0:0:0:
320,192,31142,1,0,0:0:0:0:
448,192,31142,1,0,0:0:0:0:
64,192,31329,1,0,0:0:0:0:
192,192,31329,1,0,0:0:0:0:
320,192,31517,1,0,0:0:0:0:
448,192,31517,1,0,0:0:0:0:
192,192,31704,1,0,0:0:0:0:
64,192,31892,1,0,0:0:0:0:
320,192,31892,1,0,0:0:0:0:
448,192,32079,1,0,0:0:0:0:
192,192,32267,1,0,0:0:0:0:
320,192,32267,1,0,0:0:0:0:
64,192,32454,1,0,0:0:0:0:
192,192,32642,1,0,0:0:0:0:
448,192,32642,1,0,0:0:0:0:
320,192,32829,1,0,0:0:0:0:
64,192,33017,1,0,0:0:0:0:
192,192,33017,1,0,0:0:0:0:
448,192,33204,1,0,0:0:0:0:
192,192,33392,1,0,0:0:0:0:
320,192,33392,1,0,0:0:0:0:
64,192,33579,1,0,0:0:0:0:
448,192,33767,1,0,0:0:0:0:
320,192,33767,1,0,0:0:0:0:
192,192,33954,1,0,0:0:0:0:
64,192,34142,1,0,0:0:0:0:
320,192,34142,1,0,0:0:0:0:
448,192,34329,1,0,0:0:0:0:
192,192,34517,1,0,0:0:0:0:
320,192,34517,1,0,0:0:0:0:
64,192,34704,1,0,0:0:0:0:
320,192,34892,1,0,0:0:0:0:
448,192,34892,1,0,0:0:0:0:
192,192,35079,1,0,0:0:0:0:
64,192,35267,1,0,0:0:0:0:
320,192,35267,1,0,0:0:0:0:
448,192,35454,1,0,0:0:0:0:
192,192,35642,1,0,0:0:0:0:
320,192,35642,1,0,0:0:0:0:
64,192,35829,1,0,0:0:0:0:
192,192,36017,128,0,36767:0:0:0:0:
320,192,36017,128,0,36767:0:0:0:0:
64,192,36767,128,0,37517:0:0:0:0:
448,192,36767,128,0,37517:0:0:0:0:
192,192,37517,1,0,0:0:0:0:
320,192,37517,1,0,0:0:0:0:
64,192,38267,1,0,0:0:0:0:
448,192,38267,1,0,0:0:0:0:
192,192,39017,1,0,0:0:0:0:
320,192,39017,1,0,0:0:0:0:
192,192,39392,1,0,0:0:0:0:
320,192,39392,1,0,0:0:0:0:
64,192,39767,1,0,0:0:0:0:
448,192,39767,1,0,0:0:0:0:
192,192,40142,1,0,0:0:0:0:
320,192,40142,1,0,0:0:0:0:
320,192,40517,1,0,0:0:0:0:
448,192,40517,1,0,0:0:0:0:
64,192,41267,1,0,0:0:0:0:
192,192,41267,1,0,0:0:0:0:
64,192,42017,1,0,0:0:0:0:
192,192,42017,1,0,0:0:0:0:
64,192,42392,1,0,0:0:0:0:
192,192,42392,1,0,0:0:0:0:
320,192,42767,1,0,0:0:0:0:
448,192,42767,1,0,0:0:0:0:
64,192,43142,1,0,0:0:0:0:
192,192,43329,1,0,0:0:0:0:
320,192,43517,1,0,0:0:0:0:
448,192,43517,1,0,0:0:0:0:
64,192,44267,1,0,0:0:0:0:
448,192,44267,1,0,0:0:0:0:
192,192,45017,1,0,0:0:0:0:
320,192,45017,1,0,0:0:0:0:
64,192,45392,1,0,0:0:0:0:
448,192,45392,1,0,0:0:0:0:
192,192,45767,1,0,0:0:0:0:
320,192,45767,1,0,0:0:0:0:
320,192,46142,1,0,0:0:0:0:
448,192,46142,1,0,0:0:0:0:
64,192,46517,1,0,0:0:0:0:
192,192,46517,1,0,0:0:0:0:
320,192,47267,1,0,0:0:0:0:
448,192,47267,1,0,0:0:0:0:
64,192,48017,1,0,0:0:0:0:
192,192,48017,1,0,0:0:0:0:
320,192,48392,1,0,0:0:0:0:
448,192,48392,1,0,0:0:0:0:
64,192,48767,1,0,0:0:0:0:
448,192,48767,1,0,0:0:0:0:
64,192,49517,1,0,0:0:0:0:
64,192,49704,1,0,0:0:0:0:
64,192,49892,1,0,0:0:0:0:
64,192,50079,1,0,0:0:0:0:
192,192,50267,1,0,0:0:0:0:
192,192,50454,1,0,0:0:0:0:
192,192,50642,1,0,0:0:0:0:
192,192,50829,1,0,0:0:0:0:
320,192,51017,1,0,0:0:0:0:
320,192,51204,1,0,0:0:0:0:
320,192,51392,1,0,0:0:0:0:
320,192,51579,1,0,0:0:0:0:
448,192,51767,1,0,0:0:0:0:
448,192,51954,1,0,0:0:0:0:
448,192,52142,1,0,0:0:0:0:
448,192,52329,1,0,0:0:0:0:
320,192,52517,1,0,0:0:0:0:
320,192,52704,1,0,0:0:0:0:
320,192,52892,1,0,0:0:0:0:
320,192,53079,1,0,0:0:0:0:
192,192,53267,1,0,0:0:0:0:
192,192,53454,1,0,0:0:0:0:
192,192,53642,1,0,0:0:0:0:
192,192,53829,1,0,0:0:0:0:
64,192,54017,1,0,0:0:0:0:
64,192,54204,1,0,0:0:0:0:
64,192,54392,1,0,0:0:0:0:
64,192,54579,1,0,0:0:0:0:
448,192,54767,1,0,0:0:0:0:
448,192,54954,1,0,0:0:0:0:
448,192,55142,1,0,0:0:0:0:
448,192,55329,1,0,0:0:0:0:
320,192,55517,1,0,0:0:0:0:
320,192,55704,1,0,0:0:0:0:
192,192,55892,1,0,0:0:0:0:
192,192,56079,1,0,0:0:0:0:
64,192,56267,1,0,0:0:0:0:
64,192,56454,1,0,0:0:0:0:
192,192,56642,1,0,0:0:0:0:
192,192,56829,1,0,0:0:0:0:
320,192,57017,1,0,0:0:0:0:
320,192,57204,1,0,0:0:0:0:
448,192,57392,1,0,0:0:0:0:
448,192,57579,1,0,0:0:0:0:
64,192,57767,1,0,0:0:0:0:
64,192,57954,1,0,0:0:0:0:
192,192,58142,1,0,0:0:0:0:
192,192,58329,1,0,0:0:0:0:
320,192,58517,1,0,0:0:0:0:
320,192,58704,1,0,0:0:0:0:
448,192,58892,1,0,0:0:0:0:
448,192,59079,1,0,0:0:0:0:
192,192,59267,1,0,0:0:0:0:
192,192,59454,1,0,0:0:0:0:
320,192,59642,1,0,0:0:0:0:
320,192,59829,1,0,0:0:0:0:
64,192,60017,128,0,61517:0:0:0:0:
192,192,60392,128,0,61517:0:0:0:0:
320,192,60579,128,0,61517:0:0:0:0:
448,192,60767,128,0,61517:0:0:0:0:
320,192,61704,1,0,0:0:0:0:
64,192,61892,1,0,0:0:0:0:
448,192,61892,1,0,0:0:0:0:
192,192,62079,1,0,0:0:0:0:
320,192,62267,1,0,0:0:0:0:
448,192,62267,1,0,0:0:0:0:
64,192,62454,1,0,0:0:0:0:
192,192,62642,1,0,0:0:0:0:
320,192,62642,1,0,0:0:0:0:
448,192,62829,1,0,0:0:0:0:
64,192,63017,1,0,0:0:0:0:
320,192,63017,1,0,0:0:0:0:
192,192,63204,1,0,0:0:0:0:
320,192,63392,1,0,0:0:0:0:
448,192,63392,1,0,0:0:0:0:
192,192,63579,1,0,0:0:0:0:
64,192,63767,1,0,0:0:0:0:
320,192,63767,1,0,0:0:0:0:
448,192,63954,1,0,0:0:0:0:
192,192,64142,1,0,0:0:0:0:
320,192,64142,1,0,0:0:0:0:
64,192,64329,1,0,0:0:0:0:
192,192,64517,1,0,0:0:0:0:
448,192,64517,1,0,0:0:0:0:
320,192,64704,1,0,0:0:0:0:
64,192,64892,1,0,0:0:0:0:
448,192,64892,1,0,0:0:0:0:
192,192,65079,1,0,0:0:0:0:
320,192,65267,1,0,0:0:0:0:
448,192,65267,1,0,0:0:0:0:
64,192,65454,1,0,0:0:0:0:
448,192,65642,1,0,0:0:0:0:
320,192,65642,1,0,0:0:0:0:
192,192,65829,1,0,0:0:0:0:
448,192,66017,1,0,0:0:0:0:
320,192,66017,1,0,0:0:0:0:
64,192,66204,1,0,0:0:0:0:
192,192,66392,1,0,0:0:0:0:
448,192,66392,1,0,0:0:0:0:
320,192,66579,1,0,0:0:0:0:
64,192,66767,1,0,0:0:0:0:
192,192,66767,1,0,0:0:0:0:
448,192,66954,1,0,0:0:0:0:
320,192,67142,1,0,0:0:0:0:
64,192,67142,1,0,0:0:0:0:
192,192,67329,1,0,0:0:0:0:
448,192,67329,1,0,0:0:0:0:
64,192,67517,1,0,0:0:0:0:
320,192,67517,1,0,0:0:0:0:
448,192,67704,1,0,0:0:0:0:
192,192,67892,1,0,0:0:0:0:
320,192,67892,1,0,0:0:0:0:
64,192,68079,1,0,0:0:0:0:
320,192,68267,1,0,0:0:0:0:
448,192,68267,1,0,0:0:0:0:
192,192,68454,1,0,0:0:0:0:
320,192,68642,1,0,0:0:0:0:
448,192,68642,1,0,0:0:0:0:
64,192,68829,1,0,0:0:0:0:
192,192,69017,1,0,0:0:0:0:
448,192,69017,1,0,0:0:0:0:
320,192,69204,1,0,0:0:0:0:
64,192,69392,1,0,0:0:0:0:
192,192,69392,1,0,0:0:0:0:
320,192,69579,1,0,0:0:0:0:
448,192,69767,1,0,0:0:0:0:
192,192,69767,1,0,0:0:0:0:
320,192,69954,1,0,0:0:0:0:
448,192,70142,1,0,0:0:0:0:
64,192,70142,1,0,0:0:0:0:
192,192,70329,1,0,0:0:0:0:
320,192,70517,1,0,0:0:0:0:
448,192,70517,1,0,0:0:0:0:
192,192,70704,1,0,0:0:0:0:
64,192,70892,1,0,0:0:0:0:
320,192,70892,1,0,0:0:0:0:
448,192,71079,1,0,0:0:0:0:
192,192,71267,1,0,0:0:0:0:
320,192,71267,1,0,0:0:0:0:
448,192,71454,128,0,71642:0:0:0:0:
64,192,73142,128,0,73517:0:0:0:0:
448,192,73142,128,0,73517:0:0:0:0:
192,192,73517,1,0,0:0:0:0:
320,192,73517,1,0,0:0:0:0:
64,192,73704,1,0,0:0:0:0:
192,192,73704,1,0,0:0:0:0:
320,192,73892,1,0,0:0:0:0:
448,192,73892,1,0,0:0:0:0:
64,192,74079,1,0,0:0:0:0:
192,192,74079,1,0,0:0:0:0:
320,192,74267,1,0,0:0:0:0:
448,192,74267,1,0,0:0:0:0:
64,192,74454,1,0,0:0:0:0:
192,192,74454,1,0,0:0:0:0:
320,192,74642,1,0,0:0:0:0:
448,192,74642,1,0,0:0:0:0:
64,192,74829,1,0,0:0:0:0:
192,192,74829,1,0,0:0:0:0:
192,192,75017,1,0,0:0:0:0:
320,192,75017,1,0,0:0:0:0:
64,192,75204,1,0,0:0:0:0:
448,192,75204,1,0,0:0:0:0:
192,192,75392,1,0,0:0:0:0:
320,192,75392,1,0,0:0:0:0:
64,192,75579,1,0,0:0:0:0:
448,192,75579,1,0,0:0:0:0:
192,192,75767,1,0,0:0:0:0:
320,192,75767,1,0,0:0:0:0:
64,192,75954,1,0,0:0:0:0:
448,192,75954,1,0,0:0:0:0:
192,192,76142,1,0,0:0:0:0:
320,192,76142,1,0,0:0:0:0:
64,192,76329,1,0,0:0:0:0:
448,192,76329,1,0,0:0:0:0:
64,192,76517,1,0,0:0:0:0:
320,192,76517,1,0,0:0:0:0:
192,192,76704,1,0,0:0:0:0:
448,192,76704,1,0,0:0:0:0:
64,192,76892,1,0,0:0:0:0:
320,192,76892,1,0,0:0:0:0:
192,192,77079,1,0,0:0:0:0:
448,192,77079,1,0,0:0:0:0:
64,192,77267,1,0,0:0:0:0:
320,192,77267,1,0,0:0:0:0:
192,192,77454,1,0,0:0:0:0:
448,192,77454,1,0,0:0:0:0:
64,192,77642,1,0,0:0:0:0:
320,192,77642,1,0,0:0:0:0:
192,192,77829,1,0,0:0:0:0:
448,192,77829,1,0,0:0:0:0:
64,192,78017,1,0,0:0:0:0:
320,192,78017,1,0,0:0:0:0:
192,192,78204,1,0,0:0:0:0:
448,192,78204,1,0,0:0:0:0:
64,192,78392,1,0,0:0:0:0:
320,192,78392,1,0,0:0:0:0:
192,192,78579,1,0,0:0:0:0:
448,192,78579,1,0,0:0:0:0:
64,192,78767,1,0,0:0:0:0:
192,192,78767,1,0,0:0:0:0:
320,192,78954,1,0,0:0:0:0:
448,192,78954,1,0,0:0:0:0:
64,192,79142,1,0,0:0:0:0:
192,192,79142,1,0,0:0:0:0:
320,192,79329,1,0,0:0:0:0:
448,192,79329,1,0,0:0:0:0:
64,192,79517,1,0,0:0:0:0:
192,192,79610,1,0,0:0:0:0:
320,192,79704,1,0,0:0:0:0:
448,192,79798,1,0,0:0:0:0:
64,192,79892,1,0,0:0:0:0:
192,192,79985,1,0,0:0:0:0:
320,192,80079,1,0,0:0:0:0:
448,192,80173,1,0,0:0:0:0:
64,192,80267,1,0,0:0:0:0:
192,192,80360,1,0,0:0:0:0:
320,192,80454,1,0,0:0:0:0:
448,192,80548,1,0,0:0:0:0:
64,192,80642,1,0,0:0:0:0:
192,192,80735,1,0,0:0:0:0:
320,192,80829,1,0,0:0:0:0:
448,192,80923,1,0,0:0:0:0:
64,192,81017,1,0,0:0:0:0:
192,192,81110,1,0,0:0:0:0:
320,192,81204,1,0,0:0:0:0:
448,192,81298,1,0,0:0:0:0:
64,192,81392,1,0,0:0:0:0:
192,192,81485,1,0,0:0:0:0:
320,192,81579,1,0,0:0:0:0:
448,192,81673,1,0,0:0:0:0:
320,192,81767,1,0,0:0:0:0:
192,192,81860,1,0,0:0:0:0:
64,192,81954,1,0,0:0:0:0:
192,192,82048,1,0,0:0:0:0:
320,192,82142,1,0,0:0:0:0:
448,192,82235,1,0,0:0:0:0:
320,192,82329,1,0,0:0:0:0:
192,192,82423,1,0,0:0:0:0:
64,192,82517,128,0,82892:0:0:0:0:
448,192,82892,128,0,83267:0:0:0:0:
320,192,83267,1,0,0:0:0:0:
192,192,83360,1,0,0:0:0:0:
64,192,83454,1,0,0:0:0:0:
192,192,83548,1,0,0:0:0:0:
320,192,83642,128,0,84017:0:0:0:0:
64,192,84017,1,0,0:0:0:0:
448,192,84017,1,0,0:0:0:0:
448,192,84392,128,0,85517:0:0:0:0:
320,192,84767,128,0,85517:0:0:0:0:
192,192,85142,128,0,85517:0:0:0:0:
64,192,85517,1,0,0:0:0:0:
192,192,85704,1,0,0:0:0:0:
64,192,85892,1,0,0:0:0:0:
320,192,85892,1,0,0:0:0:0:
448,192,86079,1,0,0:0:0:0:
192,192,86267,1,0,0:0:0:0:
320,192,86267,1,0,0:0:0:0:
64,192,86454,1,0,0:0:0:0:
192,192,86642,1,0,0:0:0:0:
448,192,86642,1,0,0:0:0:0:
320,192,86829,1,0,0:0:0:0:
64,192,87017,1,0,0:0:0:0:
192,192,87017,1,0,0:0:0:0:
448,192,87204,1,0,0:0:0:0:
192,192,87392,1,0,0:0:0:0:
320,192,87392,1,0,0:0:0:0:
64,192,87579,1,0,0:0:0:0:
192,192,87767,1,0,0:0:0:0:
448,192,87767,1,0,0:0:0:0:
320,192,87954,1,0,0:0:0:0:
64,192,88142,1,0,0:0:0:0:
192,192,88142,1,0,0:0:0:0:
448,192,88329,1,0,0:0:0:0:
192,192,88517,1,0,0:0:0:0:
320,192,88517,1,0,0:0:0:0:
64,192,88704,1,0,0:0:0:0:
320,192,88892,1,0,0:0:0:0:
448,192,88892,1,0,0:0:0:0:
192,192,89079,1,0,0:0:0:0:
64,192,89267,1,0,0:0:0:0:
320,192,89267,1,0,0:0:0:0:
448,192,89454,1,0,0:0:0:0:
192,192,89642,1,0,0:0:0:0:
320,192,89642,1,0,0:0:0:0:
448,192,89829,1,0,0:0:0:0:
64,192,90017,1,0,0:0:0:0:
320,192,90017,1,0,0:0:0:0:
192,192,90204,1,0,0:0:0:0:
320,192,90392,1,0,0:0:0:0:
448,192,90392,1,0,0:0:0:0:
64,192,90579,1,0,0:0:0:0:
192,192,90767,1,0,0:0:0:0:
320,192,90767,1,0,0:0:0:0:
448,192,90954,1,0,0:0:0:0:
64,192,91142,1,0,0:0:0:0:
192,192,91142,1,0,0:0:0:0:
320,192,91329,1,0,0:0:0:0:
448,192,91329,1,0,0:0:0:0:
64,192,91517,1,0,0:0:0:0:
192,192,91517,1,0,0:0:0:0:
448,192,91704,1,0,0:0:0:0:
192,192,91892,1,0,0:0:0:0:
320,192,91892,1,0,0:0:0:0:
64,192,92079,1,0,0:0:0:0:
192,192,92267,1,0,0:0:0:0:
448,192,92267,1,0,0:0:0:0:
320,192,92454,1,0,0:0:0:0:
64,192,92642,1,0,0:0:0:0:
192,192,92642,1,0,0:0:0:0:
448,192,92829,1,0,0:0:0:0:
192,192,93017,1,0,0:0:0:0:
320,192,93017,1,0,0:0:0:0:
64,192,93204,1,0,0:0:0:0:
192,192,93392,1,0,0:0:0:0:
448,192,93392,1,0,0:0:0:0:
320,192,93579,1,0,0:0:0:0:
192,192,93767,1,0,0:0:0:0:
448,192,93767,1,0,0:0:0:0:
64,192,93954,1,0,0:0:0:0:
192,192,94142,1,0,0:0:0:0:
320,192,94142,1,0,0:0:0:0:
448,192,94329,1,0,0:0:0:0:
64,192,94517,1,0,0:0:0:0:
192,192,94517,1,0,0:0:0:0:
320,192,94704,1,0,0:0:0:0:
448,192,94892,1,0,0:0:0:0:
192,192,94892,1,0,0:0:0:0:
64,192,95079,1,0,0:0:0:0:
192,192,95267,1,0,0:0:0:0:
320,192,95267,1,0,0:0:0:0:
448,192,95454,1,0,0:0:0:0:
64,192,95642,1,0,0:0:0:0:
320,192,95642,1,0,0:0:0:0:
192,192,95829,1,0,0:0:0:0:
320,192,96017,1,0,0:0:0:0:
448,192,96017,1,0,0:0:0:0:
64,192,96204,1,0,0:0:0:0:
192,192,96392,1,0,0:0:0:0:
320,192,96392,1,0,0:0:0:0:
448,192,96579,1,0,0:0:0:0:
192,192,96767,1,0,0:0:0:0:
320,192,96767,1,0,0:0:0:0:
64,192,96954,1,0,0:0:0:0:
448,192,96954,1,0,0:0:0:0:
192,192,97142,128,0,97517:0:0:0:0:
320,192,97142,128,0,97517:0:0:0:0:
64,192,97517,1,0,0:0:0:0:
448,192,97517,1,0,0:0:0:0:
320,192,97704,1,0,0:0:0:0:
64,192,97892,1,0,0:0:0:0:
192,192,97892,1,0,0:0:0:0:
448,192,98079,1,0,0:0:0:0:
192,192,98267,1,0,0:0:0:0:
320,192,98267,1,0,0:0:0:0:
64,192,98454,1,0,0:0:0:0:
320,192,98642,1,0,0:0:0:0:
448,192,98642,1,0,0:0:0:0:
192,192,98829,1,0,0:0:0:0:
64,192,99017,1,0,0:0:0:0:
320,192,99017,1,0,0:0:0:0:
448,192,99204,1,0,0:0:0:0:
192,192,99392,1,0,0:0:0:0:
320,192,99392,1,0,0:0:0:0:
64,192,99579,1,0,0:0:0:0:
320,192,99767,1,0,0:0:0:0:
448,192,99767,1,0,0:0:0:0:
192,192,99954,1,0,0:0:0:0:
64,192,100142,1,0,0:0:0:0:
320,192,100142,1,0,0:0:0:0:
448,192,100329,1,0,0:0:0:0:
192,192,100517,1,0,0:0:0:0:
320,192,100517,1,0,0:0:0:0:
64,192,100704,1,0,0:0:0:0:
192,192,100892,1,0,0:0:0:0:
448,192,100892,1,0,0:0:0:0:
320,192,101079,1,0,0:0:0:0:
64,192,101267,1,0,0:0:0:0:
192,192,101267,1,0,0:0:0:0:
448,192,101454,1,0,0:0:0:0:
192,192,101642,1,0,0:0:0:0:
320,192,101642,1,0,0:0:0:0:
64,192,101829,1,0,0:0:0:0:
320,192,102017,1,0,0:0:0:0:
448,192,102017,1,0,0:0:0:0:
192,192,102204,1,0,0:0:0:0:
320,192,102392,1,0,0:0:0:0:
448,192,102392,1,0,0:0:0:0:
64,192,102579,1,0,0:0:0:0:
192,192,102767,1,0,0:0:0:0:
448,192,102767,1,0,0:0:0:0:
64,192,102954,1,0,0:0:0:0:
192,192,103142,1,0,0:0:0:0:
320,192,103142,1,0,0:0:0:0:
64,192,103329,1,0,0:0:0:0:
448,192,103329,1,0,0:0:0:0:
192,192,103517,1,0,0:0:0:0:
320,192,103517,1,0,0:0:0:0:
448,192,103704,1,0,0:0:0:0:
64,192,103892,1,0,0:0:0:0:
320,192,103892,1,0,0:0:0:0:
192,192,104079,1,0,0:0:0:0:
320,192,104267,1,0,0:0:0:0:
448,192,104267,1,0,0:0:0:0:
64,192,104454,1,0,0:0:0:0:
192,192,104642,1,0,0:0:0:0:
320,192,104642,1,0,0:0:0:0:
448,192,104829,1,0,0:0:0:0:
64,192,105017,1,0,0:0:0:0:
320,192,105017,1,0,0:0:0:0:
192,192,105204,1,0,0:0:0:0:
320,192,105392,1,0,0:0:0:0:
448,192,105392,1,0,0:0:0:0:
64,192,105579,1,0,0:0:0:0:
192,192,105767,1,0,0:0:0:0:
320,192,105767,1,0,0:0:0:0:
448,192,105954,1,0,0:0:0:0:
64,192,106142,1,0,0:0:0:0:
192,192,106142,1,0,0:0:0:0:
320,192,106329,1,0,0:0:0:0:
192,192,106517,1,0,0:0:0:0:
448,192,106517,1,0,0:0:0:0:
64,192,106704,1,0,0:0:0:0:
320,192,106892,1,0,0:0:0:0:
448,192,106892,1,0,0:0:0:0:
192,192,107079,1,0,0:0:0:0:
64,192,107267,1,0,0:0:0:0:
320,192,107267,1,0,0:0:0:0:
448,192,107454,1,0,0:0:0:0:
192,192,107642,1,0,0:0:0:0:
320,192,107642,1,0,0:0:0:0:
64,192,107829,1,0,0:0:0:0:
320,192,108017,128,0,108767:0:0:0:0:
448,192,108017,128,0,108767:0:0:0:0:
192,192,108767,128,0,109517:0:0:0:0:
64,192,108767,128,0,109517:0:0:0:0:
320,192,109517,1,0,0:0:0:0:
448,192,109517,1,0,0:0:0:0:
192,192,109704,1,0,0:0:0:0:
64,192,109892,1,0,0:0:0:0:
320,192,109892,1,0,0:0:0:0:
448,192,110079,1,0,0:0:0:0:
192,192,110267,1,0,0:0:0:0:
320,192,110267,1,0,0:0:0:0:
64,192,110454,1,0,0:0:0:0:
192,192,110642,1,0,0:0:0:0:
448,192,110642,1,0,0:0:0:0:
64,192,110829,1,0,0:0:0:0:
320,192,111017,1,0,0:0:0:0:
448,192,111017,1,0,0:0:0:0:
192,192,111204,1,0,0:0:0:0:
320,192,111392,1,0,0:0:0:0:
64,192,111392,1,0,0:0:0:0:
448,192,111579,1,0,0:0:0:0:
192,192,111767,1,0,0:0:0:0:
320,192,111767,1,0,0:0:0:0:
64,192,111954,1,0,0:0:0:0:
192,192,112142,1,0,0:0:0:0:
448,192,112142,1,0,0:0:0:0:
320,192,112329,1,0,0:0:0:0:
64,192,112517,1,0,0:0:0:0:
192,192,112517,1,0,0:0:0:0:
448,192,112704,1,0,0:0:0:0:
320,192,112892,1,0,0:0:0:0:
64,192,112892,1,0,0:0:0:0:
192,192,113079,1,0,0:0:0:0:
448,192,113267,1,0,0:0:0:0:
320,192,113267,1,0,0:0:0:0:
64,192,113454,1,0,0:0:0:0:
192,192,113642,1,0,0:0:0:0:
448,192,113642,1,0,0:0:0:0:
320,192,113829,1,0,0:0:0:0:
192,192,114017,1,0,0:0:0:0:
64,192,114017,1,0,0:0:0:0:
448,192,114204,1,0,0:0:0:0:
192,192,114392,1,0,0:0:0:0:
320,192,114392,1,0,0:0:0:0:
64,192,114579,1,0,0:0:0:0:
320,192,114767,1,0,0:0:0:0:
448,192,114767,1,0,0:0:0:0:
192,192,114954,1,0,0:0:0:0:
320,192,115142,1,0,0:0:0:0:
64,192,115142,1,0,0:0:0:0:
448,192,115329,1,0,0:0:0:0:
192,192,115329,1,0,0:0:0:0:
64,192,115517,1,0,0:0:0:0:
320,192,115517,1,0,0:0:0:0:
448,192,115704,1,0,0:0:0:0:
192,192,115892,1,0,0:0:0:0:
320,192,115892,1,0,0:0:0:0:
64,192,116079,1,0,0:0:0:0:
320,192,116267,1,0,0:0:0:0:
448,192,116267,1,0,0:0:0:0:
192,192,116454,1,0,0:0:0:0:
64,192,116642,1,0,0:0:0:0:
320,192,116642,1,0,0:0:0:0:
448,192,116829,1,0,0:0:0:0:
192,192,117017,1,0,0:0:0:0:
320,192,117017,1,0,0:0:0:0:
64,192,117204,1,0,0:0:0:0:
320,192,117392,1,0,0:0:0:0:
448,192,117392,1,0,0:0:0:0:
192,192,117579,1,0,0:0:0:0:
320,192,117767,1,0,0:0:0:0:
64,192,117767,1,0,0:0:0:0:
448,192,117954,1,0,0:0:0:0:
192,192,118142,1,0,0:0:0:0:
320,192,118142,1,0,0:0:0:0:
64,192,118329,1,0,0:0:0:0:
320,192,118517,1,0,0:0:0:0:
448,192,118517,1,0,0:0:0:0:
192,192,118704,1,0,0:0:0:0:
64,192,118892,1,0,0:0:0:0:
320,192,118892,1,0,0:0:0:0:
192,192,119079,1,0,0:0:0:0:
448,192,119267,1,0,0:0:0:0:
320,192,119267,1,0,0:0:0:0:
64,192,119454,1,0,0:0:0:0:
192,192,119642,1,0,0:0:0:0:
320,192,119642,1,0,0:0:0:0:
448,192,119829,1,0,0:0:0:0:
64,192,120017,1,0,0:0:0:0:
320,192,120017,1,0,0:0:0:0:
192,192,120204,1,0,0:0:0:0:
320,192,120392,1,0,0:0:0:0:
448,192,120392,1,0,0:0:0:0:
192,192,120579,1,0,0:0:0:0:
64,192,120767,1,0,0:0:0:0:
448,192,120767,1,0,0:0:0:0:
192,192,120954,1,0,0:0:0:0:
320,192,120954,1,0,0:0:0:0:
64,192,121142,128,0,121517:0:0:0:0:
448,192,121142,128,0,121517:0:0:0:0:
320,192,121517,1,0,0:0:0:0:
192,192,121517,128,0,122267:0:0:0:0:
448,192,121704,1,0,0:0:0:0:
320,192,121892,1,0,0:0:0:0:
448,192,122079,1,0,0:0:0:0:
64,192,122267,128,0,123017:0:0:0:0:
320,192,122267,1,0,0:0:0:0:
448,192,122454,1,0,0:0:0:0:
192,192,122642,1,0,0:0:0:0:
320,192,122829,1,0,0:0:0:0:
448,192,123017,1,0,0:0:0:0:
192,192,123017,128,0,123767:0:0:0:0:
320,192,123204,1,0,0:0:0:0:
64,192,123392,1,0,0:0:0:0:
448,192,123579,1,0,0:0:0:0:
320,192,123767,128,0,124517:0:0:0:0:
64,192,123767,1,0,0:0:0:0:
448,192,123954,1,0,0:0:0:0:
192,192,124142,1,0,0:0:0:0:
64,192,124329,1,0,0:0:0:0:
192,192,124517,1,0,0:0:0:0:
448,192,124517,128,0,125267:0:0:0:0:
64,192,124704,1,0,0:0:0:0:
320,192,124892,1,0,0:0:0:0:
64,192,125079,1,0,0:0:0:0:
192,192,125267,128,0,126017:0:0:0:0:
320,192,125267,1,0,0:0:0:0:
64,192,125454,1,0,0:0:0:0:
448,192,125642,1,0,0:0:0:0:
64,192,125829,1,0,0:0:0:0:
320,192,126017,128,0,126767:0:0:0:0:
448,192,126017,1,0,0:0:0:0:
64,192,126204,1,0,0:0:0:0:
192,192,126392,1,0,0:0:0:0:
448,192,126579,1,0,0:0:0:0:
64,192,126767,128,0,127517:0:0:0:0:
192,192,126767,1,0,0:0:0:0:
448,192,126954,1,0,0:0:0:0:
320,192,127142,1,0,0:0:0:0:
192,192,127329,1,0,0:0:0:0:
448,192,127517,1,0,0:0:0:0:
192,192,127704,1,0,0:0:0:0:
320,192,127892,128,0,128267:0:0:0:0:
448,192,127892,1,0,0:0:0:0:
64,192,128079,1,0,0:0:0:0:
448,192,128267,128,0,128642:0:0:0:0:
192,192,128267,1,0,0:0:0:0:
64,192,128454,1,0,0:0:0:0:
192,192,128642,128,0,129017:0:0:0:0:
320,192,128642,1,0,0:0:0:0:
448,192,128829,1,0,0:0:0:0:
64,192,129017,128,0,129579:0:0:0:0:
320,192,129017,1,0,0:0:0:0:
448,192,129204,1,0,0:0:0:0:
192,192,129392,1,0,0:0:0:0:
320,192,129579,128,0,130142:0:0:0:0:
448,192,129579,1,0,0:0:0:0:
192,192,129767,1,0,0:0:0:0:
64,192,129954,1,0,0:0:0:0:
448,192,130142,128,0,130704:0:0:0:0:
192,192,130142,1,0,0:0:0:0:
64,192,130329,1,0,0:0:0:0:
320,192,130517,1,0,0:0:0:0:
192,192,130704,128,0,131267:0:0:0:0:
64,192,130704,1,0,0:0:0:0:
320,192,130892,1,0,0:0:0:0:
448,192,131079,1,0,0:0:0:0:
320,192,131267,1,0,0:0:0:0:
64,192,131454,1,0,0:0:0:0:
192,192,131642,1,0,0:0:0:0:
320,192,131642,1,0,0:0:0:0:
448,192,131829,1,0,0:0:0:0:
320,192,132017,128,0,133142:0:0:0:0:
448,192,133142,128,0,133517:0:0:0:0:
64,192,133142,128,0,133517:0:0:0:0:
192,192,133517,1,0,0:0:0:0:
320,192,133517,1,0,0:0:0:0:
64,192,133704,1,0,0:0:0:0:
320,192,133892,1,0,0:0:0:0:
448,192,133892,1,0,0:0:0:0:
192,192,134079,1,0,0:0:0:0:
64,192,134267,1,0,0:0:0:0:
320,192,134267,1,0,0:0:0:0:
448,192,134454,1,0,0:0:0:0:
192,192,134642,1,0,0:0:0:0:
320,192,134642,1,0,0:0:0:0:
64,192,134829,1,0,0:0:0:0:
320,192,135017,1,0,0:0:0:0:
448,192,135017,1,0,0:0:0:0:
448,192,135204,1,0,0:0:0:0:
320,192,135392,1,0,0:0:0:0:
192,192,135392,1,0,0:0:0:0:
64,192,135579,1,0,0:0:0:0:
448,192,135767,1,0,0:0:0:0:
192,192,135767,1,0,0:0:0:0:
320,192,135954,1,0,0:0:0:0:
64,192,136142,1,0,0:0:0:0:
448,192,136142,1,0,0:0:0:0:
320,192,136329,1,0,0:0:0:0:
192,192,136517,1,0,0:0:0:0:
64,192,136517,1,0,0:0:0:0:
320,192,136704,1,0,0:0:0:0:
448,192,136892,1,0,0:0:0:0:
192,192,136892,1,0,0:0:0:0:
320,192,137079,1,0,0:0:0:0:
64,192,137267,1,0,0:0:0:0:
192,192,137267,1,0,0:0:0:0:
320,192,137454,1,0,0:0:0:0:
192,192,137642,1,0,0:0:0:0:
448,192,137642,1,0,0:0:0:0:
64,192,137829,1,0,0:0:0:0:
192,192,138017,1,0,0:0:0:0:
320,192,138017,1,0,0:0:0:0:
448,192,138204,1,0,0:0:0:0:
64,192,138392,1,0,0:0:0:0:
192,192,138392,1,0,0:0:0:0:
320,192,138579,1,0,0:0:0:0:
192,192,138767,1,0,0:0:0:0:
448,192,138767,1,0,0:0:0:0:
64,192,138954,1,0,0:0:0:0:
320,192,139142,1,0,0:0:0:0:
448,192,139142,1,0,0:0:0:0:
64,192,139329,1,0,0:0:0:0:
192,192,139329,1,0,0:0:0:0:
320,192,139517,1,0,0:0:0:0:
448,192,139517,1,0,0:0:0:0:
192,192,139704,1,0,0:0:0:0:
64,192,139892,1,0,0:0:0:0:
320,192,139892,1,0,0:0:0:0:
448,192,140079,1,0,0:0:0:0:
192,192,140267,1,0,0:0:0:0:
320,192,140267,1,0,0:0:0:0:
64,192,140454,1,0,0:0:0:0:
320,192,140642,1,0,0:0:0:0:
448,192,140642,1,0,0:0:0:0:
192,192,140829,1,0,0:0:0:0:
64,192,141017,1,0,0:0:0:0:
320,192,141017,1,0,0:0:0:0:
448,192,141204,1,0,0:0:0:0:
192,192,141392,1,0,0:0:0:0:
320,192,141392,1,0,0:0:0:0:
64,192,141579,1,0,0:0:0:0:
320,192,141767,1,0,0:0:0:0:
448,192,141767,1,0,0:0:0:0:
192,192,141954,1,0,0:0:0:0:
64,192,142142,1,0,0:0:0:0:
320,192,142142,1,0,0:0:0:0:
448,192,142329,1,0,0:0:0:0:
192,192,142517,1,0,0:0:0:0:
320,192,142517,1,0,0:0:0:0:
64,192,142704,1,0,0:0:0:0:
320,192,142892,1,0,0:0:0:0:
448,192,142892,1,0,0:0:0:0:
192,192,143079,1,0,0:0:0:0:
64,192,143267,1,0,0:0:0:0:
320,192,143267,1,0,0:0:0:0:
448,192,143454,1,0,0:0:0:0:
192,192,143642,1,0,0:0:0:0:
320,192,143642,1,0,0:0:0:0:
64,192,143829,1,0,0:0:0:0:
320,192,144017,1,0,0:0:0:0:
448,192,144017,1,0,0:0:0:0:
192,192,144204,1,0,0:0:0:0:
64,192,144392,1,0,0:0:0:0:
320,192,144392,1,0,0:0:0:0:
192,192,144579,1,0,0:0:0:0:
320,192,144767,1,0,0:0:0:0:
448,192,144767,1,0,0:0:0:0:
64,192,144954,1,0,0:0:0:0:
192,192,144954,1,0,0:0:0:0:
320,192,145142,128,0,145517:0:0:0:0:
448,192,145142,128,0,145517:0:0:0:0:
64,192,145517,1,0,0:0:0:0:
192,192,145517,1,0,0:0:0:0:
320,192,145704,1,0,0:0:0:0:
64,192,145892,1,0,0:0:0:0:
448,192,145892,1,0,0:0:0:0:
192,192,146079,1,0,0:0:0:0:
64,192,146267,1,0,0:0:0:0:
320,192,146267,1,0,0:0:0:0:
448,192,146454,1,0,0:0:0:0:
192,192,146642,1,0,0:0:0:0:
320,192,146642,1,0,0:0:0:0:
64,192,146829,1,0,0:0:0:0:
320,192,147017,1,0,0:0:0:0:
448,192,147017,1,0,0:0:0:0:
192,192,147204,1,0,0:0:0:0:
64,192,147392,1,0,0:0:0:0:
320,192,147392,1,0,0:0:0:0:
448,192,147579,1,0,0:0:0:0:
192,192,147767,1,0,0:0:0:0:
320,192,147767,1,0,0:0:0:0:
64,192,147954,1,0,0:0:0:0:
320,192,148142,1,0,0:0:0:0:
448,192,148142,1,0,0:0:0:0:
192,192,148329,1,0,0:0:0:0:
64,192,148517,1,0,0:0:0:0:
320,192,148517,1,0,0:0:0:0:
448,192,148704,1,0,0:0:0:0:
192,192,148892,1,0,0:0:0:0:
320,192,148892,1,0,0:0:0:0:
64,192,149079,1,0,0:0:0:0:
320,192,149267,1,0,0:0:0:0:
448,192,149267,1,0,0:0:0:0:
192,192,149454,1,0,0:0:0:0:
64,192,149642,1,0,0:0:0:0:
320,192,149642,1,0,0:0:0:0:
448,192,149829,1,0,0:0:0:0:
192,192,150017,1,0,0:0:0:0:
320,192,150017,1,0,0:0:0:0:
64,192,150204,1,0,0:0:0:0:
320,192,150392,1,0,0:0:0:0:
448,192,150392,1,0,0:0:0:0:
192,192,150579,1,0,0:0:0:0:
64,192,150767,1,0,0:0:0:0:
320,192,150767,1,0,0:0:0:0:
192,192,150954,1,0,0:0:0:0:
320,192,151142,1,0,0:0:0:0:
448,192,151142,1,0,0:0:0:0:
64,192,151329,1,0,0:0:0:0:
192,192,151329,1,0,0:0:0:0:
320,192,151517,1,0,0:0:0:0:
448,192,151517,1,0,0:0:0:0:
192,192,151704,1,0,0:0:0:0:
64,192,151892,1,0,0:0:0:0:
320,192,151892,1,0,0:0:0:0:
448,192,152079,1,0,0:0:0:0:
192,192,152267,1,0,0:0:0:0:
320,192,152267,1,0,0:0:0:0:
64,192,152454,1,0,0:0:0:0:
320,192,152642,1,0,0:0:0:0:
448,192,152642,1,0,0:0:0:0:
192,192,152829,1,0,0:0:0:0:
64,192,153017,1,0,0:0:0:0:
320,192,153017,1,0,0:0:0:0:
448,192,153204,1,0,0:0:0:0:
192,192,153392,1,0,0:0:0:0:
320,192,153392,1,0,0:0:0:0:
64,192,153579,1,0,0:0:0:0:
320,192,153767,1,0,0:0:0:0:
448,192,153767,1,0,0:0:0:0:
192,192,153954,1,0,0:0:0:0:
64,192,154142,1,0,0:0:0:0:
320,192,154142,1,0,0:0:0:0:
448,192,154329,1,0,0:0:0:0:
192,192,154517,1,0,0:0:0:0:
320,192,154517,1,0,0:0:0:0:
64,192,154704,1,0,0:0:0:0:
320,192,154892,1,0,0:0:0:0:
448,192,154892,1,0,0:0:0:0:
192,192,155079,1,0,0:0:0:0:
64,192,155267,1,0,0:0:0:0:
320,192,155267,1,0,0:0:0:0:
448,192,155454,1,0,0:0:0:0:
192,192,155642,1,0,0:0:0:0:
320,192,155642,1,0,0:0:0:0:
64,192,155829,1,0,0:0:0:0:
320,192,156017,128,0,157517:0:0:0:0:
448,192,156017,128,0,157517:0:0:0:0:
192,192,156204,1,0,0:0:0:0:
64,192,156579,1,0,0:0:0:0:
192,192,156954,1,0,0:0:0:0:
64,192,157517,1,0,0:0:0:0:
192,192,157517,1,0,0:0:0:0:
448,192,157892,128,0,158267:0:0:0:0:
192,192,158267,128,0,158642:0:0:0:0:
64,192,158642,128,0,159017:0:0:0:0:
320,192,159017,128,0,159579:0:0:0:0:
448,192,159579,128,0,160142:0:0:0:0:
320,192,160142,128,0,160517:0:0:0:0:
64,192,160517,128,0,161267:0:0:0:0:
320,192,161642,128,0,162017:0:0:0:0:
448,192,162017,128,0,162392:0:0:0:0:
320,192,162392,128,0,162767:0:0:0:0:
192,192,162767,128,0,163142:0:0:0:0:
64,192,163142,128,0,163517:0:0:0:0:
320,192,163517,128,0,163892:0:0:0:0:
448,192,164642,128,0,165017:0:0:0:0:
192,192,165017,128,0,165392:0:0:0:0:
320,192,165392,128,0,165767:0:0:0:0:
64,192,165767,128,0,166142:0:0:0:0:
448,192,166142,128,0,166892:0:0:0:0:
320,192,166892,128,0,167267:0:0:0:0:
320,192,167642,1,0,0:0:0:0:
320,192,168017,1,0,0:0:0:0:
320,192,168392,1,0,0:0:0:0:
320,192,168767,1,0,0:0:0:0:
320,192,169142,128,0,169517:0:0:0:0:
64,192,169517,1,0,0:0:0:0:
448,192,169517,1,0,0:0:0:0:
192,192,169892,1,0,0:0:0:0:
320,192,169892,1,0,0:0:0:0:
320,192,170267,1,0,0:0:0:0:
448,192,170267,1,0,0:0:0:0:
64,192,170642,1,0,0:0:0:0:
192,192,170642,1,0,0:0:0:0:
320,192,171017,1,0,0:0:0:0:
448,192,171017,1,0,0:0:0:0:
192,192,171392,1,0,0:0:0:0:
320,192,171392,1,0,0:0:0:0:
64,192,171767,1,0,0:0:0:0:
192,192,171767,1,0,0:0:0:0:
320,192,172142,1,0,0:0:0:0:
448,192,172142,1,0,0:0:0:0:
192,192,172517,1,0,0:0:0:0:
448,192,172517,1,0,0:0:0:0:
64,192,172892,1,0,0:0:0:0:
320,192,172892,1,0,0:0:0:0:
192,192,173267,1,0,0:0:0:0:
448,192,173267,1,0,0:0:0:0:
64,192,173642,1,0,0:0:0:0:
320,192,173642,1,0,0:0:0:0:
192,192,174017,1,0,0:0:0:0:
320,192,174017,1,0,0:0:0:0:
448,192,174392,1,0,0:0:0:0:
320,192,174392,1,0,0:0:0:0:
64,192,174767,1,0,0:0:0:0:
320,192,174767,1,0,0:0:0:0:
320,192,175142,1,0,0:0:0:0:
448,192,175142,1,0,0:0:0:0:
64,192,175517,1,0,0:0:0:0:
192,192,175610,1,0,0:0:0:0:
320,192,175704,1,0,0:0:0:0:
448,192,175798,1,0,0:0:0:0:
320,192,175892,1,0,0:0:0:0:
192,192,175985,1,0,0:0:0:0:
64,192,176079,1,0,0:0:0:0:
192,192,176173,1,0,0:0:0:0:
320,192,176267,1,0,0:0:0:0:
448,192,176360,1,0,0:0:0:0:
320,192,176454,1,0,0:0:0:0:
192,192,176548,1,0,0:0:0:0:
64,192,176642,1,0,0:0:0:0:
192,192,176735,1,0,0:0:0:0:
320,192,176829,1,0,0:0:0:0:
448,192,176923,1,0,0:0:0:0:
64,192,177017,1,0,0:0:0:0:
192,192,177110,1,0,0:0:0:0:
320,192,177204,1,0,0:0:0:0:
448,192,177298,1,0,0:0:0:0:
320,192,177392,1,0,0:0:0:0:
192,192,177485,1,0,0:0:0:0:
64,192,177579,1,0,0:0:0:0:
192,192,177673,1,0,0:0:0:0:
320,192,177767,1,0,0:0:0:0:
448,192,177860,1,0,0:0:0:0:
320,192,177954,1,0,0:0:0:0:
192,192,178048,1,0,0:0:0:0:
64,192,178142,1,0,0:0:0:0:
192,192,178235,1,0,0:0:0:0:
320,192,178329,1,0,0:0:0:0:
448,192,178423,1,0,0:0:0:0:
64,192,178517,1,0,0:0:0:0:
192,192,178517,1,0,0:0:0:0:
320,192,178610,1,0,0:0:0:0:
448,192,178610,1,0,0:0:0:0:
64,192,178704,1,0,0:0:0:0:
192,192,178704,1,0,0:0:0:0:
320,192,178798,1,0,0:0:0:0:
448,192,178798,1,0,0:0:0:0:
64,192,178892,1,0,0:0:0:0:
192,192,178892,1,0,0:0:0:0:
320,192,178985,1,0,0:0:0:0:
448,192,178985,1,0,0:0:0:0:
64,192,179079,1,0,0:0:0:0:
192,192,179079,1,0,0:0:0:0:
320,192,179173,1,0,0:0:0:0:
448,192,179173,1,0,0:0:0:0:
64,192,179267,1,0,0:0:0:0:
192,192,179267,1,0,0:0:0:0:
320,192,179360,1,0,0:0:0:0:
448,192,179360,1,0,0:0:0:0:
64,192,179454,1,0,0:0:0:0:
192,192,179454,1,0,0:0:0:0:
320,192,179548,1,0,0:0:0:0:
448,192,179548,1,0,0:0:0:0:
64,192,179642,1,0,0:0:0:0:
192,192,179642,1,0,0:0:0:0:
320,192,179735,1,0,0:0:0:0:
448,192,179735,1,0,0:0:0:0:
64,192,179829,1,0,0:0:0:0:
192,192,179829,1,0,0:0:0:0:
320,192,179923,1,0,0:0:0:0:
448,192,179923,1,0,0:0:0:0:
64,192,180017,1,0,0:0:0:0:
192,192,180017,1,0,0:0:0:0:
448,192,181142,128,0,181517:0:0:0:0:
64,192,181517,1,0,0:0:0:0:
320,192,181517,1,0,0:0:0:0:
192,192,181892,1,0,0:0:0:0:
448,192,181892,1,0,0:0:0:0:
192,192,182267,1,0,0:0:0:0:
320,192,182267,1,0,0:0:0:0:
64,192,182642,1,0,0:0:0:0:
192,192,182642,1,0,0:0:0:0:
320,192,183017,1,0,0:0:0:0:
448,192,183017,1,0,0:0:0:0:
192,192,183392,1,0,0:0:0:0:
320,192,183392,1,0,0:0:0:0:
64,192,183767,1,0,0:0:0:0:
448,192,183767,1,0,0:0:0:0:
192,192,184142,1,0,0:0:0:0:
320,192,184142,1,0,0:0:0:0:
320,192,184517,1,0,0:0:0:0:
448,192,184517,1,0,0:0:0:0:
64,192,184892,1,0,0:0:0:0:
192,192,184892,1,0,0:0:0:0:
320,192,185267,1,0,0:0:0:0:
448,192,185267,1,0,0:0:0:0:
192,192,185642,1,0,0:0:0:0:
320,192,185642,1,0,0:0:0:0:
64,192,186017,1,0,0:0:0:0:
448,192,186017,1,0,0:0:0:0:
320,192,186392,1,0,0:0:0:0:
448,192,186392,1,0,0:0:0:0:
64,192,186767,1,0,0:0:0:0:
192,192,186767,1,0,0:0:0:0:
320,192,187142,1,0,0:0:0:0:
448,192,187142,1,0,0:0:0:0:
64,192,187329,1,0,0:0:0:0:
192,192,187329,1,0,0:0:0:0:
320,192,187517,1,0,0:0:0:0:
448,192,187517,1,0,0:0:0:0:
64,192,187892,1,0,0:0:0:0:
448,192,187892,1,0,0:0:0:0:
192,192,188267,1,0,0:0:0:0:
448,192,188267,1,0,0:0:0:0:
192,192,188642,1,0,0:0:0:0:
320,192,188642,1,0,0:0:0:0:
64,192,189017,1,0,0:0:0:0:
192,192,189017,1,0,0:0:0:0:
320,192,189392,1,0,0:0:0:0:
448,192,189392,1,0,0:0:0:0:
192,192,189767,1,0,0:0:0:0:
320,192,189767,1,0,0:0:0:0:
320,192,190142,1,0,0:0:0:0:
448,192,190142,1,0,0:0:0:0:
64,192,190517,1,0,0:0:0:0:
192,192,190517,1,0,0:0:0:0:
320,192,190892,1,0,0:0:0:0:
448,192,190892,1,0,0:0:0:0:
64,192,191267,1,0,0:0:0:0:
320,192,191267,1,0,0:0:0:0:
192,192,191642,1,0,0:0:0:0:
448,192,191642,1,0,0:0:0:0:
64,192,192017,1,0,0:0:0:0:
192,192,192017,1,0,0:0:0:0:
320,192,192392,1,0,0:0:0:0:
448,192,192392,1,0,0:0:0:0:
64,192,192767,1,0,0:0:0:0:
320,192,192767,1,0,0:0:0:0:
192,192,193142,128,0,193517:0:0:0:0:
448,192,193142,128,0,193517:0:0:0:0:
320,192,193517,1,0,0:0:0:0:
64,192,193517,1,0,0:0:0:0:
64,192,193892,1,0,0:0:0:0:
192,192,193892,1,0,0:0:0:0:
192,192,194267,1,0,0:0:0:0:
448,192,194267,1,0,0:0:0:0:
320,192,194642,1,0,0:0:0:0:
448,192,194642,1,0,0:0:0:0:
64,192,195017,1,0,0:0:0:0:
320,192,195017,1,0,0:0:0:0:
192,192,195392,1,0,0:0:0:0:
448,192,195392,1,0,0:0:0:0:
192,192,195767,1,0,0:0:0:0:
320,192,195767,1,0,0:0:0:0:
64,192,196142,1,0,0:0:0:0:
192,192,196142,1,0,0:0:0:0:
320,192,196517,1,0,0:0:0:0:
448,192,196517,1,0,0:0:0:0:
64,192,196892,1,0,0:0:0:0:
320,192,196892,1,0,0:0:0:0:
192,192,197267,1,0,0:0:0:0:
448,192,197267,1,0,0:0:0:0:
320,192,197642,1,0,0:0:0:0:
192,192,197642,1,0,0:0:0:0:
64,192,198017,1,0,0:0:0:0:
448,192,198017,1,0,0:0:0:0:
320,192,198392,1,0,0:0:0:0:
448,192,198392,1,0,0:0:0:0:
64,192,198767,1,0,0:0:0:0:
192,192,198767,1,0,0:0:0:0:
320,192,199142,1,0,0:0:0:0:
192,192,199142,1,0,0:0:0:0:
64,192,199517,1,0,0:0:0:0:
320,192,199517,1,0,0:0:0:0:
192,192,199704,1,0,0:0:0:0:
448,192,199704,1,0,0:0:0:0:
64,192,199892,1,0,0:0:0:0:
320,192,199892,1,0,0:0:0:0:
192,192,200079,1,0,0:0:0:0:
448,192,200079,1,0,0:0:0:0:
64,192,200267,1,0,0:0:0:0:
320,192,200267,1,0,0:0:0:0:
192,192,200454,1,0,0:0:0:0:
448,192,200454,1,0,0:0:0:0:
64,192,200642,1,0,0:0:0:0:
320,192,200642,1,0,0:0:0:0:
192,192,200829,1,0,0:0:0:0:
448,192,200829,1,0,0:0:0:0:
64,192,201017,1,0,0:0:0:0:
320,192,201017,1,0,0:0:0:0:
192,192,201204,1,0,0:0:0:0:
448,192,201204,1,0,0:0:0:0:
64,192,201392,1,0,0:0:0:0:
320,192,201392,1,0,0:0:0:0:
192,192,201579,1,0,0:0:0:0:
448,192,201579,1,0,0:0:0:0:
64,192,201767,1,0,0:0:0:0:
320,192,201767,1,0,0:0:0:0:
192,192,201954,1,0,0:0:0:0:
448,192,201954,1,0,0:0:0:0:
64,192,202142,1,0,0:0:0:0:
320,192,202142,1,0,0:0:0:0:
192,192,202329,1,0,0:0:0:0:
448,192,202329,1,0,0:0:0:0:
64,192,202517,1,0,0:0:0:0:
192,192,202610,1,0,0:0:0:0:
320,192,202704,1,0,0:0:0:0:
448,192,202798,1,0,0:0:0:0:
64,192,202892,1,0,0:0:0:0:
192,192,202985,1,0,0:0:0:0:
320,192,203079,1,0,0:0:0:0:
448,192,203173,1,0,0:0:0:0:
64,192,203267,1,0,0:0:0:0:
192,192,203360,1,0,0:0:0:0:
320,192,203454,1,0,0:0:0:0:
448,192,203548,1,0,0:0:0:0:
64,192,203642,1,0,0:0:0:0:
192,192,203735,1,0,0:0:0:0:
320,192,203829,1,0,0:0:0:0:
448,192,203923,1,0,0:0:0:0:
64,192,204017,1,0,0:0:0:0:
448,192,204392,128,0,205517:0:0:0:0:
320,192,204767,128,0,205517:0:0:0:0:
192,192,205142,128,0,205517:0:0:0:0:
64,192,205517,1,0,0:0:0:0:
192,192,205704,1,0,0:0:0:0:
64,192,205892,1,0,0:0:0:0:
320,192,205892,1,0,0:0:0:0:
448,192,206079,1,0,0:0:0:0:
192,192,206267,1,0,0:0:0:0:
320,192,206267,1,0,0:0:0:0:
64,192,206454,1,0,0:0:0:0:
320,192,206642,1,0,0:0:0:0:
448,192,206642,1,0,0:0:0:0:
192,192,206829,1,0,0:0:0:0:
64,192,207017,1,0,0:0:0:0:
320,192,207017,1,0,0:0:0:0:
448,192,207204,1,0,0:0:0:0:
192,192,207392,1,0,0:0:0:0:
320,192,207392,1,0,0:0:0:0:
64,192,207579,1,0,0:0:0:0:
320,192,207767,1,0,0:0:0:0:
448,192,207767,1,0,0:0:0:0:
192,192,207954,1,0,0:0:0:0:
64,192,208142,1,0,0:0:0:0:
320,192,208142,1,0,0:0:0:0:
448,192,208329,1,0,0:0:0:0:
192,192,208517,1,0,0:0:0:0:
320,192,208517,1,0,0:0:0:0:
64,192,208704,1,0,0:0:0:0:
320,192,208892,1,0,0:0:0:0:
448,192,208892,1,0,0:0:0:0:
192,192,209079,1,0,0:0:0:0:
64,192,209267,1,0,0:0:0:0:
320,192,209267,1,0,0:0:0:0:
448,192,209454,1,0,0:0:0:0:
192,192,209642,1,0,0:0:0:0:
320,192,209642,1,0,0:0:0:0:
64,192,209829,1,0,0:0:0:0:
320,192,210017,1,0,0:0:0:0:
448,192,210017,1,0,0:0:0:0:
192,192,210204,1,0,0:0:0:0:
64,192,210392,1,0,0:0:0:0:
320,192,210392,1,0,0:0:0:0:
448,192,210579,1,0,0:0:0:0:
192,192,210767,1,0,0:0:0:0:
320,192,210767,1,0,0:0:0:0:
64,192,210954,1,0,0:0:0:0:
320,192,211142,1,0,0:0:0:0:
448,192,211142,1,0,0:0:0:0:
192,192,211329,1,0,0:0:0:0:
320,192,211329,1,0,0:0:0:0:
64,192,211517,1,0,0:0:0:0:
192,192,211517,1,0,0:0:0:0:
448,192,211704,1,0,0:0:0:0:
192,192,211892,1,0,0:0:0:0:
320,192,211892,1,0,0:0:0:0:
64,192,212079,1,0,0:0:0:0:
448,192,212267,1,0,0:0:0:0:
320,192,212267,1,0,0:0:0:0:
192,192,212454,1,0,0:0:0:0:
64,192,212642,1,0,0:0:0:0:
320,192,212642,1,0,0:0:0:0:
448,192,212829,1,0,0:0:0:0:
192,192,213017,1,0,0:0:0:0:
320,192,213017,1,0,0:0:0:0:
64,192,213204,1,0,0:0:0:0:
320,192,213392,1,0,0:0:0:0:
448,192,213392,1,0,0:0:0:0:
192,192,213579,1,0,0:0:0:0:
64,192,213767,1,0,0:0:0:0:
448,192,213767,1,0,0:0:0:0:
320,192,213954,1,0,0:0:0:0:
64,192,214142,1,0,0:0:0:0:
192,192,214142,1,0,0:0:0:0:
448,192,214329,1,0,0:0:0:0:
192,192,214517,1,0,0:0:0:0:
320,192,214517,1,0,0:0:0:0:
64,192,214704,1,0,0:0:0:0:
320,192,214892,1,0,0:0:0:0:
448,192,214892,1,0,0:0:0:0:
192,192,215079,1,0,0:0:0:0:
64,192,215267,1,0,0:0:0:0:
320,192,215267,1,0,0:0:0:0:
192,192,215454,1,0,0:0:0:0:
448,192,215642,1,0,0:0:0:0:
320,192,215642,1,0,0:0:0:0:
64,192,215829,1,0,0:0:0:0:
192,192,216017,1,0,0:0:0:0:
448,192,216017,1,0,0:0:0:0:
320,192,216204,1,0,0:0:0:0:
192,192,216392,1,0,0:0:0:0:
448,192,216392,1,0,0:0:0:0:
64,192,216579,1,0,0:0:0:0:
320,192,216767,1,0,0:0:0:0:
448,192,216767,1,0,0:0:0:0:
64,192,216954,1,0,0:0:0:0:
192,192,216954,1,0,0:0:0:0:
320,192,217142,128,0,217517:0:0:0:0:
448,192,217142,128,0,217517:0:0:0:0:
64,192,217517,128,0,218267:0:0:0:0:
192,192,217517,1,0,0:0:0:0:
320,192,217704,1,0,0:0:0:0:
448,192,217892,1,0,0:0:0:0:
192,192,218079,1,0,0:0:0:0:
320,192,218267,128,0,219017:0:0:0:0:
448,192,218267,1,0,0:0:0:0:
192,192,218454,1,0,0:0:0:0:
64,192,218642,1,0,0:0:0:0:
192,192,218829,1,0,0:0:0:0:
448,192,219017,128,0,219767:0:0:0:0:
64,192,219017,1,0,0:0:0:0:
192,192,219204,1,0,0:0:0:0:
320,192,219392,1,0,0:0:0:0:
192,192,219579,1,0,0:0:0:0:
64,192,219767,128,0,220517:0:0:0:0:
320,192,219767,1,0,0:0:0:0:
192,192,219954,1,0,0:0:0:0:
448,192,220142,1,0,0:0:0:0:
192,192,220329,1,0,0:0:0:0:
320,192,220517,128,0,221267:0:0:0:0:
448,192,220517,1,0,0:0:0:0:
192,192,220704,1,0,0:0:0:0:
64,192,220892,1,0,0:0:0:0:
192,192,221079,1,0,0:0:0:0:
448,192,221267,128,0,222017:0:0:0:0:
64,192,221267,1,0,0:0:0:0:
192,192,221454,1,0,0:0:0:0:
320,192,221642,1,0,0:0:0:0:
192,192,221829,1,0,0:0:0:0:
64,192,222017,128,0,222767:0:0:0:0:
320,192,222017,1,0,0:0:0:0:
192,192,222204,1,0,0:0:0:0:
320,192,222392,1,0,0:0:0:0:
448,192,222579,1,0,0:0:0:0:
320,192,222767,128,0,223517:0:0:0:0:
192,192,222767,1,0,0:0:0:0:
448,192,222954,1,0,0:0:0:0:
192,192,223142,1,0,0:0:0:0:
64,192,223329,1,0,0:0:0:0:
448,192,223517,1,0,0:0:0:0:
448,192,223892,128,0,224267:0:0:0:0:
320,192,224267,128,0,224642:0:0:0:0:
64,192,224642,128,0,225017:0:0:0:0:
448,192,225017,128,0,225579:0:0:0:0:
320,192,225579,128,0,226142:0:0:0:0:
192,192,226142,128,0,226704:0:0:0:0:
64,192,226704,128,0,227267:0:0:0:0:
