osu file format v14

[General]
AudioFilename: w.mp3
AudioLeadIn: 0
PreviewTime: 37889
Countdown: 0
SampleSet: Soft
StackLeniency: 0.6
Mode: 0
LetterboxInBreaks: 0
WidescreenStoryboard: 0

[Editor]
Bookmarks: 139417
DistanceSpacing: 1
BeatDivisor: 4
GridSize: 4
TimelineZoom: 2.3

[Metadata]
Title:Well, That Was Awkward
TitleUnicode:Well, That Was Awkward
Artist:S3RL
ArtistUnicode:S3RL
Creator:DeRandom Otaku
Version:Normal
Source:
Tags:Happy Hardcore Rave Emfa music Serl FCL Akitoshi EMFA089 dj corinn
BeatmapID:1539929
BeatmapSetID:660109

[Difficulty]
HPDrainRate:4
CircleSize:3
OverallDifficulty:4
ApproachRate:4.5
SliderMultiplier:1
SliderTickRate:1

[Events]
//Background and Video events
0,0,"BG.jpg",0,0
//Break Periods
2,34017,36157
2,92789,102500
//Storyboard Layer 0 (Background)
//Storyboard Layer 1 (Fail)
//Storyboard Layer 2 (Pass)
//Storyboard Layer 3 (Foreground)
//Storyboard Sound Samples

[TimingPoints]
11875,342.857142857143,4,2,1,20,1,0
11875,-100,4,2,1,20,0,0
17360,-100,4,2,69,45,0,0
17532,-100,4,2,69,23,0,0
17703,-100,4,2,69,23,0,0
18732,-100,4,2,69,27,0,0
19417,-100,4,2,69,30,0,0
20103,-100,4,2,69,34,0,0
20789,-100,4,2,69,38,0,0
21475,-100,4,2,69,40,0,0
22846,-100,4,2,69,40,0,0
28332,-100,4,2,69,40,0,0
31075,-100,4,2,69,37,0,0
32446,-100,4,2,69,33,0,0
33303,-100,4,2,69,30,0,0
33475,-100,4,2,69,27,0,0
33646,-100,4,2,69,24,0,0
33817,-100,4,2,69,20,0,0
37417,-100,4,2,69,40,0,0
37932,-100,4,2,69,70,0,1
42732,-100,4,2,69,70,0,0
43417,-100,4,2,69,70,0,1
47532,-100,4,2,69,50,0,0
48903,-100,4,2,69,75,0,1
48989,-100,4,2,69,30,0,0
49246,-100,4,2,69,70,0,1
53703,-100,4,2,69,70,0,0
54389,-100,4,2,69,70,0,1
54475,-100,4,2,69,30,0,0
54732,-100,4,2,69,70,0,1
58503,-100,4,2,69,50,0,0
59360,-100,4,2,69,60,0,0
59875,-100,4,2,69,74,0,1
69475,-100,4,2,69,45,0,0
70846,-100,4,2,69,74,0,1
70932,-100,4,2,69,74,0,0
72217,-100,4,2,69,74,0,1
80446,-100,4,2,69,40,0,0
80789,-100,4,2,69,30,0,0
81132,-100,4,2,69,22,0,0
81817,-100,4,2,69,40,0,0
87303,-100,4,2,69,40,0,0
92446,-100,4,2,69,45,0,0
92789,-100,4,2,2,20,0,0
103760,-100,4,2,2,24,0,0
114046,-100,4,2,2,24,0,0
114732,-100,4,2,1,27,0,0
120217,-100,4,2,69,27,0,0
122960,-100,4,2,69,30,0,0
125360,-100,4,2,69,30,0,0
133932,-142.857142857143,4,2,0,30,0,0
135475,-142.857142857143,4,2,0,5,0,0
136675,-133.333333333333,4,2,0,25,0,0
137017,-100,4,2,0,5,0,0
138732,-100,4,2,0,15,0,0
139417,-100,4,2,69,60,0,1
144217,-100,4,2,69,60,0,0
144903,-100,4,2,69,60,0,1
149703,-100,4,2,69,60,0,0
150046,-100,4,2,0,65,0,0
155875,-100,4,2,0,58,0,0
157246,-100,4,2,0,50,0,0
158617,-100,4,2,0,30,0,0
158789,-100,4,2,0,30,0,0
160846,-100,4,2,0,60,0,0
161360,-100,4,2,69,65,0,1
172332,-100,4,2,69,65,0,0
172675,-100,4,2,69,65,0,1
180560,-100,4,2,69,60,0,1
181932,-100,4,2,69,50,0,0
182275,-100,4,2,0,40,0,0
182789,-100,4,2,69,10,0,0

[Colours]
Combo1 : 128,128,255
Combo2 : 0,253,253
Combo3 : 255,0,255
Combo4 : 255,36,36

[HitObjects]
50,283,11874,6,0,B|100:301|161:267|161:267|182:342|182:342|232:312|284:327,1,300,2|2,0:0|0:0,0:0:0:0:
384,337,13246,2,0,B|371:247|442:217|442:217|412:230|366:234|366:234|329:219|290:222,1,300,2|2,0:0|0:0,0:0:0:0:
193,245,14617,2,0,B|213:148|174:200|193:105|193:105|294:145|264:84|361:122,1,300,0|2,0:0|0:0,0:0:0:0:
431,169,15989,2,0,P|378:92|454:55,1,200,2|2,0:0|0:0,0:0:0:0:
311,199,17360,6,0,B|137:135|183:259|12:184,1,300,12|0,0:0|1:0,0:0:0:0:
18,87,18732,2,0,B|179:158|133:34|307:98,1,300,0|0,1:0|1:0,0:0:0:0:
405,111,20103,2,0,B|372:205|372:205|400:315,1,200,0|8,0:0|0:0,0:0:0:0:
325,373,21132,1,8,0:0:0:0:
254,302,21475,1,8,0:0:0:0:
156,322,21817,2,0,P|157:282|176:236,2,75,8|8|8,0:0|0:0|0:0,0:0:0:0:
178,367,22503,1,10,0:0:0:0:
254,302,22846,5,14,0:0:0:0:
256,192,23017,12,0,27646,0:0:0:0:
105,100,28332,6,0,P|108:152|109:207,1,100,0|0,1:0|1:0,0:0:0:0:
196,247,29017,2,0,P|197:197|199:147,1,100,0|0,1:0|1:0,0:0:0:0:
193,46,29703,2,0,P|247:49|302:50,2,100,0|0|0,1:0|1:0|1:0,0:0:0:0:
105,100,30732,1,0,1:0:0:0:
196,144,31075,6,0,P|186:265|90:178,1,300,2|2,0:0|0:0,0:0:0:0:
256,192,32446,12,2,33817,0:0:0:0:
424,210,37417,6,0,L|425:266,2,50,0|8|0,3:0|0:0|3:0,0:0:0:0:
424,159,37932,6,0,P|378:175|318:166,1,100,6|2,0:0|0:0,0:0:0:0:
279,155,38446,1,0,0:0:0:0:
279,155,38617,2,0,P|280:205|276:258,1,100,2|2,0:0|0:0,0:0:0:0:
205,325,39303,2,0,P|153:304|91:306,1,100,2|2,0:0|0:0,0:0:0:0:
60,311,39817,1,0,0:0:0:0:
60,311,39989,2,0,P|77:261|79:195,1,100,2|2,0:0|0:0,0:0:0:0:
37,123,40675,6,0,B|86:107|86:107|150:124,1,100,2|2,0:0|0:0,0:0:0:0:
181,132,41189,1,0,0:0:0:0:
181,132,41360,2,0,B|174:182|174:182|178:195|178:195|174:240,1,100,2|2,0:0|0:0,0:0:0:0:
161,330,42046,2,0,P|185:335|217:335,1,50,2|0,0:0|0:0,0:0:0:0:
258,322,42389,2,0,P|285:321|312:327,1,50,2|0,0:0|0:0,0:0:0:0:
356,333,42732,1,2,0:0:0:0:
481,177,43417,6,0,P|452:154|372:153,1,100,6|2,0:0|0:0,0:0:0:0:
341,154,43932,1,0,0:0:0:0:
341,154,44103,2,0,L|348:40,1,100,2|2,0:0|0:0,0:0:0:0:
250,27,44789,2,0,L|243:141,1,100,2|2,0:0|0:0,0:0:0:0:
243,176,45303,1,0,0:0:0:0:
243,176,45475,2,0,P|194:158|139:168,1,100,2|2,0:0|0:0,0:0:0:0:
99,177,45989,1,2,0:0:0:0:
99,177,46160,6,0,B|115:223|115:223|101:290,1,100,2|2,0:0|0:0,0:0:0:0:
61,363,46846,2,0,L|175:358,1,100,2|2,0:0|0:0,0:0:0:0:
237,294,47532,2,0,P|238:250|247:188,2,100,0|0|0,1:0|1:0|1:0,0:0:0:0:
265,335,48389,1,8,3:0:0:0:
265,335,48560,2,0,P|291:329|318:332,1,50,8|8,0:0|0:0,0:0:0:0:
361,347,48903,6,0,B|385:352|411:346|411:346|425:351|425:351|465:342,1,100,6|10,0:0|0:0,0:0:0:0:
430,247,49589,2,0,P|430:194|457:142,1,100,2|10,0:0|0:0,0:0:0:0:
470,106,50103,1,2,0:1:0:0:
470,106,50275,2,0,L|362:111,1,100,2|10,0:0|0:0,0:0:0:0:
320,117,50789,1,0,0:0:0:0:
320,117,50960,2,0,L|212:122,1,100,2|10,0:0|0:0,0:0:0:0:
120,130,51646,6,0,P|130:180|120:227,1,100,6|10,0:0|0:0,0:0:0:0:
106,275,52160,1,0,0:0:0:0:
106,275,52332,2,0,P|57:265|4:287,1,100,2|10,0:0|0:0,0:0:0:0:
64,366,53017,2,0,L|175:361,1,100,2|10,0:0|0:0,0:0:0:0:
264,360,53703,1,2,0:0:0:0:
120,228,54389,6,0,B|120:181|120:181|155:127,1,100,2|12,0:1|0:0,0:0:0:0:
188,106,54903,1,0,3:0:0:0:
188,106,55075,2,0,P|232:127|282:128,1,100,2|10,0:0|0:0,0:0:0:0:
331,122,55589,1,2,0:1:0:0:
331,122,55760,2,0,L|323:14,1,100,2|10,0:0|0:0,0:0:0:0:
423,18,56446,2,0,L|431:126,1,100,2|10,0:0|0:0,0:0:0:0:
435,167,56960,1,2,0:0:0:0:
435,167,57132,6,0,P|484:188|513:233,1,100,2|10,0:0|0:0,0:0:0:0:
444,300,57817,2,0,P|395:279|366:234,1,100,2|10,0:0|0:0,0:0:0:0:
342,145,58503,2,0,L|350:35,2,100,0|0|0,1:0|1:0|1:0,0:0:0:0:
339,195,59360,1,8,3:0:0:0:
339,195,59532,2,0,P|312:188|285:188,1,50,8|0,0:0|3:0,0:0:0:0:
240,192,59875,5,6,0:0:0:0:
141,207,60217,1,10,0:0:0:0:
205,283,60560,2,0,P|172:300|123:305,2,75,2|0|0,0:0|0:0|0:0,0:0:0:0:
254,277,61246,1,2,0:0:0:0:
254,277,61417,2,0,P|256:309|257:340,2,50,0|10|0,0:0|0:0|0:0,0:0:0:0:
297,251,61932,2,0,P|341:237|405:248,1,100,2|10,0:0|0:0,0:0:0:0:
486,280,62617,5,2,0:0:0:0:
468,181,62960,1,10,0:0:0:0:
418,95,63303,2,0,P|455:83|496:85,2,75,2|0|0,0:0|0:0|0:0,0:0:0:0:
373,119,63989,1,2,0:0:0:0:
373,119,64160,2,0,L|377:65,2,50,0|10|0,0:0|0:0|0:0,0:0:0:0:
369,169,64675,2,0,L|250:167,1,100,2|10,0:0|0:0,0:0:0:0:
175,203,65360,5,2,0:0:0:0:
190,104,65703,1,10,0:0:0:0:
123,28,66046,2,0,L|38:31,2,75,2|0|0,0:0|0:0|0:0,0:0:0:0:
171,14,66732,2,0,P|224:18|270:60,1,100,2|10,0:0|0:0,0:0:0:0:
286,88,67246,1,0,0:0:0:0:
286,88,67417,2,0,B|334:73|334:73|386:91,1,100,2|10,0:0|0:0,0:0:0:0:
473,127,68103,5,2,0:0:0:0:
402,197,68446,1,10,0:0:0:0:
470,270,68789,2,0,P|441:288|392:295,2,75,2|0|0,0:0|0:0|0:0,0:0:0:0:
505,234,69475,1,4,0:0:0:0:
505,234,70846,5,2,0:0:0:0:
434,163,71189,1,2,0:0:0:0:
333,163,71532,1,2,0:0:0:0:
262,92,71875,1,2,0:0:0:0:
191,162,72217,6,0,L|80:162,1,100,6|10,0:0|0:0,0:0:0:0:
40,162,72732,1,0,0:0:0:0:
40,162,72903,2,0,P|52:203|51:276,1,100,2|10,0:0|0:0,0:0:0:0:
44,359,73589,5,2,0:0:0:0:
132,313,73932,1,10,0:0:0:0:
220,266,74275,2,0,P|224:223|219:187,2,75,2|0|0,0:0|0:0|0:0,0:0:0:0:
216,315,74960,1,2,0:0:0:0:
216,315,75132,2,0,P|241:313|276:319,2,50,0|10|0,0:0|0:0|0:0,0:0:0:0:
180,350,75646,2,0,B|136:349|136:349|130:342|130:342|74:342,1,100,2|10,0:0|0:0,0:0:0:0:
12,271,76332,5,2,0:0:0:0:
82,200,76675,1,10,0:0:0:0:
152,129,77017,2,0,P|128:112|81:100,2,75,2|0|0,0:0|0:0|0:0,0:0:0:0:
189,162,77703,2,0,P|224:139|285:140,1,100,2|10,0:0|0:0,0:0:0:0:
330,146,78217,1,0,0:0:0:0:
330,146,78389,2,0,P|326:199|330:249,1,100,2|10,0:0|0:0,0:0:0:0:
351,343,79075,5,2,0:0:0:0:
428,279,79417,1,10,0:0:0:0:
329,246,79760,2,0,L|246:253,2,75,2|2|2,0:0|0:1|0:1,0:0:0:0:
364,210,80446,6,0,B|399:162|399:162|180:179|180:179|222:126|195:53,1,400,6|6,0:0|0:0,0:0:0:0:
256,192,81989,12,0,92446,0:0:0:0:
68,325,103760,6,0,L|76:216,1,100,2|2,0:0|0:0,0:0:0:0:
91,126,104446,2,0,L|32:123,2,50,2|0|2,0:0|0:0|0:0,0:0:0:0:
191,130,105132,2,0,L|183:239,1,100,2|2,0:0|0:0,0:0:0:0:
168,329,105818,2,0,L|318:336,1,150,2|0,0:0|0:0,0:0:0:0:
367,344,106503,5,2,0:0:0:0:
437,273,106846,2,0,P|445:248|448:207,2,50,2|0|2,0:0|0:0|0:0,0:0:0:0:
349,225,107532,1,2,0:0:0:0:
347,124,107875,1,2,0:0:0:0:
260,177,108217,2,0,P|253:200|249:225,1,50,2|0,0:0|0:0,0:0:0:0:
247,275,108560,2,0,P|206:265|96:264,1,150,2|0,0:0|0:0,0:0:0:0:
50,276,109246,6,0,L|57:160,1,100,2|2,0:0|0:0,0:0:0:0:
70,76,109932,2,0,P|35:72|11:72,2,50,2|0|2,0:0|0:0|0:0,0:0:0:0:
161,116,110617,2,0,P|212:125|274:118,1,100,2|2,0:0|0:0,0:0:0:0:
323,44,111303,2,0,P|314:110|315:195,1,150,2|0,0:0|0:0,0:0:0:0:
321,243,111989,5,2,0:0:0:0:
413,204,112332,2,0,L|423:154,2,50,2|0|2,0:0|0:0|0:0,0:0:0:0:
474,283,113017,1,2,0:0:0:0:
382,322,113360,1,2,0:0:0:0:
321,243,113703,2,0,L|331:193,1,50,2|0,0:0|0:0,0:0:0:0:
343,145,114046,2,0,P|266:147|179:145,1,150,2|0,0:0|0:0,0:0:0:0:
142,143,114732,6,0,P|154:187|143:243,2,100,2|2|2,0:0|0:0|1:2,0:0:0:0:
80,64,115760,1,2,0:0:0:0:
18,143,116103,2,0,P|6:187|17:243,2,100,2|2|2,0:0|0:0|1:2,0:0:0:0:
80,64,117131,1,2,0:0:0:0:
142,143,117475,6,0,L|259:136,1,100,2|2,0:0|0:0,0:0:0:0:
312,66,118160,2,0,L|411:71,1,100,2|2,1:2|0:0,0:0:0:0:
482,142,118846,2,0,P|475:180|472:241,1,100,2|2,0:0|0:0,0:0:0:0:
387,295,119532,2,0,P|385:245|377:195,1,100,2|2,1:2|0:0,0:0:0:0:
345,101,120217,5,12,0:0:0:0:
277,175,120560,2,0,L|171:169,2,100,0|0|0,1:0|1:0|1:0,0:0:0:0:
345,101,121589,2,0,L|444:106,2,100,0|0|0,1:0|1:0|1:0,0:0:0:0:
277,175,122617,1,0,1:0:0:0:
377,195,122960,6,0,L|373:305,2,100,0|0|0,1:0|1:0|1:0,0:0:0:0:
345,101,123989,1,0,1:0:0:0:
277,175,124332,2,0,L|216:171,1,50,8|0,0:0|0:0,0:0:0:0:
191,207,124675,2,0,L|130:203,1,50,8|0,0:0|0:0,0:0:0:0:
91,202,125017,1,8,0:0:0:0:
20,131,125360,1,14,0:0:0:0:
90,60,125703,5,6,0:0:0:0:
256,192,125875,12,0,133246,0:0:0:0:
156,55,133932,6,0,P|225:54|284:99,1,139.999995727539,2|2,0:0|0:0,0:0:0:0:
265,233,135303,2,0,P|326:177|365:268,1,209.999993591309,2|0,0:0|0:0,0:0:0:0:
299,304,136675,2,0,B|113:224|174:385|11:280,1,300.000011444092,2|0,0:1|0:0,0:0:0:0:
72,95,138732,2,0,L|76:11,2,66.6666666666667,2|2|2,0:1|0:1|0:1,0:0:0:0:
70,161,139417,6,0,B|115:144|115:144|179:144,1,100,2|2,0:0|0:0,0:0:0:0:
237,214,140103,2,0,B|288:214|288:214|333:197,1,100,2|2,0:0|0:0,0:0:0:0:
409,130,140789,2,0,B|426:175|426:175|426:239,2,100,2|2|2,0:0|0:0|0:0,0:0:0:0:
312,103,141817,1,2,0:0:0:0:
333,197,142160,6,0,L|327:296,1,100,2|2,0:0|0:0,0:0:0:0:
226,290,142846,2,0,L|232:191,1,100,2|2,0:0|0:0,0:0:0:0:
131,184,143532,2,0,L|125:283,1,100,2|2,0:0|0:0,0:0:0:0:
24,276,144217,2,0,B|28:223|28:223|10:182|33:114,1,150,2|0,0:0|0:0,0:0:0:0:
39,77,144903,6,0,P|83:94|142:94,1,100,2|10,0:0|0:0,0:0:0:0:
206,24,145589,2,0,P|255:24|302:42,1,100,2|10,0:0|0:0,0:0:0:0:
391,88,146275,2,0,P|376:134|390:194,2,100,2|10|2,0:0|0:0|0:0,0:0:0:0:
474,143,147303,1,10,0:0:0:0:
385,184,147646,6,0,L|280:177,1,100,2|10,0:0|0:0,0:0:0:0:
214,248,148332,2,0,L|114:241,1,100,2|10,0:0|0:0,0:0:0:0:
14,232,149017,2,0,P|27:190|31:119,1,100,2|10,0:0|0:0,0:0:0:0:
22,34,149703,1,2,0:0:0:0:
111,79,150046,2,0,P|143:83|173:82,1,50,8|8,0:0|0:0,0:0:0:0:
201,111,150389,6,0,L|207:11,1,100,6|8,0:0|0:0,0:0:0:0:
307,7,151075,2,0,L|300:106,1,100,8|8,0:0|0:0,0:0:0:0:
346,126,151589,1,0,0:0:0:0:
346,126,151760,2,0,P|395:126|441:92,1,100,8|8,0:0|0:0,0:0:0:0:
496,175,152446,2,0,P|461:209|452:266,1,100,8|8,0:0|0:0,0:0:0:0:
500,344,153132,6,0,L|400:346,1,100,8|8,0:0|0:0,0:0:0:0:
368,252,153817,2,0,L|268:249,1,100,8|8,0:0|0:0,0:0:0:0:
222,269,154332,1,0,0:0:0:0:
222,269,154503,2,0,P|231:222|231:159,2,100,8|8|8,0:0|0:0|0:0,0:0:0:0:
237,367,155532,2,0,P|210:366|185:361,1,50,8|8,0:0|0:0,0:0:0:0:
139,346,155875,6,0,L|16:353,1,100,12|0,0:0|1:0,0:0:0:0:
58,253,156560,2,0,L|126:249,2,50,0|0|0,1:0|1:0|1:0,0:0:0:0:
26,157,157246,2,0,L|149:150,1,100,0|0,1:0|1:0,0:0:0:0:
217,191,157932,2,0,L|340:184,1,100,0|0,1:0|0:0,0:0:0:0:
416,176,158617,5,2,0:0:0:0:
377,268,158960,2,0,L|382:319,2,50,2|0|2,0:0|0:0|0:0,0:0:0:0:
317,185,159646,1,2,0:0:0:0:
356,93,159989,1,2,0:0:0:0:
416,176,160332,2,0,L|467:171,2,50,2|0|2,0:0|0:0|0:0,0:0:0:0:
367,182,160846,1,8,3:0:0:0:
367,182,161017,2,0,L|303:185,1,50,8|0,0:0|3:0,0:0:0:0:
267,191,161360,6,0,P|254:148|267:85,1,100,6|10,0:0|0:0,0:0:0:0:
214,6,162046,2,0,P|188:16|151:21,1,50,2|0,0:0|0:0,0:0:0:0:
117,30,162389,1,10,0:0:0:0:
17,24,162732,2,0,P|29:84|29:135,1,100,2|10,0:0|0:0,0:0:0:0:
18,222,163417,2,0,B|97:223|97:223|117:247|107:292,1,150,2|0,0:0|3:0,0:0:0:0:
106,340,164103,5,2,0:0:0:0:
198,302,164446,2,0,L|257:304,1,50,10|0,0:0|0:0,0:0:0:0:
297,308,164789,2,0,B|292:271|292:271|307:198,1,100,2|10,0:0|0:0,0:0:0:0:
331,112,165475,1,2,0:0:0:0:
401,182,165817,2,0,L|425:182|457:182,1,50,10|0,0:0|0:0,0:0:0:0:
500,175,166160,2,0,L|493:285,1,100,2|10,0:0|0:0,0:0:0:0:
422,345,166846,5,2,0:0:0:0:
351,274,167189,1,10,0:0:0:0:
280,344,167532,2,0,P|244:346|221:342,1,50,2|0,0:0|0:0,0:0:0:0:
181,330,167875,1,10,0:0:0:0:
142,238,168217,2,0,P|102:269|80:328,1,100,2|10,0:0|0:0,0:0:0:0:
181,330,168903,2,0,P|237:267|229:185,1,150,2|0,0:0|0:0,0:0:0:0:
225,156,169589,5,2,0:0:0:0:
324,161,169932,2,0,L|321:92,1,50,10|0,0:0|0:0,0:0:0:0:
315,61,170275,2,0,B|363:47|363:47|422:63,1,100,2|10,0:0|0:0,0:0:0:0:
481,130,170960,2,0,B|467:178|467:178|483:237,1,100,2|10,0:0|0:0,0:0:0:0:
493,275,171475,1,0,0:0:0:0:
493,275,171646,2,0,P|444:264|388:265,1,100,2|10,0:0|0:0,0:0:0:0:
344,270,172160,1,2,0:0:0:0:
344,270,172332,6,0,P|351:221|319:180,1,100,8|6,3:0|0:0,0:0:0:0:
227,211,173017,2,0,L|229:266,1,50,2|0,0:0|0:0,0:0:0:0:
230,311,173360,1,10,0:0:0:0:
146,359,173703,2,0,L|142:259,1,100,2|10,0:0|0:0,0:0:0:0:
99,170,174389,2,0,P|159:160|227:211,1,150,2|0,0:0|0:0,0:0:0:0:
244,258,175075,5,2,0:0:0:0:
316,189,175417,2,0,L|315:122,1,50,8|0,0:0|0:0,0:0:0:0:
313,88,175760,1,2,0:0:0:0:
383,17,176103,1,8,0:0:0:0:
453,87,176446,2,0,L|454:201,1,100,2|10,0:0|0:0,0:0:0:0:
438,234,176960,1,0,0:0:0:0:
438,234,177132,2,0,L|438:300,1,50,2|0,0:0|0:0,0:0:0:0:
441,334,177475,1,10,0:0:0:0:
344,365,177817,6,0,P|311:343|246:343,1,100,2|10,0:0|0:0,0:0:0:0:
155,369,178503,2,0,L|159:303,1,50,2|0,0:0|0:0,0:0:0:0:
163,268,178846,1,10,0:0:0:0:
97,192,179189,1,2,0:0:0:0:
160,114,179532,1,10,0:0:0:0:
259,123,179875,2,0,P|326:123|379:57,1,150,2|0,0:0|0:0,0:0:0:0:
388,15,180560,5,2,0:0:0:0:
291,39,180903,2,0,L|241:39,1,50,2|0,0:0|0:0,0:0:0:0:
191,50,181246,1,2,0:0:0:0:
259,123,181589,1,2,0:0:0:0:
161,144,181932,1,2,0:0:0:0:
229,217,182275,2,0,L|241:272,2,50,2|2|2,0:0|0:0|0:0,0:0:0:0:
256,192,182789,12,0,186732,0:0:0:0:
