osu file format v14

[General]
AudioFilename: w.mp3
AudioLeadIn: 0
PreviewTime: 37889
Countdown: 0
SampleSet: Soft
StackLeniency: 0.6
Mode: 0
LetterboxInBreaks: 0
WidescreenStoryboard: 0

[Editor]
Bookmarks: 139417
DistanceSpacing: 1
BeatDivisor: 4
GridSize: 16
TimelineZoom: 2.1

[Metadata]
Title:Well, That Was Awkward
TitleUnicode:Well, That Was Awkward
Artist:S3RL
ArtistUnicode:S3RL
Creator:DeRandom Otaku
Version:FCL's Insane
Source:
Tags:Happy Hardcore Rave Emfa music Serl FCL Akitoshi EMFA089 dj corinn
BeatmapID:1416272
BeatmapSetID:660109

[Difficulty]
HPDrainRate:6
CircleSize:4.3
OverallDifficulty:7.5
ApproachRate:9
SliderMultiplier:1.7
SliderTickRate:1

[Events]
//Background and Video events
0,0,"BG.jpg",0,0
//Break Periods
//Storyboard Layer 0 (Background)
//Storyboard Layer 1 (Fail)
//Storyboard Layer 2 (Pass)
//Storyboard Layer 3 (Foreground)
//Storyboard Sound Samples

[TimingPoints]
11875,342.857142857143,4,2,1,20,1,0
11875,-142.857142857143,4,2,1,20,0,0
17360,-83.3333333333333,4,2,69,45,0,0
17446,-83.3333333333333,4,2,69,5,0,0
17532,-125,4,2,69,23,0,0
18732,-111.111111111111,4,2,69,27,0,0
19417,-142.857142857143,4,2,69,30,0,0
20103,-100,4,2,69,34,0,0
20446,-90.9090909090909,4,2,69,34,0,0
20789,-83.3333333333334,4,2,69,38,0,0
21132,-76.9230769230769,4,2,69,38,0,0
21475,-142.857142857143,4,2,69,40,0,0
21646,-76.923076923077,4,2,69,40,0,0
21817,-76.9230769230769,4,2,69,40,0,0
21989,-76.9230769230769,4,2,69,5,0,0
22075,-76.9230769230769,4,2,69,40,0,0
22246,-76.9230769230769,4,2,69,5,0,0
22332,-76.9230769230769,4,2,69,40,0,0
22503,-66.6666666666667,4,2,69,40,0,0
22760,-80,4,2,69,5,0,0
22846,-100,4,2,69,40,0,0
28332,-100,4,2,69,40,0,0
31075,-100,4,2,69,37,0,0
32446,-100,4,2,69,33,0,0
33303,-100,4,2,69,30,0,0
33475,-100,4,2,69,27,0,0
33646,-100,4,2,69,24,0,0
33817,-500,4,2,69,20,0,0
35875,-333.333333333333,4,2,69,20,0,0
37417,-62.5,4,2,69,40,0,0
37932,-90.9090909090909,4,2,69,70,0,1
39260,-90.9090909090909,4,2,69,5,0,1
39303,-90.9090909090909,4,2,69,70,0,1
40803,-90.9090909090909,4,2,69,5,0,1
40846,-90.9090909090909,4,2,69,70,0,1
41960,-90.9090909090909,4,2,69,5,0,1
42046,-90.9090909090909,4,2,69,70,0,1
42732,-200,4,2,69,70,0,0
42989,-200,4,2,69,5,0,0
43078,-66.6666666666667,4,2,69,70,0,0
43332,-66.6666666666667,4,2,69,5,0,0
43417,-90.9090909090909,4,2,69,70,0,1
43546,-90.9090909090909,4,2,69,5,0,1
43589,-90.9090909090909,4,2,69,70,0,1
44746,-90.9090909090909,4,2,69,5,0,1
44789,-90.9090909090909,4,2,69,70,0,1
46289,-90.9090909090909,4,2,69,5,0,1
46332,-90.9090909090909,4,2,69,70,0,1
47489,-111.111111111111,4,2,69,5,0,1
47532,-111.111111111111,4,2,69,50,0,0
48389,-90.9090909090909,4,2,69,50,0,0
48903,-60.6060606060606,4,2,69,75,0,1
48989,-60.6060606060606,4,2,69,30,0,0
49246,-90.9090909090909,4,2,69,70,0,1
50189,-90.9090909090909,4,2,69,20,0,1
50275,-90.9090909090909,4,2,69,70,0,1
51732,-90.9090909090909,4,2,69,20,0,1
51817,-90.9090909090909,4,2,69,70,0,1
52932,-90.9090909090909,4,2,69,20,0,1
53017,-90.9090909090909,4,2,69,70,0,1
53703,-125,4,2,69,70,0,0
53960,-125,4,2,69,5,0,0
54046,-64.5161290322581,4,2,69,70,0,0
54389,-51.8134715025907,4,2,69,70,0,1
54475,-51.8134715025907,4,2,69,30,0,0
54732,-90.9090909090909,4,2,69,70,0,1
55675,-90.9090909090909,4,2,69,5,0,1
55760,-90.9090909090909,4,2,69,70,0,1
57217,-90.9090909090909,4,2,69,5,0,1
57303,-90.9090909090909,4,2,69,70,0,1
58417,-90.9090909090909,4,2,69,5,0,1
58503,-133.333333333333,4,2,69,50,0,0
59360,-95.2380952380951,4,2,69,60,0,0
59703,-62.5,4,2,69,60,0,0
59875,-83.3333333333333,4,2,69,74,0,1
69475,-83.3333333333333,4,2,69,45,0,0
69817,-166.666666666667,4,2,69,45,0,0
70846,-55.5555555555556,4,2,69,74,0,1
70932,-55.5555555555556,4,2,69,74,0,0
72217,-83.3333333333333,4,2,69,74,0,1
79075,-90.9090909090909,4,2,69,74,0,1
79417,-100,4,2,69,74,0,1
79760,-111.111111111111,4,2,69,74,0,1
80189,-125,4,2,69,74,0,1
80446,-200,4,2,69,40,0,0
80789,-166.666666666667,4,2,69,30,0,0
81132,-117.647058823529,4,2,69,22,0,0
81817,-166.666666666667,4,2,69,40,0,0
87303,-100,4,2,69,40,0,0
87389,-166.666666666667,4,2,69,20,0,0
92446,-125,4,2,69,45,0,0
92789,-125,4,2,2,20,0,0
103760,-500,4,2,2,20,0,0
114732,-125,4,2,1,27,0,0
118846,-111.111111111111,4,2,69,27,0,0
120217,-76.9230769230769,4,2,69,27,0,0
120303,-76.9230769230769,4,2,69,5,0,0
120389,-100,4,2,69,27,0,0
121589,-102.040816326531,4,2,69,27,0,0
122960,-86.9565217391304,4,2,69,30,0,0
123303,-80,4,2,69,30,0,0
123646,-74.0740740740741,4,2,69,30,0,0
123989,-68.9655172413793,4,2,69,30,0,0
124332,-64.5161290322581,4,2,69,30,0,0
125360,-66.6666666666667,4,2,69,30,0,0
131189,-500,4,2,0,20,0,0
134275,-166.666666666667,4,2,0,5,0,0
134617,-166.666666666667,4,2,0,30,0,0
134960,-166.666666666667,4,2,0,5,0,0
135303,-500,4,2,0,5,0,0
135646,-238.095238095238,4,2,0,5,0,0
136675,-1000,4,2,0,15,0,0
137017,-952.380952380952,4,2,0,5,0,0
138732,-200,4,2,0,15,0,0
139417,-100,4,2,69,60,0,1
144217,-200,4,2,69,60,0,0
144903,-76.9230769230769,4,2,69,60,0,1
149703,-76.9230769230769,4,2,69,60,0,0
150046,-90.9090909090909,4,2,0,65,0,0
155875,-111.111111111111,4,2,0,58,0,0
157246,-133.333333333333,4,2,0,50,0,0
158617,-133.333333333333,4,2,0,30,0,0
158789,-166.666666666667,4,2,0,30,0,0
160846,-83.3333333333333,4,2,0,60,0,0
161360,-83.3333333333333,4,2,69,65,0,1
172332,-111.111111111111,4,2,69,65,0,0
172675,-83.3333333333333,4,2,69,65,0,1
180560,-125,4,2,69,60,0,1
181932,-125,4,2,69,50,0,0
182275,-125,4,2,0,40,0,0
182617,-1000,4,2,0,40,0,0
182789,-125,4,2,69,10,0,0

[Colours]
Combo1 : 128,128,255
Combo2 : 0,253,253
Combo3 : 255,0,255
Combo4 : 255,36,36

[HitObjects]
138,119,11874,5,2,0:0:0:0:
138,119,12046,1,0,0:0:0:0:
225,138,12217,2,0,L|138:141,1,59.4999981842041,2|0,0:0|0:0,0:0:0:0:
106,241,12560,2,0,L|103:154,2,59.4999981842041,2|0|2,0:0|0:0|0:0,0:0:0:0:
106,241,13246,6,0,P|139:226|184:229,1,59.4999981842041,2|0,0:0|0:0,0:0:0:0:
59,309,13589,2,0,P|26:294|-19:297,1,59.4999981842041,2|0,0:0|0:0,0:0:0:0:
136,365,13932,1,2,0:0:0:0:
136,365,14103,1,0,0:0:0:0:
136,365,14274,1,2,0:0:0:0:
136,365,14617,5,0,0:0:0:0:
136,365,14789,1,0,0:0:0:0:
163,279,14960,2,0,P|167:308|161:359,1,59.4999981842041,2|0,0:0|0:0,0:0:0:0:
235,228,15303,2,0,P|264:232|315:226,2,59.4999981842041,2|0|2,0:0|0:0|0:0,0:0:0:0:
235,228,15989,6,0,L|231:154,1,59.4999981842041,2|0,0:0|0:0,0:0:0:0:
316,321,16332,2,0,L|312:247,1,59.4999981842041,2|0,0:0|0:0,0:0:0:0:
376,370,16675,1,2,0:0:0:0:
14,65,17360,5,12,0:0:0:0:
41,139,17532,1,0,0:0:0:0:
161,77,17703,2,0,L|70:82,1,68,0|0,1:0|0:0,0:0:0:0:
234,136,18046,2,0,L|239:227,1,68,0|0,1:0|0:0,0:0:0:0:
377,253,18389,2,0,L|309:256,1,68,0|0,1:0|0:0,0:0:0:0:
205,354,18732,6,0,P|211:316|242:275,1,76.4999976654053,0|0,1:0|0:0,0:0:0:0:
92,195,19075,2,0,P|124:215|161:221,1,76.4999976654053,0|0,1:0|0:0,0:0:0:0:
66,118,19417,1,0,1:0:0:0:
85,88,19588,1,0,0:0:0:0:
92,53,19759,1,0,1:0:0:0:
13,65,19932,1,0,0:0:0:0:
77,227,20103,6,0,L|197:218,1,85,0|0,0:0|0:0,0:0:0:0:
275,333,20446,6,0,L|266:205,1,93.5000028533936,8|0,0:0|0:0,0:0:0:0:
414,131,20789,6,0,L|273:141,1,101.999996887207,8|0,0:0|0:0,0:0:0:0:
169,0,21132,6,0,L|179:148,1,110.499994941712,8|0,0:0|0:0,0:0:0:0:
382,200,21475,5,8,0:0:0:0:
324,301,21646,2,0,L|326:346,2,27.6249987354279,0|0|0,0:0|0:0|0:0,0:0:0:0:
324,301,21817,6,0,L|196:303,1,110.499994941712,8|0,0:0|0:0,0:0:0:0:
146,361,22075,2,0,B|124:308|124:308|152:227,1,110.499994941712,8|0,0:0|0:0,0:0:0:0:
256,192,22332,2,0,P|236:219|184:233,1,55.2499974708558,8|0,0:0|0:0,0:0:0:0:
189,164,22503,6,0,B|263:161|263:161|303:181|303:181|376:178,1,191.250007295609,10|0,0:0|0:0,0:0:0:0:
376,178,22846,5,14,0:0:0:0:
256,192,22932,12,0,28160,0:0:0:0:
124,181,28332,6,0,L|242:174,1,85,0|0,1:0|0:0,0:0:0:0:
324,121,28675,2,0,L|271:226,1,85,0|0,1:0|0:0,0:0:0:0:
282,320,29017,2,0,L|216:221,1,85,0|0,1:0|0:0,0:0:0:0:
151,120,29360,1,0,1:0:0:0:
81,256,29532,1,0,0:0:0:0:
368,205,29703,6,0,P|301:194|264:203,1,85,0|0,1:0|0:0,0:0:0:0:
299,75,30046,2,0,P|243:114|224:147,1,85,0|0,1:0|0:0,0:0:0:0:
152,22,30389,2,0,P|140:89|149:126,1,85,0|0,1:0|0:0,0:0:0:0:
16,86,30732,2,0,P|55:141|88:160,1,85,0|0,1:0|0:0,0:0:0:0:
234,127,31075,5,2,0:0:0:0:
244,168,31246,1,0,0:0:0:0:
286,157,31417,1,2,0:0:0:0:
275,116,31589,1,0,0:0:0:0:
187,131,31760,5,2,0:0:0:0:
240,218,31931,1,0,0:0:0:0:
329,160,32103,1,2,0:0:0:0:
273,74,32275,1,0,0:0:0:0:
140,204,32446,5,2,0:0:0:0:
254,270,32617,1,2,0:0:0:0:
350,182,32789,1,2,0:0:0:0:
298,60,32960,1,2,0:0:0:0:
167,75,33132,1,2,0:0:0:0:
140,204,33303,5,2,0:0:0:0:
181,194,33389,1,2,0:0:0:0:
201,178,33475,5,2,0:0:0:0:
201,194,33560,1,2,0:0:0:0:
201,211,33646,1,2,0:0:0:0:
201,228,33732,1,2,0:0:0:0:
208,223,33817,6,0,L|249:220,1,34,0|0,3:0|0:0,0:0:0:0:
235,226,34503,2,0,L|275:233,1,34,0|0,0:0|0:0,0:0:0:0:
268,232,35189,2,0,L|305:249,1,34,0|0,0:0|0:0,0:0:0:0:
298,246,35875,6,0,P|328:247|365:185,1,101.999996887207,0|0,0:0|0:0,0:0:0:0:
164,81,37417,5,0,3:0:0:0:
170,122,37503,1,0,3:0:0:0:
176,163,37589,1,8,0:0:0:0:
282,78,37760,2,0,L|286:28,2,34,0|0|0,3:0|3:0|3:0,0:0:0:0:
282,78,37932,6,0,L|291:206,1,93.5000028533936,6|0,0:0|0:0,0:0:0:0:
415,233,38275,1,2,0:0:0:0:
415,233,38446,1,0,0:0:0:0:
237,332,38617,1,2,0:0:0:0:
340,338,38789,1,0,0:0:0:0:
442,343,38960,1,2,0:0:0:0:
468,170,39132,2,0,L|465:123,1,46.7500014266968,2|0,0:1|0:0,0:0:0:0:
483,183,39303,6,0,P|431:195|362:185,1,93.5000028533936,2|0,0:0|0:0,0:0:0:0:
299,53,39646,2,0,L|293:146,1,93.5000028533936,2|0,0:0|0:0,0:0:0:0:
181,204,39989,1,2,0:0:0:0:
314,287,40160,2,0,L|319:203,1,46.7500014266968,0|0,0:0|0:0,0:0:0:0:
425,310,40332,1,2,0:0:0:0:
425,310,40675,6,0,L|311:301,1,93.5000028533936,2|0,0:0|0:0,0:0:0:0:
161,362,41017,1,2,0:0:0:0:
236,340,41189,1,0,0:0:0:0:
111,221,41360,1,2,0:0:0:0:
88,321,41532,1,0,0:0:0:0:
184,289,41703,1,2,0:0:0:0:
206,121,41875,2,0,P|203:91|188:51,1,46.7500014266968,2|0,0:1|0:0,0:0:0:0:
161,53,42046,6,0,P|235:63|285:46,1,93.5000028533936,2|0,0:0|0:0,0:0:0:0:
107,213,42389,2,0,P|152:202|198:206,1,93.5000028533936,2|0,0:0|0:0,0:0:0:0:
256,192,42732,12,2,43332,0:0:0:0:
196,274,43417,6,0,B|244:284|244:284|317:255,1,93.5000028533936,6|0,0:0|0:0,0:0:0:0:
422,202,43760,1,2,0:0:0:0:
422,202,43846,1,0,0:0:0:0:
422,202,43932,1,0,0:0:0:0:
355,343,44103,1,2,0:0:0:0:
285,267,44275,1,0,0:0:0:0:
317,169,44446,1,2,0:0:0:0:
252,364,44617,2,0,L|188:359,1,46.7500014266968,2|0,0:1|0:0,0:0:0:0:
181,344,44789,6,0,L|317:341,1,93.5000028533936,2|0,0:0|0:0,0:0:0:0:
452,213,45132,2,0,L|449:119,1,93.5000028533936,2|0,0:0|0:0,0:0:0:0:
278,29,45475,1,2,0:0:0:0:
103,106,45646,2,0,L|105:192,1,46.7500014266968,0|0,0:0|0:0,0:0:0:0:
0,189,45817,1,2,0:0:0:0:
168,303,45989,5,2,0:0:0:0:
1,200,46160,1,2,0:0:0:0:
208,158,46332,5,0,0:0:0:0:
49,261,46503,2,0,P|36:319|39:365,1,93.5000028533936,2|0,0:0|0:0,0:0:0:0:
273,233,46846,1,2,0:0:0:0:
208,158,47017,1,0,0:0:0:0:
173,255,47189,1,2,0:0:0:0:
263,378,47360,2,0,L|268:331,1,46.7500014266968,2|0,0:1|0:0,0:0:0:0:
291,152,47532,5,0,1:0:0:0:
390,232,47703,1,0,0:0:0:0:
390,232,47789,1,0,0:0:0:0:
390,232,47875,1,0,1:0:0:0:
410,161,48046,1,0,0:0:0:0:
410,161,48132,1,0,0:0:0:0:
410,161,48218,1,0,1:0:0:0:
429,83,48389,5,8,3:0:0:0:
451,76,48475,1,8,3:0:0:0:
473,69,48560,1,8,0:0:0:0:
349,64,48732,5,8,0:0:0:0:
314,52,48818,1,8,0:0:0:0:
279,41,48903,2,0,B|306:110|266:176|266:176|290:130|267:71,1,210.375002006292,6|0,0:0|0:0,0:0:0:0:
355,164,49246,5,10,0:0:0:0:
355,164,49417,1,0,3:0:0:0:
247,255,49589,1,2,0:0:0:0:
349,250,49760,1,0,3:0:0:0:
421,323,49932,1,10,0:0:0:0:
266,166,50103,1,2,0:1:0:0:
266,166,50446,5,0,0:0:0:0:
417,131,50617,1,10,0:0:0:0:
417,131,50789,1,0,0:0:0:0:
465,295,50960,1,2,0:0:0:0:
366,325,51132,1,0,0:0:0:0:
266,350,51303,2,0,L|152:344,1,93.5000028533936,10|0,0:0|0:0,0:0:0:0:
95,263,51646,5,6,0:0:0:0:
56,342,51817,1,0,0:0:0:0:
186,241,51989,1,10,0:0:0:0:
95,263,52160,1,0,0:0:0:0:
9,226,52332,1,2,0:0:0:0:
119,92,52503,1,0,0:0:0:0:
186,241,52675,1,10,0:0:0:0:
107,67,52846,1,2,0:1:0:0:
266,13,53017,6,0,P|271:59|251:121,1,93.5000028533936,2|0,0:0|0:0,0:0:0:0:
103,200,53360,2,0,P|147:212|185:240,1,93.5000028533936,10|0,0:0|0:0,0:0:0:0:
256,192,53703,12,2,54303,0:0:0:0:
143,300,54389,6,0,B|173:287|173:287|193:291|193:291|217:273|217:273|266:290|305:267|305:267|260:271|201:230,1,246.07499408618,2|0,0:1|0:0,0:0:0:0:
287,191,54732,5,12,0:0:0:0:
287,191,54903,1,0,3:0:0:0:
432,236,55075,1,2,0:0:0:0:
497,156,55246,1,0,3:0:0:0:
434,75,55417,1,10,0:0:0:0:
418,258,55589,1,2,0:1:0:0:
418,258,55932,5,0,3:0:0:0:
253,323,56103,1,10,0:0:0:0:
327,341,56275,1,0,3:0:0:0:
179,254,56446,1,2,0:0:0:0:
155,353,56617,1,0,3:0:0:0:
253,323,56789,5,10,0:0:0:0:
74,215,56960,1,2,0:0:0:0:
259,126,57132,6,0,L|390:119,1,93.5000028533936,2|0,0:0|3:0,0:0:0:0:
206,66,57475,1,10,0:0:0:0:
181,140,57646,1,0,3:0:0:0:
315,279,57817,1,2,0:0:0:0:
243,204,57989,1,0,3:0:0:0:
143,230,58160,1,10,0:0:0:0:
265,379,58332,1,2,0:1:0:0:
315,279,58503,6,0,L|323:222,1,31.8750012159348,0|0,1:0|0:0,0:0:0:0:
327,242,58846,6,0,L|322:273,1,31.8750012159348,0|0,1:0|0:0,0:0:0:0:
329,268,59189,6,0,L|333:236,1,31.8750012159348,0|0,1:0|0:0,0:0:0:0:
350,115,59360,1,8,3:0:0:0:
311,127,59446,1,8,3:0:0:0:
289,160,59532,1,8,0:0:0:0:
231,77,59703,2,0,L|198:70,2,34,0|0|0,3:0|3:0|3:0,0:0:0:0:
231,77,59875,6,0,P|210:128|212:207,1,101.999996887207,6|0,0:0|0:0,0:0:0:0:
40,148,60217,2,0,P|61:198|118:253,1,101.999996887207,10|0,0:0|0:0,0:0:0:0:
258,266,60560,1,2,0:0:0:0:
130,338,60732,1,2,0:1:0:0:
122,330,60817,1,0,0:0:0:0:
277,269,60989,1,2,0:1:0:0:
285,261,61074,1,0,0:0:0:0:
91,234,61246,1,2,0:0:0:0:
280,168,61417,5,0,0:0:0:0:
164,105,61589,2,0,L|170:216,1,101.999996887207,10|0,0:0|0:0,0:0:0:0:
383,278,61932,2,0,P|311:258|244:273,1,101.999996887207,2|0,0:0|0:0,0:0:0:0:
220,322,62189,1,0,0:0:0:0:
220,322,62275,2,0,L|101:317,1,101.999996887207,10|0,0:0|0:0,0:0:0:0:
47,165,62532,1,0,0:0:0:0:
47,165,62617,6,0,L|42:266,1,101.999996887207,2|0,0:0|0:0,0:0:0:0:
229,150,62960,2,0,P|166:164|113:145,1,101.999996887207,10|0,0:0|0:0,0:0:0:0:
287,63,63303,1,2,0:0:0:0:
326,221,63475,1,2,0:1:0:0:
332,213,63560,1,0,0:0:0:0:
274,56,63732,1,2,0:1:0:0:
268,48,63817,1,0,0:0:0:0:
418,110,63989,1,2,0:0:0:0:
249,202,64160,5,0,0:0:0:0:
322,322,64332,2,0,L|327:181,1,101.999996887207,10|0,0:0|0:0,0:0:0:0:
435,83,64675,2,0,P|391:107|331:111,1,101.999996887207,2|0,0:0|0:0,0:0:0:0:
255,81,64932,1,0,0:0:0:0:
259,90,65017,1,10,0:0:0:0:
166,188,65189,2,0,L|169:246,1,50.9999984436036,0|0,0:0|0:0,0:0:0:0:
204,264,65360,6,0,L|59:273,1,101.999996887207,2|0,0:0|0:0,0:0:0:0:
25,347,65617,1,0,0:0:0:0:
37,355,65703,2,0,L|138:348,1,101.999996887207,10|0,0:0|0:0,0:0:0:0:
271,207,66046,1,2,0:0:0:0:
397,315,66217,1,2,0:1:0:0:
390,301,66303,1,0,0:0:0:0:
251,204,66475,1,2,0:1:0:0:
258,190,66561,1,0,0:0:0:0:
439,155,66732,6,0,L|431:318,1,152.999995330811,2|0,0:0|0:0,0:0:0:0:
432,323,67075,1,10,0:0:0:0:
512,224,67246,1,0,0:0:0:0:
320,70,67417,2,0,P|285:87|341:142,1,152.999995330811,2|0,0:0|0:0,0:0:0:0:
369,181,67760,2,0,L|283:176,1,50.9999984436036,10|0,0:0|0:0,0:0:0:0:
209,280,67932,1,0,0:0:0:0:
9,191,68103,6,0,L|143:194,1,101.999996887207,2|0,0:0|0:0,0:0:0:0:
251,353,68446,2,0,P|290:290|285:238,1,101.999996887207,10|0,0:0|0:0,0:0:0:0:
196,89,68789,1,2,0:0:0:0:
336,202,68960,1,2,0:1:0:0:
345,189,69046,1,0,0:0:0:0:
181,97,69217,1,2,0:1:0:0:
172,84,69303,1,0,0:0:0:0:
375,65,69475,1,4,0:0:0:0:
306,113,69646,5,0,0:0:0:0:
452,181,69817,2,0,L|455:122,1,50.9999984436036,0|0,0:0|0:0,0:0:0:0:
379,279,70160,2,0,L|382:220,2,50.9999984436036,0|0|0,0:0|0:0|0:0,0:0:0:0:
127,260,70846,5,2,0:0:0:0:
122,245,71017,1,0,0:0:0:0:
194,116,71189,5,2,0:0:0:0:
209,119,71360,1,0,0:0:0:0:
302,226,71532,5,2,0:0:0:0:
291,237,71703,1,0,0:0:0:0:
209,203,71875,5,2,0:0:0:0:
209,203,72217,6,0,L|218:351,1,101.999996887207,6|0,0:0|0:0,0:0:0:0:
62,351,72475,1,0,0:0:0:0:
62,351,72560,2,0,P|109:333|144:297,1,101.999996887207,10|0,0:0|0:0,0:0:0:0:
94,216,72817,1,0,0:0:0:0:
100,208,72903,1,2,0:0:0:0:
177,381,73075,1,0,0:0:0:0:
293,238,73246,1,10,0:0:0:0:
100,208,73417,2,0,L|95:150,1,50.9999984436036,0|0,0:0|0:0,0:0:0:0:
53,144,73589,6,0,L|181:131,1,101.999996887207,2|0,0:0|0:0,0:0:0:0:
277,26,73932,2,0,L|405:39,1,101.999996887207,10|0,0:0|0:0,0:0:0:0:
486,145,74275,1,2,0:0:0:0:
305,257,74446,1,2,0:1:0:0:
302,247,74532,1,0,0:0:0:0:
500,148,74703,1,2,0:1:0:0:
503,138,74789,1,0,0:0:0:0:
465,313,74960,1,2,0:0:0:0:
368,199,75132,5,0,0:0:0:0:
503,138,75303,2,0,L|497:253,1,101.999996887207,10|0,0:0|0:0,0:0:0:0:
319,139,75646,2,0,P|329:85|361:33,1,101.999996887207,2|0,0:0|0:0,0:0:0:0:
458,75,75903,1,0,0:0:0:0:
458,75,75989,2,0,L|346:72,1,101.999996887207,10|0,0:0|0:0,0:0:0:0:
199,231,76332,6,0,P|177:185|188:110,1,101.999996887207,2|0,0:0|0:0,0:0:0:0:
74,365,76675,2,0,P|90:316|151:271,1,101.999996887207,10|0,0:0|0:0,0:0:0:0:
295,297,77017,1,2,0:0:0:0:
361,150,77189,1,2,0:1:0:0:
358,140,77275,1,0,0:0:0:0:
290,318,77446,1,2,0:1:0:0:
293,308,77532,1,0,0:0:0:0:
490,208,77703,6,0,P|460:239|337:193,1,152.999995330811,2|0,0:0|0:0,0:0:0:0:
350,221,78046,1,10,0:0:0:0:
491,301,78217,1,0,0:0:0:0:
418,177,78389,2,0,B|425:54|425:54|450:115,1,152.999995330811,2|0,0:0|0:0,0:0:0:0:
439,91,78732,1,10,0:0:0:0:
302,131,78903,2,0,L|298:68,1,50.9999984436036,0|0,0:0|0:0,0:0:0:0:
277,51,79075,6,0,P|270:113|277:169,1,93.5000028533936,2|0,0:0|0:0,0:0:0:0:
129,223,79417,6,0,P|191:230|237:224,1,85,10|0,0:0|0:0,0:0:0:0:
367,168,79760,6,0,P|360:230|364:260,1,76.4999976654053,2|0,0:0|0:0,0:0:0:0:
363,255,80017,1,2,0:1:0:0:
272,346,80189,5,2,0:1:0:0:
281,343,80275,1,2,0:1:0:0:
420,325,80446,6,0,L|455:328,3,21.25,6|2|2|2,0:0|0:0|0:0|0:0,0:0:0:0:
437,256,80789,6,0,L|477:258,3,25.4999992218018,0|0|0|0,0:0|0:0|0:0|0:0,0:0:0:0:
456,181,81132,5,2,0:0:0:0:
445,185,81217,1,2,0:0:0:0:
435,181,81303,1,2,0:0:0:0:
431,170,81389,1,2,0:0:0:0:
413,156,81475,5,2,1:2:0:0:
427,139,81560,1,2,1:2:0:0:
447,131,81646,1,2,1:2:0:0:
468,139,81732,1,2,1:2:0:0:
476,159,81817,6,0,L|481:39,1,101.999996887207,6|0,0:0|1:0,0:0:0:0:
237,186,82503,2,0,L|232:66,1,101.999996887207,0|0,1:0|1:0,0:0:0:0:
476,159,83189,2,0,L|374:163,1,101.999996887207,0|0,1:0|1:0,0:0:0:0:
482,351,83875,2,0,L|380:346,1,101.999996887207,0|0,1:0|1:0,0:0:0:0:
145,269,84560,6,0,P|158:227|213:180,1,101.999996887207,0|0,1:0|1:0,0:0:0:0:
264,24,85246,2,0,P|297:62|308:111,1,101.999996887207,0|0,1:0|1:0,0:0:0:0:
405,251,85932,2,0,P|355:260|307:245,1,101.999996887207,0|0,1:0|1:0,0:0:0:0:
212,46,86617,2,0,L|209:172,1,101.999996887207,0|0,1:0|1:0,0:0:0:0:
259,273,87303,6,0,B|324:289|324:289|409:256,2,127.5,0|0|0,1:0|0:0|0:0,0:0:0:0:
256,192,87989,12,0,92446,0:0:0:0:
82,137,92789,5,2,0:0:0:0:
156,131,93132,1,2,0:0:0:0:
82,137,93475,5,2,0:0:0:0:
156,131,93646,1,0,0:0:0:0:
230,124,93817,1,2,0:0:0:0:
82,137,94160,5,2,0:0:0:0:
156,131,94503,1,2,0:0:0:0:
230,124,94846,1,2,0:0:0:0:
430,137,95532,5,2,0:0:0:0:
356,131,95875,1,2,0:0:0:0:
388,197,96046,1,0,0:0:0:0:
430,137,96217,1,2,0:0:0:0:
356,131,96560,1,2,0:0:0:0:
388,197,96903,5,2,0:0:0:0:
430,137,97246,1,2,0:0:0:0:
356,131,97417,1,0,0:0:0:0:
388,197,97589,1,2,0:0:0:0:
146,344,98275,5,2,0:0:0:0:
114,268,98617,1,2,0:0:0:0:
146,344,98960,5,2,0:0:0:0:
114,268,99132,1,0,0:0:0:0:
137,190,99303,1,2,0:0:0:0:
146,344,99646,5,2,0:0:0:0:
114,268,99989,1,2,0:0:0:0:
137,190,100332,1,2,0:0:0:0:
366,344,101017,5,2,0:0:0:0:
445,305,101360,1,2,0:0:0:0:
406,225,101531,1,0,0:0:0:0:
327,264,101703,1,2,0:0:0:0:
366,344,102046,1,2,0:0:0:0:
445,305,102389,5,2,0:0:0:0:
406,225,102732,1,2,0:0:0:0:
327,264,102903,1,0,0:0:0:0:
366,344,103075,1,2,0:0:0:0:
263,241,103760,6,0,B|304:216|294:135|294:135|292:167|271:188,1,170,2|2,0:0|0:0,0:0:0:0:
189,145,105817,2,0,P|209:138|225:138,1,34,2|0,0:0|0:0,0:0:0:0:
134,90,106503,6,0,L|128:196,1,102,2|2,0:0|0:0,0:0:0:0:
40,249,107875,2,0,P|49:246|78:245,1,34,2|2,0:0|0:0,0:0:0:0:
197,261,108560,2,0,P|187:260|159:267,1,34,2|0,0:0|0:0,0:0:0:0:
249,314,109246,6,0,P|261:297|196:184,1,170,2|2,0:0|0:0,0:0:0:0:
130,120,111303,2,0,L|170:118,1,34,2|0,0:0|0:0,0:0:0:0:
251,21,111989,6,0,B|256:121|256:121|260:101|270:87,1,136,2|2,0:0|0:0,0:0:0:0:
331,47,113703,2,0,P|337:56|341:67,1,17,2|0,0:0|0:0,0:0:0:0:
328,131,114046,2,0,L|387:127,1,59.5,2|0,0:0|0:0,0:0:0:0:
393,120,114732,6,0,L|398:198,1,68,2|0,0:0|0:0,0:0:0:0:
247,305,115075,2,0,L|242:237,1,68,2|0,0:0|0:0,0:0:0:0:
393,120,115417,1,2,1:2:0:0:
305,104,115589,1,0,0:0:0:0:
452,240,115760,1,2,0:0:0:0:
474,154,115932,1,0,0:0:0:0:
352,287,116103,6,0,L|426:284,1,68,2|0,0:0|0:0,0:0:0:0:
234,369,116446,2,0,L|231:301,1,68,2|0,0:0|0:0,0:0:0:0:
106,181,116789,1,2,1:2:0:0:
188,150,116960,1,0,0:0:0:0:
352,287,117132,1,2,0:0:0:0:
370,200,117303,1,0,0:0:0:0:
201,277,117475,5,2,0:0:0:0:
191,269,117646,1,0,0:0:0:0:
260,200,117817,5,2,0:0:0:0:
270,192,117988,1,0,0:0:0:0:
155,124,118160,5,2,1:2:0:0:
241,102,118332,1,0,0:0:0:0:
117,204,118503,5,2,0:0:0:0:
31,182,118675,1,0,0:0:0:0:
92,352,118846,6,0,P|101:308|99:258,1,76.4999976654053,2|0,0:0|0:0,0:0:0:0:
265,231,119189,2,0,P|256:187|258:137,1,76.4999976654053,2|0,0:0|0:0,0:0:0:0:
81,37,119532,1,2,1:2:0:0:
179,119,119703,1,0,0:0:0:0:
64,33,119875,5,2,0:0:0:0:
250,78,120046,1,0,0:0:0:0:
36,197,120217,6,0,P|16:168|68:127,1,110.499994941712,12|0,0:0|0:0,0:0:0:0:
62,125,120560,6,0,P|111:131|156:120,1,85,0|0,1:0|0:0,0:0:0:0:
253,239,120903,2,0,P|294:246|336:240,1,85,0|0,1:0|0:0,0:0:0:0:
404,114,121246,2,0,P|445:106|487:112,1,85,0|0,1:0|0:0,0:0:0:0:
411,337,121589,6,0,L|407:227,1,83.2999992373657,0|0,1:0|0:0,0:0:0:0:
256,208,121932,2,0,L|366:204,1,83.2999992373657,0|0,1:0|0:0,0:0:0:0:
182,166,122275,2,0,L|178:56,1,83.2999992373657,0|0,1:0|0:0,0:0:0:0:
27,40,122617,2,0,L|110:36,1,83.2999992373657,0|0,1:0|0:0,0:0:0:0:
365,83,122960,6,0,P|367:123|311:188,1,97.7500018644333,0|0,1:0|0:0,0:0:0:0:
365,301,123303,6,0,P|325:303|259:243,1,106.25,0|0,1:0|0:0,0:0:0:0:
123,303,123646,6,0,P|121:263|180:198,1,114.750000437737,0|0,1:0|0:0,0:0:0:0:
129,51,123989,6,0,P|169:49|234:109,1,123.250003761292,0|0,1:0|0:0,0:0:0:0:
298,317,124332,5,8,0:0:0:0:
385,239,124503,2,0,L|388:190,2,32.9375002512932,0|0|0,0:0|0:0|0:0,0:0:0:0:
385,239,124675,2,0,B|338:216|338:216|233:233,1,131.750001005173,8|0,0:0|0:0,0:0:0:0:
116,361,125017,2,0,P|95:313|136:225,1,131.750001005173,8|0,0:0|0:0,0:0:0:0:
187,120,125360,6,0,P|208:153|105:228,1,191.250007295609,14|0,0:0|0:0,0:0:0:0:
116,234,125703,5,6,0:0:0:0:
256,192,125789,12,0,131103,0:0:0:0:
204,161,131189,6,0,P|197:203|206:226,1,68,0|0,0:0|0:0,0:0:0:0:
322,311,132560,6,0,P|289:283|264:280,1,68,0|0,0:0|0:0,0:0:0:0:
136,348,133932,6,0,P|175:333|191:313,1,68,2|2,0:0|0:0,0:0:0:0:
240,225,135303,6,0,B|277:218|277:218|301:224|301:224|366:215,1,127.5,2|0,0:0|0:0,0:0:0:0:
366,216,136675,6,0,P|349:202|339:127,1,102,2|2,0:1|0:1,0:0:0:0:
344,117,138960,1,2,0:1:0:0:
351,108,139189,1,2,0:1:0:0:
387,127,139417,6,0,L|449:124,2,56.6666666666667,2|0|0,0:0|0:0|0:0,0:0:0:0:
416,200,139760,2,0,L|478:197,2,56.6666666666667,2|0|0,0:0|0:0|0:0,0:0:0:0:
438,271,140103,2,0,L|500:268,1,56.6666666666667,2|0,0:0|0:0,0:0:0:0:
458,348,140332,1,0,0:0:0:0:
338,312,140446,2,0,L|229:317,1,85,2|0,0:0|3:0,0:0:0:0:
182,260,140703,1,0,3:0:0:0:
176,266,140789,6,0,L|180:349,1,56.6666666666667,2|0,0:0|0:0,0:0:0:0:
219,384,141017,1,0,0:0:0:0:
94,351,141132,2,0,L|37:353,2,56.6666666666667,2|0|0,0:0|0:0|0:0,0:0:0:0:
22,254,141475,1,2,0:0:0:0:
70,239,141589,1,0,0:0:0:0:
119,226,141703,1,0,0:0:0:0:
161,166,141817,1,2,0:0:0:0:
161,166,142160,6,0,P|195:157|246:167,2,56.6666666666667,2|0|0,0:0|0:0|0:0,0:0:0:0:
240,86,142503,2,0,P|270:103|299:146,2,56.6666666666667,2|0|0,0:0|0:0|0:0,0:0:0:0:
352,79,142846,2,0,P|360:113|350:164,1,56.6666666666667,2|0,0:0|0:0,0:0:0:0:
311,217,143075,1,0,0:0:0:0:
394,281,143189,2,0,L|492:275,1,85,2|0,0:0|3:0,0:0:0:0:
427,352,143446,1,0,3:0:0:0:
420,346,143532,6,0,P|395:288|401:248,1,56.6666666666667,2|0,0:0|0:0,0:0:0:0:
418,200,143760,1,0,0:0:0:0:
315,325,143875,2,0,P|256:301|232:269,1,56.6666666666667,2|0,0:0|0:0,0:0:0:0:
210,224,144103,1,0,0:0:0:0:
137,359,144217,5,2,0:0:0:0:
59,148,144903,5,2,0:0:0:0:
73,144,145017,1,0,0:0:0:0:
87,140,145132,1,0,0:0:0:0:
139,195,145246,1,10,0:0:0:0:
153,191,145360,1,0,0:0:0:0:
167,187,145475,1,0,0:0:0:0:
229,238,145589,2,0,L|309:238,1,73.6666632944744,2|0,0:0|0:0,0:0:0:0:
260,318,145817,1,0,0:0:0:0:
153,260,145932,2,0,P|152:224|201:162,1,110.499994941712,10|0,0:0|3:0,0:0:0:0:
193,165,146189,1,0,3:0:0:0:
193,165,146275,6,0,L|191:73,1,73.6666632944744,2|0,0:0|0:0,0:0:0:0:
126,38,146503,1,0,0:0:0:0:
115,188,146617,2,0,L|113:96,2,73.6666632944744,10|0|0,0:0|0:0|0:0,0:0:0:0:
40,318,146960,1,2,0:0:0:0:
112,301,147075,1,0,0:0:0:0:
183,286,147189,1,0,0:0:0:0:
246,230,147303,1,10,0:0:0:0:
246,230,147646,5,2,0:0:0:0:
254,217,147760,1,0,0:0:0:0:
258,202,147875,1,0,0:0:0:0:
322,155,147989,1,10,0:0:0:0:
318,140,148103,1,0,0:0:0:0:
310,126,148218,1,0,0:0:0:0:
342,60,148332,2,0,P|318:34|264:19,1,73.6666632944744,2|0,0:0|0:0,0:0:0:0:
182,62,148560,1,0,0:0:0:0:
150,165,148675,2,0,L|157:304,1,110.499994941712,10|0,0:0|3:0,0:0:0:0:
155,275,148932,1,0,3:0:0:0:
159,283,149017,6,0,P|198:267|262:268,2,73.6666632944744,2|0|0,0:0|0:0|0:0,0:0:0:0:
61,350,149360,1,10,0:0:0:0:
40,254,149475,1,0,0:0:0:0:
72,358,149589,1,0,0:0:0:0:
44,242,149703,1,2,0:0:0:0:
306,181,150046,5,8,0:0:0:0:
387,57,150217,1,8,0:0:0:0:
410,85,150303,1,8,0:0:0:0:
418,121,150389,6,0,L|416:244,1,93.5000028533936,6|0,0:0|0:0,0:0:0:0:
164,179,150732,2,0,L|166:302,1,93.5000028533936,8|0,0:0|0:0,0:0:0:0:
368,357,151075,2,0,P|309:335|242:346,1,93.5000028533936,8|0,0:0|0:0,0:0:0:0:
92,382,151417,1,8,0:0:0:0:
272,139,151589,6,0,B|265:190|265:190|275:226|275:226|260:338,1,187.000005706787,0|0,0:0|0:0,0:0:0:0:
87,205,152103,2,0,L|207:200,1,93.5000028533936,8|0,0:0|0:0,0:0:0:0:
436,275,152446,2,0,L|316:270,1,93.5000028533936,8|0,0:0|0:0,0:0:0:0:
240,114,152789,1,8,0:0:0:0:
240,114,153132,6,0,B|272:128|272:128|357:115,1,93.5000028533936,8|0,0:0|0:0,0:0:0:0:
254,294,153475,2,0,B|245:236|245:236|259:204,1,93.5000028533936,8|0,0:0|0:0,0:0:0:0:
149,362,153817,2,0,B|206:353|206:353|238:367,1,93.5000028533936,8|0,0:0|0:0,0:0:0:0:
466,298,154160,1,8,0:0:0:0:
259,204,154332,6,0,B|110:188|110:188|169:162,1,187.000005706787,0|0,0:0|0:0,0:0:0:0:
356,142,154846,2,0,P|371:172|363:246,1,93.5000028533936,8|0,0:0|0:0,0:0:0:0:
205,269,155189,2,0,P|194:300|136:347,1,93.5000028533936,8|0,0:0|0:0,0:0:0:0:
12,255,155532,1,8,0:0:0:0:
273,203,155703,1,8,0:0:0:0:
131,95,155875,6,0,L|135:193,1,76.4999976654053,12|0,0:0|0:0,0:0:0:0:
95,233,156132,1,0,1:0:0:0:
95,233,156217,2,0,B|128:216|128:216|196:223,1,76.4999976654053,0|0,1:0|1:0,0:0:0:0:
272,313,156560,2,0,P|291:274|287:230,2,76.4999976654053,0|0|0,1:0|1:0|1:0,0:0:0:0:
272,313,157246,6,0,P|314:305|363:312,1,63.7500024318696,0|0,1:0|1:0,0:0:0:0:
302,170,157589,2,0,P|329:202|348:248,1,63.7500024318696,0|0,1:0|1:0,0:0:0:0:
477,168,157932,2,0,P|462:208|393:272,1,127.500004863739,0|0,1:0|0:0,0:0:0:0:
137,323,158617,5,2,0:0:0:0:
80,276,158960,1,2,0:0:0:0:
106,208,159132,1,0,0:0:0:0:
179,212,159303,1,2,0:0:0:0:
198,283,159646,1,2,0:0:0:0:
137,323,159989,5,2,0:0:0:0:
80,276,160332,1,2,0:0:0:0:
106,208,160503,1,0,0:0:0:0:
179,212,160675,1,2,0:0:0:0:
198,283,160846,5,8,3:0:0:0:
237,272,160932,1,8,3:0:0:0:
275,260,161017,1,8,0:0:0:0:
395,336,161189,2,0,L|441:331,2,25.4999992218018,0|0|0,3:0|3:0|3:0,0:0:0:0:
395,336,161360,6,0,P|404:292|387:216,1,101.999996887207,6|0,0:0|0:0,0:0:0:0:
214,163,161703,2,0,P|205:119|222:43,1,101.999996887207,10|0,0:0|0:0,0:0:0:0:
407,27,162046,1,2,0:0:0:0:
269,7,162217,1,0,0:0:0:0:
438,104,162389,1,10,0:0:0:0:
355,156,162560,1,0,0:0:0:0:
355,156,162646,1,0,0:0:0:0:
355,156,162732,6,0,L|348:267,1,101.999996887207,2|0,0:0|0:0,0:0:0:0:
210,247,162989,1,0,0:0:0:0:
210,247,163075,2,0,L|217:358,1,101.999996887207,10|0,0:0|0:0,0:0:0:0:
445,351,163417,2,0,B|399:331|399:331|287:354,1,152.999995330811,2|0,0:0|0:0,0:0:0:0:
288,354,163760,1,10,0:0:0:0:
144,345,163932,1,0,3:0:0:0:
80,217,164103,6,0,P|72:179|111:110,1,101.999996887207,2|0,0:0|0:0,0:0:0:0:
312,97,164446,1,10,0:0:0:0:
130,40,164617,1,0,0:0:0:0:
321,222,164789,2,0,L|327:99,1,101.999996887207,2|0,0:0|3:0,0:0:0:0:
333,112,165046,1,0,3:0:0:0:
341,106,165132,2,0,P|347:150|250:205,1,152.999995330811,10|0,0:0|0:0,0:0:0:0:
211,258,165475,6,0,P|260:248|356:248,1,101.999996887207,2|0,0:0|0:0,0:0:0:0:
497,318,165817,1,10,0:0:0:0:
337,161,165989,1,0,0:0:0:0:
300,365,166160,1,2,0:0:0:0:
375,275,166332,1,0,0:0:0:0:
379,277,166417,1,0,0:0:0:0:
383,279,166503,1,10,0:0:0:0:
290,365,166675,1,0,0:0:0:0:
286,367,166760,1,0,0:0:0:0:
282,369,166846,6,0,P|297:325|267:241,1,101.999996887207,2|0,0:0|0:0,0:0:0:0:
105,168,167189,2,0,P|149:183|233:153,1,101.999996887207,10|0,0:0|0:0,0:0:0:0:
58,72,167532,1,2,0:0:0:0:
27,221,167703,1,0,0:0:0:0:
52,59,167875,1,10,0:0:0:0:
139,98,168046,1,0,0:0:0:0:
139,98,168132,1,0,0:0:0:0:
139,98,168217,6,0,B|172:83|172:83|271:92,1,101.999996887207,2|0,0:0|3:0,0:0:0:0:
331,200,168475,1,0,3:0:0:0:
331,200,168560,2,0,B|396:205|396:205|429:190,1,101.999996887207,10|0,0:0|0:0,0:0:0:0:
261,374,168903,2,0,P|219:321|237:201,1,152.999995330811,2|0,0:0|3:0,0:0:0:0:
221,229,169246,1,10,0:0:0:0:
175,134,169417,1,0,0:0:0:0:
71,91,169589,6,0,L|66:203,1,101.999996887207,2|0,0:0|0:0,0:0:0:0:
5,324,169932,1,10,0:0:0:0:
197,345,170103,1,0,0:0:0:0:
213,168,170275,2,0,P|190:216|196:289,1,101.999996887207,2|0,0:0|3:0,0:0:0:0:
263,306,170532,1,0,3:0:0:0:
270,299,170617,1,10,0:0:0:0:
407,340,170789,1,0,0:0:0:0:
410,330,170875,1,0,0:0:0:0:
411,319,170960,6,0,P|412:267|396:200,1,101.999996887207,2|0,0:0|0:0,0:0:0:0:
265,132,171303,1,10,0:0:0:0:
406,91,171475,1,0,0:0:0:0:
253,144,171646,1,2,0:0:0:0:
305,48,171817,1,0,0:0:0:0:
305,48,171903,1,0,0:0:0:0:
305,48,171989,5,10,0:0:0:0:
262,266,172160,1,2,0:0:0:0:
305,48,172332,6,0,P|333:71|270:101,1,114.749996498108,8|0,3:0|0:0,0:0:0:0:
305,48,172675,6,0,L|440:40,1,101.999996887207,6|0,0:0|0:0,0:0:0:0:
488,211,173017,1,2,0:0:0:0:
502,45,173189,1,0,0:0:0:0:
373,245,173360,2,0,L|238:237,1,101.999996887207,10|0,0:0|0:0,0:0:0:0:
116,149,173703,6,0,P|92:211|109:266,1,101.999996887207,2|0,0:0|0:0,0:0:0:0:
187,304,173960,1,0,0:0:0:0:
187,304,174046,2,0,P|191:253|168:208,1,101.999996887207,10|0,0:0|0:0,0:0:0:0:
22,130,174389,1,2,0:0:0:0:
181,77,174560,1,0,3:0:0:0:
177,67,174646,1,0,3:0:0:0:
176,56,174732,1,10,0:0:0:0:
263,151,174903,1,0,0:0:0:0:
267,141,174989,1,0,0:0:0:0:
266,130,175075,6,0,B|246:162|246:162|259:246,1,101.999996887207,2|0,0:0|0:0,0:0:0:0:
397,300,175417,1,8,0:0:0:0:
207,347,175589,1,0,0:0:0:0:
450,231,175760,2,0,P|476:283|466:346,1,101.999996887207,2|0,0:0|3:0,0:0:0:0:
266,130,176103,2,0,L|382:124,1,101.999996887207,8|0,0:0|0:0,0:0:0:0:
150,269,176446,6,0,B|146:217|146:217|152:189|152:189|143:94,1,152.999995330811,2|0,0:0|0:0,0:0:0:0:
145,106,176789,1,10,0:0:0:0:
57,224,176960,1,0,0:0:0:0:
240,334,177132,2,0,L|230:196,1,101.999996887207,2|0,0:0|0:0,0:0:0:0:
281,177,177389,1,0,0:0:0:0:
277,167,177475,1,10,0:0:0:0:
411,204,177646,1,0,0:0:0:0:
413,194,177732,1,0,0:0:0:0:
383,162,177817,6,0,P|394:214|385:279,1,101.999996887207,2|0,0:0|0:0,0:0:0:0:
139,327,178160,2,0,P|191:338|256:329,1,101.999996887207,10|0,0:0|0:0,0:0:0:0:
484,232,178503,1,2,0:0:0:0:
307,361,178675,1,0,0:0:0:0:
383,162,178846,2,0,L|281:158,1,101.999996887207,10|0,0:0|0:0,0:0:0:0:
86,37,179189,6,0,P|101:73|75:135,1,101.999996887207,2|0,0:0|3:0,0:0:0:0:
0,269,179446,1,0,3:0:0:0:
0,269,179532,2,0,P|23:238|90:229,1,101.999996887207,10|0,0:0|0:0,0:0:0:0:
213,362,179875,2,0,P|247:317|217:217,1,152.999995330811,2|0,0:0|3:0,0:0:0:0:
193,241,180217,2,0,L|307:236,1,101.999996887207,10|0,0:0|0:0,0:0:0:0:
446,82,180560,6,0,L|436:166,1,68,2|0,0:0|0:0,0:0:0:0:
376,41,180903,2,0,L|366:125,1,68,2|0,0:0|0:0,0:0:0:0:
191,144,181246,6,0,L|275:154,1,68,2|0,0:0|0:0,0:0:0:0:
150,214,181589,2,0,L|234:224,1,68,2|0,0:0|0:0,0:0:0:0:
98,275,181932,6,0,P|72:225|97:159,1,102,2|0,0:0|0:0,0:0:0:0:
84,177,182275,5,2,0:0:0:0:
121,116,182446,1,2,0:0:0:0:
108,67,182617,6,0,B|97:79|77:85|77:85|125:35|201:73,1,170,2|0,0:0|0:0,0:0:0:0:
