osu file format v14

[General]
AudioFilename: w.mp3
AudioLeadIn: 0
PreviewTime: 37889
Countdown: 0
SampleSet: Soft
StackLeniency: 0.3
Mode: 0
LetterboxInBreaks: 0
WidescreenStoryboard: 0

[Editor]
Bookmarks: 139417
DistanceSpacing: 1
BeatDivisor: 4
GridSize: 4
TimelineZoom: 3.899998

[Metadata]
Title:Well, That Was Awkward
TitleUnicode:Well, That Was Awkward
Artist:S3RL
ArtistUnicode:S3RL
Creator:DeRandom Otaku
Version:Extra
Source:
Tags:Happy Hardcore Rave Emfa music Serl FCL Akitoshi EMFA089 dj corinn
BeatmapID:1397837
BeatmapSetID:660109

[Difficulty]
HPDrainRate:6
CircleSize:4
OverallDifficulty:8.5
ApproachRate:9.2
SliderMultiplier:1.9
SliderTickRate:1

[Events]
//Background and Video events
0,0,"BG.jpg",0,0
//Break Periods
2,34017,36560
//Storyboard Layer 0 (Background)
//Storyboard Layer 1 (Fail)
//Storyboard Layer 2 (Pass)
//Storyboard Layer 3 (Foreground)
//Storyboard Sound Samples

[TimingPoints]
11875,342.857142857143,4,2,1,20,1,0
11875,-142.857142857143,4,2,1,20,0,0
17360,-83.3333333333333,4,2,69,45,0,0
17446,-83.3333333333333,4,2,69,5,0,0
17532,-142.857142857143,4,2,69,23,0,0
18732,-142.857142857143,4,2,69,27,0,0
19417,-142.857142857143,4,2,69,30,0,0
20103,-142.857142857143,4,2,69,34,0,0
20446,-133.333333333333,4,2,69,34,0,0
20789,-133.333333333333,4,2,69,38,0,0
21475,-142.857142857143,4,2,69,40,0,0
21817,-100,4,2,69,40,0,0
21989,-100,4,2,69,5,0,0
22075,-100,4,2,69,40,0,0
22246,-100,4,2,69,5,0,0
22332,-100,4,2,69,40,0,0
22503,-80,4,2,69,40,0,0
22760,-80,4,2,69,5,0,0
22846,-80,4,2,69,40,0,0
28332,-100,4,2,69,40,0,0
31075,-100,4,2,69,37,0,0
32446,-100,4,2,69,33,0,0
33303,-100,4,2,69,30,0,0
33475,-100,4,2,69,27,0,0
33646,-100,4,2,69,24,0,0
33817,-100,4,2,69,20,0,0
37417,-62.5,4,2,69,40,0,0
37932,-90.9090909090909,4,2,69,70,0,1
39260,-90.9090909090909,4,2,69,5,0,1
39303,-90.9090909090909,4,2,69,70,0,1
40803,-90.9090909090909,4,2,69,5,0,1
40846,-90.9090909090909,4,2,69,70,0,1
41960,-90.9090909090909,4,2,69,5,0,1
42046,-90.9090909090909,4,2,69,70,0,1
42732,-200,4,2,69,70,0,0
42989,-200,4,2,69,5,0,0
43075,-66.6666666666667,4,2,69,70,0,0
43417,-90.9090909090909,4,2,69,70,0,1
43546,-90.9090909090909,4,2,69,5,0,1
43589,-90.9090909090909,4,2,69,70,0,1
44746,-90.9090909090909,4,2,69,5,0,1
44789,-90.9090909090909,4,2,69,70,0,1
46289,-90.9090909090909,4,2,69,5,0,1
46332,-90.9090909090909,4,2,69,70,0,1
47489,-111.111111111111,4,2,69,5,0,1
47532,-111.111111111111,4,2,69,50,0,0
48389,-90.9090909090909,4,2,69,50,0,0
48903,-60.6060606060606,4,2,69,75,0,1
48989,-60.6060606060606,4,2,69,30,0,0
49246,-90.9090909090909,4,2,69,70,0,1
50189,-90.9090909090909,4,2,69,20,0,1
50275,-90.9090909090909,4,2,69,70,0,1
51732,-90.9090909090909,4,2,69,20,0,1
51817,-90.9090909090909,4,2,69,70,0,1
52932,-90.9090909090909,4,2,69,20,0,1
53017,-90.9090909090909,4,2,69,70,0,1
53703,-125,4,2,69,70,0,0
53960,-125,4,2,69,5,0,0
54046,-64.5161290322581,4,2,69,70,0,0
54389,-51.8134715025907,4,2,69,70,0,1
54475,-51.8134715025907,4,2,69,30,0,0
54732,-90.9090909090909,4,2,69,70,0,1
55675,-90.9090909090909,4,2,69,5,0,1
55760,-90.9090909090909,4,2,69,70,0,1
57217,-90.9090909090909,4,2,69,5,0,1
57303,-90.9090909090909,4,2,69,70,0,1
58417,-90.9090909090909,4,2,69,5,0,1
58503,-133.333333333333,4,2,69,50,0,0
59360,-95.2380952380951,4,2,69,60,0,0
59703,-62.5,4,2,69,60,0,0
59875,-83.3333333333333,4,2,69,74,0,1
69475,-83.3333333333333,4,2,69,45,0,0
70846,-83.3333333333333,4,2,69,74,0,1
70932,-83.3333333333333,4,2,69,74,0,0
72217,-83.3333333333333,4,2,69,74,0,1
79075,-90.9090909090909,4,2,69,74,0,1
80446,-117.647058823529,4,2,69,40,0,0
80789,-117.647058823529,4,2,69,30,0,0
81132,-117.647058823529,4,2,69,22,0,0
81817,-166.666666666667,4,2,69,40,0,0
87389,-166.666666666667,4,2,69,20,0,0
92446,-125,4,2,69,45,0,0
92789,-125,4,2,2,20,0,0
103760,-125,4,2,2,24,0,0
114046,-200,4,2,2,24,0,0
114732,-102.040816326531,4,2,1,27,0,0
120217,-76.9230769230769,4,2,69,27,0,0
120303,-76.9230769230769,4,2,69,5,0,0
120389,-76.9230769230769,4,2,69,27,0,0
121589,-102.040816326531,4,2,69,27,0,0
122960,-95.2380952380952,4,2,69,30,0,0
125360,-83.3333333333333,4,2,69,30,0,0
133932,-166.666666666667,4,2,0,30,0,0
134275,-166.666666666667,4,2,0,5,0,0
134617,-166.666666666667,4,2,0,30,0,0
134960,-166.666666666667,4,2,0,5,0,0
135303,-238.095238095238,4,2,0,30,0,0
135646,-238.095238095238,4,2,0,5,0,0
136675,-1000,4,2,0,15,0,0
137017,-952.380952380952,4,2,0,5,0,0
138732,-200,4,2,0,15,0,0
139417,-76.9230769230769,4,2,69,60,0,1
144217,-200,4,2,69,60,0,0
144903,-76.9230769230769,4,2,69,60,0,1
149703,-76.9230769230769,4,2,69,60,0,0
150046,-90.9090909090909,4,2,0,65,0,0
155875,-111.111111111111,4,2,0,58,0,0
157246,-133.333333333333,4,2,0,50,0,0
158617,-133.333333333333,4,2,0,30,0,0
158789,-166.666666666667,4,2,0,30,0,0
160846,-83.3333333333333,4,2,0,60,0,0
161360,-83.3333333333333,4,2,69,65,0,1
172332,-111.111111111111,4,2,69,65,0,0
172675,-83.3333333333333,4,2,69,65,0,1
180560,-100,4,2,69,60,0,1
181932,-125,4,2,69,50,0,0
182275,-125,4,2,0,40,0,0
182789,-125,4,2,69,10,0,0

[Colours]
Combo1 : 128,128,255
Combo2 : 0,253,253
Combo3 : 255,0,255
Combo4 : 255,36,36

[HitObjects]
102,66,11875,6,0,P|98:101|102:144,1,66.4999979705811,2|0,0:0|0:0,0:0:0:0:
16,170,12217,2,0,P|37:197|71:225,1,66.4999979705811,2|0,0:0|0:0,0:0:0:0:
28,304,12560,2,0,P|62:308|105:304,1,66.4999979705811,2|0,0:0|0:0,0:0:0:0:
186,298,12903,1,2,0:0:0:0:
186,298,13246,6,0,P|185:263|196:221,1,66.4999979705811,2|0,0:0|0:0,0:0:0:0:
277,236,13589,2,0,P|301:210|338:188,1,66.4999979705811,2|0,0:0|0:0,0:0:0:0:
385,256,13932,2,0,P|420:255|462:266,1,66.4999979705811,2|0,0:0|0:0,0:0:0:0:
447,346,14274,1,2,0:0:0:0:
447,346,14789,5,0,0:0:0:0:
385,255,14960,2,0,P|418:254|450:261,1,66.4999979705811,2|0,0:0|0:0,0:0:0:0:
277,235,15303,2,0,P|299:211|327:193,1,66.4999979705811,2|0,0:0|0:0,0:0:0:0:
466,137,15646,1,2,0:0:0:0:
466,137,15989,6,0,P|431:132|398:132,1,66.4999979705811,2|0,0:0|0:0,0:0:0:0:
233,74,16332,2,0,P|268:69|301:69,1,66.4999979705811,2|0,0:0|0:0,0:0:0:0:
466,11,16675,1,2,0:0:0:0:
466,11,17360,6,0,P|461:42|464:72,1,56.9999982604981,12|0,0:0|0:0,0:0:0:0:
469,153,17532,5,0,0:0:0:0:
392,112,17703,1,0,1:0:0:0:
306,97,17875,1,0,0:0:0:0:
220,112,18046,1,0,1:0:0:0:
143,153,18217,1,0,0:0:0:0:
91,222,18389,1,0,1:0:0:0:
91,222,18732,6,0,B|122:222|122:222|158:230,1,66.4999979705811,0|0,1:0|0:0,0:0:0:0:
238,258,19075,2,0,B|272:265|272:265|303:265,1,66.4999979705811,0|0,1:0|0:0,0:0:0:0:
389,265,19417,2,0,B|420:265|420:265|454:257,1,66.4999979705811,0|0,1:0|0:0,0:0:0:0:
512,192,19760,1,0,1:0:0:0:
512,192,20275,5,0,0:0:0:0:
420,94,20446,2,0,P|412:128|412:166,1,71.2500027179719,8|0,0:0|0:0,0:0:0:0:
501,292,20789,2,0,P|475:267|442:248,1,71.2500027179719,8|0,0:0|0:0,0:0:0:0:
289,263,21132,2,0,P|322:253|356:233,1,71.2500027179719,8|0,0:0|0:0,0:0:0:0:
512,192,21475,5,8,0:0:0:0:
512,192,21646,1,0,0:0:0:0:
420,99,21817,2,0,B|376:99|376:99|357:114|327:116,1,95,8|0,0:0|0:0,0:0:0:0:
237,99,22075,2,0,B|281:99|281:99|300:114|328:115,1,95,8|0,0:0|0:0,0:0:0:0:
329,33,22332,1,8,0:0:0:0:
329,241,22503,6,0,B|256:242|256:242|228:256|228:256|152:257,1,178.125,10|0,0:0|0:0,0:0:0:0:
154,256,22846,1,14,0:0:0:0:
256,192,22932,12,0,28160,0:0:0:0:
256,73,28332,6,0,L|142:86,1,95,0|0,1:0|0:0,0:0:0:0:
16,137,28675,2,0,L|130:150,1,95,0|0,1:0|0:0,0:0:0:0:
256,201,29017,2,0,L|142:214,1,95,0|0,1:0|0:0,0:0:0:0:
16,265,29360,1,0,1:0:0:0:
16,265,29532,1,0,0:0:0:0:
204,377,29703,6,0,P|217:335|217:281,1,95,0|0,1:0|0:0,0:0:0:0:
349,215,30046,2,0,P|307:201|253:202,1,95,0|0,1:0|0:0,0:0:0:0:
187,70,30389,2,0,P|173:112|174:166,1,95,0|0,1:0|0:0,0:0:0:0:
42,232,30732,2,0,P|84:245|138:245,1,95,0|0,1:0|0:0,0:0:0:0:
349,215,31075,5,2,0:0:0:0:
349,215,31246,1,0,0:0:0:0:
269,43,31417,2,0,L|275:137,1,95,2|0,0:0|0:0,0:0:0:0:
429,43,31760,2,0,L|422:137,1,95,2|0,0:0|0:0,0:0:0:0:
349,310,32103,2,0,L|349:206,1,95,2|0,0:0|0:0,0:0:0:0:
349,24,32446,5,2,0:0:0:0:
349,215,32617,1,2,0:0:0:0:
276,138,32789,1,2,0:0:0:0:
422,138,32960,1,2,0:0:0:0:
349,96,33132,1,2,0:0:0:0:
349,215,33303,5,2,0:0:0:0:
352,238,33388,1,2,0:0:0:0:
363,259,33474,5,2,0:0:0:0:
375,274,33560,1,2,0:0:0:0:
390,285,33646,5,2,0:0:0:0:
402,292,33732,1,2,0:0:0:0:
410,295,33817,5,0,3:0:0:0:
208,48,37417,5,0,3:0:0:0:
256,16,37503,1,0,3:0:0:0:
304,48,37589,1,8,0:0:0:0:
256,192,37760,2,0,L|256:144,2,38,0|0|0,3:0|3:0|3:0,3:3:0:0:
256,263,37932,5,6,0:0:0:0:
304,48,38103,1,0,0:0:0:0:
273,268,38275,1,2,0:0:0:0:
89,124,38446,1,0,0:0:0:0:
304,48,38617,1,2,0:0:0:0:
151,235,38789,1,0,0:0:0:0:
210,11,38960,1,2,0:0:0:0:
273,268,39132,2,0,P|310:261|353:268,1,78.3750023918153,2|0,0:1|0:0,0:0:0:0:
353,270,39303,6,0,P|354:218|379:169,1,104.500003189087,2|0,0:0|0:0,0:0:0:0:
488,363,39646,2,0,L|378:362,1,104.500003189087,2|0,0:0|0:0,0:0:0:0:
231,358,39989,1,2,0:0:0:0:
466,248,40160,1,0,0:0:0:0:
151,235,40332,1,2,0:0:0:0:
151,235,40675,6,0,B|151:199|151:199|166:141,1,78.3750023918153,2|0,0:0|0:0,0:0:0:0:
161,157,40846,1,0,0:0:0:0:
231,358,41017,1,2,0:0:0:0:
264,124,41189,1,0,0:0:0:0:
54,234,41360,2,0,P|103:251|159:228,1,104.500003189087,2|0,0:0|0:0,0:0:0:0:
112,37,41703,1,2,0:0:0:0:
342,125,41875,2,0,L|264:124,1,78.3750023918153,2|0,0:1|0:0,0:0:0:0:
266,126,42046,6,0,P|245:173|264:230,1,104.500003189087,2|0,0:0|0:0,0:0:0:0:
474,63,42389,2,0,P|492:115|472:167,1,104.500003189087,2|0,0:0|0:0,0:0:0:0:
360,341,42732,6,2,L|432:336,1,71.25,2|0,0:0|0:1,0:0:0:0:
291,368,43075,6,0,P|335:334|334:251,1,142.500005435944,2|0,0:1|0:1,0:0:0:0:
139,93,43417,6,0,L|144:185,1,78.3750023918153,6|0,0:0|0:0,0:0:0:0:
143,171,43589,1,0,0:0:0:0:
237,31,43760,1,2,0:0:0:0:
54,141,43932,1,0,0:0:0:0:
270,294,44103,2,0,P|278:248|269:183,1,104.500003189087,2|0,0:0|0:0,0:0:0:0:
237,31,44446,1,2,0:0:0:0:
458,113,44617,2,0,P|421:103|376:103,1,78.3750023918153,2|0,0:1|0:0,0:0:0:0:
381,102,44789,5,2,0:0:0:0:
182,241,44960,1,0,0:0:0:0:
405,202,45132,1,2,0:0:0:0:
158,141,45303,1,0,0:0:0:0:
377,280,45475,2,0,P|429:281|476:244,1,104.500003189087,2|0,0:0|0:0,0:0:0:0:
256,60,45817,1,2,0:0:0:0:
256,60,45989,1,2,0:0:0:0:
256,324,46160,6,0,L|256:243,1,78.3750023918153,2|0,0:0|0:0,0:0:0:0:
247,233,46332,1,0,0:0:0:0:
154,37,46503,2,0,P|158:92|158:156,1,104.500003189087,2|0,0:0|0:0,0:0:0:0:
144,355,46846,1,2,0:0:0:0:
277,150,47017,1,0,0:0:0:0:
85,223,47189,1,2,0:0:0:0:
334,345,47360,2,0,P|344:311|329:263,1,78.3750023918153,2|0,0:1|0:0,0:0:0:0:
336,272,47532,6,0,L|425:285,1,85.4999973907472,0|0,1:0|0:0,0:0:0:0:
176,272,47875,2,0,L|86:285,1,85.4999973907472,0|0,1:0|0:0,0:0:0:0:
256,328,48217,1,0,1:0:0:0:
256,120,48389,6,8,L|256:184,1,52.2500015945435,8|8,3:0|3:0,3:3:0:0:
256,344,48560,1,8,0:0:0:0:
256,67,48732,5,8,0:0:0:0:
256,120,48817,1,8,0:0:0:0:
256,173,48903,6,0,B|350:203|326:144|414:188|414:188|375:176|340:199,1,235.125002242327,6|0,0:0|0:0,0:0:0:0:
361,356,49246,6,0,P|385:310|387:258,1,104.500003189087,10|0,0:0|3:0,0:0:0:0:
170,282,49589,2,0,L|275:282,1,104.500003189087,2|0,0:0|3:0,0:0:0:0:
480,347,49932,1,10,0:0:0:0:
411,85,50103,2,0,L|411:143,1,52.2500015945435,2|0,0:1|0:0,0:0:0:0:
361,356,50275,5,2,0:0:0:0:
414,188,50446,1,0,0:0:0:0:
275,282,50617,1,10,0:0:0:0:
483,257,50789,1,0,0:0:0:0:
263,273,50960,1,2,0:0:0:0:
480,347,51132,1,0,0:0:0:0:
251,264,51303,1,10,0:0:0:0:
239,255,51646,6,0,L|176:271,1,52.2500015945435,6|0,0:0|0:0,0:0:0:0:
29,318,51817,1,0,0:0:0:0:
251,264,51989,1,10,0:0:0:0:
110,110,52160,1,0,0:0:0:0:
141,294,52332,1,2,0:0:0:0:
222,86,52504,1,0,0:0:0:0:
0,140,52675,1,10,0:0:0:0:
251,264,52846,2,0,L|314:248,1,52.2500015945435,2|0,0:1|0:0,0:0:0:0:
110,110,53017,5,2,0:0:0:0:
141,294,53189,1,0,0:0:0:0:
222,86,53360,1,10,0:0:0:0:
251,264,53532,1,0,0:0:0:0:
29,318,53703,6,2,L|151:292,1,114,2|2,0:0|0:1,0:0:0:0:
114,348,54046,6,0,B|98:309|108:255|108:255|120:286|140:294,1,147.250001123428,2|2,0:1|0:1,0:0:0:0:
327,303,54389,6,0,B|293:280|286:216|286:216|235:304|141:295,1,275.024993390436,2|0,0:1|0:0,0:0:0:0:
139,220,54732,6,0,P|191:215|223:165,1,104.500003189087,12|0,0:0|3:0,0:0:0:0:
20,8,55075,2,0,B|17:38|24:57|24:57|18:71|18:71|26:89|19:126,1,104.500003189087,2|0,0:0|3:0,0:0:0:0:
141,294,55417,1,10,0:0:0:0:
255,100,55589,2,0,P|224:92|193:97,1,52.2500015945435,2|0,0:1|0:0,0:0:0:0:
221,175,55760,5,2,0:0:0:0:
273,23,55932,1,0,3:0:0:0:
96,100,56103,1,10,0:0:0:0:
344,100,56275,1,0,3:0:0:0:
167,23,56446,1,2,0:0:0:0:
221,175,56617,1,0,3:0:0:0:
273,23,56789,1,10,0:0:0:0:
273,23,56960,1,2,0:0:0:0:
187,250,57132,6,0,P|218:258|249:253,1,52.2500015945435,2|0,0:0|0:0,0:0:0:0:
367,172,57303,1,0,3:0:0:0:
160,237,57475,1,10,0:0:0:0:
397,189,57646,1,0,3:0:0:0:
138,224,57817,1,2,0:0:0:0:
427,206,57989,1,0,3:0:0:0:
116,211,58160,1,10,0:0:0:0:
279,46,58332,2,0,P|281:78|278:109,1,52.2500015945435,2|0,0:1|0:0,0:0:0:0:
256,280,58503,6,0,P|283:274|338:274,1,71.2500027179719,0|0,1:0|0:0,0:0:0:0:
399,348,58760,1,0,0:0:0:0:
399,348,58846,2,0,P|399:312|406:277,1,71.2500027179719,0|0,1:0|0:0,0:0:0:0:
427,206,59103,1,0,0:0:0:0:
427,206,59189,1,0,1:0:0:0:
180,195,59360,6,8,L|246:199,1,49.8749984779358,8|8,3:0|3:0,3:3:0:0:
430,210,59532,1,8,0:0:0:0:
337,63,59703,2,0,P|335:86|337:108,2,38,0|0|0,3:0|3:0|3:0,3:3:0:0:
416,22,59875,6,0,L|233:38,1,170.999994781494,6|0,0:0|0:0,0:0:0:0:
217,142,60217,2,0,P|245:92|245:34,1,113.999996520996,10|0,0:0|0:0,0:0:0:0:
68,215,60560,1,2,0:0:0:0:
284,221,60732,1,2,0:1:0:0:
284,221,60817,1,0,0:0:0:0:
149,67,60989,1,2,0:1:0:0:
149,67,61075,1,0,0:0:0:0:
59,237,61246,1,2,0:0:0:0:
217,142,61417,6,0,P|268:119|334:130,2,113.999996520996,0|10|0,0:0|0:0|0:0,0:0:0:0:
417,245,61932,1,2,0:0:0:0:
378,62,62103,1,0,0:0:0:0:
284,221,62275,2,0,L|293:336,1,113.999996520996,10|0,0:0|0:0,0:0:0:0:
324,125,62617,6,0,P|262:120|181:195,1,170.999994781494,2|0,0:0|0:0,0:0:0:0:
186,190,62960,2,0,P|129:202|73:188,1,113.999996520996,10|0,0:0|0:0,0:0:0:0:
284,221,63303,1,2,0:0:0:0:
133,86,63475,1,2,0:1:0:0:
133,86,63560,1,0,0:0:0:0:
173,285,63732,1,2,0:1:0:0:
173,285,63817,1,0,0:0:0:0:
248,92,63989,1,2,0:0:0:0:
76,189,64160,6,0,L|80:310,2,113.999996520996,0|10|0,0:0|0:0|0:0,0:0:0:0:
248,92,64675,1,2,0:0:0:0:
27,71,64846,1,0,0:0:0:0:
215,169,65017,2,0,B|274:185|270:155|327:172,1,113.999996520996,10|0,0:0|0:0,0:0:0:0:
274,322,65360,6,0,P|275:237|334:169,1,170.999994781494,2|0,0:0|0:0,0:0:0:0:
349,313,65703,2,0,P|343:258|384:224,1,113.999996520996,10|0,0:0|0:0,0:0:0:0:
501,374,66046,1,2,0:0:0:0:
274,322,66217,1,2,0:1:0:0:
261,324,66303,1,0,0:0:0:0:
488,268,66475,1,2,0:1:0:0:
501,270,66561,1,0,0:0:0:0:
261,216,66732,2,0,B|221:205|228:178|256:166|280:181|316:199|376:181,1,170.999994781494,2|0,0:0|0:0,0:0:0:0:
170,224,67075,6,0,P|168:168|203:125,1,113.999996520996,10|0,0:0|0:0,0:0:0:0:
327,343,67417,2,0,L|151:348,1,170.999994781494,2|0,0:0|0:0,0:0:0:0:
124,350,67760,1,10,0:0:0:0:
240,192,67932,1,0,0:0:0:0:
0,229,68103,6,0,L|176:224,1,170.999994781494,2|0,0:0|0:0,0:0:0:0:
240,192,68446,2,0,L|119:195,1,113.999996520996,10|0,0:0|0:0,0:0:0:0:
32,82,68789,1,2,0:0:0:0:
183,66,68960,1,2,0:1:0:0:
183,66,69046,1,0,0:0:0:0:
126,194,69217,1,2,0:1:0:0:
126,194,69303,1,0,0:0:0:0:
113,109,69475,5,4,0:0:0:0:
215,156,70846,5,2,0:0:0:0:
212,174,71017,1,0,0:0:0:0:
380,89,71189,5,2,0:0:0:0:
377,71,71360,1,0,0:0:0:0:
129,197,71532,5,2,0:0:0:0:
132,215,71703,1,0,0:0:0:0:
294,130,71875,5,2,0:0:0:0:
291,112,72217,6,0,P|283:71|253:4,1,113.999996520996,6|0,0:0|0:0,0:0:0:0:
132,215,72560,1,10,0:0:0:0:
314,214,72732,1,0,0:0:0:0:
155,113,72903,1,2,0:0:0:0:
223,292,73075,1,0,0:0:0:0:
291,112,73246,2,0,L|415:123,1,113.999996520996,10|0,0:0|0:0,0:0:0:0:
351,352,73589,6,0,P|347:267|402:205,1,170.999994781494,2|0,0:0|0:0,0:0:0:0:
465,362,73932,2,0,L|352:352,1,113.999996520996,10|0,0:0|0:0,0:0:0:0:
223,197,74275,1,2,0:0:0:0:
355,355,74446,1,2,0:1:0:0:
355,355,74532,1,0,0:0:0:0:
318,135,74703,1,2,0:1:0:0:
318,135,74789,1,0,0:0:0:0:
450,293,74960,1,2,0:0:0:0:
223,197,75132,6,0,B|173:197|173:197|166:205|166:205|107:205,2,113.999996520996,0|10|0,0:0|0:0|0:0,0:0:0:0:
477,197,75646,1,2,0:0:0:0:
355,355,75817,1,0,0:0:0:0:
355,140,75989,2,0,L|355:266,1,113.999996520996,10|0,0:0|0:0,0:0:0:0:
429,22,76332,6,0,L|231:34,1,170.999994781494,2|0,0:0|0:0,0:0:0:0:
205,81,76675,2,0,L|340:73,1,113.999996520996,10|0,0:0|0:0,0:0:0:0:
477,197,77017,1,2,0:0:0:0:
205,81,77189,1,2,0:1:0:0:
207,97,77275,1,0,0:0:0:0:
357,270,77446,1,2,0:1:0:0:
355,254,77532,1,0,0:0:0:0:
83,138,77703,2,0,B|46:157|19:194|19:194|34:237|79:249,1,170.999994781494,2|0,0:0|0:0,0:0:0:0:
136,195,78046,5,10,0:0:0:0:
116,52,78217,1,0,0:0:0:0:
79,249,78389,2,0,P|157:269|212:210,1,170.999994781494,2|0,0:0|0:0,0:0:0:0:
215,211,78732,2,0,P|268:195|323:207,1,113.999996520996,10|0,0:0|0:0,0:0:0:0:
430,347,79075,6,0,B|412:297|436:238|436:238|465:280,1,156.750004783631,2|0,0:0|0:0,0:0:0:0:
461,275,79417,1,10,0:0:0:0:
324,208,79589,1,0,0:0:0:0:
496,171,79760,2,0,P|496:118|477:70,1,104.500003189087,2|0,0:0|0:0,0:0:0:0:
480,72,80017,2,0,P|431:90|379:90,1,104.500003189087,2|2,0:1|0:1,0:0:0:0:
379,90,80275,1,2,0:1:0:0:
262,41,80446,6,2,P|260:64|261:89,3,40.375000770092,6|2|2|2,0:0|0:0|0:0|0:0,0:0:0:0:
278,113,80789,2,2,P|278:133|276:153,3,40.375000770092,0|0|0|0,0:0|0:0|0:0|0:0,0:0:0:0:
262,185,81132,5,2,0:0:0:0:
280,178,81217,1,2,0:0:0:0:
300,178,81303,1,2,0:0:0:0:
318,187,81389,1,2,0:0:0:0:
332,202,81474,1,2,1:2:0:0:
338,221,81560,1,2,1:2:0:0:
337,241,81646,1,2,1:2:0:0:
327,259,81732,1,2,1:2:0:0:
312,272,81817,6,0,P|256:266|193:272,1,113.999996520996,6|0,0:0|1:0,0:0:0:0:
97,366,82503,2,0,P|103:310|97:247,1,113.999996520996,0|0,1:0|1:0,0:0:0:0:
3,151,83189,2,0,P|59:157|122:151,1,113.999996520996,0|0,1:0|1:0,0:0:0:0:
218,57,83875,2,0,P|212:113|218:176,1,113.999996520996,0|0,1:0|1:0,0:0:0:0:
312,271,84560,5,0,1:0:0:0:
330,249,84903,1,0,1:0:0:0:
342,223,85246,1,0,1:0:0:0:
348,195,85589,1,0,1:0:0:0:
163,195,85932,5,0,1:0:0:0:
169,223,86275,1,0,1:0:0:0:
181,249,86618,1,0,1:0:0:0:
200,271,86961,1,0,1:0:0:0:
256,101,87303,5,0,1:0:0:0:
256,192,87389,12,0,92103,0:0:0:0:
256,96,92446,6,0,L|256:54,2,38,0|0|0,0:0|0:0|0:0,0:0:0:0:
116,125,92789,6,0,P|159:96|259:97,1,152,2|2,0:0|0:0,0:0:0:0:
421,174,93475,1,2,0:0:0:0:
421,174,93646,1,0,0:0:0:0:
379,254,93817,2,0,P|418:264|457:256,1,76,2|0,0:0|0:0,0:0:0:0:
421,174,94160,6,0,L|261:195,1,152,2|2,0:0|0:0,0:0:0:0:
279,376,94846,2,0,P|332:281|269:192,1,228,2|0,0:0|0:0,0:0:0:0:
184,160,95532,5,2,0:0:0:0:
54,289,95875,2,0,P|88:301|133:303,1,76,2|0,0:0|0:0,0:0:0:0:
233,287,96217,1,2,0:0:0:0:
54,289,96560,1,2,0:0:0:0:
184,160,96903,6,0,P|216:99|186:19,1,152,2|2,0:0|0:0,0:0:0:0:
126,89,97417,1,0,0:0:0:0:
184,160,97589,2,0,P|258:156|344:161,1,152,2|0,0:0|0:0,0:0:0:0:
335,343,98275,6,0,P|261:347|175:342,1,152,2|2,0:0|0:0,0:0:0:0:
31,241,98960,1,2,0:0:0:0:
121,226,99132,1,0,0:0:0:0:
63,155,99303,2,0,P|56:120|70:67,1,76,2|0,0:0|0:0,0:0:0:0:
146,118,99646,6,0,P|198:118|247:35,1,152,2|2,0:0|0:0,0:0:0:0:
248,40,100332,2,0,B|206:166|283:147|239:273,1,228,2|0,0:0|0:0,0:0:0:0:
221,351,101017,5,2,0:0:0:0:
390,283,101360,1,2,0:0:0:0:
390,191,101532,1,0,0:0:0:0:
321,330,101703,2,0,P|347:354|395:367,1,76,2|0,0:0|0:0,0:0:0:0:
459,144,102046,2,0,P|433:120|385:107,1,76,2|0,0:0|0:0,0:0:0:0:
238,197,102389,6,0,L|403:190,1,152,2|2,0:0|0:0,0:0:0:0:
459,144,102903,1,0,0:0:0:0:
431,65,103075,2,0,P|380:118|390:191,1,152,2|0,0:0|0:0,0:0:0:0:
450,362,103760,6,0,P|407:333|307:334,1,152,2|2,0:0|0:0,0:0:0:0:
128,357,104446,1,2,0:0:0:0:
192,292,104617,1,0,0:0:0:0:
103,270,104789,2,0,P|102:235|105:178,1,76,2|0,0:0|0:0,0:0:0:0:
124,104,105132,6,0,P|160:109|205:109,1,76,2|0,0:0|0:0,0:0:0:0:
264,44,105475,2,0,P|301:44|339:49,1,76,2|0,0:0|0:0,0:0:0:0:
365,136,105817,2,0,P|365:81|502:81,1,228,2|0,0:0|0:0,0:0:0:0:
444,184,106503,6,0,L|273:183,1,152,2|2,0:0|0:0,0:0:0:0:
209,222,107017,1,0,0:0:0:0:
292,257,107189,2,0,P|299:220|292:183,1,76,2|0,0:0|0:0,0:0:0:0:
208,147,107532,2,0,P|201:184|208:221,1,76,2|0,0:0|0:0,0:0:0:0:
292,183,107875,6,0,P|294:122|227:56,1,152,2|2,0:0|0:0,0:0:0:0:
208,147,108389,1,0,0:0:0:0:
292,183,108560,2,0,L|444:184,1,152,2|0,0:0|0:0,0:0:0:0:
256,345,109246,6,0,L|104:344,1,152,2|2,0:0|0:0,0:0:0:0:
32,175,109932,1,2,0:0:0:0:
122,179,110103,1,0,0:0:0:0:
213,183,110275,2,0,P|213:142|231:103,1,76,2|0,0:0|0:0,0:0:0:0:
369,162,110617,6,0,L|294:159,1,76,2|0,0:0|0:0,0:0:0:0:
213,183,110960,2,0,L|137:186,1,76,2|0,0:0|0:0,0:0:0:0:
45,197,111303,2,0,P|81:110|137:186,1,228,2|0,0:0|0:0,0:0:0:0:
98,270,111989,5,2,0:0:0:0:
175,72,112332,2,0,P|137:48|100:38,1,76,2|0,0:0|0:0,0:0:0:0:
137,186,112675,2,0,L|226:176,1,76,2|0,0:0|0:0,0:0:0:0:
279,116,113017,2,0,L|354:124,1,76,2|0,0:0|0:0,0:0:0:0:
459,48,113360,6,0,P|439:111|454:209,1,152,2|2,0:0|0:0,0:0:0:0:
477,290,113875,1,0,0:0:0:0:
253,260,114046,6,0,P|318:235|385:259,1,142.5,2|0,0:0|0:0,0:0:0:0:
319,336,114732,6,0,P|277:356|231:356,1,93.0999991476441,2|0,0:0|0:0,0:0:0:0:
165,280,115075,2,0,P|207:260|253:260,1,93.0999991476441,2|0,0:0|0:0,0:0:0:0:
231,356,115417,1,2,1:2:0:0:
231,356,115589,1,0,0:0:0:0:
165,280,115760,1,2,0:0:0:0:
165,280,115932,1,0,0:0:0:0:
188,178,116103,5,2,0:0:0:0:
253,260,116275,1,0,0:0:0:0:
349,88,116446,1,2,0:0:0:0:
284,170,116618,1,0,0:0:0:0:
445,260,116789,1,2,1:2:0:0:
380,178,116961,1,0,0:0:0:0:
284,350,117132,1,2,0:0:0:0:
349,268,117304,1,0,0:0:0:0:
253,260,117475,5,2,0:0:0:0:
284,350,117646,1,0,0:0:0:0:
318,178,117817,1,2,0:0:0:0:
349,268,117988,1,0,0:0:0:0:
383,96,118160,1,2,1:2:0:0:
414,186,118331,1,0,0:0:0:0:
448,14,118503,1,2,0:0:0:0:
479,104,118674,1,0,0:0:0:0:
290,94,118846,6,0,L|383:96,1,93.0999991476441,2|0,0:0|0:0,0:0:0:0:
132,174,119189,2,0,L|225:176,1,93.0999991476441,2|0,0:0|0:0,0:0:0:0:
414,186,119532,1,2,1:2:0:0:
290,94,119703,1,0,0:0:0:0:
414,186,119875,1,2,0:0:0:0:
427,29,120046,1,0,0:0:0:0:
320,201,120217,6,0,P|315:233|319:272,1,61.7499971733095,12|0,0:0|0:0,0:0:0:0:
318,339,120389,5,0,0:0:0:0:
238,305,120560,1,0,1:0:0:0:
189,232,120732,1,0,0:0:0:0:
238,159,120903,1,0,1:0:0:0:
318,125,121074,1,0,0:0:0:0:
398,159,121246,1,0,1:0:0:0:
447,232,121417,1,0,0:0:0:0:
403,70,121589,6,0,P|388:114|397:159,1,93.0999991476441,0|0,1:0|0:0,0:0:0:0:
441,321,121932,2,0,P|455:277|446:232,1,93.0999991476441,0|0,1:0|0:0,0:0:0:0:
278,273,122275,2,0,L|372:272,1,93.0999991476441,0|0,1:0|0:0,0:0:0:0:
491,158,122617,2,0,L|397:159,1,93.0999991476441,0|0,1:0|0:0,0:0:0:0:
144,244,122960,6,0,P|189:265|238:264,1,99.7499969558717,0|0,1:0|0:0,0:0:0:0:
397,159,123303,2,0,P|353:138|303:139,1,99.7499969558717,0|0,1:0|0:0,0:0:0:0:
313,328,123646,2,0,P|333:283|332:233,1,99.7499969558717,0|0,1:0|0:0,0:0:0:0:
228,75,123989,2,0,P|207:120|208:169,1,99.7499969558717,0|0,1:0|0:0,0:0:0:0:
398,159,124332,5,8,0:0:0:0:
229,76,124503,1,0,0:0:0:0:
457,56,124675,1,8,0:0:0:0:
303,139,124846,1,0,0:0:0:0:
432,279,125017,2,0,P|441:231|430:168,1,99.7499969558717,8|0,0:0|0:0,0:0:0:0:
267,271,125360,2,0,B|304:286|341:271|341:271|355:279|355:279|380:264|431:279,1,170.999994781494,14|0,0:0|0:0,0:0:0:0:
431,279,125703,5,6,0:0:0:0:
256,192,125789,12,0,133760,0:0:0:0:
147,291,133932,6,0,P|215:237|137:194,1,199.499993911743,2|0,0:0|0:0,0:0:0:0:
144,191,134617,6,0,B|260:165|224:216|354:181,1,199.499993911743,2|0,0:0|0:0,0:0:0:0:
417,185,135303,6,0,B|376:171|341:184|341:184|333:149|355:105|355:105|292:124|256:102|256:102|280:75|300:83,1,299.249990867615,2|0,0:0|0:0,0:0:0:0:
287,82,136675,6,2,P|264:139|264:183,1,104.5,2|0,0:1|0:1,0:0:0:0:
263,181,138732,5,2,0:1:0:0:
176,166,138960,1,2,0:1:0:0:
88,181,139189,1,2,0:1:0:0:
178,84,139417,6,0,P|180:125|176:166,1,82.3333295644126,2|0,0:0|0:0,0:0:0:0:
88,181,139646,1,0,0:0:0:0:
142,251,139760,2,0,P|102:267|61:265,2,82.3333295644126,2|0|0,0:0|0:0|0:0,0:0:0:0:
250,225,140103,1,2,0:0:0:0:
176,166,140217,1,0,0:0:0:0:
142,251,140332,1,0,0:0:0:0:
284,140,140446,6,0,L|414:150,1,123.499994346619,2|0,0:0|3:0,0:0:0:0:
407,149,140703,1,0,3:0:0:0:
414,155,140789,6,0,L|378:234,1,82.3333295644126,2|0,0:0|0:0,0:0:0:0:
346,305,141017,1,0,0:0:0:0:
394,372,141132,2,0,L|343:301,1,82.3333295644126,2|0,0:0|0:0,0:0:0:0:
298,238,141360,1,0,0:0:0:0:
216,246,141475,2,0,L|302:237,1,82.3333295644126,2|0,0:0|0:0,0:0:0:0:
380,229,141703,1,0,0:0:0:0:
216,246,141817,1,2,0:0:0:0:
216,246,142160,6,0,P|223:205|208:154,1,82.3333295644126,2|0,0:0|0:0,0:0:0:0:
145,120,142389,1,0,0:0:0:0:
216,246,142503,2,0,P|257:253|308:238,1,82.3333295644126,2|0,0:0|0:0,0:0:0:0:
342,175,142732,1,0,0:0:0:0:
468,246,142846,2,0,P|427:253|376:238,1,82.3333295644126,2|0,0:0|0:0,0:0:0:0:
342,175,143075,1,0,0:0:0:0:
342,298,143189,6,0,L|342:174,1,123.499994346619,2|0,0:0|3:0,0:0:0:0:
342,97,143446,1,0,3:0:0:0:
342,97,143532,6,0,P|387:112|412:144,1,82.3333295644126,2|0,0:0|0:0,0:0:0:0:
428,211,143760,1,0,0:0:0:0:
342,97,143875,2,0,P|297:112|272:144,1,82.3333295644126,2|0,0:0|0:0,0:0:0:0:
256,211,144103,1,0,0:0:0:0:
117,134,144217,6,2,L|276:138,1,158.333333333333,2|0,0:0|0:1,0:0:0:0:
63,190,144903,6,0,P|40:142|47:99,1,82.3333295644126,2|0,0:0|0:0,0:0:0:0:
51,29,145132,1,0,0:0:0:0:
117,134,145246,1,10,0:0:0:0:
168,32,145360,1,0,0:0:0:0:
51,29,145475,1,0,0:0:0:0:
234,137,145589,2,0,P|273:149|322:133,1,82.3333295644126,2|0,0:0|0:0,0:0:0:0:
383,84,145817,1,0,0:0:0:0:
234,137,145932,6,0,L|246:284,1,123.499994346619,10|0,0:0|3:0,0:0:0:0:
253,339,146189,1,0,3:0:0:0:
253,339,146275,6,0,L|335:309,1,82.3333295644126,2|0,0:0|0:0,0:0:0:0:
407,281,146503,1,0,0:0:0:0:
244,260,146617,2,0,L|326:230,1,82.3333295644126,10|0,0:0|0:0,0:0:0:0:
398,203,146845,1,0,0:0:0:0:
235,183,146960,2,0,L|317:153,1,82.3333295644126,2|0,0:0|0:0,0:0:0:0:
389,125,147188,1,0,0:0:0:0:
226,105,147303,1,10,0:0:0:0:
226,105,147646,5,2,0:0:0:0:
235,183,147760,1,0,0:0:0:0:
161,154,147875,1,0,0:0:0:0:
300,134,147989,2,0,L|395:141,1,82.3333295644126,10|0,0:0|0:0,0:0:0:0:
464,146,148217,1,0,0:0:0:0:
419,296,148332,2,0,P|412:256|421:216,1,82.3333295644126,2|0,0:0|0:0,0:0:0:0:
464,146,148560,1,0,0:0:0:0:
481,343,148675,6,0,L|346:338,1,123.499994346619,10|0,0:0|3:0,0:0:0:0:
282,334,148932,1,0,3:0:0:0:
282,334,149017,6,0,B|290:295|290:295|285:252,1,82.3333295644126,2|0,0:0|0:0,0:0:0:0:
255,172,149246,1,0,0:0:0:0:
206,291,149360,1,10,0:0:0:0:
285,253,149475,1,0,0:0:0:0:
175,207,149589,1,0,0:0:0:0:
363,168,149703,1,2,0:0:0:0:
363,168,150046,5,8,0:0:0:0:
206,291,150217,1,8,0:0:0:0:
206,291,150303,1,8,0:0:0:0:
206,291,150389,6,0,P|155:295|100:262,1,104.500003189087,6|0,0:0|0:0,0:0:0:0:
178,102,150732,2,0,L|174:206,1,104.500003189087,8|0,0:0|0:0,0:0:0:0:
315,362,151075,2,0,L|319:258,1,104.500003189087,8|0,0:0|0:0,0:0:0:0:
333,63,151417,1,8,0:0:0:0:
231,259,151589,1,0,0:0:0:0:
439,166,151760,6,0,P|384:152|327:164,1,104.500003189087,8|0,0:0|0:0,0:0:0:0:
262,342,152103,2,0,P|301:301|319:246,1,104.500003189087,8|0,0:0|0:0,0:0:0:0:
198,100,152446,2,0,P|213:154|252:197,1,104.500003189087,8|0,0:0|0:0,0:0:0:0:
333,63,152789,1,8,0:0:0:0:
336,66,153132,6,0,L|453:74,1,104.500003189087,8|0,0:0|0:0,0:0:0:0:
330,189,153475,2,0,P|330:240|349:289,1,104.500003189087,8|0,0:0|0:0,0:0:0:0:
496,210,153817,1,8,0:0:0:0:
496,210,153989,1,0,0:0:0:0:
330,189,154160,1,8,0:0:0:0:
353,370,154332,1,0,0:0:0:0:
159,277,154503,6,0,L|281:284,1,104.500003189087,8|0,0:0|0:0,0:0:0:0:
489,291,154846,2,0,L|367:284,1,104.500003189087,8|0,0:0|0:0,0:0:0:0:
148,254,155189,1,8,0:0:0:0:
151,257,155532,5,8,0:0:0:0:
305,192,155703,1,8,0:0:0:0:
143,112,155875,6,0,P|213:112|257:73,1,128.249996086121,12|0,0:0|1:0,0:0:0:0:
258,78,156217,2,0,B|293:80|293:80|305:84|305:84|349:83,1,85.4999973907472,0|0,1:0|1:0,0:0:0:0:
474,38,156560,2,0,P|465:81|474:130,1,85.4999973907472,0|0,1:0|1:0,0:0:0:0:
499,237,156903,2,0,L|405:232,1,85.4999973907472,0|0,1:0|1:0,0:0:0:0:
280,224,157246,6,0,P|283:259|281:296,1,71.2500027179719,0|0,1:0|1:0,0:0:0:0:
366,382,157589,2,0,P|363:347|365:310,1,71.2500027179719,0|0,1:0|1:0,0:0:0:0:
368,113,157932,2,0,P|345:167|203:167,1,213.750008153916,0|0,1:0|0:0,0:0:0:0:
272,99,158617,5,2,0:0:0:0:
376,286,158960,2,0,P|409:285|456:286,2,56.9999982604981,2|0|2,0:0|0:0|0:0,0:0:0:0:
207,172,159646,1,2,0:0:0:0:
436,194,159989,5,2,0:0:0:0:
140,226,160332,2,0,P|127:192|123:162,2,56.9999982604981,2|0|2,0:0|0:0|0:0,0:0:0:0:
347,366,160846,5,8,3:0:0:0:
358,318,160931,1,8,3:0:0:0:
347,269,161017,1,8,0:0:0:0:
176,325,161189,2,0,P|193:328|218:328,2,28.4999991302491,0|0|0,3:0|3:0|3:0,3:3:0:0:
57,230,161360,6,0,L|232:245,1,170.999994781494,6|0,0:0|0:0,0:0:0:0:
347,269,161703,2,0,L|225:258,1,113.999996520996,10|0,0:0|0:0,0:0:0:0:
32,247,162046,1,2,0:0:0:0:
161,71,162217,1,0,0:0:0:0:
161,71,162303,1,0,0:0:0:0:
161,71,162389,2,0,P|199:92|273:92,1,113.999996520996,10|0,0:0|0:0,0:0:0:0:
491,41,162732,5,2,0:0:0:0:
427,229,162903,1,0,0:0:0:0:
477,30,163075,1,10,0:0:0:0:
461,246,163246,1,0,0:0:0:0:
268,93,163417,2,0,P|361:93|392:216,1,227.999993041992,2|10,0:0|0:0,0:0:0:0:
255,348,163932,1,0,3:0:0:0:
255,348,164017,1,0,3:0:0:0:
255,348,164103,6,0,P|300:329|381:329,1,113.999996520996,2|0,0:0|0:0,0:0:0:0:
190,273,164446,1,10,0:0:0:0:
433,369,164617,1,0,0:0:0:0:
313,169,164789,2,0,L|191:172,1,113.999996520996,2|0,0:0|3:0,0:0:0:0:
107,215,165046,1,0,3:0:0:0:
107,215,165132,2,0,B|123:161|123:161|110:95,1,113.999996520996,10|0,0:0|0:0,0:0:0:0:
49,356,165475,6,0,L|172:352,1,113.999996520996,2|0,0:0|0:0,0:0:0:0:
394,326,165817,1,10,0:0:0:0:
190,273,165988,1,0,0:0:0:0:
428,250,166160,2,0,P|437:207|428:135,1,113.999996520996,2|0,0:0|0:0,0:0:0:0:
190,273,166503,2,0,P|181:230|190:158,1,113.999996520996,10|0,0:0|0:0,0:0:0:0:
369,22,166846,6,0,P|330:94|248:98,1,170.999994781494,2|0,0:0|0:0,0:0:0:0:
286,25,167189,1,10,0:0:0:0:
428,250,167360,1,0,0:0:0:0:
369,23,167532,1,2,0:0:0:0:
189,160,167703,1,0,0:0:0:0:
428,250,167875,2,0,B|441:197|441:197|427:135,1,113.999996520996,10|0,0:0|0:0,0:0:0:0:
256,338,168217,6,0,P|307:354|374:335,1,113.999996520996,2|0,0:0|3:0,0:0:0:0:
259,229,168475,1,0,3:0:0:0:
259,229,168560,2,0,P|243:280|262:347,1,113.999996520996,10|0,0:0|0:0,0:0:0:0:
488,196,168903,1,2,0:0:0:0:
212,145,169075,1,0,3:0:0:0:
212,145,169160,1,0,3:0:0:0:
212,145,169246,2,0,L|88:165,1,113.999996520996,10|0,0:0|0:0,0:0:0:0:
340,226,169589,6,0,P|359:174|358:101,1,113.999996520996,2|0,0:0|0:0,0:0:0:0:
108,34,169932,1,10,0:0:0:0:
259,229,170103,1,0,0:0:0:0:
390,28,170275,2,0,L|271:32,1,113.999996520996,2|0,0:0|3:0,0:0:0:0:
276,31,170532,1,0,3:0:0:0:
276,31,170617,1,10,0:0:0:0:
76,169,170789,1,0,0:0:0:0:
340,226,170960,6,0,P|345:283|342:344,1,113.999996520996,2|0,0:0|0:0,0:0:0:0:
220,139,171303,1,10,0:0:0:0:
441,284,171475,1,0,0:0:0:0:
178,220,171646,2,0,P|141:185|129:121,1,113.999996520996,2|0,0:0|0:0,0:0:0:0:
390,28,171989,1,10,0:0:0:0:
220,139,172160,1,2,0:0:0:0:
441,284,172332,6,0,P|396:252|455:231,1,128.249996086121,8|0,3:0|0:0,0:0:0:0:
446,312,172675,6,0,L|326:306,1,113.999996520996,6|0,0:0|0:0,0:0:0:0:
106,203,173017,1,2,0:0:0:0:
309,332,173189,1,0,0:0:0:0:
330,119,173360,2,0,B|273:119|273:119|219:138,1,113.999996520996,10|0,0:0|0:0,0:0:0:0:
441,284,173703,6,0,P|447:224|445:169,1,113.999996520996,2|0,0:0|0:0,0:0:0:0:
215,24,174046,2,0,P|213:80|219:137,1,113.999996520996,10|0,0:0|0:0,0:0:0:0:
309,332,174389,2,0,P|263:300|204:301,1,113.999996520996,2|0,0:0|3:0,0:0:0:0:
132,328,174646,1,0,3:0:0:0:
132,328,174732,1,10,0:0:0:0:
364,220,174903,1,0,0:0:0:0:
106,203,175075,6,0,P|101:154|113:82,1,113.999996520996,2|0,0:0|0:0,0:0:0:0:
358,258,175417,1,8,0:0:0:0:
115,247,175589,1,0,0:0:0:0:
359,107,175760,2,0,P|368:163|363:219,1,113.999996520996,2|0,0:0|3:0,0:0:0:0:
362,262,176017,1,0,3:0:0:0:
362,262,176103,2,0,P|413:251|474:266,1,113.999996520996,8|0,0:0|0:0,0:0:0:0:
250,348,176446,6,0,L|258:175,1,170.999994781494,2|0,0:0|0:0,0:0:0:0:
257,177,176789,1,10,0:0:0:0:
253,351,176960,1,0,0:0:0:0:
172,106,177132,2,0,P|208:78|287:70,1,113.999996520996,2|0,0:0|0:0,0:0:0:0:
472,265,177475,1,10,0:0:0:0:
383,29,177646,1,0,0:0:0:0:
341,298,177817,6,0,B|278:298|278:298|227:309|227:309|154:309,1,170.999994781494,2|0,0:0|0:0,0:0:0:0:
60,296,178160,2,0,B|102:296|102:296|131:308|131:308|171:308,1,113.999996520996,10|0,0:0|0:0,0:0:0:0:
372,298,178503,1,2,0:0:0:0:
153,229,178675,1,0,0:0:0:0:
370,185,178846,2,0,B|381:242|381:242|371:300,1,113.999996520996,10|0,0:0|0:0,0:0:0:0:
249,55,179189,6,0,L|375:60,1,113.999996520996,2|0,0:0|3:0,0:0:0:0:
453,65,179446,1,0,3:0:0:0:
453,65,179532,2,0,B|445:122|445:122|463:179,1,113.999996520996,10|0,0:0|0:0,0:0:0:0:
422,374,179875,1,2,0:0:0:0:
256,180,180046,1,0,3:0:0:0:
256,180,180132,1,0,3:0:0:0:
256,180,180217,2,0,L|375:185,1,113.999996520996,10|0,0:0|0:0,0:0:0:0:
143,350,180560,6,0,P|137:306|147:241,1,95,2|0,0:0|0:0,0:0:0:0:
187,49,180903,1,2,0:0:0:0:
256,180,181075,1,0,0:0:0:0:
73,124,181246,2,0,P|80:168|74:222,1,95,2|0,0:0|0:0,0:0:0:0:
258,273,181589,2,0,P|250:227|256:180,1,95,2|0,0:0|0:0,0:0:0:0:
382,127,181932,6,0,P|330:179|256:180,1,152,2|2,0:0|0:0,0:0:0:0:
187,49,182446,1,2,0:0:0:0:
293,90,182617,1,2,0:0:0:0:
256,192,182703,12,0,186732,0:0:0:0:
