osu file format v14

[General]
AudioFilename: w.mp3
AudioLeadIn: 0
PreviewTime: 37889
Countdown: 0
SampleSet: Soft
StackLeniency: 0.3
Mode: 0
LetterboxInBreaks: 0
WidescreenStoryboard: 0

[Editor]
Bookmarks: 139417
DistanceSpacing: 1.3
BeatDivisor: 4
GridSize: 32
TimelineZoom: 2

[Metadata]
Title:Well, That Was Awkward
TitleUnicode:Well, That Was Awkward
Artist:S3RL
ArtistUnicode:S3RL
Creator:DeRandom Otaku
Version:Akitoshi's Hard
Source:
Tags:Happy Hardcore Rave Emfa music Serl FCL Akitoshi EMFA089 dj corinn
BeatmapID:1538949
BeatmapSetID:660109

[Difficulty]
HPDrainRate:5
CircleSize:4
OverallDifficulty:6
ApproachRate:7.5
SliderMultiplier:1.4
SliderTickRate:1

[Events]
//Background and Video events
0,0,"BG.jpg",0,0
//Break Periods
2,34017,36592
2,92789,102935
//Storyboard Layer 0 (Background)
//Storyboard Layer 1 (Fail)
//Storyboard Layer 2 (Pass)
//Storyboard Layer 3 (Foreground)
//Storyboard Sound Samples

[TimingPoints]
11875,342.857142857143,4,2,1,20,1,0
11875,-125.0,4,2,1,20,0,0
17360,-100.0,4,2,69,45,0,0
17532,-100.0,4,2,69,23,0,0
17703,-111.111111111111,4,2,69,23,0,0
18732,-111.111111111111,4,2,69,27,0,0
19417,-111.111111111111,4,2,69,30,0,0
20103,-111.111111111111,4,2,69,34,0,0
20789,-111.111111111111,4,2,69,38,0,0
21475,-111.111111111111,4,2,69,40,0,0
22846,-100.0,4,2,69,40,0,0
28332,-100.0,4,2,69,40,0,0
31075,-100.0,4,2,69,37,0,0
32446,-100.0,4,2,69,33,0,0
33303,-100.0,4,2,69,30,0,0
33475,-100.0,4,2,69,27,0,0
33646,-100.0,4,2,69,24,0,0
33817,-100.0,4,2,69,20,0,0
37417,-100.0,4,2,69,40,0,0
37932,-90.9090909090909,4,2,69,70,0,1
42732,-100.0,4,2,69,70,0,0
43417,-90.9090909090909,4,2,69,70,0,1
47532,-100.0,4,2,69,50,0,0
48903,-76.9230769230769,4,2,69,75,0,1
48989,-76.9230769230769,4,2,69,30,0,0
49246,-90.9090909090909,4,2,69,70,0,1
53703,-100.0,4,2,69,70,0,0
54389,-76.9230769230769,4,2,69,70,0,1
54475,-76.9230769230769,4,2,69,30,0,0
54732,-90.9090909090909,4,2,69,70,0,1
58503,-100.0,4,2,69,50,0,0
59360,-100.0,4,2,69,60,0,0
59875,-90.9090909090909,4,2,69,74,0,1
69475,-100.0,4,2,69,45,0,0
70846,-90.9090909090909,4,2,69,74,0,1
70932,-90.9090909090909,4,2,69,74,0,0
71103,-90.9090909090909,4,2,69,5,0,0
71189,-90.9090909090909,4,2,69,74,0,0
71446,-90.9090909090909,4,2,69,5,0,0
71532,-90.9090909090909,4,2,69,74,0,0
71789,-90.9090909090909,4,2,69,5,0,0
71875,-90.9090909090909,4,2,69,74,0,0
72217,-90.9090909090909,4,2,69,74,0,1
80446,-100.0,4,2,69,40,0,0
80789,-100.0,4,2,69,30,0,0
81132,-100.0,4,2,69,22,0,0
81817,-111.111111111111,4,2,69,40,0,0
87303,-100.0,4,2,69,40,0,0
92446,-100.0,4,2,69,45,0,0
92789,-125.0,4,2,2,20,0,0
103760,-125.0,4,2,2,24,0,0
114046,-125.0,4,2,2,24,0,0
114732,-111.111111111111,4,2,1,27,0,0
120217,-111.111111111111,4,2,69,27,0,0
122960,-100.0,4,2,69,30,0,0
125360,-100.0,4,2,69,30,0,0
133932,-125.0,4,2,0,30,0,0
136675,-125.0,4,2,0,15,0,0
137017,-125.0,4,2,0,5,0,0
138732,-100.0,4,2,0,15,0,0
139417,-90.9090909090909,4,2,69,60,0,1
144217,-90.9090909090909,4,2,69,60,0,0
144903,-90.9090909090909,4,2,69,60,0,1
149703,-90.9090909090909,4,2,69,60,0,0
150046,-100.0,4,2,0,65,0,0
155875,-111.111111111111,4,2,0,58,0,0
157246,-111.111111111111,4,2,0,50,0,0
158617,-111.111111111111,4,2,0,30,0,0
158789,-111.111111111111,4,2,0,30,0,0
160846,-100.0,4,2,0,60,0,0
161360,-90.9090909090909,4,2,69,65,0,1
172332,-90.9090909090909,4,2,69,65,0,0
172675,-90.9090909090909,4,2,69,65,0,1
180560,-90.9090909090909,4,2,69,60,0,1
181932,-100.0,4,2,69,50,0,0
182275,-100.0,4,2,0,40,0,0
182789,-100.0,4,2,69,10,0,0

[Colours]
Combo1 : 128,128,255
Combo2 : 0,253,253
Combo3 : 255,0,255
Combo4 : 255,36,36

[HitObjects]
170,109,11875,6,0,L|39:121,2,112,2|2|2,0:0|0:0|0:0,0:0:0:0:
314,92,12903,1,2,0:0:0:0:
439,166,13246,2,0,P|450:227|442:280,2,112,2|2|2,0:0|0:0|0:0,0:0:0:0:
314,92,14274,1,2,0:0:0:0:
257,226,14617,6,0,L|273:356,2,112,0|2|2,0:0|0:0|0:0,0:0:0:0:
170,109,15646,1,2,0:0:0:0:
83,226,15989,2,0,L|67:356,2,112,2|2|2,0:0|0:0|0:0,0:0:0:0:
170,109,17017,1,0,0:0:0:0:
340,171,17360,6,0,L|419:166,1,70,12|0,0:0|0:0,0:0:0:0:
490,151,17703,2,0,P|496:92|466:19,2,125.999996154785,0|0|0,1:0|1:0|1:0,0:0:0:0:
365,258,18732,2,0,L|377:383,2,125.999996154785,0|0|0,1:0|1:0|1:0,0:0:0:0:
238,155,19760,1,0,1:0:0:0:
93,231,20103,6,0,B|75:293|75:293|99:366,1,125.999996154785,0|8,0:0|0:0,0:0:0:0:
239,275,20789,2,0,B|257:213|257:213|233:140,1,125.999996154785,8|8,0:0|0:0,0:0:0:0:
133,28,21475,2,0,L|54:32,1,62.9999980773926,8|0,0:0|0:0,0:0:0:0:
19,94,21817,2,0,P|10:142|19:203,1,94.499997116089,8|8,0:0|0:0,0:0:0:0:
26,223,22160,2,0,L|113:215,1,62.9999980773926,0|8,0:0|0:0,0:0:0:0:
175,148,22503,2,0,L|292:157,1,94.499997116089,10|0,0:0|0:0,0:0:0:0:
269,155,22846,5,14,0:0:0:0:
256,192,23189,12,0,27989,0:0:0:0:
225,71,28332,6,0,P|192:52|158:49,1,70,0|0,1:0|0:0,0:0:0:0:
166,140,28675,2,0,P|127:140|96:154,1,70,0|0,1:0|0:0,0:0:0:0:
148,229,29017,2,0,P|115:248|95:276,1,70,0|0,1:0|0:0,0:0:0:0:
176,315,29360,2,0,P|158:345|153:380,1,70,0|0,1:0|0:0,0:0:0:0:
244,376,29703,6,0,L|319:372,1,70,0|0,1:0|0:0,0:0:0:0:
346,286,30046,2,0,L|271:282,1,70,0|0,1:0|0:0,0:0:0:0:
244,196,30389,2,0,L|319:192,1,70,0|0,1:0|0:0,0:0:0:0:
346,106,30732,2,0,L|271:102,1,70,0|0,1:0|0:0,0:0:0:0:
211,37,31075,6,0,P|168:29|112:45,1,70,2|0,0:0|0:0,0:0:0:0:
67,83,31417,2,0,P|59:126|75:182,1,70,2|0,0:0|0:0,0:0:0:0:
127,215,31760,2,0,P|170:223|226:207,1,70,2|0,0:0|0:0,0:0:0:0:
272,171,32103,2,0,P|280:128|264:72,1,70,2|0,0:0|0:0,0:0:0:0:
313,18,32446,5,2,0:0:0:0:
403,7,32617,1,2,0:0:0:0:
456,80,32789,1,2,0:0:0:0:
421,164,32960,1,2,0:0:0:0:
366,91,33132,1,2,0:0:0:0:
330,174,33303,2,0,L|334:215,6,35,2|2|2|2|2|2|0,0:0|0:0|0:0|0:0|0:0|0:0|3:0,0:0:0:0:
330,174,37417,6,0,L|334:215,2,35,0|0|8,3:0|3:0|0:0,0:0:0:0:
274,101,37760,1,0,3:0:0:0:
274,101,37846,1,0,3:0:0:0:
274,101,37932,6,0,P|221:94|172:106,1,77.0000023498536,6|0,0:0|0:0,0:0:0:0:
115,154,38275,2,0,P|108:207|120:256,1,77.0000023498536,2|0,0:0|0:0,0:0:0:0:
157,323,38617,1,2,0:0:0:0:
157,323,38789,1,0,0:0:0:0:
257,323,38960,2,0,P|295:318|350:313,1,77.0000023498536,2|2,0:0|0:1,0:0:0:0:
436,298,39303,5,2,0:0:0:0:
436,298,39475,1,0,0:0:0:0:
494,216,39646,2,0,P|497:177|488:137,1,77.0000023498536,2|0,0:0|0:0,0:0:0:0:
398,97,39989,2,0,P|359:100|319:91,1,77.0000023498536,2|0,0:0|0:0,0:0:0:0:
242,31,40332,1,2,0:0:0:0:
122,191,40675,6,0,L|126:287,1,77.0000023498536,2|0,0:0|0:0,0:0:0:0:
217,306,41017,2,0,L|221:210,1,77.0000023498536,2|0,0:0|0:0,0:0:0:0:
312,185,41360,1,2,0:0:0:0:
312,185,41532,1,0,0:0:0:0:
366,268,41703,2,0,P|401:272|448:264,1,77.0000023498536,2|2,0:0|0:1,0:0:0:0:
502,185,42046,5,2,0:0:0:0:
502,185,42217,1,0,0:0:0:0:
423,122,42389,2,0,L|419:82|415:42,1,77.0000023498536,2|0,0:0|0:0,0:0:0:0:
330,11,42732,2,0,B|284:30|284:30|170:18,1,140,2|2,0:0|0:1,0:0:0:0:
103,8,43246,1,0,0:1:0:0:
120,114,43417,6,0,L|111:193,1,77.0000023498536,6|0,0:0|0:0,0:0:0:0:
31,251,43760,2,0,L|40:330,1,77.0000023498536,2|0,0:0|0:0,0:0:0:0:
134,375,44103,1,2,0:0:0:0:
134,375,44275,1,0,0:0:0:0:
207,307,44446,2,0,P|243:300|287:305,1,77.0000023498536,2|2,0:0|0:1,0:0:0:0:
378,349,44789,5,2,0:0:0:0:
378,349,44960,1,0,0:0:0:0:
474,322,45132,2,0,P|476:283|468:245,1,77.0000023498536,2|0,0:0|0:0,0:0:0:0:
373,214,45475,2,0,P|370:170|378:128,1,77.0000023498536,2|0,0:0|0:0,0:0:0:0:
400,41,45817,1,2,0:0:0:0:
304,11,45989,1,2,0:0:0:0:
214,55,46160,6,0,L|135:51,1,77.0000023498536,2|0,0:0|0:0,0:0:0:0:
41,44,46503,1,2,0:0:0:0:
41,44,46675,1,0,0:0:0:0:
0,138,46846,2,0,P|3:176|9:238,1,77.0000023498536,2|0,0:0|0:0,0:0:0:0:
98,255,47189,2,0,P|101:217|107:155,1,77.0000023498536,2|2,0:0|0:1,0:0:0:0:
185,136,47532,6,0,P|216:153|322:138,2,140,0|0|0,1:0|1:0|1:0,0:0:0:0:
171,45,48389,1,8,3:0:0:0:
171,45,48475,1,8,3:0:0:0:
171,45,48560,2,0,L|252:40,1,70,8|8,0:0|0:0,0:0:0:0:
363,21,48903,6,0,B|405:37|405:37|454:22,1,90.9999958343508,6|0,0:0|0:0,0:0:0:0:
507,105,49246,2,0,P|504:144|500:186,1,77.0000023498536,10|0,0:0|3:0,0:0:0:0:
423,247,49589,1,2,0:0:0:0:
423,247,49760,1,0,3:0:0:0:
339,191,49932,2,0,P|298:188|260:197,1,77.0000023498536,10|2,0:0|0:1,0:0:0:0:
176,246,50275,5,2,0:0:0:0:
89,196,50446,2,0,P|81:159|88:119,2,77.0000023498536,0|10|0,0:0|0:0|0:0,0:0:0:0:
181,156,50960,2,0,P|189:119|182:79,1,77.0000023498536,2|0,0:0|0:0,0:0:0:0:
120,1,51303,1,10,0:0:0:0:
89,196,51646,6,0,B|76:233|76:233|88:277,1,77.0000023498536,6|0,0:0|0:0,0:0:0:0:
121,363,51989,2,0,P|158:356|203:351,1,77.0000023498536,10|0,0:0|0:0,0:0:0:0:
297,348,52332,1,2,0:0:0:0:
297,348,52503,1,0,0:0:0:0:
348,261,52675,2,0,P|355:222|346:181,1,77.0000023498536,10|2,0:0|0:1,0:0:0:0:
279,122,53017,5,2,0:0:0:0:
279,122,53189,1,0,0:0:0:0:
352,54,53360,2,0,L|434:57,1,77.0000023498536,10|0,0:0|0:0,0:0:0:0:
489,125,53703,2,0,B|501:195|455:186|473:272,1,140,2|2,0:0|0:1,0:0:0:0:
491,350,54217,1,2,0:1:0:0:
375,345,54389,6,0,B|332:358|332:358|286:345,1,90.9999958343508,2|0,0:1|0:0,0:0:0:0:
218,272,54732,2,0,P|213:220|210:189,1,77.0000023498536,12|0,0:0|3:0,0:0:0:0:
203,99,55075,1,2,0:0:0:0:
203,99,55246,1,0,3:0:0:0:
113,145,55417,2,0,P|101:184|109:236,1,77.0000023498536,10|2,0:0|0:1,0:0:0:0:
129,316,55760,5,2,0:0:0:0:
218,272,55932,2,0,L|305:278,2,77.0000023498536,0|10|0,3:0|0:0|3:0,0:0:0:0:
218,171,56446,2,0,L|294:165,1,77.0000023498536,2|0,0:0|3:0,0:0:0:0:
394,156,56789,1,10,0:0:0:0:
464,85,56960,1,2,0:0:0:0:
395,12,57132,6,0,B|357:6|357:6|311:12,1,77.0000023498536,2|0,0:0|3:0,0:0:0:0:
233,63,57475,2,0,L|156:57,1,77.0000023498536,10|0,0:0|3:0,0:0:0:0:
70,108,57817,1,2,0:0:0:0:
70,108,57989,1,0,3:0:0:0:
116,196,58160,2,0,L|193:190,1,77.0000023498536,10|2,0:0|0:1,0:0:0:0:
281,168,58503,6,0,P|317:146|419:157,2,140,0|0|0,1:0|1:0|1:0,0:0:0:0:
213,229,59360,2,0,L|175:226,2,35,8|8|8,3:0|3:0|0:0,0:0:0:0:
258,321,59703,1,0,3:0:0:0:
258,321,59789,1,0,3:0:0:0:
258,321,59875,6,0,L|162:330,1,77.0000023498536,6|0,0:0|0:0,0:0:0:0:
87,293,60217,2,0,P|78:253|92:207,1,77.0000023498536,10|0,0:0|0:0,0:0:0:0:
146,139,60560,2,0,L|139:13,2,115.50000352478,2|0|0,0:0|0:0|0:0,0:0:0:0:
227,197,61246,6,0,P|286:168|376:180,1,154.000004699707,2|10,0:0|0:0,0:0:0:0:
458,228,61760,1,0,0:0:0:0:
416,319,61932,2,0,L|335:323,1,77.0000023498536,2|0,0:0|0:0,0:0:0:0:
245,360,62275,2,0,L|164:356,1,77.0000023498536,10|0,0:0|0:0,0:0:0:0:
68,348,62617,6,0,B|60:309|60:309|73:265,1,77.0000023498536,2|0,0:0|0:0,0:0:0:0:
112,182,62960,2,0,L|104:100,1,77.0000023498536,10|0,0:0|0:0,0:0:0:0:
170,29,63303,2,0,P|230:24|290:68,2,115.50000352478,2|0|0,0:0|0:0|0:0,0:0:0:0:
207,121,63989,6,0,P|281:91|356:115,1,154.000004699707,2|10,0:0|0:0,0:0:0:0:
411,189,64503,1,0,0:0:0:0:
411,289,64675,2,0,L|492:281,2,77.0000023498536,2|0|10,0:0|0:0|0:0,0:0:0:0:
325,341,65189,1,0,0:0:0:0:
252,271,65360,6,0,B|241:233|241:233|250:183,1,77.0000023498536,2|0,0:0|0:0,0:0:0:0:
258,98,65703,2,0,P|210:88|158:96,1,77.0000023498536,10|0,0:0|0:0,0:0:0:0:
95,141,66046,2,0,P|81:91|104:26,2,115.50000352478,2|0|0,0:0|0:0|0:0,0:0:0:0:
157,219,66732,6,0,B|235:202|230:252|311:233,1,154.000004699707,2|10,0:0|0:0,0:0:0:0:
393,182,67246,1,0,0:0:0:0:
482,225,67417,2,0,B|508:254|508:254|512:319|478:371,1,154.000004699707,2|10,0:0|0:0,0:0:0:0:
382,378,67932,1,0,0:0:0:0:
292,332,68103,6,0,B|245:329|245:329|212:338,1,77.0000023498536,2|0,0:0|0:0,0:0:0:0:
116,349,68446,2,0,P|118:303|121:268,1,77.0000023498536,10|0,0:0|0:0,0:0:0:0:
127,171,68789,2,0,P|73:151|16:158,2,115.50000352478,2|0|0,0:0|0:0|0:0,0:0:0:0:
201,224,69475,6,0,P|228:184|234:87,1,140,4|0,0:0|0:0,0:0:0:0:
292,21,69989,1,0,0:0:0:0:
292,21,70160,2,0,P|339:34|374:34,1,70,0|0,0:0|0:0,0:0:0:0:
450,21,70503,1,0,0:0:0:0:
488,217,70846,6,0,L|345:201,1,115.50000352478,2|0,0:0|0:0,0:0:0:0:
351,181,71189,2,0,L|208:197,1,115.50000352478,2|0,0:0|0:0,0:0:0:0:
206,203,71532,2,0,P|184:144|190:93,1,115.50000352478,2|0,0:0|0:0,0:0:0:0:
207,67,71875,1,2,0:0:0:0:
13,19,72217,6,0,L|23:111,1,77.0000023498536,6|0,0:0|0:0,0:0:0:0:
96,162,72560,2,0,L|86:254,1,77.0000023498536,10|0,0:0|0:0,0:0:0:0:
77,341,72903,1,2,0:0:0:0:
77,341,73075,1,0,0:0:0:0:
172,369,73246,2,0,P|225:361|256:359,1,77.0000023498536,10|0,0:0|0:0,0:0:0:0:
348,347,73589,6,0,B|354:295|354:295|338:253,1,77.0000023498536,2|0,0:0|0:0,0:0:0:0:
267,208,73932,2,0,B|261:156|261:156|277:114,1,77.0000023498536,10|0,0:0|0:0,0:0:0:0:
298,36,74275,2,0,P|242:25|177:16,2,115.50000352478,2|0|0,0:0|0:0|0:0,0:0:0:0:
398,64,74960,5,2,0:0:0:0:
398,64,75132,1,0,0:0:0:0:
458,143,75303,2,0,P|467:181|454:231,1,77.0000023498536,10|0,0:0|0:0,0:0:0:0:
393,292,75646,2,0,L|400:385,2,77.0000023498536,2|0|10,0:0|0:0|0:0,0:0:0:0:
312,231,76160,1,0,0:0:0:0:
223,277,76332,6,0,B|185:284|185:284|138:278,1,77.0000023498536,2|0,0:0|0:0,0:0:0:0:
65,220,76675,2,0,B|58:182|58:182|64:135,1,77.0000023498536,10|0,0:0|0:0,0:0:0:0:
114,58,77017,2,0,P|58:44|1:65,2,115.50000352478,2|0|0,0:0|0:0|0:0,0:0:0:0:
196,115,77703,6,0,B|239:106|239:106|295:120|295:120|350:108,1,154.000004699707,2|10,0:0|0:0,0:0:0:0:
450,96,78217,1,0,0:0:0:0:
499,183,78389,2,0,P|505:223|499:265,1,77.0000023498536,2|0,0:0|0:0,0:0:0:0:
403,285,78732,1,10,0:0:0:0:
403,285,78903,1,0,0:0:0:0:
316,232,79075,6,0,B|274:226|274:226|239:233,1,77.0000023498536,2|0,0:0|0:0,0:0:0:0:
148,271,79417,2,0,P|143:234|139:189,1,77.0000023498536,10|0,0:0|0:0,0:0:0:0:
132,94,79760,2,0,P|183:76|253:93,2,115.50000352478,2|2|2,0:0|0:1|0:1,0:0:0:0:
54,142,80446,6,0,L|50:190,3,35,6|2|2|2,0:0|0:0|0:0|0:0,0:0:0:0:
30,217,80789,2,0,L|34:265,3,35,0|0|0|0,0:0|0:0|0:0|0:0,0:0:0:0:
53,292,81132,6,0,P|82:295|92:295,3,35,2|2|2|2,0:0|0:0|0:0|0:0,0:0:0:0:
130,278,81475,2,0,P|159:275|169:275,3,35,2|2|2|2,1:2|1:2|1:2|1:2,0:0:0:0:
202,290,81817,6,0,L|283:285,1,62.9999980773926,6|0,0:0|0:0,0:0:0:0:
332,239,82160,2,0,P|368:251|460:243,2,125.999996154785,0|0|0,1:0|1:0|1:0,0:0:0:0:
184,166,83189,6,0,L|46:177,1,125.999996154785,0|0,1:0|1:0,0:0:0:0:
112,331,83875,2,0,L|250:320,1,125.999996154785,0|0,1:0|1:0,0:0:0:0:
399,297,84560,6,0,P|409:225|386:169,1,125.999996154785,0|0,1:0|1:0,0:0:0:0:
286,49,85246,2,0,P|214:39|158:62,1,125.999996154785,0|0,1:0|1:0,0:0:0:0:
69,190,85932,1,0,1:0:0:0:
142,336,86275,1,0,1:0:0:0:
305,336,86617,1,0,1:0:0:0:
391,196,86960,1,0,1:0:0:0:
286,49,87303,6,0,L|164:58,2,105,0|0|0,1:0|0:0|0:0,0:0:0:0:
377,43,87989,2,0,P|418:55|449:73,1,70,0|0,0:0|0:0,0:0:0:0:
404,151,88332,2,0,P|427:175|445:206,1,70,0|0,0:0|0:0,0:0:0:0:
390,279,88675,5,0,0:0:0:0:
256,192,88846,12,0,92275,0:0:0:0:
348,180,103760,6,0,P|293:159|225:170,1,112,2|2,0:0|0:0,0:0:0:0:
124,252,104446,2,0,L|127:320,2,56,2|0|2,0:0|0:0|0:0,0:0:0:0:
22,147,105132,2,0,L|32:23,1,112,2|2,0:0|0:0,0:0:0:0:
175,21,105817,2,0,P|207:50|342:47,1,168,2|0,0:0|0:0,0:0:0:0:
407,32,106503,6,0,L|415:158,1,112,2|2,0:0|0:0,0:0:0:0:
474,211,107017,1,0,0:0:0:0:
474,211,107189,2,0,L|466:337,1,112,2|2,0:0|0:0,0:0:0:0:
320,329,107875,2,0,P|283:308|210:305,1,112,2|2,0:0|0:0,0:0:0:0:
133,325,108389,1,0,0:0:0:0:
133,325,108560,2,0,B|103:239|157:239|128:155,1,168,2|0,0:0|0:0,0:0:0:0:
69,101,109246,6,0,P|119:110|174:84,1,112,2|2,0:0|0:0,0:0:0:0:
301,16,109932,2,0,L|375:13,2,56,2|0|2,0:0|0:0|0:0,0:0:0:0:
173,85,110617,2,0,P|162:144|180:202,1,112,2|2,0:0|0:0,0:0:0:0:
317,223,111303,2,0,P|375:204|475:268,1,168,2|0,0:0|0:0,0:0:0:0:
469,334,111989,6,0,L|353:340,1,112,2|2,0:0|0:0,0:0:0:0:
280,366,112503,1,0,0:0:0:0:
280,366,112675,2,0,L|164:360,1,112,2|2,0:0|0:0,0:0:0:0:
40,289,113360,6,0,P|28:234|47:164,1,112,2|2,0:0|0:0,0:0:0:0:
102,124,113875,1,0,0:0:0:0:
102,124,114046,2,0,P|179:149|268:103,1,168,2|0,0:0|0:0,0:0:0:0:
304,49,114732,6,0,L|432:57,2,125.999996154785,2|2|2,0:0|0:0|1:2,0:0:0:0:
141,30,115760,1,2,0:0:0:0:
50,166,116103,2,0,P|34:226|45:297,2,125.999996154785,2|2|2,0:0|0:0|1:2,0:0:0:0:
141,30,117132,1,2,0:0:0:0:
258,143,117475,6,0,B|320:135|320:175|394:166,1,125.999996154785,2|2,0:0|0:0,0:0:0:0:
503,275,118160,2,0,B|441:267|441:307|367:298,1,125.999996154785,2|2,1:2|0:0,0:0:0:0:
218,279,118846,2,0,P|160:302|84:285,2,125.999996154785,2|2|2,0:0|0:0|1:2,0:0:0:0:
322,155,119875,1,2,0:0:0:0:
203,42,120217,6,0,L|130:46,1,62.9999980773926,12|0,0:0|0:0,0:0:0:0:
63,75,120560,2,0,B|42:135|80:135|59:205,2,125.999996154785,0|0|0,1:0|1:0|1:0,0:0:0:0:
187,182,121589,1,0,1:0:0:0:
126,334,121932,2,0,P|63:339|0:346,2,125.999996154785,0|0|0,1:0|1:0|1:0,0:0:0:0:
307,317,122960,6,0,P|348:317|393:300,1,70,0|0,1:0|0:0,0:0:0:0:
326,231,123303,2,0,P|361:210|391:173,1,70,0|0,1:0|0:0,0:0:0:0:
302,144,123646,2,0,P|322:108|330:61,1,70,0|0,1:0|0:0,0:0:0:0:
238,83,123989,2,0,P|237:41|220:-2,1,70,0|0,1:0|0:0,0:0:0:0:
138,13,124332,5,8,0:0:0:0:
138,13,124503,1,0,0:0:0:0:
80,83,124675,2,0,L|87:153,1,70,8|0,0:0|0:0,0:0:0:0:
164,199,125017,2,0,L|157:269,1,70,8|0,0:0|0:0,0:0:0:0:
119,351,125360,2,0,B|79:355|79:355|44:349,1,70,14|0,0:0|0:0,0:0:0:0:
7,268,125703,5,6,0:0:0:0:
256,192,125789,12,0,133246,0:0:0:0:
251,253,133932,6,0,P|165:233|104:281,1,168,2|0,0:0|0:0,0:0:0:0:
71,354,134617,2,0,L|58:186,1,168,2|0,0:0|0:0,0:0:0:0:
58,102,135303,6,0,B|115:73|187:105|187:105|248:135|337:107|337:107|285:80|261:24,1,392,2|0,0:0|0:0,0:0:0:0:
256,192,136675,12,2,138960,0:1:0:0:
348,170,139417,6,0,L|216:175,1,102.666669799805,2|0,0:0|0:0,0:0:0:0:
183,220,139760,2,0,L|51:215,1,102.666669799805,2|0,0:0|0:0,0:0:0:0:
24,161,140103,2,0,P|14:103|28:59,1,102.666669799805,2|0,0:0|0:0,0:0:0:0:
86,13,140446,1,2,0:0:0:0:
239,51,140675,1,0,0:0:0:0:
239,51,140789,6,0,L|356:43,1,102.666669799805,2|0,0:0|0:0,0:0:0:0:
416,63,141132,2,0,P|408:120|408:172,1,102.666669799805,2|0,0:0|0:0,0:0:0:0:
467,213,141475,2,0,P|475:270|475:322,1,102.666669799805,2|0,0:0|0:0,0:0:0:0:
424,373,141817,1,2,0:0:0:0:
275,195,142160,6,0,P|217:193|171:218,1,102.666669799805,2|0,0:0|0:0,0:0:0:0:
120,263,142503,2,0,P|73:242|22:245,1,102.666669799805,2|0,0:0|0:0,0:0:0:0:
9,322,142846,2,0,P|55:342|106:339,1,102.666669799805,2|0,0:0|0:0,0:0:0:0:
179,314,143189,1,2,0:0:0:0:
275,195,143417,1,0,0:0:0:0:
275,195,143532,6,0,L|268:81,1,102.666669799805,2|0,0:0|0:0,0:0:0:0:
213,37,143875,2,0,P|165:24|86:45,1,102.666669799805,2|0,0:0|0:0,0:0:0:0:
59,86,144217,6,0,B|52:133|52:133|66:176|66:176|57:238|57:238|90:181|146:181,1,256.666674499512,2|0,0:0|0:1,0:0:0:0:
212,196,144903,6,0,L|210:261,2,51.3333348999024,2|0|0,0:0|0:0|0:0,0:0:0:0:
254,131,145246,2,0,P|310:123|361:145,1,102.666669799805,10|0,0:0|0:0,0:0:0:0:
395,202,145589,2,0,P|451:194|502:216,1,102.666669799805,2|0,0:0|0:0,0:0:0:0:
512,285,145932,1,10,0:0:0:0:
374,354,146160,1,0,0:0:0:0:
374,354,146275,6,0,L|229:339,1,102.666669799805,2|0,0:0|0:0,0:0:0:0:
211,295,146617,2,0,L|66:310,1,102.666669799805,10|0,0:0|0:0,0:0:0:0:
32,316,146960,2,0,P|17:262|26:206,1,102.666669799805,2|0,0:0|0:0,0:0:0:0:
52,144,147303,1,10,0:0:0:0:
271,70,147646,6,0,L|266:8,2,51.3333348999024,2|0|0,0:0|0:0|0:0,0:0:0:0:
313,134,147989,2,0,P|363:124|416:139,1,102.666669799805,10|0,0:0|0:0,0:0:0:0:
463,194,148332,2,0,P|473:244|458:297,1,102.666669799805,2|0,0:0|0:0,0:0:0:0:
408,350,148675,1,10,0:0:0:0:
272,277,148903,1,0,0:0:0:0:
272,277,149017,6,0,L|157:280,1,102.666669799805,2|0,0:0|0:0,0:0:0:0:
92,284,149360,2,0,P|73:225|80:175,1,102.666669799805,10|0,0:0|0:0,0:0:0:0:
126,125,149703,1,2,0:0:0:0:
272,277,150046,1,8,0:0:0:0:
332,209,150217,1,8,0:0:0:0:
332,209,150303,1,8,0:0:0:0:
332,209,150389,6,0,B|347:140|298:131|322:57,1,140,6|8,0:0|0:0,0:0:0:0:
240,23,150903,1,0,0:0:0:0:
240,23,151075,2,0,L|147:28,1,70,8|0,0:0|0:0,0:0:0:0:
94,77,151417,1,8,0:0:0:0:
138,156,151589,6,0,P|147:186|154:228,2,70,0|8|0,0:0|0:0|0:0,0:0:0:0:
46,156,152103,2,0,P|37:186|30:228,1,70,8|0,0:0|0:0,0:0:0:0:
47,313,152446,2,0,P|78:313|120:309,1,70,8|0,0:0|0:0,0:0:0:0:
207,296,152789,1,8,0:0:0:0:
332,164,153132,6,0,B|406:157|399:203|478:193,1,140,8|8,0:0|0:0,0:0:0:0:
507,112,153646,1,0,0:0:0:0:
507,112,153817,2,0,P|497:63|488:41,1,70,8|0,0:0|0:0,0:0:0:0:
403,13,154160,1,8,0:0:0:0:
322,56,154332,6,0,P|272:54|248:49,2,70,0|8|0,0:0|0:0|0:0,0:0:0:0:
396,109,154846,2,0,P|400:169|402:194,1,70,8|0,0:0|0:0,0:0:0:0:
471,236,155189,2,0,P|467:296|465:321,1,70,8|0,0:0|0:0,0:0:0:0:
398,366,155532,1,8,0:0:0:0:
307,372,155703,1,8,0:0:0:0:
247,302,155875,6,0,P|196:309|119:301,2,125.999996154785,12|0|0,0:0|1:0|1:0,0:0:0:0:
305,244,156732,1,0,1:0:0:0:
305,244,156903,2,0,L|301:175,1,62.9999980773926,0|0,1:0|1:0,0:0:0:0:
282,101,157246,6,0,P|224:94|132:87,1,125.999996154785,0|0,1:0|1:0,0:0:0:0:
49,213,157932,2,0,P|107:206|199:199,1,125.999996154785,0|0,1:0|0:0,0:0:0:0:
336,220,158617,5,2,0:0:0:0:
465,120,158960,2,0,L|455:52,2,62.9999980773926,2|0|2,0:0|0:0|0:0,0:0:0:0:
486,282,159646,1,2,0:0:0:0:
336,220,159989,5,2,0:0:0:0:
267,369,160332,2,0,L|182:358,1,62.9999980773926,2|0,0:0|0:0,0:0:0:0:
123,350,160675,1,2,0:0:0:0:
63,291,160846,2,0,L|18:297,2,35,8|8|8,3:0|3:0|0:0,0:0:0:0:
127,226,161189,1,0,3:0:0:0:
127,226,161275,1,0,3:0:0:0:
127,226,161360,6,0,P|133:182|121:125,1,77.0000023498536,6|0,0:0|0:0,0:0:0:0:
112,50,161703,2,0,L|195:46,1,77.0000023498536,10|0,0:0|0:0,0:0:0:0:
293,40,162046,1,2,0:0:0:0:
293,40,162217,1,0,0:0:0:0:
368,105,162389,2,0,P|378:146|374:190,1,77.0000023498536,10|0,0:0|0:0,0:0:0:0:
299,245,162732,6,0,P|361:225|443:271,1,154.000004699707,2|10,0:0|0:0,0:0:0:0:
474,361,163246,1,0,0:0:0:0:
474,361,163417,2,0,L|390:356,1,77.0000023498536,2|0,0:0|0:0,0:0:0:0:
297,344,163760,2,0,L|213:349,1,77.0000023498536,10|0,0:0|3:0,0:0:0:0:
120,356,164103,6,0,P|110:317|117:271,1,77.0000023498536,2|0,0:0|0:0,0:0:0:0:
177,203,164446,1,10,0:0:0:0:
177,203,164617,1,0,0:0:0:0:
114,124,164789,2,0,L|28:120,1,77.0000023498536,2|0,0:0|3:0,0:0:0:0:
3,25,165132,2,0,L|89:21,1,77.0000023498536,10|0,0:0|0:0,0:0:0:0:
179,10,165475,6,0,L|265:14,1,77.0000023498536,2|0,0:0|0:0,0:0:0:0:
334,84,165817,1,10,0:0:0:0:
334,84,165989,1,0,0:0:0:0:
263,154,166160,2,0,P|239:233|267:307,1,154.000004699707,2|10,0:0|0:0,0:0:0:0:
338,362,166675,1,0,0:0:0:0:
437,350,166846,6,0,P|440:313|446:266,1,77.0000023498536,2|0,0:0|0:0,0:0:0:0:
499,189,167189,2,0,P|496:152|490:105,1,77.0000023498536,10|0,0:0|0:0,0:0:0:0:
417,44,167532,1,2,0:0:0:0:
417,44,167703,1,0,0:0:0:0:
334,101,167875,2,0,P|294:99|251:95,1,77.0000023498536,10|0,0:0|0:0,0:0:0:0:
164,57,168217,6,0,B|99:31|45:64|45:64|80:100,2,154.000004699707,2|10|2,0:0|0:0|0:0,0:0:0:0:
257,95,169075,1,0,3:0:0:0:
202,178,169246,2,0,P|206:217|211:262,1,77.0000023498536,10|0,0:0|0:0,0:0:0:0:
305,285,169589,6,0,P|309:246|313:208,1,77.0000023498536,2|0,0:0|0:0,0:0:0:0:
385,138,169932,1,10,0:0:0:0:
385,138,170103,1,0,0:0:0:0:
474,184,170275,2,0,P|491:224|491:271,1,77.0000023498536,2|0,0:0|3:0,0:0:0:0:
458,350,170617,2,0,P|414:356|369:343,1,77.0000023498536,10|0,0:0|0:0,0:0:0:0:
305,285,170960,6,0,P|261:278|216:291,1,77.0000023498536,2|0,0:0|0:0,0:0:0:0:
143,334,171303,1,10,0:0:0:0:
143,334,171475,1,0,0:0:0:0:
61,276,171646,2,0,L|66:191,1,77.0000023498536,2|0,0:0|0:0,0:0:0:0:
126,119,171989,1,10,0:0:0:0:
126,119,172160,1,2,0:0:0:0:
221,149,172332,2,0,P|272:169|330:149,1,115.50000352478,8|0,3:0|0:0,0:0:0:0:
327,150,172675,6,0,L|315:49,1,77.0000023498536,6|0,0:0|0:0,0:0:0:0:
240,11,173017,1,2,0:0:0:0:
166,78,173189,1,0,0:0:0:0:
92,10,173360,2,0,P|50:12|11:30,1,77.0000023498536,10|0,0:0|0:0,0:0:0:0:
3,124,173703,6,0,L|15:279,1,154.000004699707,2|10,0:0|0:0,0:0:0:0:
52,370,174217,1,0,0:0:0:0:
142,324,174389,2,0,L|153:170,1,154.000004699707,2|10,0:0|0:0,0:0:0:0:
223,99,174903,1,0,0:0:0:0:
297,166,175075,6,0,L|396:158,1,77.0000023498536,2|0,0:0|0:0,0:0:0:0:
471,178,175417,1,8,0:0:0:0:
478,278,175589,1,0,0:0:0:0:
381,304,175760,2,0,P|340:314|284:303,1,77.0000023498536,2|0,0:0|3:0,0:0:0:0:
239,235,176103,2,0,P|198:225|142:236,1,77.0000023498536,8|0,0:0|0:0,0:0:0:0:
65,249,176446,6,0,L|71:342,1,77.0000023498536,2|0,0:0|0:0,0:0:0:0:
156,376,176789,1,10,0:0:0:0:
255,373,176960,1,0,0:0:0:0:
324,300,177132,2,0,B|402:286|400:336|479:319,1,154.000004699707,2|10,0:0|0:0,0:0:0:0:
508,225,177646,1,0,0:0:0:0:
461,136,177817,6,0,L|453:47,1,77.0000023498536,2|0,0:0|0:0,0:0:0:0:
356,34,178160,2,0,L|348:123,1,77.0000023498536,10|0,0:0|0:0,0:0:0:0:
308,202,178503,1,2,0:0:0:0:
208,214,178675,1,0,0:0:0:0:
129,152,178846,2,0,P|76:150|45:160,1,77.0000023498536,10|0,0:0|0:0,0:0:0:0:
17,250,179189,6,0,B|35:364|35:364|58:330,2,154.000004699707,2|10|2,0:0|0:0|0:0,0:0:0:0:
53,156,180046,1,0,3:0:0:0:
101,68,180217,2,0,P|139:58|187:62,1,77.0000023498536,10|0,0:0|0:0,0:0:0:0:
257,121,180560,6,0,B|307:97|307:97|413:109,1,154.000004699707,2|2,0:0|0:0,0:0:0:0:
480,175,181075,1,0,0:0:0:0:
450,270,181246,2,0,P|400:279|367:272,1,77.0000023498536,2|0,0:0|0:0,0:0:0:0:
277,248,181589,2,0,P|227:239|194:246,1,77.0000023498536,2|0,0:0|0:0,0:0:0:0:
117,278,181932,6,0,L|108:196,1,70,2|0,0:0|0:0,0:0:0:0:
101,117,182275,1,2,0:0:0:0:
179,70,182446,1,2,0:0:0:0:
266,93,182617,1,2,0:0:0:0:
256,192,182789,12,0,186732,0:0:0:0:
