osu file format v14

[General]
AudioFilename: audio.mp3
AudioLeadIn: 0
PreviewTime: 83826
Countdown: 0
SampleSet: Normal
StackLeniency: 0.7
Mode: 0
LetterboxInBreaks: 0
WidescreenStoryboard: 1

[Editor]
DistanceSpacing: 1.5
BeatDivisor: 4
GridSize: 4
TimelineZoom: 1.3

[Metadata]
Title:Tell Me What You Want (feat. Tamika)
TitleUnicode:Tell Me What You Want (feat. Tamika)
Artist:S3RL
ArtistUnicode:S3RL
Creator:alacat
Version:Expert
Source:
Tags:osu! featured artist Jole Hughes Miller techno happy hardcore electro
BeatmapID:1400617
BeatmapSetID:661612

[Difficulty]
HPDrainRate:7
CircleSize:4.2
OverallDifficulty:8
ApproachRate:9
SliderMultiplier:2
SliderTickRate:1

[Events]
//Background and Video events
0,0,"BG.jpg",0,0
//Break Periods
//Storyboard Layer 0 (Background)
//Storyboard Layer 1 (Fail)
//Storyboard Layer 2 (Pass)
//Storyboard Layer 3 (Foreground)
//Storyboard Sound Samples

[TimingPoints]
670,375,4,2,1,40,1,0
11170,-142.857142857143,4,2,1,40,0,0
24670,-125,4,1,1,40,0,0
36670,-125,4,1,1,50,0,0
57670,-100,4,1,1,50,0,0
58420,-76.9230769230769,4,1,1,60,0,0
59170,-100,4,1,1,70,0,0
60670,-100,4,1,1,60,0,0
71920,-125,4,1,1,60,0,0
72670,-100,4,1,1,60,0,0
78670,-100,4,1,1,60,0,0
84295,-100,4,2,1,40,0,0
84670,-83.3333333333333,4,1,1,70,0,1
95170,-83.3333333333333,4,1,1,60,0,0
95545,-83.3333333333333,4,1,1,50,0,0
95920,-83.3333333333333,4,1,1,40,0,0
96295,-83.3333333333333,4,1,1,30,0,0
96670,-83.3333333333333,4,1,1,70,0,1
107170,-83.3333333333333,4,1,1,50,0,1
108670,-100,4,1,1,70,0,0

[Colours]
Combo1 : 255,255,140
Combo2 : 255,140,198
Combo3 : 255,169,128
Combo4 : 191,128,255

[HitObjects]
308,176,11920,6,0,B|316:140|316:140|312:108,1,69.9999978637696,2|0,0:0|0:0,0:0:0:0:
220,40,12295,2,0,B|212:76|212:76|216:108,1,69.9999978637696,2|0,0:0|0:0,0:0:0:0:
284,256,12670,5,4,0:3:0:0:
488,208,13045,1,0,0:0:0:0:
408,288,13232,2,0,B|353:277|353:277|323:283|323:283|268:273,1,139.999995727539,2|0,0:0|0:0,0:0:0:0:
160,248,13795,1,2,0:0:0:0:
312,196,13982,1,0,0:0:0:0:
320,364,14170,2,0,L|250:351,1,69.9999978637696,2|0,0:0|0:0,0:0:0:0:
4,232,14732,5,0,0:0:0:0:
88,196,14920,1,2,0:0:0:0:
76,284,15107,1,0,0:0:0:0:
12,144,15295,1,2,0:0:0:0:
76,284,15482,1,0,0:0:0:0:
228,188,15670,6,0,B|176:172|176:172|124:172,1,104.999996795654,2|0,0:0|0:0,0:0:0:0:
88,196,16045,1,0,0:0:0:0:
200,328,16232,2,0,L|344:308,1,139.999995727539,2|0,0:0|0:0,0:0:0:0:
464,224,16795,1,2,0:0:0:0:
348,336,16982,1,0,0:0:0:0:
484,240,17170,2,0,L|496:168,1,69.9999978637696,2|0,0:0|0:0,0:0:0:0:
328,220,17545,1,0,0:0:0:0:
328,220,17732,1,0,0:0:0:0:
448,332,17920,6,0,L|460:260,1,69.9999978637696,2|0,0:0|0:0,0:0:0:0:
388,168,18295,2,0,L|400:96,1,69.9999978637696,2|0,0:0|0:0,0:0:0:0:
484,240,18670,2,0,B|388:252|388:252|348:276,1,139.999995727539,2|0,0:0|0:0,0:0:0:0:
160,256,19232,2,0,B|256:244|256:244|296:220,1,139.999995727539,2|0,0:0|0:0,0:0:0:0:
216,160,19795,1,2,0:0:0:0:
328,296,19982,1,0,0:0:0:0:
160,336,20170,2,0,L|88:328,1,69.9999978637696,2|0,0:0|0:0,0:0:0:0:
56,324,20451,1,0,0:0:0:0:
56,324,20545,1,0,0:0:0:0:
216,160,20920,6,0,B|224:192|224:192|224:232,1,69.9999978637696,2|0,0:0|0:0,0:0:0:0:
160,336,21295,2,0,B|152:304|152:304|152:264,1,69.9999978637696,2|0,0:0|0:0,0:0:0:0:
248,148,21670,2,0,B|352:164|352:164|320:184,1,139.999995727539,2|0,0:0|0:0,0:0:0:0:
152,266,22232,1,0,0:0:0:0:
184,84,22420,1,2,0:0:0:0:
236,236,22607,1,0,0:0:0:0:
108,120,22795,1,2,0:0:0:0:
248,148,22982,1,0,0:0:0:0:
24,140,23170,6,0,L|16:68,1,69.9999978637696,2|0,0:0|0:0,0:0:0:0:
168,180,23545,1,2,0:0:0:0:
52,276,23732,1,0,0:0:0:0:
52,276,23826,1,0,0:0:0:0:
52,276,23920,1,2,0:0:0:0:
108,120,24107,1,0,0:0:0:0:
228,240,24295,1,2,0:0:0:0:
80,200,24482,1,0,0:0:0:0:
256,84,24670,6,0,L|336:92,1,80
212,164,25045,1,0,0:0:0:0:
111,47,25232,2,0,P|190:41|256:84,1,160
256,252,25795,1,0,0:0:0:0:
120,172,25982,1,0,0:0:0:0:
336,216,26170,5,0,0:0:0:0:
256,336,26357,2,0,L|256:380,2,40
176,216,26732,1,0,0:0:0:0:
336,300,26920,1,0,0:0:0:0:
176,216,27107,1,0,0:0:0:0:
360,312,27295,2,0,P|401:303|440:300,1,80
244,256,27670,6,0,L|124:272,1,120
112,288,28045,1,0,0:0:0:0:
32,136,28232,2,0,P|104:132|168:188,1,160
196,344,28795,1,0,0:0:0:0:
32,228,28982,1,0,0:0:0:0:
248,68,29170,6,0,L|236:148,1,80
332,324,29545,2,0,P|372:324|391:289,1,80
320,128,29920,1,0,0:0:0:0:
256,260,30107,1,0,0:0:0:0:
400,104,30295,1,0,0:0:0:0:
256,260,30482,1,0,0:0:0:0:
424,360,30670,6,0,L|448:200,1,160
288,220,31232,1,0,0:0:0:0:
288,220,31420,2,0,B|324:236|324:236|364:236,1,80
200,160,31795,2,0,B|164:176|164:176|124:176,1,80
256,56,32170,5,0,0:0:0:0:
288,220,32357,1,0,0:0:0:0:
288,220,32451,1,0,0:0:0:0:
288,220,32545,1,0,0:0:0:0:
440,156,32732,1,0,0:0:0:0:
256,56,32920,2,0,L|176:64,1,80
288,220,33295,2,0,L|368:228,1,80
184,156,33670,6,0,B|160:192|160:192|180:312,1,160
304,304,34232,1,0,0:0:0:0:
272,140,34420,1,0,0:0:0:0:
136,244,34607,1,0,0:0:0:0:
288,224,34795,1,0,0:0:0:0:
184,156,34982,1,0,0:0:0:0:
304,304,35170,5,0,0:0:0:0:
340,300,35263,1,0,0:0:0:0:
376,296,35357,1,0,0:0:0:0:
272,140,35545,1,0,0:0:0:0:
200,328,35732,1,0,0:0:0:0:
200,328,36107,1,0,0:0:0:0:
408,292,36295,1,8,0:0:0:0:
136,244,36482,1,0,0:0:0:0:
324,352,36670,6,0,P|359:333|398:325,1,80
210,270,37045,2,0,P|175:251|136:244,1,80,8|0,0:0|0:0,0:0:0:0:
340,252,37420,1,0,0:0:0:0:
192,168,37607,1,0,0:0:0:0:
360,160,37795,1,8,0:0:0:0:
176,80,37982,1,0,0:0:0:0:
176,80,38357,5,0,0:0:0:0:
360,160,38544,1,8,0:0:0:0:
176,80,38732,1,0,0:0:0:0:
60,232,38920,2,0,B|88:244|88:244|140:228,1,80
284,157,39295,2,0,B|312:145|312:145|359:159,1,80,8|0,0:0|0:0,0:0:0:0:
384,360,39670,5,0,0:0:0:0:
319,234,39857,1,0,0:0:0:0:
288,329,40045,1,8,0:0:0:0:
413,264,40232,1,0,0:0:0:0:
224,204,40420,1,0,0:0:0:0:
349,139,40607,1,0,0:0:0:0:
288,329,40795,1,8,0:0:0:0:
349,139,40982,1,0,0:0:0:0:
349,139,41357,5,0,0:0:0:0:
319,234,41545,1,8,0:0:0:0:
288,329,41732,1,0,0:0:0:0:
398,224,41920,2,0,L|319:234,1,80
132,356,42295,2,0,P|164:332|188:300,1,80,8|0,0:0|0:0,0:0:0:0:
196,268,42576,1,0,0:0:0:0:
168,252,42670,6,0,L|49:266,2,120
340,196,43420,2,0,L|221:182,1,120
168,252,43795,2,0,L|176:296,2,40,8|0|0,0:0|0:0|0:0,0:0:0:0:
152,128,44170,5,0,0:0:0:0:
264,276,44357,1,0,0:0:0:0:
264,276,44451,1,0,0:0:0:0:
264,276,44545,2,0,L|252:356,1,80,8|0,0:0|0:0,0:0:0:0:
92,212,44920,2,0,P|148:192|208:200,1,120
288,164,45295,2,0,L|332:172,2,40,8|0|0,0:0|0:0|0:0,0:0:0:0:
136,84,45670,5,0,0:0:0:0:
324,96,45857,1,0,0:0:0:0:
192,172,46045,1,8,0:0:0:0:
380,184,46232,1,0,0:0:0:0:
256,44,46420,5,0,0:0:0:0:
288,272,46607,1,0,0:0:0:0:
136,84,46795,1,8,0:0:0:0:
168,312,46982,1,0,0:0:0:0:
168,312,47357,5,0,0:0:0:0:
380,184,47545,1,8,0:0:0:0:
212,112,47732,1,0,0:0:0:0:
196,140,47826,1,0,0:0:0:0:
192,172,47920,2,0,P|210:209|238:237,1,80
356,288,48295,2,0,P|397:291|436:280,1,80,8|0,0:0|0:0,0:0:0:0:
500,88,48670,6,0,L|340:108,1,160,4|0,0:0|0:0,0:0:0:0:
192,172,49232,1,0,0:0:0:0:
192,172,49420,2,0,L|272:184,1,80
136,96,49795,2,0,L|216:84,1,80
376,204,50170,5,0,0:0:0:0:
248,288,50357,1,0,0:0:0:0:
120,174,50545,2,0,L|136:96,1,80
288,232,50920,5,0,0:0:0:0:
160,316,51107,1,0,0:0:0:0:
32,202,51295,2,0,L|48:124,1,80
312,128,51670,5,0,0:0:0:0:
200,256,51857,1,0,0:0:0:0:
164,96,52045,1,0,0:0:0:0:
348,288,52232,1,0,0:0:0:0:
176,232,52420,5,0,0:0:0:0:
380,192,52607,1,0,0:0:0:0:
132,104,52795,1,0,0:0:0:0:
392,64,52982,1,0,0:0:0:0:
200,256,53170,5,0,0:0:0:0:
268,84,53357,1,0,0:0:0:0:
348,288,53545,1,0,0:0:0:0:
132,104,53732,1,0,0:0:0:0:
380,192,53920,1,0,0:0:0:0:
256,336,54107,1,0,0:0:0:0:
80,192,54295,2,0,L|160:188,1,80
440,284,54670,6,0,L|452:244,7,40
380,192,55420,2,0,L|368:152,7,40
292,96,56170,5,0,0:0:0:0:
276,96,56263,1,0,0:0:0:0:
260,96,56357,1,0,0:0:0:0:
244,96,56451,1,0,0:0:0:0:
228,96,56545,1,0,0:0:0:0:
212,96,56638,1,0,0:0:0:0:
195,96,56732,1,0,0:0:0:0:
178,96,56826,1,0,0:0:0:0:
161,96,56920,2,0,L|117:96,7,40
88,128,57670,6,0,P|72:176|76:224,1,100
300,356,58045,2,0,P|316:308|312:260,1,100
232,60,58420,6,0,P|196:106|182:178,1,129.999994049073
432,292,58795,2,0,P|422:234|381:174,1,129.999994049073
208,264,59170,5,0,0:0:0:0:
88,128,59357,1,0,0:0:0:0:
88,128,59451,1,0,0:0:0:0:
88,128,59545,1,8,0:0:0:0:
32,344,59732,1,0,0:0:0:0:
32,344,59826,1,0,0:0:0:0:
32,344,59920,2,0,L|80:360,1,50
208,264,60107,2,0,L|256:248,1,50
444,340,60295,1,12,0:0:0:0:
208,264,60670,6,0,B|192:228|192:228|208:168,1,100
348,72,61045,1,8,0:0:0:0:
276,216,61232,1,0,0:0:0:0:
140,116,61420,2,0,L|40:116,1,100
124,264,61795,1,8,0:0:0:0:
256,52,61982,5,0,0:0:0:0:
256,52,62076,1,0,0:0:0:0:
256,52,62170,1,0,0:0:0:0:
412,224,62357,2,0,P|410:200|404:176,1,50
308,140,62545,1,8,0:0:0:0:
256,332,62732,1,0,0:0:0:0:
428,248,62920,2,0,P|440:200|440:148,1,100
348,16,63295,1,8,0:0:0:0:
204,140,63482,1,0,0:0:0:0:
404,256,63670,6,0,L|504:240,1,100
308,140,64045,1,8,0:0:0:0:
188,304,64232,1,0,0:0:0:0:
324,220,64420,1,0,0:0:0:0:
192,112,64607,1,0,0:0:0:0:
104,352,64795,1,8,0:0:0:0:
280,316,64982,5,0,0:0:0:0:
280,316,65076,1,0,0:0:0:0:
280,316,65170,2,0,L|380:332,1,100
188,304,65545,2,0,L|151:209,1,100,8|0,0:0|0:0,0:0:0:0:
204,88,65920,1,0,0:0:0:0:
84,288,66107,1,0,0:0:0:0:
24,136,66295,2,0,B|56:120|56:120|120:132,1,100,8|0,0:0|0:0,0:0:0:0:
324,248,66670,6,0,L|324:196,1,50
416,204,66857,2,0,L|416:152,1,50
488,88,67045,2,0,B|508:120|508:120|508:184,1,100,8|0,0:0|0:0,0:0:0:0:
416,356,67420,1,0,0:0:0:0:
324,248,67607,1,0,0:0:0:0:
496,288,67795,1,8,0:0:0:0:
272,372,67982,5,0,0:0:0:0:
272,372,68076,1,0,0:0:0:0:
272,372,68170,1,0,0:0:0:0:
208,224,68357,2,0,L|216:172,2,50,0|0|8,0:0|0:0|0:0,0:0:0:0:
184,364,68732,1,0,0:0:0:0:
324,248,68920,1,0,0:0:0:0:
152,288,69107,1,0,0:0:0:0:
272,372,69295,1,8,0:0:0:0:
356,168,69482,1,0,0:0:0:0:
228,292,69670,6,0,P|160:260|84:260,1,150
0,336,70045,2,0,L|16:236,1,100,8|0,0:0|0:0,0:0:0:0:
200,72,70420,2,0,L|215:170,1,100
152,288,70795,1,8,0:0:0:0:
28,148,70982,1,0,0:0:0:0:
292,104,71170,5,0,0:0:0:0:
232,336,71451,1,0,0:0:0:0:
232,336,71545,2,0,B|220:296|220:296|272:328|328:316,1,150
460,236,71920,6,0,B|412:216|347:242|347:242|363:226|363:226|312:252|263:235,1,240,0|8,0:0|0:0,0:0:0:0:
152,80,72670,5,0,0:0:0:0:
304,160,72857,1,0,0:0:0:0:
112,252,73045,2,0,L|96:152,1,100,8|0,0:0|0:0,0:0:0:0:
228,124,73420,1,0,0:0:0:0:
24,224,73607,1,0,0:0:0:0:
196,296,73795,1,8,0:0:0:0:
312,184,73982,5,0,0:0:0:0:
312,184,74076,2,0,P|360:172|412:184,1,100
436,212,74357,1,0,0:0:0:0:
228,124,74545,2,0,P|180:112|128:124,1,100,8|0,0:0|0:0,0:0:0:0:
112,252,74920,1,0,0:0:0:0:
312,184,75107,1,0,0:0:0:0:
112,252,75295,1,8,0:0:0:0:
324,92,75482,1,0,0:0:0:0:
476,224,75670,6,0,L|462:324,1,100
458,354,75951,1,0,0:0:0:0:
458,354,76045,1,8,0:0:0:0:
296,272,76232,1,0,0:0:0:0:
410,104,76420,2,0,L|396:204,1,100
280,360,76795,1,8,0:0:0:0:
148,236,76982,5,0,0:0:0:0:
148,236,77076,1,0,0:0:0:0:
320,188,77263,1,0,0:0:0:0:
320,188,77357,1,0,0:0:0:0:
88,300,77545,2,0,P|64:252|68:208,1,100,8|0,0:0|0:0,0:0:0:0:
228,180,77920,1,0,0:0:0:0:
176,316,78107,1,0,0:0:0:0:
32,140,78295,2,0,B|64:132|64:132|132:152,1,100,8|0,0:0|0:0,0:0:0:0:
416,236,78670,6,0,B|456:236|456:276|388:276|388:236|324:256,1,150,0|0,2:0|2:0,0:0:0:0:
272,320,79045,2,0,L|280:372,2,50,8|0|0,0:0|0:0|0:0,0:0:0:0:
360,160,79420,1,0,0:0:0:0:
204,248,79607,1,0,0:0:0:0:
360,336,79795,1,8,0:0:0:0:
260,156,79982,5,0,0:0:0:0:
248,140,80076,1,0,0:0:0:0:
236,124,80170,2,0,L|136:136,1,100
116,140,80451,1,0,0:0:0:0:
96,144,80545,1,8,0:0:0:0:
180,48,80732,1,0,0:0:0:0:
100,224,80920,2,0,L|0:236,1,100
180,48,81295,2,0,L|280:60,1,100,8|0,0:0|0:0,0:0:0:0:
420,292,81670,6,0,P|372:276|344:236,1,100
418,66,82045,2,0,P|427:114|407:159,1,100,8|0,0:0|0:0,0:0:0:0:
222,190,82420,2,0,P|258:156|307:151,1,100
420,292,82795,1,8,0:0:0:0:
256,192,82982,12,0,84295,0:0:0:0:
240,316,84670,6,0,B|220:260|220:260|240:200,1,119.999996337891,6|0,0:0|0:0,0:0:0:0:
292,28,85045,1,10,0:0:0:0:
420,152,85232,1,0,0:0:0:0:
208,100,85420,1,2,0:0:0:0:
404,52,85607,1,0,0:0:0:0:
252,180,85795,1,8,0:0:0:0:
448,168,85982,1,2,0:0:0:0:
232,264,86170,6,0,P|174:250|108:240,1,119.999996337891,2|0,0:0|0:0,0:0:0:0:
208,100,86545,1,10,0:0:0:0:
385,214,86732,1,0,0:0:0:0:
291,345,86920,1,2,0:0:0:0:
291,183,87107,1,0,0:0:0:0:
385,314,87295,1,8,0:0:0:0:
232,264,87482,1,2,0:0:0:0:
468,120,87670,6,0,B|492:176|492:176|480:236,1,119.999996337891,2|0,0:0|0:0,0:0:0:0:
291,345,88045,1,10,0:0:0:0:
385,214,88232,1,0,0:0:0:0:
456,328,88420,1,2,0:0:0:0:
232,264,88607,1,0,0:0:0:0:
385,214,88795,1,8,0:0:0:0:
192,348,88982,1,2,0:0:0:0:
104,156,89170,5,2,0:0:0:0:
48,348,89357,1,0,0:0:0:0:
48,348,89451,1,0,0:0:0:0:
48,348,89545,2,0,P|108:352|164:332,1,119.999996337891,10|0,0:0|0:0,0:0:0:0:
192,176,89920,1,2,0:0:0:0:
163,332,90107,1,0,0:0:0:0:
76,256,90295,1,8,0:0:0:0:
268,300,90482,1,2,0:0:0:0:
222,68,90670,6,0,P|189:117|192:177,1,119.999996337891,2|0,0:0|0:0,0:0:0:0:
364,276,91045,1,10,0:0:0:0:
272,140,91232,1,0,0:0:0:0:
204,292,91420,1,2,0:0:0:0:
420,344,91607,1,0,0:0:0:0:
236,216,91795,1,8,0:0:0:0:
448,192,91982,1,2,0:0:0:0:
192,112,92170,6,0,P|128:108|68:100,1,119.999996337891,2|0,0:0|0:0,0:0:0:0:
320,272,92545,2,0,P|384:276|444:284,1,119.999996337891,10|0,0:0|0:0,0:0:0:0:
304,136,92920,1,2,0:0:0:0:
208,248,93107,1,0,0:0:0:0:
176,88,93295,1,8,0:0:0:0:
336,296,93482,1,2,0:0:0:0:
120,152,93670,6,0,P|36:152|36:232,1,179.999994506836,2|0,0:0|0:0,0:0:0:0:
56,248,94045,1,10,0:0:0:0:
224,168,94232,1,0,0:0:0:0:
136,356,94420,2,0,P|76:348|16:344,1,119.999996337891,2|0,0:0|0:0,0:0:0:0:
292,208,94795,1,10,0:0:0:0:
380,336,94982,1,0,0:0:0:0:
220,356,95170,6,0,P|200:300|220:244,1,119.999996337891,2|0,0:0|0:0,0:0:0:0:
380,336,95545,1,10,0:0:0:0:
224,168,95732,1,0,0:0:0:0:
224,168,95826,1,0,0:0:0:0:
224,168,95920,2,0,P|280:148|336:168,1,119.999996337891,2|0,0:0|0:0,0:0:0:0:
491,335,96295,2,0,P|435:355|380:336,1,119.999996337891,8|0,0:0|0:0,0:0:0:0:
456,56,96670,6,0,L|472:236,1,179.999994506836,2|0,0:0|0:0,0:0:0:0:
400,260,97045,2,0,P|340:244|280:244,1,119.999996337891,10|0,0:0|0:0,0:0:0:0:
100,360,97420,1,2,0:0:0:0:
236,304,97607,1,0,0:0:0:0:
75,228,97795,1,8,0:0:0:0:
256,172,97982,1,2,0:0:0:0:
153,285,98170,5,2,0:0:0:0:
107,137,98357,1,0,0:0:0:0:
282,243,98545,1,10,0:0:0:0:
72,341,98732,1,0,0:0:0:0:
72,341,98826,1,0,0:0:0:0:
72,341,98920,2,0,P|56:284|76:228,1,119.999996337891,2|0,0:0|0:0,0:0:0:0:
236,100,99295,1,8,0:0:0:0:
153,285,99482,1,0,0:0:0:0:
46,139,99670,6,0,P|122:95|208:117,1,179.999994506836,2|0,0:0|0:0,0:0:0:0:
256,188,100045,1,10,0:0:0:0:
392,104,100232,1,0,0:0:0:0:
228,36,100420,1,2,0:0:0:0:
360,196,100607,1,0,0:0:0:0:
208,117,100795,1,8,0:0:0:0:
424,20,100982,1,2,0:0:0:0:
504,204,101170,6,0,P|444:200|384:216,1,119.999996337891,2|0,0:0|0:0,0:0:0:0:
344,280,101451,1,0,0:0:0:0:
344,280,101545,2,0,P|286:265|226:269,1,119.999996337891,10|0,0:0|0:0,0:0:0:0:
68,356,101920,1,2,0:0:0:0:
184,192,102107,1,0,0:0:0:0:
16,280,102295,1,8,0:0:0:0:
184,192,102482,1,2,0:0:0:0:
304,352,102670,6,0,P|404:352|424:232,1,239.999992675781,2|10,0:0|0:0,0:0:0:0:
256,172,103232,1,0,0:0:0:0:
164,328,103420,1,2,0:0:0:0:
164,328,103607,1,0,0:0:0:0:
16,280,103795,2,0,L|24:160,1,119.999996337891,8|2,0:0|0:0,0:0:0:0:
248,52,104170,6,0,L|256:172,1,119.999996337891,2|0,0:0|0:0,0:0:0:0:
168,356,104545,1,10,0:0:0:0:
59,203,104732,1,0,0:0:0:0:
238,261,104920,1,2,0:0:0:0:
59,320,105107,1,0,0:0:0:0:
168,166,105295,2,0,L|160:46,1,119.999996337891,8|2,0:0|0:0,0:0:0:0:
344,218,105670,6,0,L|352:338,1,119.999996337891,2|0,0:0|0:0,0:0:0:0:
453,203,106045,1,10,0:0:0:0:
274,123,106232,1,0,0:0:0:0:
453,64,106420,1,2,0:0:0:0:
344,218,106607,1,0,0:0:0:0:
344,28,106795,1,10,0:0:0:0:
453,203,106982,1,0,0:0:0:0:
256,288,107170,5,2,0:0:0:0:
256,288,107263,1,0,0:0:0:0:
256,288,107357,1,0,0:0:0:0:
376,128,107545,1,10,0:0:0:0:
300,364,107732,1,0,0:0:0:0:
104,180,107920,2,0,B|224:200,1,119.999996337891,2|0,0:0|0:0,0:0:0:0:
432,272,108295,2,0,B|364:284|364:284|320:272|320:272|256:288,1,179.999994506836,8|0,0:0|0:0,0:0:0:0:
168,316,108670,5,0,0:0:0:0:
