osu file format v14

[General]
AudioFilename: audio.ogg
AudioLeadIn: 0
PreviewTime: 115176
Countdown: 0
SampleSet: Soft
StackLeniency: 0.8
Mode: 0
LetterboxInBreaks: 0
WidescreenStoryboard: 0

[Editor]
Bookmarks: 21919,32891,46605,52091,76776,104205,126148,138491,160434,165919,182376,198834,220776,231748,242719,253691,275634,292091,297576,308548,319519,330491,342148
DistanceSpacing: 1
BeatDivisor: 4
GridSize: 16
TimelineZoom: 5.899997

[Metadata]
Title:T-T-Techno (feat. JessKah)
TitleUnicode:T-T-Techno (feat. JessKah)
Artist:S3RL
ArtistUnicode:S3RL
Creator:LeCandy
Version:Rave Resonance
Source:
Tags:uk hardcore female vocals english electronic midorijeon
BeatmapID:4275701
BeatmapSetID:2047843

[Difficulty]
HPDrainRate:4
CircleSize:4
OverallDifficulty:9
ApproachRate:9.8
SliderMultiplier:2.22
SliderTickRate:1

[Events]
//Background and Video events
0,0,"bg.jpg",0,0
//Break Periods
2,52291,54325
2,104405,113767
2,196291,198355
//Storyboard Layer 0 (Background)
//Storyboard Layer 1 (Fail)
//Storyboard Layer 2 (Pass)
//Storyboard Layer 3 (Foreground)
//Storyboard Layer 4 (Overlay)
//Storyboard Sound Samples

[TimingPoints]
-23,342.857142857142,4,2,1,80,1,0
10862,-1000,4,2,1,5,0,0
10948,-250,4,2,1,60,0,0
11291,-250,4,2,2,60,0,0
11634,-250,4,2,3,60,0,0
12319,-250,4,2,2,60,0,0
12491,-250,4,2,1,60,0,0
12662,-250,4,2,2,60,0,0
13005,-250,4,2,3,60,0,0
13691,-250,4,2,2,60,0,0
13862,-250,4,2,1,60,0,0
14034,-250,4,2,2,60,0,0
14376,-250,4,2,3,60,0,0
15062,-250,4,2,2,60,0,0
15234,-250,4,2,1,60,0,0
15405,-250,4,2,2,60,0,0
15748,-250,4,2,3,60,0,0
16434,-250,4,2,2,60,0,0
16605,-250,4,2,1,60,0,0
16776,-250,4,2,2,60,0,0
17119,-250,4,2,3,60,0,0
17805,-250,4,2,2,60,0,0
17976,-250,4,2,1,60,0,0
18148,-250,4,2,2,60,0,0
18491,-250,4,2,3,60,0,0
19348,-250,4,2,1,60,0,0
19862,-250,4,2,3,60,0,0
20548,-250,4,2,1,60,0,0
20891,-250,4,2,3,60,0,0
21062,-250,4,2,1,60,0,0
21234,-250,4,2,3,60,0,0
21919,-166.666666666667,4,2,2,65,0,0
22091,-166.666666666667,4,2,1,65,0,0
22262,-166.666666666667,4,2,4,65,0,0
22605,-166.666666666667,4,2,5,65,0,0
23291,-166.666666666667,4,2,4,65,0,0
23462,-166.666666666667,4,2,1,65,0,0
23634,-166.666666666667,4,2,4,65,0,0
23976,-166.666666666667,4,2,5,65,0,0
24662,-166.666666666667,4,2,4,65,0,0
24834,-166.666666666667,4,2,1,65,0,0
25005,-166.666666666667,4,2,4,65,0,0
25348,-166.666666666667,4,2,5,65,0,0
26034,-166.666666666667,4,2,4,65,0,0
26205,-166.666666666667,4,2,1,65,0,0
26376,-166.666666666667,4,2,4,65,0,0
26719,-166.666666666667,4,2,5,65,0,0
27405,-166.666666666667,4,2,4,65,0,0
27576,-166.666666666667,4,2,1,65,0,0
27748,-166.666666666667,4,2,4,65,0,0
28091,-166.666666666667,4,2,5,65,0,0
28776,-166.666666666667,4,2,4,65,0,0
28948,-166.666666666667,4,2,1,65,0,0
29119,-166.666666666667,4,2,4,65,0,0
29462,-166.666666666667,4,2,5,65,0,0
30148,-166.666666666667,4,2,4,65,0,0
30319,-166.666666666667,4,2,1,65,0,0
30491,-166.666666666667,4,2,4,65,0,0
30834,-166.666666666667,4,2,5,65,0,0
31519,-166.666666666667,4,2,4,65,0,0
31691,-166.666666666667,4,2,1,65,0,0
31862,-166.666666666667,4,2,4,65,0,0
32205,-166.666666666667,4,2,5,65,0,0
32891,-142.857142857143,4,2,2,70,0,0
33062,-142.857142857143,4,2,1,70,0,0
33234,-142.857142857143,4,2,4,70,0,0
33576,-142.857142857143,4,2,5,70,0,0
34262,-142.857142857143,4,2,4,70,0,0
34434,-142.857142857143,4,2,1,70,0,0
34605,-142.857142857143,4,2,4,70,0,0
34948,-142.857142857143,4,2,5,70,0,0
35634,-142.857142857143,4,2,4,70,0,0
35805,-142.857142857143,4,2,1,70,0,0
35976,-142.857142857143,4,2,4,70,0,0
36319,-142.857142857143,4,2,5,70,0,0
37005,-142.857142857143,4,2,4,70,0,0
37176,-142.857142857143,4,2,1,70,0,0
37348,-142.857142857143,4,2,4,70,0,0
37691,-142.857142857143,4,2,5,70,0,0
38376,-142.857142857143,4,2,4,70,0,0
38548,-142.857142857143,4,2,1,70,0,0
38719,-142.857142857143,4,2,4,70,0,0
39062,-142.857142857143,4,2,5,70,0,0
39748,-142.857142857143,4,2,4,70,0,0
39919,-142.857142857143,4,2,1,70,0,0
40091,-142.857142857143,4,2,4,70,0,0
40434,-142.857142857143,4,2,5,70,0,0
41119,-142.857142857143,4,2,4,70,0,0
41291,-142.857142857143,4,2,1,70,0,0
41462,-142.857142857143,4,2,4,70,0,0
41805,-142.857142857143,4,2,5,70,0,0
42834,-142.857142857143,4,2,1,70,0,0
46519,-142.857142857143,4,2,1,5,0,0
46605,-142.857142857143,4,2,1,55,0,0
52091,-142.857142857143,4,2,3,60,0,0
52434,-142.857142857143,4,2,1,60,0,0
54834,-125,4,2,1,60,0,0
55091,-1000,4,2,1,5,0,0
55176,-125,4,2,1,60,0,0
56291,-1000,4,2,1,5,0,0
56376,-125,4,2,1,60,0,0
57491,-1000,4,2,1,5,0,0
57576,-125,4,2,1,60,0,0
59034,-1000,4,2,1,5,0,0
59119,-125,4,2,1,60,0,0
60576,-1000,4,2,1,5,0,0
60662,-125,4,2,1,60,0,0
61776,-1000,4,2,1,5,0,0
61862,-125,4,2,1,60,0,0
62976,-1000,4,2,1,5,0,0
63062,-125,4,2,1,60,0,0
64519,-1000,4,2,1,5,0,0
64605,-125,4,2,1,60,0,0
64776,-83.3333333333333,4,2,1,60,0,0
64948,-66.6666666666667,4,2,1,60,0,0
65376,-133.333333333333,4,2,1,60,0,0
65719,-1000,4,2,1,5,0,0
65805,-111.111111111111,4,2,1,65,0,0
66148,-111.111111111111,4,2,3,65,0,0
66405,-1000,4,2,3,5,0,0
66491,-111.111111111111,4,2,3,65,0,0
66662,-111.111111111111,4,2,1,65,0,0
66834,-111.111111111111,4,2,3,65,0,0
67005,-111.111111111111,4,2,1,65,0,0
67262,-1000,4,2,1,5,0,0
67348,-111.111111111111,4,2,1,65,0,0
67519,-111.111111111111,4,2,3,65,0,0
67691,-111.111111111111,4,2,1,65,0,0
67862,-111.111111111111,4,2,3,65,0,0
68462,-1000,4,2,3,5,0,0
68548,-111.111111111111,4,2,3,65,0,0
68891,-111.111111111111,4,2,1,65,0,0
69234,-111.111111111111,4,2,3,65,0,0
69405,-111.111111111111,4,2,1,65,0,0
69576,-111.111111111111,4,2,3,65,0,0
69748,-133.333333333333,4,2,1,65,0,0
70005,-1000,4,2,1,5,0,0
70091,-111.111111111111,4,2,1,65,0,0
70262,-111.111111111111,4,2,3,65,0,0
70434,-111.111111111111,4,2,1,65,0,0
70605,-111.111111111111,4,2,3,65,0,0
70948,-111.111111111111,4,2,1,65,0,0
71291,-111.111111111111,4,2,3,65,0,0
71891,-1000,4,2,3,5,0,0
71976,-111.111111111111,4,2,3,65,0,0
72148,-111.111111111111,4,2,1,65,0,0
72319,-111.111111111111,4,2,3,65,0,0
72491,-111.111111111111,4,2,1,65,0,0
72748,-1000,4,2,1,5,0,0
72834,-111.111111111111,4,2,1,65,0,0
73005,-111.111111111111,4,2,3,65,0,0
73176,-111.111111111111,4,2,1,65,0,0
73348,-111.111111111111,4,2,3,65,0,0
73948,-1000,4,2,3,5,0,0
74034,-111.111111111111,4,2,3,65,0,0
74376,-111.111111111111,4,2,1,65,0,0
74719,-111.111111111111,4,2,3,65,0,0
74891,-111.111111111111,4,2,1,65,0,0
75062,-111.111111111111,4,2,3,65,0,0
75234,-111.111111111111,4,2,1,65,0,0
76348,-90.9090909090909,4,2,1,65,0,0
76691,-1000,4,2,1,5,0,0
76776,-100,4,2,1,70,0,0
76948,-100,4,2,2,70,0,0
77119,-100,4,2,5,70,0,0
77291,-100,4,2,2,70,0,0
77376,-1000,4,2,2,5,0,0
77462,-100,4,2,3,70,0,0
77634,-100,4,2,6,70,0,0
77805,-100,4,2,5,70,0,0
77976,-100,4,2,6,70,0,0
78148,-100,4,2,1,70,0,0
78234,-1000,4,2,1,5,0,0
78319,-100,4,2,6,70,0,0
78491,-100,4,2,5,70,0,0
78662,-100,4,2,6,70,0,0
78834,-100,4,2,3,70,0,0
79005,-100,4,2,2,70,0,0
79176,-100,4,2,5,70,0,0
79348,-100,4,2,2,70,0,0
79519,-100,4,2,3,70,0,0
79691,-100,4,2,2,70,0,0
79862,-100,4,2,4,70,0,0
80034,-100,4,2,6,70,0,0
80205,-100,4,2,3,70,0,0
80376,-100,4,2,6,70,0,0
80548,-100,4,2,5,70,0,0
80719,-100,4,2,6,70,0,0
80891,-100,4,2,1,70,0,0
80976,-1000,4,2,1,5,0,0
81062,-100,4,2,6,70,0,0
81234,-100,4,2,5,70,0,0
81405,-100,4,2,6,70,0,0
81576,-100,4,2,3,70,0,0
81919,-71.4285714285714,4,2,1,70,0,0
81962,-71.4285714285714,4,2,1,5,0,0
82262,-100,4,2,3,70,0,0
82434,-100,4,2,2,70,0,0
82605,-100,4,2,5,70,0,0
82776,-100,4,2,2,70,0,0
82948,-100,4,2,3,70,0,0
83119,-100,4,2,6,70,0,0
83291,-100,4,2,5,70,0,0
83462,-100,4,2,6,70,0,0
83634,-100,4,2,1,70,0,0
83719,-1000,4,2,1,5,0,0
83805,-100,4,2,6,70,0,0
83976,-100,4,2,5,70,0,0
84148,-100,4,2,6,70,0,0
84319,-100,4,2,3,70,0,0
84491,-100,4,2,2,70,0,0
84662,-100,4,2,5,70,0,0
84834,-100,4,2,2,70,0,0
85005,-100,4,2,3,70,0,0
85176,-100,4,2,2,70,0,0
85348,-100,4,2,4,70,0,0
85519,-100,4,2,6,70,0,0
85691,-100,4,2,3,70,0,0
85862,-100,4,2,6,70,0,0
86034,-100,4,2,5,70,0,0
86205,-100,4,2,6,70,0,0
86376,-100,4,2,1,70,0,0
86462,-1000,4,2,1,5,0,0
86548,-100,4,2,6,70,0,0
86719,-100,4,2,5,70,0,0
86891,-100,4,2,6,70,0,0
87062,-100,4,2,3,70,0,0
87234,-100,4,2,2,70,0,0
87405,-83.3333333333333,4,2,1,70,0,0
90491,-41.6666666666667,4,2,1,70,0,0
90834,-41.6666666666667,4,2,3,70,0,0
91005,-83.3333333333333,4,2,2,70,0,0
91176,-83.3333333333333,4,2,3,70,0,0
91348,-83.3333333333333,4,2,6,70,0,0
91519,-83.3333333333333,4,2,5,70,0,0
91691,-83.3333333333333,4,2,6,70,0,0
91862,-83.3333333333333,4,2,1,70,0,0
92034,-83.3333333333333,4,2,6,70,0,0
92205,-83.3333333333333,4,2,5,70,0,0
92376,-83.3333333333333,4,2,6,70,0,0
92548,-83.3333333333333,4,2,3,70,0,0
92719,-83.3333333333333,4,2,2,70,0,0
92891,-83.3333333333333,4,2,5,70,0,0
93062,-83.3333333333333,4,2,2,70,0,0
93234,-83.3333333333333,4,2,3,70,0,0
93405,-83.3333333333333,4,2,2,70,0,0
93576,-76.9230769230769,4,2,5,70,0,0
93748,-76.9230769230769,4,2,2,70,0,0
93919,-71.4285714285714,4,2,3,70,0,0
94091,-71.4285714285714,4,2,6,70,0,0
94262,-66.6666666666667,4,2,5,70,0,0
94434,-66.6666666666667,4,2,6,70,0,0
94605,-62.5,4,2,1,70,0,0
94776,-58.8235294117647,4,2,6,70,0,0
94948,-62.5,4,2,5,70,0,0
95119,-58.8235294117647,4,2,6,70,0,0
95291,-50,4,2,3,70,0,0
95462,-50,4,2,2,70,0,0
95634,-40,4,2,5,70,0,0
95805,-52.6315789473684,4,2,2,70,0,0
95976,-52.6315789473684,4,2,1,70,0,0
98719,-52.6315789473684,4,2,1,60,0,0
114276,-333.333333333333,4,2,1,60,0,0
115176,-142.857142857143,4,2,3,60,0,0
115519,-142.857142857143,4,2,7,60,0,0
118862,-1000,4,2,7,5,0,0
118948,-142.857142857143,4,2,7,60,0,0
125719,-1000,4,2,7,5,0,0
125805,-142.857142857143,4,2,7,60,0,0
126148,-125,4,2,7,65,0,0
126491,-125,4,2,8,65,0,0
126748,-125,4,2,7,65,0,0
127176,-125,4,2,8,65,0,0
127519,-125,4,2,7,65,0,0
127862,-125,4,2,8,65,0,0
128119,-125,4,2,7,65,0,0
128548,-125,4,2,8,65,0,0
128891,-125,4,2,7,65,0,0
129234,-125,4,2,8,65,0,0
129491,-125,4,2,7,65,0,0
129919,-125,4,2,8,65,0,0
130176,-125,4,2,8,5,0,0
130262,-125,4,2,7,65,0,0
130605,-125,4,2,6,65,0,0
130948,-125,4,2,2,65,0,0
131291,-125,4,2,8,65,0,0
131634,-125,4,2,7,65,0,0
131976,-125,4,2,8,65,0,0
132234,-125,4,2,7,65,0,0
132662,-125,4,2,8,65,0,0
133005,-125,4,2,7,65,0,0
133348,-125,4,2,8,65,0,0
133605,-125,4,2,7,65,0,0
134034,-125,4,2,8,65,0,0
134376,-125,4,2,7,65,0,0
134719,-125,4,2,8,65,0,0
134976,-125,4,2,7,65,0,0
135405,-125,4,2,8,65,0,0
135662,-1000,4,2,8,5,0,0
135748,-125,4,2,1,65,0,0
136434,-166.666666666667,4,2,1,65,0,0
136691,-1000,4,2,1,5,0,0
136776,-166.666666666667,4,2,1,65,0,0
137034,-1000,4,2,1,5,0,0
137119,-166.666666666667,4,2,1,65,0,0
137805,-166.666666666667,4,2,3,65,0,0
138491,-71.4285714285714,4,2,4,70,0,0
138834,-71.4285714285714,4,2,1,70,0,0
139519,-100,4,2,1,70,0,0
139862,-62.5,4,2,1,70,0,0
140548,-71.4285714285714,4,2,1,70,0,0
142434,-100,4,2,1,70,0,0
143976,-71.4285714285714,4,2,1,70,0,0
145176,-100,4,2,1,70,0,0
145348,-58.8235294117647,4,2,1,70,0,0
146034,-83.3333333333333,4,2,1,70,0,0
146719,-71.4285714285714,4,2,1,70,0,0
147405,-58.8235294117647,4,2,1,70,0,0
148776,-83.3333333333333,4,2,1,70,0,0
149462,-58.8235294117647,4,2,1,70,0,0
149805,-71.4285714285714,4,2,1,70,0,0
150662,-83.3333333333333,4,2,1,70,0,0
150834,-58.8235294117647,4,2,1,70,0,0
151176,-100,4,2,1,70,0,0
151348,-142.857142857143,4,2,1,70,0,0
151519,-58.8235294117647,4,2,1,70,0,0
152034,-100,4,2,1,70,0,0
152205,-83.3333333333333,4,2,1,70,0,0
152891,-58.8235294117647,4,2,1,70,0,0
154948,-71.4285714285714,4,2,1,70,0,0
156148,-125,4,2,1,70,0,0
156319,-55.5555555555556,4,2,1,70,0,0
157005,-71.4285714285714,4,2,1,70,0,0
157691,-58.8235294117647,4,2,1,70,0,0
158034,-71.4285714285714,4,2,1,70,0,0
158376,-71.4285714285714,4,2,1,70,0,0
159062,-71.4285714285714,4,2,5,70,0,0
159576,-71.4285714285714,4,2,1,70,0,0
159748,-71.4285714285714,4,2,5,70,0,0
160091,-125,4,2,5,70,0,0
160348,-1000,4,2,5,5,0,0
160434,-125,4,2,9,60,0,0
161291,-125,4,2,10,60,0,0
161462,-125,4,2,1,60,0,0
161634,-125,4,2,11,60,0,0
161805,-125,4,2,9,60,0,0
162662,-125,4,2,10,60,0,0
162834,-125,4,2,1,60,0,0
163005,-125,4,2,11,60,0,0
163176,-125,4,2,9,60,0,0
164034,-125,4,2,10,60,0,0
164205,-125,4,2,4,60,0,0
164376,-125,4,2,11,60,0,0
164548,-83.3333333333333,4,2,9,60,0,0
164719,-66.6666666666667,4,2,1,60,0,0
164891,-55.5555555555556,4,2,9,65,0,0
165062,-45.4545454545455,4,2,1,65,0,0
165234,-45.4545454545455,4,2,9,70,0,0
165319,-45.4545454545455,4,2,5,70,0,0
165405,-45.4545454545455,4,2,5,73,0,0
165576,-45.4545454545455,4,2,5,75,0,0
165748,-45.4545454545455,4,2,5,78,0,0
165919,-71.4285714285714,4,2,8,80,0,0
166091,-71.4285714285714,4,2,2,80,0,0
166262,-71.4285714285714,4,2,9,80,0,0
166434,-71.4285714285714,4,2,2,80,0,0
166605,-55.5555555555556,4,2,9,80,0,0
166776,-55.5555555555556,4,2,12,80,0,0
166948,-55.5555555555556,4,2,4,80,0,0
167119,-100,4,2,13,80,0,0
167291,-71.4285714285714,4,2,14,80,0,0
167462,-71.4285714285714,4,2,2,80,0,0
167634,-71.4285714285714,4,2,14,80,0,0
167805,-71.4285714285714,4,2,2,80,0,0
167976,-55.5555555555556,4,2,14,80,0,0
168148,-55.5555555555556,4,2,13,80,0,0
168319,-55.5555555555556,4,2,4,80,0,0
168491,-100,4,2,15,80,0,0
168662,-71.4285714285714,4,2,16,80,0,0
168834,-71.4285714285714,4,2,2,80,0,0
169005,-71.4285714285714,4,2,16,80,0,0
169176,-71.4285714285714,4,2,2,80,0,0
169348,-50,4,2,16,80,0,0
169519,-50,4,2,17,80,0,0
169691,-50,4,2,4,80,0,0
169862,-100,4,2,12,80,0,0
170034,-71.4285714285714,4,2,18,80,0,0
170205,-71.4285714285714,4,2,2,80,0,0
170376,-71.4285714285714,4,2,18,80,0,0
170548,-71.4285714285714,4,2,2,80,0,0
170719,-50,4,2,18,80,0,0
170891,-50,4,2,13,80,0,0
171062,-50,4,2,4,80,0,0
171234,-100,4,2,12,80,0,0
171405,-71.4285714285714,4,2,9,80,0,0
171576,-71.4285714285714,4,2,2,80,0,0
171748,-71.4285714285714,4,2,9,80,0,0
171919,-71.4285714285714,4,2,2,80,0,0
172091,-55.5555555555556,4,2,9,80,0,0
172262,-55.5555555555556,4,2,12,80,0,0
172434,-55.5555555555556,4,2,4,80,0,0
172605,-100,4,2,13,80,0,0
172776,-71.4285714285714,4,2,14,80,0,0
172948,-71.4285714285714,4,2,2,80,0,0
173119,-71.4285714285714,4,2,14,80,0,0
173291,-71.4285714285714,4,2,2,80,0,0
173462,-55.5555555555556,4,2,14,80,0,0
173634,-55.5555555555556,4,2,13,80,0,0
173805,-55.5555555555556,4,2,4,80,0,0
173976,-100,4,2,15,80,0,0
174148,-71.4285714285714,4,2,16,80,0,0
174319,-71.4285714285714,4,2,2,80,0,0
174491,-71.4285714285714,4,2,16,80,0,0
174662,-71.4285714285714,4,2,2,80,0,0
174834,-50,4,2,16,80,0,0
175005,-50,4,2,17,80,0,0
175176,-50,4,2,4,80,0,0
175348,-100,4,2,12,80,0,0
175519,-71.4285714285714,4,2,18,80,0,0
175691,-71.4285714285714,4,2,2,80,0,0
175862,-71.4285714285714,4,2,18,80,0,0
176034,-71.4285714285714,4,2,2,80,0,0
176205,-71.4285714285714,4,2,18,80,0,0
176376,-71.4285714285714,4,2,2,80,0,0
176548,-83.3333333333333,4,2,1,80,0,0
176891,-41.6666666666667,4,2,19,80,0,0
176934,-41.6666666666667,4,2,19,5,0,0
177234,-41.6666666666667,4,2,19,80,0,0
177405,-100,4,2,1,80,0,0
177576,-50,4,2,9,80,0,0
177748,-50,4,2,12,80,0,0
177919,-50,4,2,4,80,0,0
178091,-100,4,2,13,80,0,0
178262,-100,4,2,14,80,0,0
178434,-100,4,2,2,80,0,0
178605,-100,4,2,14,80,0,0
178776,-100,4,2,2,80,0,0
178948,-50,4,2,14,80,0,0
179119,-50,4,2,13,80,0,0
179291,-50,4,2,4,80,0,0
179462,-100,4,2,15,80,0,0
179634,-100,4,2,16,80,0,0
179805,-100,4,2,2,80,0,0
179976,-100,4,2,16,80,0,0
180148,-100,4,2,2,80,0,0
180319,-50,4,2,16,80,0,0
180491,-50,4,2,17,80,0,0
180662,-50,4,2,4,80,0,0
180834,-100,4,2,12,80,0,0
181005,-100,4,2,18,80,0,0
181176,-100,4,2,2,80,0,0
181348,-100,4,2,18,80,0,0
181519,-100,4,2,2,80,0,0
181691,-50,4,2,18,80,0,0
181862,-50,4,2,13,80,0,0
182034,-50,4,2,4,80,0,0
182205,-100,4,2,12,80,0,0
182376,-166.666666666667,4,2,11,70,0,0
182548,-166.666666666667,4,2,2,70,0,0
182719,-166.666666666667,4,2,11,70,0,0
182891,-166.666666666667,4,2,2,70,0,0
183062,-166.666666666667,4,2,11,70,0,0
183234,-166.666666666667,4,2,15,70,0,0
183405,-166.666666666667,4,2,2,70,0,0
183576,-166.666666666667,4,2,20,70,0,0
183748,-166.666666666667,4,2,21,70,0,0
183919,-166.666666666667,4,2,2,70,0,0
184091,-166.666666666667,4,2,21,70,0,0
184262,-166.666666666667,4,2,2,70,0,0
184434,-166.666666666667,4,2,21,70,0,0
184605,-166.666666666667,4,2,22,70,0,0
184776,-166.666666666667,4,2,2,70,0,0
184948,-166.666666666667,4,2,23,70,0,0
185119,-166.666666666667,4,2,11,70,0,0
185291,-166.666666666667,4,2,2,70,0,0
185462,-166.666666666667,4,2,11,70,0,0
185634,-166.666666666667,4,2,2,70,0,0
185805,-166.666666666667,4,2,11,70,0,0
185976,-166.666666666667,4,2,15,70,0,0
186148,-166.666666666667,4,2,2,70,0,0
186319,-166.666666666667,4,2,24,70,0,0
186491,-166.666666666667,4,2,25,70,0,0
186834,-166.666666666667,4,2,1,70,0,0
190519,-1000,4,2,1,5,0,0
190605,-166.666666666667,4,2,1,55,0,0
192662,-166.666666666667,4,2,1,55,0,0
193348,-166.666666666667,4,2,4,55,0,0
194719,-200,4,2,4,55,0,0
195062,-142.857142857143,4,2,4,55,0,0
195405,-125,4,2,4,55,0,0
195748,-100,4,2,4,55,0,0
196091,-100,4,2,1,60,0,0
198834,-125,4,2,1,60,0,0
199091,-125,4,2,1,5,0,0
199176,-125,4,2,1,60,0,0
200291,-125,4,2,1,5,0,0
200376,-125,4,2,1,60,0,0
201148,-125,4,2,1,5,0,0
201234,-125,4,2,1,60,0,0
203034,-125,4,2,1,5,0,0
203119,-125,4,2,1,60,0,0
204234,-125,4,2,1,5,0,0
204319,-125,4,2,5,65,0,0
204576,-1000,4,2,5,5,0,0
204662,-125,4,2,5,65,0,0
205176,-125,4,2,1,65,0,0
205348,-125,4,2,5,65,0,0
205519,-125,4,2,1,65,0,0
205691,-125,4,2,4,65,0,0
205862,-125,4,2,1,65,0,0
206034,-125,4,2,5,65,0,0
206205,-125,4,2,1,65,0,0
206376,-125,4,2,5,65,0,0
206976,-1000,4,2,5,5,0,0
207062,-125,4,2,5,65,0,0
207405,-125,4,2,4,65,0,0
207576,-125,4,2,1,65,0,0
207748,-125,4,2,5,65,0,0
207919,-125,4,2,1,65,0,0
208091,-125,4,2,5,65,0,0
208262,-125,4,2,1,65,0,0
208434,-125,4,2,4,65,0,0
208519,-1000,4,2,4,5,0,0
208605,-125,4,2,1,65,0,0
208776,-125,4,2,5,65,0,0
208948,-125,4,2,1,65,0,0
209119,-125,4,2,5,65,0,0
209462,-125,4,2,4,65,0,0
209634,-125,4,2,1,65,0,0
209719,-1000,4,2,1,5,0,0
209805,-100,4,2,5,70,0,0
209976,-100,4,2,2,70,0,0
210148,-100,4,2,5,70,0,0
210319,-100,4,2,2,70,0,0
210491,-100,4,2,5,70,0,0
210662,-100,4,2,6,70,0,0
210834,-100,4,2,5,70,0,0
211005,-100,4,2,6,70,0,0
211176,-100,4,2,4,70,0,0
211348,-100,4,2,6,70,0,0
211519,-100,4,2,5,70,0,0
211691,-100,4,2,6,70,0,0
211862,-100,4,2,5,70,0,0
212034,-100,4,2,2,70,0,0
212205,-100,4,2,5,70,0,0
212376,-100,4,2,2,70,0,0
212548,-100,4,2,5,70,0,0
212719,-100,4,2,2,70,0,0
212891,-100,4,2,4,70,0,0
213062,-100,4,2,6,70,0,0
213234,-100,4,2,5,70,0,0
213405,-100,4,2,6,70,0,0
213576,-100,4,2,5,70,0,0
213748,-100,4,2,6,70,0,0
213919,-100,4,2,4,70,0,0
214091,-100,4,2,6,70,0,0
214262,-100,4,2,5,70,0,0
214434,-100,4,2,6,70,0,0
214605,-100,4,2,5,70,0,0
214776,-100,4,2,2,70,0,0
214948,-100,4,2,4,70,0,0
215119,-100,4,2,6,70,0,0
215291,-100,4,2,5,70,0,0
215462,-100,4,2,2,70,0,0
215634,-100,4,2,5,70,0,0
215805,-100,4,2,2,70,0,0
215976,-100,4,2,5,70,0,0
216148,-100,4,2,6,70,0,0
216319,-100,4,2,5,70,0,0
216491,-100,4,2,6,70,0,0
216662,-100,4,2,4,70,0,0
216834,-100,4,2,6,70,0,0
217005,-100,4,2,5,70,0,0
217176,-100,4,2,6,70,0,0
217348,-100,4,2,5,70,0,0
217519,-100,4,2,2,70,0,0
217691,-100,4,2,5,70,0,0
217862,-100,4,2,2,70,0,0
218034,-100,4,2,5,70,0,0
218205,-100,4,2,2,70,0,0
218376,-100,4,2,4,70,0,0
218548,-100,4,2,6,70,0,0
218719,-100,4,2,5,70,0,0
218891,-100,4,2,6,70,0,0
219062,-100,4,2,5,70,0,0
219234,-100,4,2,6,70,0,0
219405,-100,4,2,1,70,0,0
219576,-111.111111111111,4,2,1,70,0,0
219662,-1000,4,2,1,5,0,0
219748,-66.6666666666667,4,2,1,70,0,0
219834,-1000,4,2,1,5,0,0
219919,-50,4,2,1,70,0,0
220005,-1000,4,2,1,5,0,0
220091,-250.000000000001,4,2,1,70,0,0
220262,-1000,4,2,1,5,0,0
220348,-83.3333333333333,4,2,1,70,0,0
220776,-166.666666666667,4,2,1,60,0,0
223091,-1000,4,2,1,5,0,0
223176,-166.666666666667,4,2,1,60,0,0
225834,-1000,4,2,1,5,0,0
225919,-166.666666666667,4,2,1,60,0,0
226262,-166.666666666667,4,2,1,65,0,0
226605,-166.666666666667,4,2,26,65,0,0
227119,-166.666666666667,4,2,1,65,0,0
227291,-166.666666666667,4,2,26,65,0,0
227462,-166.666666666667,4,2,1,65,0,0
227976,-142.857142857143,4,2,26,65,0,0
228491,-142.857142857143,4,2,1,65,0,0
228662,-250.000000000001,4,2,26,65,0,0
228834,-250.000000000001,4,2,1,65,0,0
229348,-125,4,2,26,65,0,0
229862,-125,4,2,1,65,0,0
230034,-125,4,2,26,65,0,0
230205,-125,4,2,1,65,0,0
231748,-125,4,2,1,55,0,0
233119,-166.666666666667,4,2,1,55,0,0
242034,-125,4,2,1,55,0,0
242719,-100,4,2,19,65,0,0
243062,-100,4,2,27,65,0,0
243319,-100,4,2,1,65,0,0
243405,-100,4,2,19,65,0,0
243576,-100,4,2,28,65,0,0
243748,-100,4,2,6,65,0,0
243919,-100,4,2,11,65,0,0
244091,-100,4,2,29,65,0,0
244434,-100,4,2,30,65,0,0
244691,-100,4,2,1,65,0,0
244776,-100,4,2,29,65,0,0
244948,-100,4,2,31,65,0,0
245119,-100,4,2,6,65,0,0
245291,-100,4,2,32,65,0,0
245462,-100,4,2,25,65,0,0
245634,-100,4,2,1,65,0,0
245805,-100,4,2,33,65,0,0
245976,-100,4,2,1,65,0,0
246148,-100,4,2,25,65,0,0
246319,-100,4,2,34,65,0,0
246491,-100,4,2,8,65,0,0
246662,-100,4,2,28,65,0,0
246834,-100,4,2,32,65,0,0
247176,-100,4,2,35,65,0,0
247434,-100,4,2,1,65,0,0
247519,-100,4,2,36,65,0,0
247691,-100,4,2,31,65,0,0
247862,-100,4,2,6,65,0,0
248034,-100,4,2,10,65,0,0
248205,-100,4,2,19,65,0,0
248548,-100,4,2,27,65,0,0
248805,-100,4,2,1,65,0,0
248891,-100,4,2,19,65,0,0
249062,-100,4,2,28,65,0,0
249234,-100,4,2,6,65,0,0
249405,-100,4,2,11,65,0,0
249576,-100,4,2,29,65,0,0
249748,-100,4,2,1,65,0,0
249919,-100,4,2,30,65,0,0
250091,-100,4,2,1,65,0,0
250262,-100,4,2,29,65,0,0
250434,-100,4,2,31,65,0,0
250605,-100,4,2,6,65,0,0
250776,-100,4,2,32,65,0,0
250948,-100,4,2,25,65,0,0
251291,-100,4,2,33,65,0,0
251548,-100,4,2,1,65,0,0
251634,-100,4,2,25,65,0,0
251805,-100,4,2,34,65,0,0
251976,-66.6666666666667,4,2,8,65,0,0
252148,-100,4,2,28,65,0,0
252319,-100,4,2,1,65,0,0
253691,-62.5,4,2,9,80,0,0
254034,-62.5,4,2,37,80,0,0
254548,-62.5,4,2,10,80,0,0
254719,-62.5,4,2,1,80,0,0
254891,-100,4,2,11,80,0,0
255062,-62.5,4,2,38,80,0,0
255919,-62.5,4,2,11,80,0,0
256091,-62.5,4,2,1,80,0,0
256262,-100,4,2,32,80,0,0
256434,-62.5,4,2,39,80,0,0
257291,-62.5,4,2,21,80,0,0
257462,-62.5,4,2,1,80,0,0
257634,-100,4,2,10,80,0,0
257805,-62.5,4,2,40,80,0,0
258662,-62.5,4,2,11,80,0,0
258834,-62.5,4,2,1,80,0,0
259005,-100,4,2,10,80,0,0
259176,-62.5,4,2,37,80,0,0
260034,-62.5,4,2,10,80,0,0
260205,-62.5,4,2,1,80,0,0
260376,-100,4,2,11,80,0,0
260548,-62.5,4,2,38,80,0,0
261405,-62.5,4,2,11,80,0,0
261576,-62.5,4,2,1,80,0,0
261748,-100,4,2,32,80,0,0
261919,-62.5,4,2,39,80,0,0
262776,-62.5,4,2,21,80,0,0
262948,-62.5,4,2,1,80,0,0
263119,-100,4,2,10,80,0,0
263291,-62.5,4,2,40,80,0,0
264148,-62.5,4,2,1,80,0,0
264491,-100,4,2,1,80,0,0
264662,-55.5555555555556,4,2,9,80,0,0
264834,-55.5555555555556,4,2,2,80,0,0
265005,-55.5555555555556,4,2,9,80,0,0
265176,-55.5555555555556,4,2,2,80,0,0
265348,-45.4545454545455,4,2,9,80,0,0
265519,-45.4545454545455,4,2,12,80,0,0
265691,-45.4545454545455,4,2,4,80,0,0
265862,-83.3333333333333,4,2,13,80,0,0
266034,-55.5555555555556,4,2,14,80,0,0
266205,-55.5555555555556,4,2,2,80,0,0
266376,-55.5555555555556,4,2,14,80,0,0
266548,-55.5555555555556,4,2,2,80,0,0
266719,-66.6666666666667,4,2,14,80,0,0
266891,-66.6666666666667,4,2,13,80,0,0
267062,-66.6666666666667,4,2,4,80,0,0
267234,-83.3333333333333,4,2,15,80,0,0
267405,-55.5555555555556,4,2,16,80,0,0
267576,-55.5555555555556,4,2,2,80,0,0
267748,-55.5555555555556,4,2,16,80,0,0
267919,-55.5555555555556,4,2,2,80,0,0
268091,-45.4545454545455,4,2,16,80,0,0
268262,-45.4545454545455,4,2,17,80,0,0
268434,-45.4545454545455,4,2,4,80,0,0
268605,-83.3333333333333,4,2,12,80,0,0
268776,-55.5555555555556,4,2,18,80,0,0
268948,-55.5555555555556,4,2,2,80,0,0
269119,-55.5555555555556,4,2,18,80,0,0
269291,-55.5555555555556,4,2,2,80,0,0
269462,-66.6666666666667,4,2,18,80,0,0
269634,-66.6666666666667,4,2,13,80,0,0
269805,-66.6666666666667,4,2,4,80,0,0
269976,-83.3333333333333,4,2,12,80,0,0
270148,-55.5555555555556,4,2,41,80,0,0
270319,-55.5555555555556,4,2,2,80,0,0
270491,-55.5555555555556,4,2,41,80,0,0
270662,-55.5555555555556,4,2,2,80,0,0
270834,-50,4,2,41,80,0,0
271005,-50,4,2,15,80,0,0
271176,-50,4,2,4,80,0,0
271348,-83.3333333333333,4,2,20,80,0,0
271519,-55.5555555555556,4,2,42,80,0,0
271691,-55.5555555555556,4,2,2,80,0,0
271862,-55.5555555555556,4,2,42,80,0,0
272034,-55.5555555555556,4,2,2,80,0,0
272205,-41.6666666666667,4,2,42,80,0,0
272376,-41.6666666666667,4,2,22,80,0,0
272548,-41.6666666666667,4,2,4,80,0,0
272719,-83.3333333333333,4,2,23,80,0,0
272891,-55.5555555555556,4,2,41,80,0,0
273062,-55.5555555555556,4,2,2,80,0,0
273234,-55.5555555555556,4,2,41,80,0,0
273405,-55.5555555555556,4,2,2,80,0,0
273576,-45.4545454545455,4,2,41,80,0,0
273748,-45.4545454545455,4,2,15,80,0,0
273919,-45.4545454545455,4,2,4,80,0,0
274091,-55.5555555555556,4,2,24,80,0,0
274262,-55.5555555555556,4,2,25,80,0,0
275119,-55.5555555555556,4,2,29,80,0,0
275290,-55.5555555555556,4,2,43,80,0,0
275462,-55.5555555555556,4,2,44,80,0,0
275634,-62.5,4,2,9,80,0,0
275805,-62.5,4,2,2,80,0,0
275976,-62.5,4,2,19,80,0,0
276148,-62.5,4,2,2,80,0,0
276319,-62.5,4,2,9,80,0,0
276491,-62.5,4,2,12,80,0,0
276662,-62.5,4,2,4,80,0,0
276834,-62.5,4,2,13,80,0,0
277005,-62.5,4,2,14,80,0,0
277176,-62.5,4,2,2,80,0,0
277348,-62.5,4,2,14,80,0,0
277519,-62.5,4,2,2,80,0,0
277691,-50,4,2,14,80,0,0
277862,-50,4,2,13,80,0,0
278034,-50,4,2,4,80,0,0
278205,-83.3333333333333,4,2,15,80,0,0
278376,-62.5,4,2,16,80,0,0
278548,-62.5,4,2,6,80,0,0
278719,-62.5,4,2,16,80,0,0
278891,-62.5,4,2,6,80,0,0
279062,-71.4285714285714,4,2,16,80,0,0
279234,-71.4285714285714,4,2,3,80,0,0
279405,-71.4285714285714,4,2,5,80,0,0
279576,-71.4285714285714,4,2,4,80,0,0
279748,-50,4,2,18,80,0,0
279919,-50,4,2,2,80,0,0
280091,-50,4,2,18,80,0,0
280262,-50,4,2,2,80,0,0
280434,-45.4545454545455,4,2,18,80,0,0
280605,-45.4545454545455,4,2,13,80,0,0
280776,-45.4545454545455,4,2,4,80,0,0
280948,-83.3333333333333,4,2,12,80,0,0
281119,-62.5,4,2,9,80,0,0
281291,-62.5,4,2,2,80,0,0
281462,-62.5,4,2,9,80,0,0
281634,-62.5,4,2,2,80,0,0
281805,-62.5,4,2,9,80,0,0
281976,-62.5,4,2,12,80,0,0
282148,-62.5,4,2,4,80,0,0
282319,-83.3333333333333,4,2,13,80,0,0
282491,-62.5,4,2,14,80,0,0
282662,-62.5,4,2,6,80,0,0
282834,-62.5,4,2,14,80,0,0
283005,-62.5,4,2,6,80,0,0
283176,-62.5,4,2,14,80,0,0
283348,-52.6315789473684,4,2,13,80,0,0
283519,-52.6315789473684,4,2,4,80,0,0
283691,-71.4285714285714,4,2,15,80,0,0
283862,-62.5,4,2,16,80,0,0
284034,-62.5,4,2,2,80,0,0
284205,-62.5,4,2,16,80,0,0
284376,-83.3333333333333,4,2,2,80,0,0
284548,-50,4,2,16,80,0,0
284719,-50,4,2,17,80,0,0
284891,-50,4,2,4,80,0,0
285062,-83.3333333333333,4,2,12,80,0,0
285234,-83.3333333333333,4,2,18,80,0,0
285405,-83.3333333333333,4,2,2,80,0,0
285576,-83.3333333333333,4,2,18,80,0,0
285748,-83.3333333333333,4,2,2,80,0,0
285919,-41.6666666666667,4,2,18,80,0,0
286091,-41.6666666666667,4,2,6,80,0,0
286262,-41.6666666666667,4,2,4,80,0,0
286434,-83.3333333333333,4,2,6,80,0,0
286605,-62.5,4,2,9,80,0,0
286776,-62.5,4,2,2,80,0,0
286948,-62.5,4,2,9,80,0,0
287119,-62.5,4,2,2,80,0,0
287291,-62.5,4,2,9,80,0,0
287462,-62.5,4,2,12,80,0,0
287634,-62.5,4,2,4,80,0,0
287805,-62.5,4,2,13,80,0,0
287976,-62.5,4,2,14,80,0,0
288148,-62.5,4,2,6,80,0,0
288319,-62.5,4,2,14,80,0,0
288491,-62.5,4,2,6,80,0,0
288662,-50,4,2,14,80,0,0
288834,-50,4,2,13,80,0,0
289005,-50,4,2,4,80,0,0
289176,-83.3333333333333,4,2,15,80,0,0
289348,-55.5555555555556,4,2,16,80,0,0
289519,-55.5555555555556,4,2,6,80,0,0
289691,-55.5555555555556,4,2,16,80,0,0
289862,-55.5555555555556,4,2,6,80,0,0
290034,-62.5,4,2,16,80,0,0
290205,-62.5,4,2,17,80,0,0
290376,-62.5,4,2,4,80,0,0
290548,-62.5,4,2,12,80,0,0
290719,-50,4,2,18,80,0,0
290891,-50,4,2,2,80,0,0
291062,-50,4,2,18,80,0,0
291234,-50,4,2,2,80,0,0
291405,-41.6666666666667,4,2,18,80,0,0
291576,-41.6666666666667,4,2,13,80,0,0
291748,-41.6666666666667,4,2,4,80,0,0
291919,-83.3333333333333,4,2,12,80,0,0
292091,-200,4,2,11,65,0,0
292434,-200,4,2,45,65,0,0
292948,-200,4,2,35,65,0,0
293119,-200,4,2,10,65,0,0
293291,-200,4,2,25,65,0,0
293462,-200,4,2,21,65,0,0
293634,-200,4,2,1,65,0,0
293805,-200,4,2,46,65,0,0
293976,-200,4,2,1,65,0,0
294148,-200,4,2,21,65,0,0
294319,-200,4,2,47,65,0,0
294491,-200,4,2,10,65,0,0
294662,-200,4,2,48,65,0,0
294834,-200,4,2,11,65,0,0
295176,-200,4,2,45,65,0,0
295691,-200,4,2,32,65,0,0
295862,-200,4,2,10,65,0,0
296034,-200,4,2,29,65,0,0
296205,-200,4,2,25,65,0,0
296548,-200,4,2,1,65,0,0
297576,-125,4,2,2,70,0,0
297748,-125,4,2,6,70,0,0
297919,-125,4,2,4,70,0,0
298091,-125,4,2,2,70,0,0
298262,-125,4,2,5,70,0,0
298434,-125,4,2,2,70,0,0
298605,-125,4,2,5,70,0,0
298776,-125,4,2,2,70,0,0
298948,-125,4,2,4,70,0,0
299119,-125,4,2,6,70,0,0
299291,-125,4,2,4,70,0,0
299462,-125,4,2,2,70,0,0
299634,-125,4,2,5,70,0,0
299805,-125,4,2,2,70,0,0
299976,-125,4,2,5,70,0,0
300148,-125,4,2,2,70,0,0
300319,-125,4,2,4,70,0,0
300491,-125,4,2,6,70,0,0
300662,-125,4,2,4,70,0,0
300834,-125,4,2,2,70,0,0
301005,-125,4,2,5,70,0,0
301176,-125,4,2,2,70,0,0
301348,-125,4,2,5,70,0,0
301519,-125,4,2,2,70,0,0
301691,-125,4,2,4,70,0,0
301862,-125,4,2,6,70,0,0
302034,-125,4,2,4,70,0,0
302205,-125,4,2,2,70,0,0
302376,-125,4,2,5,70,0,0
302548,-125,4,2,2,70,0,0
302634,-125,4,2,2,5,0,0
302719,-125,4,2,5,70,0,0
302891,-125,4,2,2,70,0,0
303062,-125,4,2,4,70,0,0
303234,-125,4,2,6,70,0,0
303405,-125,4,2,4,70,0,0
303576,-125,4,2,2,70,0,0
303748,-125,4,2,5,70,0,0
303919,-125,4,2,2,70,0,0
304091,-125,4,2,5,70,0,0
304262,-125,4,2,2,70,0,0
304434,-125,4,2,4,70,0,0
304605,-125,4,2,6,70,0,0
304776,-125,4,2,4,70,0,0
304948,-125,4,2,2,70,0,0
305119,-125,4,2,5,70,0,0
305291,-125,4,2,2,70,0,0
305462,-125,4,2,5,70,0,0
305634,-125,4,2,2,70,0,0
305805,-125,4,2,4,70,0,0
305976,-125,4,2,6,70,0,0
306148,-125,4,2,4,70,0,0
306319,-125,4,2,2,70,0,0
306491,-125,4,2,5,70,0,0
306662,-125,4,2,2,70,0,0
306834,-125,4,2,5,70,0,0
307005,-125,4,2,2,70,0,0
307176,-125,4,2,4,70,0,0
307348,-125,4,2,6,70,0,0
307519,-125,4,2,4,70,0,0
307691,-125,4,2,2,70,0,0
307862,-125,4,2,5,70,0,0
308034,-125,4,2,2,70,0,0
308205,-125,4,2,5,70,0,0
308376,-125,4,2,2,70,0,0
308548,-142.857142857143,4,2,2,65,0,0
308719,-142.857142857143,4,2,1,65,0,0
308891,-142.857142857143,4,2,4,65,0,0
309234,-142.857142857143,4,2,5,65,0,0
309919,-142.857142857143,4,2,4,65,0,0
310091,-142.857142857143,4,2,1,65,0,0
310262,-142.857142857143,4,2,4,65,0,0
310605,-142.857142857143,4,2,5,65,0,0
311291,-142.857142857143,4,2,4,65,0,0
311462,-142.857142857143,4,2,1,65,0,0
311634,-142.857142857143,4,2,4,65,0,0
311976,-142.857142857143,4,2,5,65,0,0
312662,-142.857142857143,4,2,4,65,0,0
312834,-142.857142857143,4,2,1,65,0,0
313005,-142.857142857143,4,2,4,65,0,0
313348,-142.857142857143,4,2,5,65,0,0
314034,-142.857142857143,4,2,4,65,0,0
314205,-142.857142857143,4,2,1,65,0,0
314376,-142.857142857143,4,2,4,65,0,0
314719,-142.857142857143,4,2,5,65,0,0
315405,-166.666666666667,4,2,4,65,0,0
315576,-166.666666666667,4,2,1,65,0,0
315748,-166.666666666667,4,2,4,65,0,0
316091,-166.666666666667,4,2,5,65,0,0
316776,-200,4,2,4,65,0,0
316948,-200,4,2,1,65,0,0
317119,-200,4,2,4,65,0,0
317462,-200,4,2,5,65,0,0
318319,-200,4,2,1,65,0,0
319434,-200,4,2,1,5,0,0
319519,-166.666666666667,4,2,2,60,0,0
319691,-166.666666666667,4,2,1,60,0,0
319862,-166.666666666667,4,2,4,60,0,0
320205,-166.666666666667,4,2,5,60,0,0
320891,-166.666666666667,4,2,4,60,0,0
321062,-166.666666666667,4,2,1,60,0,0
321234,-166.666666666667,4,2,4,60,0,0
321576,-166.666666666667,4,2,5,60,0,0
322262,-166.666666666667,4,2,4,60,0,0
322434,-166.666666666667,4,2,1,60,0,0
322605,-166.666666666667,4,2,4,60,0,0
322948,-166.666666666667,4,2,5,60,0,0
323634,-166.666666666667,4,2,4,60,0,0
323805,-166.666666666667,4,2,1,60,0,0
323976,-166.666666666667,4,2,4,60,0,0
324319,-166.666666666667,4,2,5,60,0,0
325005,-166.666666666667,4,2,4,60,0,0
325176,-166.666666666667,4,2,1,60,0,0
325348,-166.666666666667,4,2,4,60,0,0
325691,-166.666666666667,4,2,5,60,0,0
326376,-166.666666666667,4,2,4,60,0,0
326548,-166.666666666667,4,2,1,60,0,0
326719,-166.666666666667,4,2,4,60,0,0
327062,-166.666666666667,4,2,5,60,0,0
327748,-166.666666666667,4,2,4,60,0,0
327919,-166.666666666667,4,2,1,60,0,0
328091,-166.666666666667,4,2,4,60,0,0
328434,-166.666666666667,4,2,5,60,0,0
329119,-166.666666666667,4,2,4,60,0,0
329291,-166.666666666667,4,2,1,60,0,0
329462,-166.666666666667,4,2,4,60,0,0
329805,-166.666666666667,4,2,5,60,0,0
330491,-200,4,2,5,55,0,0
330662,-200,4,2,1,55,0,0
331176,-200,4,2,3,55,0,0
331862,-200,4,2,1,55,0,0
332548,-200,4,2,3,55,0,0
333234,-200,4,2,1,55,0,0
333919,-200,4,2,3,55,0,0
334605,-200,4,2,1,55,0,0
335291,-200,4,2,3,55,0,0
335634,-200,4,2,1,55,0,0
335976,-333.333333333333,4,2,1,50,0,0
337348,-400,4,2,1,50,0,0
338719,-500,4,2,1,50,0,0
340434,-500,4,2,1,65,0,0

[Colours]
Combo1 : 194,61,137
Combo2 : 216,102,73
Combo3 : 84,192,166
Combo4 : 101,77,187

[HitObjects]
256,192,8205,12,0,10862,0:0:0:0:
489,113,10948,6,0,P|490:90|493:68,1,44.4,12|2,3:1|2:2,0:0:0:0:
418,49,11291,2,0,P|415:71|413:93,1,44.4,10|0,3:2|0:0,0:0:0:0:
335,111,11634,2,0,P|338:66|343:22,1,88.8,10|10,3:2|3:2,0:0:0:0:
182,42,12319,5,10,3:2:0:0:
182,42,12491,2,0,P|185:64|187:86,1,44.4,2|10,2:2|3:2,0:0:0:0:
27,71,12834,1,0,0:0:0:0:
27,71,13006,2,0,P|30:93|32:115,1,44.4,10|0,3:2|0:0,0:0:0:0:
99,35,13348,2,0,P|105:80|109:126,1,88.8,10|10,3:2|3:2,0:0:0:0:
144,372,13862,6,0,B|116:338|116:338|135:297,1,88.8,2|0,2:2|0:0,0:0:0:0:
0,351,14376,2,0,P|22:347|45:345,1,44.4,10|0,3:2|0:0,0:0:0:0:
208,327,14719,2,0,P|251:320|296:315,1,88.8,10|10,3:2|3:2,0:0:0:0:
496,333,15234,6,0,B|515:292|515:292|487:258,1,88.8,2|0,2:2|0:0,0:0:0:0:
422,307,15748,2,0,P|399:308|378:312,1,44.4,10|0,3:2|0:0,0:0:0:0:
205,330,16091,2,0,P|248:323|293:318,1,88.8,10|10,3:2|3:2,0:0:0:0:
314,107,16605,6,0,P|315:84|318:62,1,44.4,2|10,2:2|3:2,0:0:0:0:
156,125,16948,1,0,0:0:0:0:
156,125,17119,2,0,P|149:103|142:82,1,44.4,10|0,3:2|0:0,0:0:0:0:
226,23,17462,2,0,P|228:45|230:67,1,44.4,10|0,3:2|0:0,0:0:0:0:
93,185,17805,5,10,3:2:0:0:
93,185,17976,2,0,P|113:192|134:201,1,44.4,2|10,2:2|3:2,0:0:0:0:
411,166,18319,5,0,0:0:0:0:
410,166,18490,2,0,P|389:173|368:182,1,44.4,10|0,3:2|0:0,0:0:0:0:
268,376,18834,2,0,P|266:353|263:331,1,44.4,10|0,3:2|0:0,0:0:0:0:
251,215,19176,5,4,3:2:0:0:
391,314,21919,5,14,3:1:0:0:
391,314,22091,2,0,P|358:306|327:295,1,66.5999979675294,2|10,2:2|3:2,0:0:0:0:
119,366,22434,1,0,0:0:0:0:
119,366,22606,2,0,P|150:355|182:347,1,66.5999979675294,10|0,3:2|0:0,0:0:0:0:
246,252,22948,2,0,P|255:317|259:384,1,133.199995935059,10|10,3:2|3:2,0:0:0:0:
445,274,23462,6,0,B|415:236|415:236|436:188,1,99.899996951294,2|0,2:2|0:0,0:0:0:0:
512,235,23805,2,0,P|509:218|507:201,1,33.2999989837647
371,150,23976,2,0,P|367:116|362:83,1,66.5999979675294,10|0,3:2|0:0,0:0:0:0:
505,0,24319,2,0,P|493:64|488:131,1,133.199995935059,10|10,3:2|3:2,0:0:0:0:
290,28,24834,6,0,P|257:35|225:42,1,66.5999979675294,2|10,2:2|3:2,0:0:0:0:
306,188,25176,1,0,0:0:0:0:
250,243,25348,2,0,P|217:235|185:228,1,66.5999979675294,10|0,3:2|0:0,0:0:0:0:
129,20,25691,2,0,B|113:60|165:96|138:62|187:93|174:134,1,133.199995935059,10|10,3:2|3:2,0:0:0:0:
0,171,26205,6,0,P|48:158|95:140,1,99.899996951294,2|0,2:2|0:0,0:0:0:0:
88,222,26548,2,0,P|72:228|56:232,1,33.2999989837647
0,384,26719,2,0,P|31:371|63:363,1,66.5999979675294,10|0,3:2|0:0,0:0:0:0:
185,228,27062,2,0,P|173:302|171:367,1,133.199995935059,10|10,3:2|3:2,0:0:0:0:
335,384,27576,6,0,P|335:350|341:317,1,66.5999979675294,2|10,2:2|3:2,0:0:0:0:
273,249,27919,1,0,0:0:0:0:
361,145,28091,2,0,P|355:177|354:211,1,66.5999979675294,10|0,3:2|0:0,0:0:0:0:
512,302,28434,2,0,B|456:265|456:265|393:287,1,133.199995935059,10|10,3:2|3:2,0:0:0:0:
320,76,28948,6,0,P|320:42|326:9,1,66.5999979675294,2|10,2:2|3:2,0:0:0:0:
212,216,29291,2,0,P|212:199|215:182,1,33.2999989837647
157,132,29462,2,0,P|157:98|163:65,1,66.5999979675294,10|0,3:2|0:0,0:0:0:0:
0,24,29805,2,0,P|11:89|11:155,1,133.199995935059,10|10,3:2|3:2,0:0:0:0:
0,344,30319,6,0,B|56:307|56:307|119:329,1,133.199995935059,2|0,2:2|0:0,0:0:0:0:
180,265,30834,2,0,P|147:256|116:244,1,66.5999979675294,10|0,3:2|0:0,0:0:0:0:
315,382,31176,2,0,P|346:370|378:361,1,66.5999979675294,10|0,3:2|0:0,0:0:0:0:
247,327,31519,5,10,3:2:0:0:
356,182,31691,2,0,P|348:214|344:247,1,66.5999979675294,2|10,2:2|3:2,0:0:0:0:
263,62,32034,1,0,0:0:0:0:
152,109,32205,2,0,P|159:141|163:174,1,66.5999979675294,10|0,3:2|0:0,0:0:0:0:
390,4,32548,2,0,P|382:36|378:69,1,66.5999979675294,10|0,3:2|0:0,0:0:0:0:
9,57,32891,5,14,1:1:0:0:
8,57,33062,2,0,P|27:53|45:48,1,38.8499988143921,2|0,2:2|0:0,0:0:0:0:
104,0,33234,2,0,B|131:27|131:27|118:64,1,77.6999976287843,10|0,1:2|0:0,0:0:0:0:
37,319,33576,2,0,B|10:292|10:292|22:254,1,77.6999976287843,10|0,1:2|0:0,0:0:0:0:
62,125,33919,2,0,B|43:172|104:215|72:174|130:211|115:260,1,155.399995257569,10|10,1:2|1:2,0:0:0:0:
250,383,34434,6,0,P|288:376|326:371,1,77.6999976287843,2|10,2:2|1:2,0:0:0:0:
468,259,34776,2,0,P|464:278|462:297,1,38.8499988143921
383,307,34948,2,0,P|388:268|395:230,1,77.6999976287843,10|0,1:2|0:0,0:0:0:0:
273,59,35291,2,0,P|265:97|261:135,1,77.6999976287843,10|0,1:2|0:0,0:0:0:0:
85,252,35634,5,10,1:2:0:0:
36,124,35805,2,0,P|28:162|24:200,1,77.6999976287843,2|10,2:2|1:2,0:0:0:0:
202,378,36148,2,0,P|182:380|163:384,1,38.8499988143921
21,333,36319,2,0,P|78:322|136:315,1,116.549996443176,10|0,1:2|0:0,0:0:0:0:
211,303,36662,2,0,P|250:295|290:290,1,77.6999976287843,10|0,1:2|0:0,0:0:0:0:
512,134,37005,5,10,1:2:0:0:
441,178,37176,2,0,B|418:144|418:144|430:108,1,77.6999976287843,2|10,2:2|1:2,0:0:0:0:
361,244,37519,2,0,P|356:225|353:205,1,38.8499988143921
338,127,37691,2,0,P|329:89|323:50,1,77.6999976287843,10|0,1:2|0:0,0:0:0:0:
257,217,38034,2,0,B|269:180|269:180|246:148,1,77.6999976287843,10|0,1:2|0:0,0:0:0:0:
32,51,38376,5,10,1:2:0:0:
6,134,38548,2,0,P|44:128|82:119,1,77.6999976287843,2|10,2:2|1:2,0:0:0:0:
0,384,38891,2,0,P|18:378|37:376,1,38.8499988143921
187,344,39062,2,0,P|148:349|110:359,1,77.6999976287843,10|0,1:2|0:0,0:0:0:0:
11,251,39405,2,0,P|68:240|124:225,1,116.549996443176,10|0,1:2|0:0,0:0:0:0:
200,236,39748,6,0,P|212:253|220:269,1,38.8499988143921,10|0,1:2|0:0,0:0:0:0:
421,384,39919,2,0,P|457:371|495:363,1,77.6999976287843,2|10,2:2|1:2,0:0:0:0:
292,247,40262,2,0,P|296:265|296:284,1,38.8499988143921
366,332,40434,2,0,P|394:305|425:282,1,77.6999976287843,10|0,1:2|0:0,0:0:0:0:
460,135,40776,2,0,B|444:86|502:50|470:90|531:48|512:1,1,155.399995257569,10|10,1:2|1:2,0:0:0:0:
493,223,41291,6,0,P|455:213|419:198,1,77.6999976287843,2|10,2:2|1:2,0:0:0:0:
289,40,41634,2,0,P|286:20|281:2,1,38.8499988143921
202,0,41805,2,0,P|212:37|217:75,1,77.6999976287843,10|0,1:2|0:0,0:0:0:0:
162,346,42148,2,0,P|189:318|219:295,1,77.6999976287843,10|0,1:2|0:0,0:0:0:0:
306,178,42491,5,4,1:2:0:0:
306,178,42834,5,2,2:2:0:0:
129,217,43005,1,2,2:2:0:0:
202,196,43176,1,2,2:2:0:0:
6,251,43519,5,2,2:2:0:0:
256,192,43605,12,0,46519,0:0:0:0:
466,158,46605,5,6,1:2:0:0:
256,192,46691,12,6,52091,2:2:0:0:
512,187,54834,6,0,P|455:193|377:207,1,133.2,2|0,1:2|0:0,0:0:0:0:
319,250,55176,2,0,B|290:216|290:216|310:175,1,88.8,2|0,1:2|0:0,0:0:0:0:
457,85,55519,5,2,1:2:0:0:
250,118,55691,1,2,2:2:0:0:
388,281,55862,1,2,1:2:0:0:
180,78,56034,2,0,P|117:59|54:37,1,133.2,2|0,2:2|0:0,0:0:0:0:
0,100,56376,6,0,P|21:106|43:115,1,44.4,2|0,2:2|0:0,0:0:0:0:
252,45,56548,1,2,1:2:0:0:
252,45,56719,1,2,2:2:0:0:
98,219,56891,2,0,B|87:176|87:176|117:145,1,88.8,2|0,1:2|0:0,0:0:0:0:
420,190,57234,2,0,B|446:252|446:252|398:296,1,133.2,2|0,1:2|0:0,0:0:0:0:
261,373,57576,6,0,L|257:340,6,22.2,2|0|0|0|0|0|0,1:2|0:0|0:0|0:0|0:0|0:0|0:0,0:0:0:0:
337,373,57919,2,0,P|332:351|329:329,1,44.4,0|0,1:1|0:0,0:0:0:0:
410,339,58091,1,2,2:2:0:0:
180,357,58262,6,0,P|184:335|187:313,1,44.4,2|0,1:2|0:0,0:0:0:0:
288,248,58434,2,0,P|283:226|280:204,1,44.4,2|0,2:2|0:0,0:0:0:0:
218,148,58605,1,2,1:2:0:0:
344,0,58776,2,0,P|278:13|212:23,1,133.2,2|0,2:2|0:0,0:0:0:0:
268,92,59119,6,0,P|289:87|311:84,1,44.4,2|0,2:2|0:0,0:0:0:0:
512,33,59291,1,2,1:2:0:0:
430,0,59462,2,0,P|425:21|422:43,1,44.4,2|0,2:2|0:0,0:0:0:0:
398,201,59634,2,0,P|391:157|382:113,1,88.8,2|0,1:2|0:0,0:0:0:0:
488,132,59976,5,2,2:2:0:0:
131,188,60319,6,0,P|65:197|0:211,1,133.2,2|0,1:2|0:0,0:0:0:0:
72,118,60662,2,0,B|90:76|90:76|57:48,1,88.8,2|0,1:2|0:0,0:0:0:0:
97,271,61005,5,2,1:2:0:0:
0,97,61176,1,2,2:2:0:0:
191,2,61348,1,2,1:2:0:0:
171,84,61519,2,0,P|237:93|303:106,1,133.2,2|0,2:2|0:0,0:0:0:0:
386,125,61862,6,0,P|382:103|378:81,1,44.4,2|0,2:2|0:0,0:0:0:0:
512,0,62034,1,2,1:2:0:0:
326,180,62205,1,2,2:2:0:0:
451,297,62376,2,0,P|442:340|435:383,1,88.8,2|0,1:2|0:0,0:0:0:0:
61,243,62719,2,0,P|75:310|85:379,1,133.2,2|0,1:2|0:0,0:0:0:0:
154,322,63062,6,0,P|156:311|158:300,6,22.2,2|0|0|0|0|0|0,1:2|0:0|0:0|0:0|0:0|0:0|0:0,0:0:0:0:
237,384,63405,2,0,P|233:362|229:340,1,44.4,0|0,1:1|0:0,0:0:0:0:
308,345,63576,1,2,2:2:0:0:
458,295,63748,6,0,P|466:274|474:254,1,44.4,2|0,1:2|0:0,0:0:0:0:
397,209,63919,2,0,P|392:230|389:252,1,44.4,2|0,2:2|0:0,0:0:0:0:
311,267,64091,2,0,P|309:244|308:222,1,44.4,2|0,1:2|0:0,0:0:0:0:
491,141,64262,2,0,P|500:75|512:9,1,133.2,2|0,2:2|0:0,0:0:0:0:
425,37,64605,6,0,P|421:57|417:80,1,44.4,2|0,2:2|0:0,0:0:0:0:
310,66,64776,2,0,P|307:33|307:0,1,66.5999979675294,2|0,1:2|0:0,0:0:0:0:
157,37,64948,2,0,P|167:78|178:118,1,83.2500031757356,2|0,2:2|0:0,0:0:0:0:
258,131,65119,1,2,1:2:0:0:
0,384,65376,6,0,B|64:330|64:330|141:357,1,166.500006351471
380,384,65805,6,0,P|388:333|398:282,1,99.8999969512941,6|0,1:2|0:0,0:0:0:0:
89,118,66148,2,0,P|105:192|116:268,1,149.849995426941,2|0,1:2|0:0,0:0:0:0:
187,293,66491,5,2,1:2:0:0:
13,102,66662,1,2,2:2:0:0:
247,243,66834,1,2,1:2:0:0:
512,169,67005,2,0,P|437:178|364:192,1,149.849995426941,2|0,2:2|0:0,0:0:0:0:
304,151,67348,6,0,P|309:126|317:103,1,49.949998475647,2|0,2:2|0:0,0:0:0:0:
165,0,67519,2,0,P|172:23|178:47,1,49.949998475647,2|0,1:2|0:0,0:0:0:0:
247,81,67691,1,2,2:2:0:0:
32,129,67862,6,0,P|80:116|129:106,1,99.8999969512941,2|0,1:2|0:0,0:0:0:0:
482,0,68205,2,0,P|408:14|336:33,1,149.849995426941,2|0,1:2|0:0,0:0:0:0:
247,81,68548,6,0,P|249:69|251:52,6,24.9749992378235,2|0|0|0|0|0|0,1:2|0:0|0:0|0:0|0:0|0:0|0:0,0:0:0:0:
223,315,68891,1,2,1:3:0:0:
223,315,68976,1,0,0:0:0:0:
223,315,69062,2,0,P|218:339|214:364,1,49.949998475647,2|0,2:2|0:0,0:0:0:0:
192,241,69234,6,0,P|216:236|241:231,1,49.949998475647,2|0,1:2|0:0,0:0:0:0:
281,164,69405,2,0,P|256:157|233:149,1,49.949998475647,2|0,2:2|0:0,0:0:0:0:
0,320,69576,1,2,1:2:0:0:
0,320,69748,2,0,B|52:286|52:286|128:307,1,124.874996189118,2|0,2:2|0:0,0:0:0:0:
115,223,70091,6,0,P|111:198|107:173,1,49.949998475647,2|0,2:2|0:0,0:0:0:0:
7,54,70262,2,0,P|3:29|0:4,1,49.949998475647,2|0,1:2|0:0,0:0:0:0:
168,109,70434,2,0,P|164:84|160:59,1,49.949998475647,2|0,2:2|0:0,0:0:0:0:
460,0,70605,5,2,1:2:0:0:
410,198,70948,1,2,2:2:0:0:
460,0,71119,1,2,1:3:0:0:
486,161,71291,6,0,P|496:111|509:64,1,99.8999969512941,2|0,1:2|0:0,0:0:0:0:
233,255,71634,2,0,B|217:297|277:339|246:300|303:336|288:384,1,149.849995426941,2|0,1:2|0:0,0:0:0:0:
315,258,71976,2,0,P|319:233|326:209,1,49.949998475647,2|0,1:2|0:0,0:0:0:0:
196,365,72148,1,2,2:2:0:0:
0,187,72319,1,2,1:2:0:0:
0,187,72491,2,0,P|19:259|33:332,1,149.849995426941,2|0,2:2|0:0,0:0:0:0:
119,384,72834,6,0,P|113:357|106:330,1,49.949998475647,2|0,2:2|0:0,0:0:0:0:
40,121,73005,1,2,1:2:0:0:
162,42,73176,2,0,P|155:66|151:90,1,49.949998475647,2|0,2:2|0:0,0:0:0:0:
83,185,73348,2,0,B|132:171|132:171|171:200,1,99.8999969512941,2|0,1:2|0:0,0:0:0:0:
512,86,73691,2,0,B|441:64|441:64|379:107,1,149.849995426941,2|0,1:2|0:0,0:0:0:0:
253,83,74034,6,0,L|244:48,6,24.9749992378235,2|0|0|0|0|0|0,1:2|0:0|0:0|0:0|0:0|0:0|0:0,0:0:0:0:
324,49,74376,2,0,P|328:24|333:0,1,49.949998475647,2|0,1:3|0:0,0:0:0:0:
379,107,74548,1,2,2:2:0:0:
471,216,74719,6,0,P|466:191|461:166,1,49.949998475647,2|0,1:2|0:0,0:0:0:0:
364,258,74891,2,0,P|367:233|369:208,1,49.949998475647,2|0,2:2|0:0,0:0:0:0:
267,201,75062,2,0,P|277:178|287:155,1,49.949998475647,2|0,1:2|0:0,0:0:0:0:
428,368,75234,2,0,P|357:344|283:353,1,149.849995426941,2|0,2:2|0:0,0:0:0:0:
226,293,75576,6,0,L|219:267,2,24.9749992378235,2|0|0,2:2|0:0|0:0,0:0:0:0:
97,367,75748,6,0,L|101:340,2,24.9749992378235,2|0|0,2:2|0:0|0:0,0:0:0:0:
0,263,75919,6,0,L|14:240,2,24.9749992378235,2|0|0,2:2|0:0|0:0,0:0:0:0:
138,84,76091,6,0,L|142:57,4,24.9749992378235,2|0|0|0|0,2:2|0:0|0:0|0:0|0:0,0:0:0:0:
18,160,76348,2,0,B|80:145|80:145|123:185|123:185|178:160|178:160|233:190,1,244.200007452393
302,231,76776,6,0,P|307:203|312:176,1,55.5,6|0,1:1|0:0,0:0:0:0:
508,66,76948,1,2,2:3:0:0:
512,75,77034,1,0,0:0:0:0:
480,0,77119,2,0,P|464:81|450:163,1,166.5,10|0,1:2|0:0,0:0:0:0:
498,230,77462,6,0,P|471:236|444:242,1,55.5,2|0,1:2|0:0,0:0:0:0:
253,54,77634,1,2,2:2:0:0:
383,90,77805,6,0,P|355:83|329:77,1,55.5,10|0,1:2|0:0,0:0:0:0:
33,0,77976,2,0,B|84:-19|129:45|86:12|125:73|176:57,1,166.5,2|0,2:2|0:0,0:0:0:0:
253,54,78319,6,0,P|255:26|260:0,1,55.5,2|0,2:2|0:0,0:0:0:0:
236,151,78491,2,0,P|231:178|228:205,1,55.5,10|0,1:2|0:0,0:0:0:0:
56,88,78662,2,0,P|51:115|48:142,1,55.5,2|0,2:2|0:0,0:0:0:0:
0,204,78834,5,2,1:2:0:0:
43,230,78920,1,0,0:0:0:0:
90,212,79005,1,2,2:3:0:0:
401,295,79176,5,10,1:2:0:0:
448,277,79261,1,0,0:0:0:0:
491,303,79347,1,2,2:3:0:0:
438,384,79519,6,0,L|440:356,4,27.75,2|0|0|0|2,1:2|0:0|0:0|0:0|2:3,0:0:0:0:
326,310,79776,1,0,0:0:0:0:
326,310,79862,2,0,P|329:337|333:364,1,55.5,10|0,1:2|0:0,0:0:0:0:
182,351,80034,2,0,P|186:323|189:296,1,55.5,2|0,2:2|0:0,0:0:0:0:
404,214,80205,1,2,1:2:0:0:
404,214,80291,1,0,0:0:0:0:
404,214,80376,6,0,P|375:222|338:233,1,55.5,2|0,2:2|0:0,0:0:0:0:
116,197,80548,2,0,P|145:205|182:216,1,55.5,10|0,1:2|0:0,0:0:0:0:
272,143,80719,2,0,B|291:91|226:46|259:89|198:50|214:0,1,166.5,2|0,2:2|0:0,0:0:0:0:
296,8,81062,6,0,P|323:4|350:0,1,55.5,2|0,2:2|0:0,0:0:0:0:
401,89,81234,2,0,P|373:83|346:79,1,55.5,10|0,1:2|0:0,0:0:0:0:
144,40,81405,2,0,P|116:35|89:30,1,55.5,2|0,2:2|0:0,0:0:0:0:
486,110,81576,5,2,1:2:0:0:
486,110,81919,2,0,B|507:118|507:118|490:118,1,38.8499988143921,2|0,0:0|0:0,0:0:0:0:
275,384,82262,6,0,P|271:329|265:273,1,111,2|2,1:2|2:3,0:0:0:0:
245,143,82519,1,0,0:0:0:0:
187,185,82605,2,0,P|192:212|195:239,1,55.5,10|0,1:2|0:0,0:0:0:0:
346,328,82776,1,2,2:3:0:0:
311,105,82948,6,0,P|308:77|303:50,1,55.5,2|0,1:2|0:0,0:0:0:0:
497,163,83119,2,0,P|503:136|512:109,1,55.5,2|0,2:2|0:0,0:0:0:0:
381,41,83291,1,10,1:2:0:0:
384,51,83376,1,0,0:0:0:0:
442,0,83462,2,0,P|430:62|418:170,1,166.5,2|0,2:2|0:0,0:0:0:0:
335,251,83805,6,0,P|339:223|345:196,1,55.5,2|0,2:2|0:0,0:0:0:0:
445,366,83976,2,0,P|450:337|455:311,1,55.5,10|0,1:2|0:0,0:0:0:0:
212,384,84148,2,0,P|217:355|222:329,1,55.5,2|0,2:2|0:0,0:0:0:0:
422,244,84319,5,2,1:2:0:0:
470,229,84405,1,0,0:0:0:0:
512,261,84490,1,2,2:3:0:0:
90,162,84662,5,10,1:2:0:0:
42,177,84748,1,0,0:0:0:0:
0,145,84833,1,2,2:3:0:0:
55,97,85005,6,0,L|60:69,4,27.75,2|0|0|0|2,1:2|0:0|0:0|0:0|2:3,0:0:0:0:
143,19,85262,1,0,0:0:0:0:
143,19,85348,2,0,P|137:46|132:73,1,55.5,10|0,1:2|0:0,0:0:0:0:
363,156,85519,1,2,2:2:0:0:
363,156,85605,1,0,0:0:0:0:
363,156,85691,6,0,P|367:128|373:101,1,55.5,2|0,1:2|0:0,0:0:0:0:
260,53,85862,2,0,P|254:80|250:107,1,55.5,2|0,2:2|0:0,0:0:0:0:
209,384,86034,1,10,1:2:0:0:
209,384,86205,2,0,B|190:333|254:288|221:331|282:292|266:241,1,166.5,2|0,2:2|0:0,0:0:0:0:
129,239,86548,6,0,P|155:246|183:248,1,55.5,2|0,2:2|0:0,0:0:0:0:
349,381,86719,2,0,P|322:373|294:371,1,55.5,10|0,1:2|0:0,0:0:0:0:
347,246,86891,2,0,P|339:272|337:300,1,55.5,2|0,2:2|0:0,0:0:0:0:
150,347,87062,2,0,P|149:333|145:319,4,27.75,2|0|0|0|2,1:2|0:0|0:0|0:0|2:3,0:0:0:0:
259,181,87319,1,0,0:0:0:0:
259,181,87405,2,0,B|247:116|247:116|292:76|292:76|278:3,1,199.799993902588,10|0,2:2|0:0,0:0:0:0:
504,225,87748,5,14,3:2:0:0:
512,219,88091,1,10,3:2:0:0:
390,149,88434,5,10,3:2:0:0:
409,160,88776,1,10,3:2:0:0:
278,288,89119,5,8,3:2:0:0:
320,266,89462,1,10,3:2:0:0:
10,108,89805,5,14,3:2:0:0:
291,0,90491,6,0,P|282:65|273:132,1,133.199995935059,6|0,1:2|0:0,0:0:0:0:
24,305,90662,2,0,P|85:278|146:251,1,133.199995935059,6|0,1:2|0:0,0:0:0:0:
451,384,90834,2,0,P|397:344|345:302,1,133.199995935059,6|0,1:2|0:0,0:0:0:0:
242,209,91005,6,0,P|249:241|254:274,1,66.5999979675294,2|0,2:3|0:0,0:0:0:0:
499,158,91176,1,2,1:2:0:0:
499,158,91262,1,0,0:0:0:0:
499,158,91348,2,0,P|505:124|511:93,1,66.5999979675294,2|0,2:2|0:0,0:0:0:0:
327,210,91519,2,0,P|333:177|339:144,1,66.5999979675294,10|0,1:2|0:0,0:0:0:0:
436,0,91691,5,2,2:2:0:0:
427,50,91777,1,0,0:0:0:0:
419,100,91862,1,2,1:3:0:0:
211,42,92034,6,0,P|217:75|223:108,1,66.5999979675294,2|0,2:2|0:0,0:0:0:0:
113,131,92205,2,0,P|119:164|125:197,1,66.5999979675294,10|0,1:2|0:0,0:0:0:0:
0,0,92376,2,0,P|6:33|12:66,1,66.5999979675294,2|0,2:2|0:0,0:0:0:0:
44,249,92548,5,2,1:2:0:0:
55,316,92634,1,0,0:0:0:0:
66,383,92719,1,2,2:3:0:0:
485,373,92891,6,0,P|420:357|354:344,1,133.199995935059,10|2,1:2|2:3,0:0:0:0:
137,289,93148,5,0,1:1:0:0:
264,361,93234,2,0,P|231:352|199:346,1,66.5999979675294,2|0,1:2|0:0,0:0:0:0:
215,269,93405,2,0,P|246:278|279:284,1,66.5999979675294,2|0,1:3|0:0,0:0:0:0:
285,77,93576,6,0,P|249:83|214:93,1,72.1499966972353,10|0,1:2|0:0,0:0:0:0:
193,16,93748,2,0,P|228:11|263:2,1,72.1499966972353,2|0,1:3|0:0,0:0:0:0:
512,168,93919,6,0,P|502:205|495:243,1,77.6999976287843,2|0,1:2|0:0,0:0:0:0:
423,216,94090,2,0,P|433:178|439:140,1,77.6999976287843,2|0,1:2|0:0,0:0:0:0:
73,127,94262,6,0,P|81:168|92:209,1,83.2500031757356,10|0,1:2|0:0,0:0:0:0:
17,235,94434,2,0,P|9:195|-1:154,1,83.2500031757356,2|0,1:2|0:0,0:0:0:0:
186,1,94605,6,0,P|198:43|208:86,1,88.8,2|0,1:3|0:0,0:0:0:0:
316,384,94776,2,0,P|303:338|294:292,1,94.3500017995835,2|0,1:2|0:0,0:0:0:0:
336,16,94948,6,0,P|315:55|298:97,1,88.8,10|0,1:2|0:0,0:0:0:0:
131,366,95119,2,0,P|152:323|168:279,1,94.3500017995835,2|0,1:2|0:0,0:0:0:0:
510,140,95291,6,0,P|455:155|400:165,1,111,2|0,1:2|0:0,0:0:0:0:
11,233,95462,2,0,P|65:223|118:207,1,111,2|0,1:3|0:0,0:0:0:0:
496,303,95634,6,0,P|434:270|370:244,1,138.75,10|0,1:2|0:0,0:0:0:0:
139,128,95805,1,2,1:3:0:0:
69,97,95891,1,0,1:0:0:0:
0,64,95976,5,6,1:2:0:0:
91,100,98719,5,6,1:2:0:0:
256,192,98805,12,2,101462,2:2:0:0:
256,192,101548,12,0,104205,0:0:0:0:
145,243,114276,5,0,0:0:0:0:
0,203,114448,2,0,P|36:212|72:222,1,74.9249977134705,0|2,0:0|2:2,0:0:0:0:
333,40,115176,6,0,B|355:71|355:71|340:107,1,77.6999976287843,14|0,2:1|0:0,0:0:0:0:
190,175,115519,2,0,B|166:143|166:143|182:106,1,77.6999976287843,10|0,2:2|0:0,0:0:0:0:
251,24,115862,2,0,P|260:101|267:178,1,155.399995257569,10|8,2:2|2:2,0:0:0:0:
267,178,116376,1,2,2:2:0:0:
489,146,116548,6,0,P|494:105|501:50,1,77.6999976287843,10|0,2:2|0:0,0:0:0:0:
352,222,116891,1,10,2:2:0:0:
352,222,117234,2,0,B|399:202|443:265|402:232|439:291|490:272,1,155.399995257569,10|8,2:2|2:2,0:0:0:0:
486,273,117748,1,2,2:2:0:0:
367,297,117919,6,0,P|357:340|349:384,1,77.6999976287843,10|2,2:2|2:2,0:0:0:0:
239,234,118262,2,0,P|229:277|221:321,1,77.6999976287843,10|2,2:2|2:2,0:0:0:0:
94,242,118605,2,0,P|79:306|67:372,1,116.549996443176,10|0,2:2|0:0,0:0:0:0:
0,324,118948,2,0,B|-10:287|-10:287|12:255,1,77.6999976287843,10|0,2:2|0:0,0:0:0:0:
153,14,119291,5,10,2:2:0:0:
153,14,119634,2,0,P|76:29|0:37,2,155.399995257569,8|8|8,2:2|2:2|2:2,0:0:0:0:
222,65,120491,1,2,2:2:0:0:
401,20,120662,6,0,P|394:61|387:113,1,77.6999976287843,10|0,2:2|0:0,0:0:0:0:
295,2,121005,2,0,P|302:43|308:95,1,77.6999976287843,10|0,2:2|0:0,0:0:0:0:
511,214,121348,2,0,P|435:194|359:178,1,155.399995257569,10|8,2:2|2:2,0:0:0:0:
359,178,121862,1,2,2:2:0:0:
147,190,122034,6,0,B|168:160|168:160|155:122,1,77.6999976287843,10|2,2:2|2:2,0:0:0:0:
0,125,122376,2,0,P|37:134|75:143,1,77.6999976287843,10|2,2:2|2:2,0:0:0:0:
246,228,122719,2,0,B|226:180|289:136|256:177|315:140|296:90,1,155.399995257569,10|8,2:2|2:2,0:0:0:0:
297,93,123234,1,2,2:2:0:0:
175,250,123405,5,10,2:2:0:0:
105,271,123748,1,10,2:2:0:0:
329,355,124091,5,10,2:2:0:0:
399,376,124434,1,10,2:2:0:0:
248,384,124776,6,0,P|245:345|240:306,1,77.6999976287843,10|0,2:2|0:0,0:0:0:0:
487,269,125119,2,0,P|482:307|479:346,1,77.6999976287843,8|0,2:2|0:0,0:0:0:0:
303,251,125462,2,0,P|299:192|291:134,1,116.549996443176,10|0,2:2|0:0,0:0:0:0:
372,148,125805,2,0,B|393:179|393:179|377:215,1,77.6999976287843,10|0,2:2|1:1,0:0:0:0:
63,35,126148,5,14,1:2:0:0:
63,35,126491,2,0,B|44:77|44:77|69:114,1,88.8,10|0,2:2|0:0,0:0:0:0:
133,148,126748,1,0,1:1:0:0:
70,184,126834,2,0,P|75:227|78:271,1,88.8,10|0,2:2|1:1,0:0:0:0:
220,114,127176,2,0,P|217:69|211:25,1,88.8,8|2,2:2|2:2,0:0:0:0:
287,0,127434,1,0,0:0:0:0:
287,0,127519,6,0,P|292:44|295:88,1,88.8,10|0,1:2|0:0,0:0:0:0:
504,140,127862,2,0,P|506:95|512:51,1,88.8,10|0,2:2|0:0,0:0:0:0:
462,0,128119,1,0,1:1:0:0:
396,28,128205,1,10,2:2:0:0:
494,262,128376,2,0,P|496:239|497:217,1,44.4,0|0,1:1|0:0,0:0:0:0:
421,233,128548,2,0,P|378:227|333:225,1,88.8,8|2,2:2|2:2,0:0:0:0:
238,358,128891,5,10,1:2:0:0:
264,157,129062,1,2,2:2:0:0:
58,126,129234,1,10,2:2:0:0:
32,327,129405,1,2,2:2:0:0:
0,255,129491,6,0,P|21:249|42:242,1,44.4,0|10,1:1|2:2,0:0:0:0:
307,313,129748,1,0,1:1:0:0:
307,313,129919,2,0,B|249:277|249:277|186:299,1,133.2,10|0,2:2|0:0,0:0:0:0:
98,384,130262,6,0,P|111:296|124:208,1,177.6,10|8,1:2|2:2,0:0:0:0:
62,0,130776,1,0,0:0:0:0:
16,58,130862,2,0,B|51:82|51:82|94:67,1,88.8,0|0,1:1|0:0,0:0:0:0:
187,134,131119,2,0,P|165:129|143:126,1,44.4,0|0,1:1|0:0,0:0:0:0:
188,0,131291,1,8,2:2:0:0:
188,0,131462,2,0,P|184:21|181:43,1,44.4,2|0,2:2|0:0,0:0:0:0:
312,225,131634,6,0,P|305:181|298:137,1,88.8,10|0,1:2|0:0,0:0:0:0:
512,50,131976,2,0,B|475:74|475:74|432:59,1,88.8,10|0,2:2|0:0,0:0:0:0:
361,37,132234,1,0,1:1:0:0:
375,111,132319,2,0,P|378:132|381:154,1,44.4,10|0,2:2|0:0,0:0:0:0:
512,290,132491,1,0,1:1:0:0:
512,290,132662,2,0,P|468:280|425:270,1,88.8,8|2,2:2|2:2,0:0:0:0:
112,347,133005,5,10,1:2:0:0:
330,311,133176,1,2,2:2:0:0:
297,90,133348,1,10,2:2:0:0:
79,126,133519,1,2,2:2:0:0:
103,202,133605,6,0,P|97:223|92:245,1,44.4,0|10,1:1|2:2,0:0:0:0:
210,223,133776,1,0,0:0:0:0:
210,223,133862,2,0,P|204:244|199:266,1,44.4,0|0,1:1|0:0,0:0:0:0:
314,235,134034,1,8,2:2:0:0:
475,370,134205,2,0,P|469:348|464:326,1,44.4,2|0,2:2|0:0,0:0:0:0:
503,165,134376,6,0,P|491:207|481:251,1,88.8,10|0,1:2|0:0,0:0:0:0:
318,3,134719,2,0,P|306:45|296:89,1,88.8,10|0,2:2|0:0,0:0:0:0:
337,147,134976,1,0,1:1:0:0:
406,129,135062,1,10,2:2:0:0:
218,88,135234,2,0,P|223:109|228:131,1,44.4,0|0,1:1|0:0,0:0:0:0:
47,191,135405,2,0,P|62:126|79:61,1,133.2,10|0,2:2|0:0,0:0:0:0:
4,14,135748,5,2,1:2:0:0:
144,346,136091,5,2,2:2:0:0:
144,346,136262,1,2,2:2:0:0:
213,285,136434,6,0,P|220:334|223:384,1,99.899996951294,2|0,2:2|0:0,0:0:0:0:
302,375,136776,2,0,P|294:325|291:275,1,99.899996951294,2|0,2:2|0:0,0:0:0:0:
371,316,137119,5,2,2:3:0:0:
512,27,138491,6,0,P|446:42|344:68,1,155.399995257569,14|0,1:1|0:0,0:0:0:0:
288,89,138748,1,0,0:0:0:0:
345,139,138834,2,0,B|375:167|375:167|361:201,1,77.6999976287843,10|0,1:2|0:0,0:0:0:0:
127,105,139005,2,0,B|97:77|97:77|110:42,1,77.6999976287843
224,10,139176,2,0,P|210:86|198:163,1,155.399995257569,10|0,1:2|0:0,0:0:0:0:
165,330,139434,5,0,0:0:0:0:
165,330,139519,2,0,P|158:357|153:384,1,55.5,8|0,1:2|0:0,0:0:0:0:
122,199,139691,2,0,P|115:225|109:253,1,55.5,2|0,2:2|0:0,0:0:0:0:
14,367,139862,5,10,1:2:0:0:
7,363,139947,1,0,0:0:0:0:
0,359,140033,2,0,P|46:345|84:332,1,88.8
258,223,140205,5,10,1:2:0:0:
264,219,140290,1,0,0:0:0:0:
271,215,140376,2,0,P|260:258|251:301,1,88.8
477,384,140548,5,10,1:2:0:0:
477,384,140719,2,0,P|469:346|460:304,1,77.6999976287843
413,76,140891,5,8,1:2:0:0:
413,76,141062,2,0,P|405:38|396:-4,1,77.6999976287843,2|0,2:2|0:0,0:0:0:0:
512,238,141234,5,10,1:2:0:0:
364,144,141405,1,2,2:2:0:0:
380,335,141576,5,10,1:2:0:0:
491,32,141748,1,2,2:2:0:0:
409,237,141919,6,0,P|297:216|179:199,1,233.099992886353,10|0,1:2|0:0,0:0:0:0:
27,131,142262,2,0,P|20:169|18:208,1,77.6999976287843,10|0,1:2|0:0,0:0:0:0:
97,210,142434,2,0,P|98:182|104:155,1,55.5
86,24,142605,5,10,1:2:0:0:
38,316,142776,1,0,0:0:0:0:
176,69,142948,5,8,1:2:0:0:
126,361,143119,1,0,0:0:0:0:
266,114,143291,5,8,1:2:0:0:
234,298,143462,1,0,0:0:0:0:
358,153,143634,5,8,1:2:0:0:
326,337,143805,1,2,2:2:0:0:
462,6,143976,6,0,P|448:81|436:158,1,155.399995257569,10|0,1:2|0:0,0:0:0:0:
335,244,144234,1,0,0:0:0:0:
335,244,144319,2,0,P|371:237|410:230,1,77.6999976287843,10|0,1:2|0:0,0:0:0:0:
502,190,144491,2,0,B|528:219|528:219|512:253,1,77.6999976287843
238,262,144662,2,0,P|161:274|84:289,1,155.399995257569,10|0,1:2|0:0,0:0:0:0:
0,311,144919,1,0,0:0:0:0:
0,311,145005,1,8,1:2:0:0:
148,197,145176,2,0,P|152:169|158:140,1,55.5,2|0,2:2|0:0,0:0:0:0:
0,27,145348,6,0,P|12:72|20:118,1,94.3500017995835,10|0,1:2|0:0,0:0:0:0:
93,91,145519,2,0,P|85:44|72:0,1,94.3500017995835,2|0,2:2|0:0,0:0:0:0:
443,17,145691,6,0,P|425:60|413:106,1,94.3500017995835,10|0,1:2|0:0,0:0:0:0:
482,141,145862,2,0,P|494:95|512:51,1,94.3500017995835,2|0,2:2|0:0,0:0:0:0:
261,75,146034,5,10,1:2:0:0:
261,75,146205,2,0,P|256:107|254:141,1,66.5999979675294
236,384,146376,5,8,1:2:0:0:
236,384,146547,2,0,P|237:350|243:318,1,66.5999979675294,2|0,2:2|0:0,0:0:0:0:
0,205,146719,6,0,P|77:213|161:229,1,155.399995257569,10|0,1:2|0:0,0:0:0:0:
230,233,146976,1,0,0:0:0:0:
297,274,147062,2,0,B|319:243|319:243|304:206,1,77.6999976287843,10|0,1:2|0:0,0:0:0:0:
183,84,147234,2,0,B|161:115|161:115|175:151,1,77.6999976287843
434,288,147405,5,10,1:2:0:0:
427,283,147491,1,0,0:0:0:0:
420,278,147576,2,0,P|469:288|533:299,1,94.3500017995835
78,322,147748,5,10,1:2:0:0:
85,317,147834,1,0,0:0:0:0:
92,312,147919,2,0,P|43:322|-21:333,1,94.3500017995835
360,326,148091,5,10,1:2:0:0:
154,268,148262,1,0,0:0:0:0:
393,210,148434,5,8,1:2:0:0:
118,384,148605,1,0,0:0:0:0:
315,254,148776,5,10,1:2:0:0:
322,258,148862,1,0,0:0:0:0:
330,258,148948,2,0,P|317:223|315:187,1,66.5999979675294
208,4,149119,5,10,1:2:0:0:
201,0,149205,1,0,0:0:0:0:
193,0,149291,2,0,P|206:35|208:71,1,66.5999979675294
239,218,149462,6,0,B|211:161|279:102|247:155|311:103|287:49,1,188.700003599167,14|0,1:2|0:0,0:0:0:0:
512,134,149719,1,0,0:0:0:0:
512,134,149805,2,0,P|474:124|436:117,1,77.6999976287843,10|0,1:2|0:0,0:0:0:0:
377,64,149976,2,0,B|364:25|364:25|391:0,1,77.6999976287843
218,132,150148,2,0,P|104:103|-40:73,1,233.099992886353,10|0,1:2|0:0,0:0:0:0:
353,142,150491,5,8,1:2:0:0:
353,142,150662,2,0,B|363:172|363:172|338:195,1,66.5999979675294,2|0,2:2|0:0,0:0:0:0:
145,331,150834,6,0,B|200:300|262:366|203:335|261:402|316:373,1,188.700003599167,10|0,1:2|0:0,0:0:0:0:
500,314,151091,1,0,0:0:0:0:
500,314,151176,2,0,P|493:340|490:368,1,55.5,10|0,1:2|0:0,0:0:0:0:
226,318,151348,2,0,P|230:336|232:356,1,38.8499988143921
416,328,151519,6,0,P|227:339|45:385,1,377.400007198334,10|8,1:2|1:2,0:0:0:0:
258,237,152034,6,0,P|255:209|248:182,1,55.5,2|0,2:2|0:0,0:0:0:0:
363,0,152205,6,0,P|336:19|312:42,1,66.5999979675294,10|0,1:2|0:0,0:0:0:0:
232,103,152376,1,2,2:2:0:0:
70,58,152548,6,0,P|100:71|131:80,1,66.5999979675294,10|0,1:2|0:0,0:0:0:0:
232,103,152719,1,2,2:2:0:0:
12,238,152891,5,10,1:2:0:0:
7,232,152976,1,0,0:0:0:0:
1,227,153062,2,0,P|48:218|94:212,1,94.3500017995835
431,142,153234,5,10,1:2:0:0:
425,148,153319,1,0,0:0:0:0:
419,154,153405,2,0,P|465:145|511:139,1,94.3500017995835
489,12,153576,5,10,1:2:0:0:
447,319,153748,1,0,0:0:0:0:
396,46,153919,5,8,1:2:0:0:
354,353,154091,1,0,0:0:0:0:
303,80,154262,5,8,1:2:0:0:
274,278,154433,1,0,0:0:0:0:
210,114,154605,5,8,1:2:0:0:
181,312,154776,1,2,2:2:0:0:
0,13,154948,6,0,P|20:91|38:183,1,155.399995257569,10|0,1:2|0:0,0:0:0:0:
61,239,155205,1,0,0:0:0:0:
117,183,155291,2,0,P|109:144|100:106,1,77.6999976287843,10|0,1:2|0:0,0:0:0:0:
83,24,155462,1,0,0:0:0:0:
183,228,155634,6,0,B|256:203|256:203|327:251,1,155.399995257569,10|0,1:2|0:0,0:0:0:0:
457,345,155891,1,0,0:0:0:0:
457,345,155976,2,0,P|465:306|474:269,1,77.6999976287843,8|0,1:2|0:0,0:0:0:0:
385,308,156148,2,0,P|390:287|396:264,1,44.4,2|0,2:2|0:0,0:0:0:0:
488,149,156319,6,0,P|499:100|513:52,1,99.8999969512941,10|0,1:2|0:0,0:0:0:0:
447,8,156491,2,0,P|432:55|421:104,1,99.8999969512941,2|0,2:2|0:0,0:0:0:0:
90,201,156662,6,0,P|79:152|66:104,1,99.8999969512941,10|0,1:2|0:0,0:0:0:0:
0,149,156834,2,0,P|13:197|25:246,1,99.8999969512941,2|0,2:2|0:0,0:0:0:0:
229,334,157005,5,10,1:2:0:0:
229,334,157176,2,0,P|267:337|304:348,1,77.6999976287843
265,3,157348,5,8,1:2:0:0:
265,3,157519,2,0,P|229:15|190:17,1,77.6999976287843,2|0,2:2|0:0,0:0:0:0:
279,261,157691,6,0,B|308:206|241:149|272:207|207:146|238:92,1,188.700003599167,10|0,1:2|0:0,0:0:0:0:
373,173,157948,1,0,0:0:0:0:
312,124,158034,2,0,P|234:131|160:153,1,155.399995257569,10|0,1:2|0:0,0:0:0:0:
442,34,158376,5,10,1:2:0:0:
437,29,158462,1,0,0:0:0:0:
430,31,158548,2,0,P|419:68|416:106,1,77.6999976287843
512,1,158719,2,0,P|490:75|484:152,1,155.399995257569,10|0,1:2|0:0,0:0:0:0:
42,273,159062,6,0,P|33:157|0:46,1,233.099992886353,10|0,1:2|0:0,0:0:0:0:
69,0,159405,5,10,1:2:0:0:
115,314,159576,1,2,2:2:0:0:
269,40,159748,1,10,1:2:0:0:
269,40,160091,2,0,B|289:79|241:120|263:78|217:122|239:161,1,133.2,10|0,1:2|0:0,0:0:0:0:
317,269,160434,5,2,2:2:0:0:
246,297,160776,1,2,2:2:0:0:
30,202,161119,5,2,2:2:0:0:
101,174,161291,1,2,2:2:0:0:
90,247,161462,5,2,2:3:0:0:
29,89,161634,1,2,2:2:0:0:
186,25,161805,5,2,2:2:0:0:
115,53,162148,1,2,2:2:0:0:
377,109,162491,5,2,2:2:0:0:
303,85,162662,1,2,2:2:0:0:
361,31,162834,5,2,2:3:0:0:
293,246,163005,1,2,2:2:0:0:
512,300,163176,5,10,2:2:0:0:
405,272,163519,1,10,2:2:0:0:
1,317,163862,5,10,2:2:0:0:
108,345,164034,1,2,2:2:0:0:
40,384,164205,5,10,2:2:0:0:
107,103,164376,1,2,2:2:0:0:
82,249,164548,6,0,P|75:216|67:183,1,66.5999979675294,10|0,2:2|0:0,0:0:0:0:
196,95,164719,2,0,P|186:135|178:176,1,83.2500031757356,8|0,2:2|0:0,0:0:0:0:
318,380,164891,2,0,P|308:329|296:280,1,99.8999969512941,10|0,2:2|0:0,0:0:0:0:
512,48,165062,2,0,P|497:107|486:168,1,122.100003726196,8|0,2:2|0:0,0:0:0:0:
512,279,165234,5,10,2:2:0:0:
438,278,165319,1,8,2:2:0:0:
394,222,165405,1,8,2:2:0:0:
336,183,165491,1,8,2:2:0:0:
266,176,165576,1,10,2:2:0:0:
213,198,165662,1,8,2:2:0:0:
164,216,165748,1,8,2:2:0:0:
123,200,165834,1,8,2:2:0:0:
115,185,165919,6,0,P|121:146|130:108,1,77.6999976287843,6|0,1:1|0:0,0:0:0:0:
154,38,166091,1,2,2:3:0:0:
401,149,166262,6,0,P|407:110|416:72,1,77.6999976287843,10|0,1:2|0:0,0:0:0:0:
437,0,166434,1,2,2:3:0:0:
229,363,166605,6,0,P|277:352|327:345,1,99.8999969512941,2|0,1:2|0:0,0:0:0:0:
508,308,166776,2,0,P|465:314|410:327,1,99.8999969512941,2|0,2:2|0:0,0:0:0:0:
152,384,166948,1,10,1:2:0:0:
379,257,167119,6,0,P|351:262|324:266,1,55.5,2|0,2:2|0:0,0:0:0:0:
157,112,167291,6,0,P|120:120|81:125,1,77.6999976287843,2|0,1:2|0:0,0:0:0:0:
0,137,167462,1,2,2:3:0:0:
355,79,167634,6,0,P|393:74|431:65,1,77.6999976287843,10|0,1:2|0:0,0:0:0:0:
512,51,167805,1,2,2:3:0:0:
241,301,167976,6,0,P|245:251|254:202,1,99.8999969512941,2|0,1:2|0:0,0:0:0:0:
275,27,168148,2,0,P|266:77|264:127,1,99.8999969512941,2|0,2:2|0:0,0:0:0:0:
236,377,168319,1,10,1:2:0:0:
338,171,168491,6,0,P|333:199|331:229,1,55.5,2|0,2:2|0:0,0:0:0:0:
165,334,168662,6,0,P|127:345|91:358,1,77.6999976287843,2|0,1:2|0:0,0:0:0:0:
0,384,168834,1,2,2:3:0:0:
34,14,169005,6,0,P|70:27|107:38,1,77.6999976287843,10|0,1:2|0:0,0:0:0:0:
204,68,169177,1,2,2:3:0:0:
71,134,169348,6,0,P|82:188|88:243,1,111,2|0,1:2|0:0,0:0:0:0:
410,155,169519,2,0,P|421:209|427:264,1,111,2|0,2:2|0:0,0:0:0:0:
500,196,169691,1,10,1:2:0:0:
247,167,169862,6,0,P|252:194|255:221,1,55.5,2|0,2:2|0:0,0:0:0:0:
341,324,170034,6,0,P|380:335|415:348,1,77.6999976287843,2|0,1:2|0:0,0:0:0:0:
512,384,170206,1,2,2:3:0:0:
512,7,170376,6,0,P|475:19|438:30,1,77.6999976287843,10|0,1:2|0:0,0:0:0:0:
341,58,170548,1,2,2:3:0:0:
449,134,170719,6,0,P|437:188|431:243,1,111,2|0,1:2|0:0,0:0:0:0:
99,155,170890,2,0,P|87:209|81:264,1,111,2|0,2:2|0:0,0:0:0:0:
9,196,171062,1,10,1:2:0:0:
263,167,171234,6,0,P|258:194|255:221,1,55.5,2|0,2:2|0:0,0:0:0:0:
154,384,171405,6,0,P|160:345|165:307,1,77.6999976287843,2|0,1:2|0:0,0:0:0:0:
175,224,171576,1,2,2:3:0:0:
379,0,171748,6,0,P|372:38|367:76,1,77.6999976287843,10|0,1:2|0:0,0:0:0:0:
358,160,171919,1,2,2:3:0:0:
176,92,172091,6,0,P|225:98|275:107,1,99.8999969512941,2|0,1:2|0:0,0:0:0:0:
98,80,172262,2,0,P|49:71|0:66,1,99.8999969512941,2|0,2:2|0:0,0:0:0:0:
351,120,172434,1,10,1:2:0:0:
121,7,172605,6,0,P|148:11|176:13,1,55.5,2|0,2:2|0:0,0:0:0:0:
337,257,172776,6,0,P|375:259|413:265,1,77.6999976287843,2|0,1:2|0:0,0:0:0:0:
512,284,172948,1,2,2:3:0:0:
177,241,173119,6,0,P|138:235|99:232,1,77.6999976287843,10|0,1:2|0:0,0:0:0:0:
0,217,173291,1,2,2:3:0:0:
249,208,173462,6,0,P|243:159|234:109,1,99.8999969512941,2|0,1:2|0:0,0:0:0:0:
261,286,173633,2,0,P|270:335|275:384,1,99.8999969512941,2|0,2:2|0:0,0:0:0:0:
224,31,173805,1,10,1:2:0:0:
180,290,173976,6,0,P|176:261|171:232,1,55.5,2|0,2:2|0:0,0:0:0:0:
410,209,174148,6,0,P|422:172|437:135,1,77.6999976287843,2|0,1:2|0:0,0:0:0:0:
486,46,174319,1,2,2:3:0:0:
82,176,174491,6,0,P|77:137|70:98,1,77.6999976287843,10|0,1:2|0:0,0:0:0:0:
47,0,174662,1,2,2:3:0:0:
350,145,174834,6,0,P|370:94|396:45,1,111,2|0,1:2|0:0,0:0:0:0:
138,14,175005,2,0,P|152:67|161:122,1,111,2|0,2:2|0:0,0:0:0:0:
250,237,175176,1,10,1:2:0:0:
266,94,175348,6,0,P|261:121|259:148,1,55.5,2|0,2:2|0:0,0:0:0:0:
172,297,175519,6,0,P|136:312|99:324,1,77.6999976287843,2|0,1:2|0:0,0:0:0:0:
0,351,175691,1,2,2:3:0:0:
323,306,175862,6,0,P|356:325|392:341,1,77.6999976287843,10|0,1:2|0:0,0:0:0:0:
485,384,176034,1,2,2:3:0:0:
245,243,176205,5,2,1:2:0:0:
245,227,176291,1,0,0:0:0:0:
258,235,176376,1,2,2:3:0:0:
512,222,176548,6,0,B|459:234|423:186|423:186|312:213,1,199.799993902588,4|0,1:2|0:0,0:0:0:0:
6,171,176891,6,0,B|-22:147|-22:147|5:157,1,66.5999979675294,6|0,1:2|0:0,0:0:0:0:
174,254,177234,1,2,0:0:0:0:
174,254,177405,6,0,P|173:226|169:199,1,55.5,0|0,1:1|0:0,0:0:0:0:
76,87,177576,6,0,P|86:141|90:197,1,111,2|0,1:2|0:0,0:0:0:0:
111,383,177748,2,0,P|107:328|97:274,1,111,2|0,2:2|0:0,0:0:0:0:
65,12,177920,1,10,1:2:0:0:
320,197,178091,6,0,P|318:169|315:141,1,55.5,2|0,2:2|0:0,0:0:0:0:
431,0,178262,5,2,1:2:0:0:
460,47,178348,1,0,0:0:0:0:
445,100,178434,1,2,2:3:0:0:
482,363,178605,5,10,1:2:0:0:
453,316,178691,1,0,0:0:0:0:
468,263,178777,1,2,2:3:0:0:
320,197,178948,6,0,P|264:200|209:210,1,111,2|0,1:2|0:0,0:0:0:0:
398,190,179120,2,0,P|451:179|507:175,1,111,2|0,2:2|0:0,0:0:0:0:
136,227,179291,1,10,1:2:0:0:
389,264,179462,6,0,P|361:265|333:269,1,55.5,2|0,2:2|0:0,0:0:0:0:
100,138,179634,5,2,1:2:0:0:
53,167,179720,1,0,0:0:0:0:
0,152,179806,1,2,2:3:0:0:
331,57,179976,5,10,1:2:0:0:
378,28,180062,1,0,0:0:0:0:
431,43,180148,1,2,2:3:0:0:
193,298,180319,6,0,P|196:242|205:188,1,111,2|0,1:2|0:0,0:0:0:0:
221,0,180491,2,0,P|212:54|209:110,1,111,2|0,2:2|0:0,0:0:0:0:
187,383,180663,1,10,1:2:0:0:
335,156,180834,6,0,P|307:155|280:149,1,55.5,2|0,2:2|0:0,0:0:0:0:
76,253,181005,5,2,1:2:0:0:
44,298,181091,1,0,0:0:0:0:
68,347,181177,1,2,2:3:0:0:
461,224,181348,5,10,1:2:0:0:
493,179,181434,1,0,0:0:0:0:
469,130,181520,1,2,2:3:0:0:
323,323,181691,6,0,P|268:313|212:310,1,111,2|0,1:2|0:0,0:0:0:0:
399,331,181862,2,0,P|454:334|509:343,1,111,2|0,2:2|0:0,0:0:0:0:
133,305,182034,1,10,1:2:0:0:
272,158,182205,6,0,P|267:186|265:214,1,55.5,2|0,2:2|0:0,0:0:0:0:
0,220,182376,5,6,1:2:0:0:
0,220,182719,2,0,P|-1:186|-5:153,1,66.5999979675294,10|2,2:2|2:3,0:0:0:0:
73,178,183062,1,2,2:2:0:0:
58,31,183234,2,0,P|61:64|63:97,1,66.5999979675294,2|8,2:2|2:2,0:0:0:0:
78,181,183576,1,2,2:2:0:0:
446,27,183748,5,2,2:2:0:0:
446,27,184091,2,0,P|442:60|440:93,1,66.5999979675294,10|2,2:2|2:3,0:0:0:0:
397,158,184434,1,2,2:2:0:0:
512,250,184605,2,0,B|455:217|455:217|392:242,1,133.199995935059,2|2,2:2|2:2,0:0:0:0:
322,193,185119,6,0,P|290:185|259:175,1,66.5999979675294,2|2,2:2|2:3,0:0:0:0:
128,347,185462,2,0,P|159:336|191:328,1,66.5999979675294,10|2,2:2|2:3,0:0:0:0:
267,312,185805,5,2,2:2:0:0:
188,144,185976,1,2,2:2:0:0:
29,233,186148,1,8,2:2:0:0:
163,214,186319,1,2,2:2:0:0:
67,9,186491,5,2,2:2:0:0:
67,9,186834,5,2,2:2:0:0:
93,166,187005,1,2,2:2:0:0:
81,90,187176,1,2,2:2:0:0:
111,291,187519,5,2,2:2:0:0:
256,192,187605,12,0,190519,0:0:0:0:
298,134,190605,6,0,P|299:101|303:68,1,66.5999979675294,12|0,1:2|0:0,0:0:0:0:
224,40,190948,2,0,P|221:73|218:106,1,66.5999979675294,8|0,2:2|0:0,0:0:0:0:
67,206,191291,2,0,P|115:192|163:180,1,99.899996951294,8|0,2:2|0:0,0:0:0:0:
163,180,191634,1,8,2:2:0:0:
371,298,191976,5,8,2:2:0:0:
371,298,192319,2,0,P|419:310|467:323,1,99.899996951294,8|0,2:2|0:0,0:0:0:0:
297,341,192662,2,0,P|296:324|294:307,1,33.2999989837647,8|0,2:2|0:0,0:0:0:0:
316,232,192834,1,0,0:0:0:0:
457,209,193005,2,0,P|422:218|387:227,1,66.5999979675294,8|0,2:2|0:0,0:0:0:0:
225,359,193348,6,0,P|176:371|128:384,1,99.899996951294,10|0,2:2|0:0,0:0:0:0:
128,384,193691,1,10,2:2:0:0:
6,214,194034,1,10,2:2:0:0:
98,21,194376,1,10,2:2:0:0:
39,76,194719,6,0,P|44:102|47:130,1,55.5,10|0,2:2|0:0,0:0:0:0:
184,116,195062,2,0,P|180:78|173:40,1,77.6999976287843,10|0,2:2|0:0,0:0:0:0:
345,42,195405,2,0,P|335:85|330:129,1,88.8,10|0,2:2|0:0,0:0:0:0:
477,187,195748,2,0,P|483:131|495:77,1,111,10|0,2:2|0:0,0:0:0:0:
255,290,196091,5,6,2:2:0:0:
221,331,198834,6,0,P|285:316|351:303,1,133.2,10|0,1:2|0:0,0:0:0:0:
512,268,199176,2,0,P|468:276|425:286,1,88.8,10|0,1:2|0:0,0:0:0:0:
146,354,199519,5,10,1:2:0:0:
230,130,199691,1,2,2:2:0:0:
0,67,199862,1,10,1:2:0:0:
65,149,200034,2,0,B|45:109|92:67|70:104|115:68|98:30,1,133.2,2|0,2:2|0:0,0:0:0:0:
167,4,200376,6,0,P|171:25|173:47,1,44.4,2|0,2:2|0:0,0:0:0:0:
249,57,200548,1,10,1:2:0:0:
76,225,200719,1,2,2:2:0:0:
282,218,200891,2,0,P|216:205|151:197,1,133.2,10|0,1:2|0:0,0:0:0:0:
338,268,201234,2,0,B|367:233|367:233|349:193,1,88.8,10|0,1:2|0:0,0:0:0:0:
491,253,201576,6,0,L|512:256,4,22.2,10|0|0|0|0,1:2|0:0|0:0|0:0|0:0,0:0:0:0:
440,196,201834,1,0,0:0:0:0:
440,196,201919,2,0,P|443:152|459:102,1,88.8,8|2,1:2|2:2,0:0:0:0:
421,289,202262,5,10,1:2:0:0:
275,111,202434,1,2,2:2:0:0:
78,225,202605,1,10,1:2:0:0:
149,180,202776,2,0,P|159:245|167:311,1,133.2,2|0,2:2|0:0,0:0:0:0:
248,384,203119,6,0,P|244:362|240:340,1,44.4,2|0,2:2|0:0,0:0:0:0:
476,305,203291,1,10,1:2:0:0:
407,268,203462,2,0,P|403:289|399:311,1,44.4,2|0,2:2|0:0,0:0:0:0:
240,257,203634,6,0,P|286:267|326:277,1,88.8,10|0,1:2|0:0,0:0:0:0:
512,12,203976,2,0,P|447:28|382:42,1,133.2,10|0,1:2|0:0,0:0:0:0:
314,1,204319,6,0,B|292:63|292:63|341:109,1,133.2,14|0,1:2|0:0,0:0:0:0:
309,200,204662,2,0,P|352:188|396:179,1,88.8,10|0,1:2|0:0,0:0:0:0:
219,45,205005,5,10,1:2:0:0:
58,271,205176,1,2,2:2:0:0:
237,123,205348,1,10,1:2:0:0:
4,50,205519,2,0,P|65:64|136:82,1,133.2,2|0,2:2|0:0,0:0:0:0:
163,159,205862,6,0,P|157:180|153:202,1,44.4,2|0,2:2|0:0,0:0:0:0:
32,138,206034,2,0,P|37:159|41:181,1,44.4,10|0,1:2|0:0,0:0:0:0:
81,352,206205,1,2,2:2:0:0:
226,270,206376,6,0,P|183:281|140:293,1,88.8,10|0,1:2|0:0,0:0:0:0:
384,349,206719,2,0,P|450:366|517:384,1,133.2,10|0,1:2|0:0,0:0:0:0:
304,328,207062,6,0,L|301:305,4,22.2,10|0|0|0|0,1:2|0:0|0:0|0:0|0:0,0:0:0:0:
367,272,207319,1,0,0:0:0:0:
367,272,207405,2,0,P|362:228|351:185,1,88.8,10|2,1:2|2:2,0:0:0:0:
512,0,207748,5,10,1:2:0:0:
280,94,207919,1,2,2:2:0:0:
460,269,208091,1,10,1:2:0:0:
419,200,208262,2,0,P|431:134|447:69,1,133.2,2|0,2:2|0:0,0:0:0:0:
512,0,208605,6,0,L|506:30,2,22.2,2|0|0,2:2|0:0|0:0,0:0:0:0:
361,70,208776,6,0,L|356:91,2,22.2,10|0|0,1:2|0:0|0:0,0:0:0:0:
219,139,208948,6,0,L|214:160,2,22.2,2|0|0,2:2|0:0|0:0,0:0:0:0:
44,41,209119,6,0,P|54:84|63:127,1,88.8,10|0,1:2|0:0,0:0:0:0:
155,214,209376,1,0,0:0:0:0:
141,139,209462,2,0,P|128:73|112:8,1,133.2,10|0,1:2|0:0,0:0:0:0:
191,12,209805,6,0,P|197:38|203:66,1,55.5,14|0,1:1|0:0,0:0:0:0:
219,139,209976,1,2,2:3:0:0:
0,257,210148,6,0,P|6:283|12:311,1,55.5,10|0,1:2|0:0,0:0:0:0:
28,384,210319,1,2,2:3:0:0:
333,293,210491,6,0,P|360:289|387:285,1,55.5,10|0,1:2|0:0,0:0:0:0:
185,353,210662,2,0,P|157:356|130:360,1,55.5,2|0,2:2|0:0,0:0:0:0:
317,365,210834,2,0,P|343:372|370:380,1,55.5,10|0,1:2|0:0,0:0:0:0:
182,279,211005,2,0,P|155:271|128:263,1,55.5,2|0,2:2|0:0,0:0:0:0:
254,320,211176,5,10,1:2:0:0:
254,320,211348,2,0,P|257:292|259:264,1,55.5,2|0,2:2|0:0,0:0:0:0:
186,179,211519,2,0,P|200:154|213:129,1,55.5,10|0,1:2|0:0,0:0:0:0:
350,198,211691,2,0,P|341:171|331:144,1,55.5,2|0,2:2|0:0,0:0:0:0:
512,64,211862,6,0,P|465:33|417:-2,1,111,10|2,1:2|2:3,0:0:0:0:
477,384,212205,2,0,P|432:350|386:320,1,111,10|2,1:2|2:3,0:0:0:0:
387,97,212548,6,0,L|378:61,4,27.75,10|0|0|0|2,1:2|0:0|0:0|0:0|2:3,0:0:0:0:
457,54,212805,1,0,0:0:0:0:
457,54,212891,2,0,P|461:26|467:0,1,55.5,10|0,1:2|0:0,0:0:0:0:
290,31,213062,1,2,2:2:0:0:
290,31,213234,6,0,P|284:58|280:85,1,55.5,10|0,1:2|0:0,0:0:0:0:
211,54,213405,2,0,P|215:26|220:0,1,55.5,2|0,2:2|0:0,0:0:0:0:
0,152,213576,2,0,P|5:179|9:206,1,55.5,10|0,1:2|0:0,0:0:0:0:
79,175,213747,2,0,P|74:147|69:120,1,55.5,2|0,2:2|0:0,0:0:0:0:
142,88,213919,5,10,1:2:0:0:
142,88,214091,2,0,P|147:115|151:142,1,55.5,2|0,2:2|0:0,0:0:0:0:
247,274,214262,2,0,P|253:247|260:219,1,55.5,10|0,1:2|0:0,0:0:0:0:
431,151,214434,2,0,P|413:172|396:194,1,55.5,2|0,2:2|0:0,0:0:0:0:
395,350,214605,5,10,1:2:0:0:
437,320,214690,1,0,0:0:0:0:
489,324,214776,1,2,2:3:0:0:
124,313,214948,5,10,1:2:0:0:
82,343,215033,1,0,0:0:0:0:
30,339,215119,1,2,2:2:0:0:
329,253,215291,6,0,P|325:280|321:307,1,55.5,10|0,1:2|0:0,0:0:0:0:
310,384,215462,1,2,2:3:0:0:
189,131,215634,6,0,P|185:103|181:76,1,55.5,10|0,1:2|0:0,0:0:0:0:
170,0,215805,1,2,2:3:0:0:
501,5,215976,6,0,P|475:15|450:28,1,55.5,10|0,1:2|0:0,0:0:0:0:
273,145,216148,2,0,P|297:132|323:122,1,55.5,2|0,2:2|0:0,0:0:0:0:
512,116,216319,2,0,P|484:109|457:105,1,55.5,10|0,1:2|0:0,0:0:0:0:
259,35,216491,2,0,P|285:39|312:45,1,55.5,2|0,2:2|0:0,0:0:0:0:
386,74,216662,5,10,1:2:0:0:
386,74,216834,2,0,P|389:102|392:130,1,55.5,2|0,2:2|0:0,0:0:0:0:
411,309,217005,2,0,P|414:336|417:364,1,55.5,10|0,1:2|0:0,0:0:0:0:
329,199,217176,2,0,P|332:226|335:254,1,55.5,2|0,2:2|0:0,0:0:0:0:
512,233,217348,6,0,B|465:204|465:204|411:219,1,111,10|2,1:2|2:3,0:0:0:0:
0,151,217691,2,0,B|46:179|46:179|100:164,1,111,10|2,1:2|2:3,0:0:0:0:
177,187,218034,6,0,P|178:173|180:159,4,27.75,10|0|0|0|2,1:2|0:0|0:0|0:0|2:3,0:0:0:0:
257,138,218291,1,0,0:0:0:0:
257,138,218376,2,0,P|262:165|267:192,1,55.5,10|0,1:2|0:0,0:0:0:0:
512,76,218548,1,2,2:2:0:0:
512,76,218719,6,0,P|505:103|501:130,1,55.5,10|0,1:2|0:0,0:0:0:0:
443,35,218891,2,0,P|436:62|432:89,1,55.5,2|0,2:2|0:0,0:0:0:0:
459,330,219062,6,0,P|452:357|448:384,1,55.5,10|0,1:2|0:0,0:0:0:0:
390,289,219234,2,0,P|383:316|379:343,1,55.5,2|0,2:2|0:0,0:0:0:0:
507,205,219405,5,4,2:2:0:0:
507,205,219576,2,0,P|481:210|456:213,1,49.949998475647,2|0,2:2|0:0,0:0:0:0:
382,216,219748,2,0,P|339:216|296:212,1,83.2500031757356,2|0,2:2|0:0,0:0:0:0:
219,205,219919,2,0,P|164:193|111:177,1,111,2|0,2:2|0:0,0:0:0:0:
37,150,220091,2,0,P|15:140|-2:130,1,44.4,2|0,2:2|0:0,0:0:0:0:
146,369,220348,6,0,B|241:341|241:341|331:384,1,199.799993902588,0|2,0:0|2:2,0:0:0:0:
247,130,220776,5,0,1:1:0:0:
247,130,221119,2,0,B|227:90|274:48|252:85|297:49|280:11,2,133.199995935059,0|2|2,1:1|1:2|1:2,0:0:0:0:
457,207,222148,5,0,1:1:0:0:
457,207,222319,2,0,P|459:173|463:140,1,66.5999979675294,2|0,2:2|1:1,0:0:0:0:
421,74,222662,1,0,0:0:0:0:
394,255,222834,2,0,P|387:304|384:355,1,99.899996951294,2|0,1:2|0:0,0:0:0:0:
313,294,223176,2,0,P|280:298|246:300,1,66.5999979675294,2|0,1:2|0:0,0:0:0:0:
26,384,223519,5,0,1:1:0:0:
26,384,223862,2,0,P|21:317|12:251,2,133.199995935059,0|2|2,1:1|1:2|1:2,0:0:0:0:
72,191,224891,5,0,1:1:0:0:
72,191,225062,2,0,P|69:157|65:124,1,66.5999979675294,2|0,2:2|1:1,0:0:0:0:
0,81,225405,1,0,0:0:0:0:
128,0,225576,2,0,P|134:49|137:98,1,99.899996951294,2|0,1:2|0:0,0:0:0:0:
155,245,225919,2,0,P|152:211|148:178,1,66.5999979675294,2|0,1:2|0:0,0:0:0:0:
327,0,226262,5,4,1:2:0:0:
299,306,226605,2,0,P|301:272|305:239,1,66.5999979675294,8|0,2:2|0:0,0:0:0:0:
241,110,227119,5,0,1:1:0:0:
229,37,227291,1,10,2:2:0:0:
246,184,227462,1,0,1:1:0:0:
154,1,227634,5,0,1:1:0:0:
195,333,227976,2,0,P|191:294|186:255,1,77.6999976287843,8|0,2:2|0:0,0:0:0:0:
418,188,228491,5,0,1:1:0:0:
418,188,228662,2,0,P|415:210|413:232,1,44.4,10|0,2:2|1:1,0:0:0:0:
369,16,229005,5,0,1:1:0:0:
322,384,229348,2,0,P|324:339|329:295,1,88.8,8|0,2:2|0:0,0:0:0:0:
259,156,229862,5,0,1:1:0:0:
270,80,230034,1,10,2:2:0:0:
250,253,230205,1,0,1:1:0:0:
287,0,230376,5,0,1:1:0:0:
16,114,231748,5,6,2:2:0:0:
4,152,231833,1,0,0:0:0:0:
35,178,231919,1,0,0:0:0:0:
197,280,232091,5,2,2:2:0:0:
209,242,232176,1,0,0:0:0:0:
178,216,232262,1,0,0:0:0:0:
76,275,232434,5,2,2:2:0:0:
67,312,232519,1,0,0:0:0:0:
57,351,232605,1,0,0:0:0:0:
121,94,232776,5,0,0:0:0:0:
131,55,232862,1,0,0:0:0:0:
140,18,232947,1,2,2:2:0:0:
108,205,233119,6,0,L|103:172,2,33.2999989837647,2|0|0,2:2|0:0|0:0,0:0:0:0:
245,105,233462,6,0,L|240:138,2,33.2999989837647,2|0|0,2:2|0:0|0:0,0:0:0:0:
297,242,233805,6,0,L|292:209,2,33.2999989837647,2|0|0,2:2|0:0|0:0,0:0:0:0:
427,161,234148,6,0,L|422:194,2,33.2999989837647,0|0|2,0:0|0:0|2:2,0:0:0:0:
512,16,234491,5,2,2:2:0:0:
492,49,234576,1,0,0:0:0:0:
487,89,234662,1,2,2:2:0:0:
378,0,234834,5,2,2:2:0:0:
389,37,234920,1,0,0:0:0:0:
385,76,235005,1,2,2:2:0:0:
479,277,235176,5,2,2:2:0:0:
459,311,235261,1,0,0:0:0:0:
454,351,235347,1,0,0:0:0:0:
345,261,235519,5,2,2:2:0:0:
356,299,235605,1,0,0:0:0:0:
352,338,235690,1,0,0:0:0:0:
512,172,235862,5,2,2:2:0:0:
462,180,235948,1,0,0:0:0:0:
412,188,236034,1,0,0:0:0:0:
100,232,236205,5,0,0:0:0:0:
50,240,236291,1,0,0:0:0:0:
0,248,236377,1,0,0:0:0:0:
204,188,236548,6,0,P|210:203|216:218,2,33.2999989837647
296,208,236891,6,0,P|298:191|301:175,2,33.2999989837647,0|0|2,0:0|0:0|0:0,0:0:0:0:
235,92,237234,5,2,2:2:0:0:
206,52,237319,1,0,0:0:0:0:
228,7,237405,1,0,0:0:0:0:
263,299,237576,5,2,2:2:0:0:
291,339,237661,1,0,0:0:0:0:
268,384,237747,1,0,0:0:0:0:
141,146,237919,5,2,2:2:0:0:
97,144,238005,1,0,0:0:0:0:
57,128,238091,1,0,0:0:0:0:
402,280,238262,5,0,0:0:0:0:
445,281,238348,1,0,0:0:0:0:
485,297,238434,1,2,2:2:0:0:
477,166,238605,6,0,L|468:198,2,33.2999989837647,2|0|2,2:2|0:0|2:2,0:0:0:0:
359,185,238948,6,0,L|359:151,2,33.2999989837647,2|0|2,2:2|0:0|2:2,0:0:0:0:
163,176,239291,6,0,L|173:208,2,33.2999989837647,2|0|0,2:2|0:0|0:0,0:0:0:0:
72,263,239634,6,0,L|54:234,2,33.2999989837647,0|0|2,0:0|0:0|2:2,0:0:0:0:
211,107,239976,5,2,2:2:0:0:
196,64,240062,1,0,0:0:0:0:
177,22,240148,1,0,0:0:0:0:
228,287,240319,5,2,2:2:0:0:
220,332,240405,1,0,0:0:0:0:
209,376,240491,1,0,0:0:0:0:
298,96,240662,5,2,2:2:0:0:
306,52,240748,1,0,0:0:0:0:
317,7,240834,1,0,0:0:0:0:
318,280,241005,5,2,2:2:0:0:
332,323,241091,1,0,0:0:0:0:
352,365,241177,1,0,0:0:0:0:
166,184,241348,5,2,0:0:0:0:
119,198,241434,1,0,0:0:0:0:
69,210,241519,1,0,0:0:0:0:
353,166,241691,5,0,2:2:0:0:
402,168,241776,1,0,0:0:0:0:
451,172,241862,1,0,0:0:0:0:
429,303,242034,5,2,2:2:0:0:
386,272,242119,1,0,0:0:0:0:
341,300,242205,2,0,P|336:317|335:344,1,44.4
82,342,242376,5,2,1:2:0:0:
117,303,242461,1,0,0:0:0:0:
167,321,242547,2,0,P|174:336|181:362,1,44.4
262,384,242719,6,0,P|254:321|248:273,1,111,14|0,1:2|0:0,0:0:0:0:
187,216,242976,1,0,0:0:0:0:
187,216,243062,2,0,P|184:188|179:161,1,55.5,10|0,2:2|0:0,0:0:0:0:
24,99,243234,1,0,0:0:0:0:
93,60,243319,2,0,P|98:87|102:114,1,55.5,0|2,1:1|0:0,0:0:0:0:
175,79,243491,1,0,0:0:0:0:
175,79,243576,2,0,P|200:75|230:67,1,55.5,2|0,1:2|0:0,0:0:0:0:
430,145,243748,5,8,2:2:0:0:
430,145,243919,2,0,P|403:135|377:128,1,55.5,2|0,2:2|0:0,0:0:0:0:
281,6,244091,6,0,B|320:48|320:48|302:98,1,111,10|0,1:2|0:0,0:0:0:0:
235,133,244348,1,0,0:0:0:0:
296,177,244434,1,10,2:2:0:0:
338,307,244605,5,0,0:0:0:0:
266,264,244691,2,0,P|260:291|257:318,1,55.5,0|2,1:1|0:0,0:0:0:0:
186,365,244862,1,0,0:0:0:0:
186,365,244948,2,0,P|181:337|176:310,1,55.5,2|0,1:2|0:0,0:0:0:0:
460,256,245119,5,8,2:2:0:0:
460,256,245291,2,0,P|493:267|512:273,1,55.5,2|0,2:2|0:0,0:0:0:0:
404,100,245462,6,0,P|407:72|411:45,1,55.5,10|0,1:2|0:0,0:0:0:0:
343,9,245634,2,0,P|339:36|335:63,1,55.5,2|0,2:2|0:0,0:0:0:0:
482,162,245805,2,0,P|424:179|373:197,1,111,10|2,2:2|2:2,0:0:0:0:
315,151,246062,5,0,1:1:0:0:
300,224,246148,2,0,P|295:251|292:278,1,55.5,10|0,2:2|0:0,0:0:0:0:
151,171,246319,2,0,P|146:198|143:225,1,55.5,2|0,1:2|0:0,0:0:0:0:
221,219,246491,5,10,2:2:0:0:
63,316,246662,2,0,P|66:288|70:261,1,55.5,2|0,2:2|0:0,0:0:0:0:
96,13,246834,6,0,P|86:67|81:122,1,111,10|0,1:2|0:0,0:0:0:0:
56,188,247091,1,0,0:0:0:0:
0,140,247176,2,0,P|9:85|14:30,1,111,10|0,2:2|0:0,0:0:0:0:
160,77,247434,5,0,1:1:0:0:
160,77,247519,2,0,P|187:68|213:59,1,55.5,10|0,2:2|0:0,0:0:0:0:
347,166,247691,2,0,P|321:156|294:148,1,55.5,2|0,1:2|0:0,0:0:0:0:
500,14,247862,5,8,2:2:0:0:
500,14,248034,2,0,P|473:22|447:31,1,55.5,2|0,2:2|0:0,0:0:0:0:
293,65,248205,6,0,P|346:80|397:101,1,111,10|0,1:2|0:0,0:0:0:0:
473,114,248462,1,0,0:0:0:0:
424,175,248548,2,0,P|416:201|412:229,1,55.5,10|0,2:2|0:0,0:0:0:0:
365,291,248719,1,0,0:0:0:0:
278,236,248805,2,0,P|285:262|289:290,1,55.5,0|2,1:1|0:0,0:0:0:0:
236,346,248976,1,0,0:0:0:0:
236,346,249062,2,0,P|209:337|182:330,1,55.5,2|0,1:2|0:0,0:0:0:0:
0,248,249234,5,8,2:2:0:0:
0,248,249405,2,0,P|26:241|53:232,1,55.5,2|0,2:2|0:0,0:0:0:0:
80,44,249576,6,0,P|75:71|73:99,1,55.5,10|0,1:2|0:0,0:0:0:0:
1,88,249748,2,0,P|2:60|7:32,1,55.5,2|0,2:2|0:0,0:0:0:0:
161,20,249919,2,0,P|152:75|148:130,1,111,10|2,2:2|2:2,0:0:0:0:
212,179,250176,5,0,1:1:0:0:
279,148,250262,2,0,P|280:120|285:93,1,55.5,10|0,2:2|0:0,0:0:0:0:
446,244,250434,2,0,P|447:216|452:189,1,55.5,2|0,1:2|0:0,0:0:0:0:
512,146,250605,5,8,2:2:0:0:
322,274,250776,2,0,P|322:246|327:219,1,55.5,2|0,2:2|0:0,0:0:0:0:
88,384,250948,6,0,P|142:372|197:365,1,111,10|0,1:2|0:0,0:0:0:0:
263,331,251205,1,0,0:0:0:0:
333,356,251291,2,0,P|387:344|442:337,1,111,10|0,2:2|0:0,0:0:0:0:
197,285,251548,6,0,P|192:257|182:231,1,55.5,0|2,1:1|0:0,0:0:0:0:
325,214,251719,1,0,0:0:0:0:
325,214,251805,2,0,P|327:186|333:159,1,55.5,2|0,1:2|0:0,0:0:0:0:
227,0,251976,2,0,B|204:45|204:45|256:86|239:152,1,166.500006351471,10|2,2:2|0:0,0:0:0:0:
512,55,252319,5,2,1:2:0:0:
512,55,252662,5,2,2:2:0:0:
325,86,252834,1,2,2:2:0:0:
401,74,253005,1,2,2:2:0:0:
123,131,253348,5,2,2:2:0:0:
243,0,253691,6,0,P|233:43|229:87,1,88.8,6|0,1:1|0:0,0:0:0:0:
194,363,253862,1,0,0:0:0:0:
0,378,254034,6,0,P|42:364|85:353,1,88.8,10|0,1:2|0:0,0:0:0:0:
475,254,254205,1,0,0:0:0:0:
338,296,254376,6,0,P|331:339|326:383,1,88.8,2|0,1:2|0:0,0:0:0:0:
353,174,254548,2,0,P|365:87|379:0,1,177.6,2|8,2:2|1:2,0:0:0:0:
293,228,254891,6,0,P|269:232|238:237,1,55.5,2|0,2:2|0:0,0:0:0:0:
0,182,255062,6,0,P|43:188|87:196,1,88.8,2|0,1:2|0:0,0:0:0:0:
397,241,255234,1,0,0:0:0:0:
228,0,255405,6,0,P|211:41|196:83,1,88.8,10|0,1:2|0:0,0:0:0:0:
79,379,255576,1,0,0:0:0:0:
163,169,255748,6,0,P|206:161|250:154,1,88.8,2|0,1:2|0:0,0:0:0:0:
347,138,255919,2,0,P|433:120|521:104,1,177.6,2|8,2:2|1:2,0:0:0:0:
377,44,256262,6,0,P|350:51|322:57,1,55.5,2|0,2:2|0:0,0:0:0:0:
31,104,256434,6,0,P|74:96|118:87,1,88.8,2|0,1:2|0:0,0:0:0:0:
458,28,256605,1,0,0:0:0:0:
441,252,256776,6,0,P|398:241|355:234,1,88.8,10|0,1:2|0:0,0:0:0:0:
69,183,256948,1,0,0:0:0:0:
217,78,257119,6,0,P|215:33|210:-10,1,88.8,2|0,1:2|0:0,0:0:0:0:
227,210,257291,2,0,P|233:298|237:387,1,177.6,2|8,2:2|1:2,0:0:0:0:
95,276,257634,6,0,P|121:269|148:261,1,55.5,2|0,2:2|0:0,0:0:0:0:
415,354,257805,6,0,P|373:340|330:327,1,88.8,2|0,1:2|0:0,0:0:0:0:
0,211,257976,1,0,0:0:0:0:
170,147,258148,6,0,P|212:133|254:119,1,88.8,10|0,1:2|0:0,0:0:0:0:
512,35,258319,1,0,0:0:0:0:
359,384,258491,6,0,P|364:340|371:296,1,88.8,2|0,1:2|0:0,0:0:0:0:
390,177,258663,2,0,P|402:89|416:1,1,177.6,2|8,2:2|1:2,0:0:0:0:
306,255,259005,6,0,P|310:227|314:199,1,55.5,2|0,2:2|0:0,0:0:0:0:
111,10,259176,6,0,P|116:53|120:98,1,88.8,2|0,1:2|0:0,0:0:0:0:
156,384,259348,1,0,0:0:0:0:
0,263,259519,6,0,P|43:272|86:283,1,88.8,10|0,1:2|0:0,0:0:0:0:
446,356,259691,1,0,0:0:0:0:
232,295,259862,6,0,P|236:339|238:383,1,88.8,2|0,1:2|0:0,0:0:0:0:
220,176,260034,2,0,P|213:87|204:0,1,177.6,2|8,2:2|1:2,0:0:0:0:
360,173,260376,6,0,P|335:168|306:160,1,55.5,2|0,2:2|0:0,0:0:0:0:
48,117,260548,6,0,P|91:107|134:95,1,88.8,2|0,1:2|0:0,0:0:0:0:
491,12,260719,1,0,0:0:0:0:
378,0,260891,6,0,P|366:43|356:86,1,88.8,10|0,1:2|0:0,0:0:0:0:
289,382,261062,1,0,0:0:0:0:
512,294,261234,6,0,P|468:285|425:279,1,88.8,2|0,1:2|0:0,0:0:0:0:
174,230,261405,2,0,P|87:212|0:198,1,177.6,2|8,2:2|1:2,0:0:0:0:
271,265,261748,6,0,P|267:238|261:211,1,55.5,2|0,2:2|0:0,0:0:0:0:
512,181,261919,6,0,P|470:192|426:202,1,88.8,2|0,1:2|0:0,0:0:0:0:
42,284,262091,1,0,0:0:0:0:
33,88,262262,6,0,P|70:112|108:136,1,88.8,10|0,1:2|0:0,0:0:0:0:
466,361,262434,1,0,0:0:0:0:
343,295,262605,6,0,P|337:339|333:384,1,88.8,2|0,1:2|0:0,0:0:0:0:
354,176,262776,2,0,P|361:87|372:-3,1,177.6,2|8,2:2|1:2,0:0:0:0:
173,221,263119,6,0,P|175:193|177:165,1,55.5,2|0,2:2|0:0,0:0:0:0:
22,0,263291,6,0,P|28:43|32:88,1,88.8,2|0,1:2|0:0,0:0:0:0:
67,384,263462,1,0,0:0:0:0:
0,211,263634,6,0,P|43:208|87:201,1,88.8,10|0,1:2|0:0,0:0:0:0:
473,176,263805,1,0,0:0:0:0:
187,299,263976,6,0,P|142:302|98:308,1,88.8,2|0,1:2|0:0,0:0:0:0:
335,286,264148,2,0,P|378:279|423:276,1,88.8,2|0,2:2|0:0,0:0:0:0:
23,319,264319,1,8,1:2:0:0:
269,384,264491,6,0,P|267:356|264:328,1,55.5,2|0,2:2|0:0,0:0:0:0:
151,161,264662,6,0,P|143:111|131:63,1,99.8999969512941,6|0,1:2|0:0,0:0:0:0:
354,148,264834,2,0,P|352:98|355:48,1,99.8999969512941,2|0,2:3|0:0,0:0:0:0:
215,0,265005,2,0,B|185:53|254:112|222:54|297:120|260:179,1,199.799993902588,10|2,1:2|2:3,0:0:0:0:
457,228,265348,6,0,P|397:222|336:222,1,122.100003726196,2|0,1:2|0:0,0:0:0:0:
194,228,265519,2,0,P|133:235|73:248,1,122.100003726196,2|0,2:2|0:0,0:0:0:0:
0,272,265691,1,10,1:2:0:0:
20,114,265862,6,0,P|27:147|32:179,1,66.5999979675294,2|0,2:2|0:0,0:0:0:0:
245,9,266034,6,0,P|250:57|253:108,1,99.8999969512941,2|0,1:2|0:0,0:0:0:0:
271,315,266205,1,2,2:3:0:0:
511,52,266376,6,0,P|504:102|499:152,1,99.8999969512941,10|0,1:2|0:0,0:0:0:0:
481,317,266548,1,2,2:3:0:0:
406,176,266719,6,0,P|365:188|323:196,1,83.2500031757356,2|0,1:2|0:0,0:0:0:0:
110,197,266891,2,0,P|151:207|193:211,1,83.2500031757356,2|0,2:2|0:0,0:0:0:0:
253,143,267062,1,10,1:2:0:0:
270,351,267234,6,0,P|269:317|264:284,1,66.5999979675294,2|0,2:2|0:0,0:0:0:0:
83,354,267405,6,0,P|130:339|179:330,1,99.8999969512941,2|0,1:2|0:0,0:0:0:0:
366,313,267576,1,2,2:3:0:0:
418,0,267748,6,0,P|370:14|321:23,1,99.8999969512941,10|0,1:2|0:0,0:0:0:0:
162,39,267919,1,2,2:3:0:0:
366,100,268091,6,0,P|426:94|487:95,1,122.100003726196,2|0,1:2|0:0,0:0:0:0:
142,125,268262,2,0,P|82:138|24:156,1,122.100003726196,2|0,2:2|0:0,0:0:0:0:
250,111,268434,1,10,1:2:0:0:
13,0,268605,6,0,P|24:31|33:64,1,66.5999979675294,2|0,2:2|0:0,0:0:0:0:
101,326,268776,6,0,P|93:276|81:228,1,99.8999969512941,2|0,1:2|0:0,0:0:0:0:
459,138,268948,1,2,2:3:0:0:
405,344,269119,6,0,P|412:294|424:246,1,99.8999969512941,10|0,1:2|0:0,0:0:0:0:
55,147,269291,1,2,2:3:0:0:
182,361,269462,6,0,P|180:320|173:279,1,83.2500031757356,2|0,1:2|0:0,0:0:0:0:
334,269,269634,2,0,P|327:310|327:351,1,83.2500031757356,2|0,2:2|0:0,0:0:0:0:
258,384,269805,1,10,1:2:0:0:
250,225,269976,5,2,2:2:0:0:
486,0,270148,6,0,P|479:49|478:99,1,99.8999969512941,2|0,1:2|0:0,0:0:0:0:
329,189,270319,2,0,P|327:139|321:89,1,99.8999969512941,2|0,2:3|0:0,0:0:0:0:
512,166,270491,2,0,P|499:264|496:364,1,199.799993902588,10|2,1:2|2:3,0:0:0:0:
123,382,270834,6,0,P|176:366|231:357,1,111,2|0,1:2|0:0,0:0:0:0:
414,349,271005,2,0,P|358:346|303:350,1,111,2|0,2:2|0:0,0:0:0:0:
49,346,271176,1,10,1:2:0:0:
256,179,271348,5,2,2:2:0:0:
0,4,271519,6,0,P|6:53|7:103,1,99.8999969512941,2|0,1:2|0:0,0:0:0:0:
182,202,271690,2,0,P|183:152|189:102,1,99.8999969512941,2|0,2:3|0:0,0:0:0:0:
0,186,271862,2,0,P|12:284|15:384,1,199.799993902588,10|2,1:2|2:3,0:0:0:0:
426,238,272205,6,0,P|361:256|296:266,1,133.199995935059,2|0,1:2|0:0,0:0:0:0:
88,279,272376,2,0,P|154:281|220:277,1,133.199995935059,2|0,2:2|0:0,0:0:0:0:
488,296,272547,1,10,1:2:0:0:
255,170,272719,5,2,2:2:0:0:
407,57,272891,6,0,P|395:105|390:155,1,99.8999969512941,2|0,1:2|0:0,0:0:0:0:
385,333,273062,1,2,2:3:0:0:
94,84,273234,6,0,P|109:130|120:179,1,99.8999969512941,10|0,1:2|0:0,0:0:0:0:
155,356,273405,1,2,2:3:0:0:
512,142,273576,6,0,P|451:144|391:155,1,122.100003726196,2|0,1:2|0:0,0:0:0:0:
0,196,273748,2,0,P|60:184|120:180,1,122.100003726196,2|0,2:2|0:0,0:0:0:0:
257,256,273919,1,10,1:2:0:0:
230,1,274091,6,0,P|236:40|242:100,1,99.8999969512941,2|0,2:2|0:0,0:0:0:0:
248,179,274262,5,2,2:2:0:0:
248,179,274605,1,2,2:2:0:0:
326,215,274948,5,2,2:2:0:0:
122,144,275119,1,2,2:2:0:0:
183,231,275291,5,2,2:2:0:0:
364,122,275462,1,2,2:2:0:0:
512,297,275634,6,0,P|422:315|339:338,1,177.6,6|2,1:1|2:3,0:0:0:0:
260,376,275891,1,0,0:0:0:0:
260,376,275976,1,2,2:2:0:0:
462,228,276148,6,0,B|478:186|478:186|446:155,1,88.8,2|0,1:3|0:0,0:0:0:0:
247,114,276319,1,2,1:2:0:0:
512,55,276491,2,0,P|426:79|339:97,1,177.6,2|10,2:2|1:2,0:0:0:0:
386,207,276834,6,0,P|343:194|299:185,1,88.8,2|0,2:2|0:0,0:0:0:0:
167,78,277005,2,0,P|82:52|0:18,1,177.6,2|2,1:2|2:3,0:0:0:0:
168,226,277348,2,0,B|190:276|130:325|160:275|96:331|122:384,1,177.6,10|2,1:2|2:3,0:0:0:0:
294,120,277691,6,0,P|242:137|188:149,1,111,2|0,1:2|0:0,0:0:0:0:
0,175,277862,2,0,P|55:176|110:168,1,111,2|0,2:2|0:0,0:0:0:0:
375,76,278034,1,10,1:2:0:0:
473,265,278205,6,0,P|468:299|467:332,1,66.5999979675294,2|0,2:2|0:0,0:0:0:0:
185,384,278376,6,0,P|182:338|176:295,1,88.8,2|0,1:2|0:0,0:0:0:0:
347,182,278548,2,0,P|341:226|339:270,1,88.8,2|0,2:2|0:0,0:0:0:0:
132,209,278719,2,0,P|176:214|220:216,1,88.8,10|0,1:2|0:0,0:0:0:0:
379,362,278891,2,0,P|335:355|290:353,1,88.8,2|0,2:2|0:0,0:0:0:0:
26,255,279062,5,2,1:2:0:0:
18,261,279148,1,0,0:0:0:0:
23,269,279234,2,0,P|60:275|99:279,1,77.6999976287843,2|0,2:3|0:0,0:0:0:0:
491,316,279405,5,10,1:2:0:0:
499,310,279491,1,0,0:0:0:0:
494,302,279577,2,0,P|456:295|417:291,1,77.6999976287843,2|0,2:3|0:0,0:0:0:0:
181,329,279748,6,0,P|177:273|172:218,1,111,2|0,1:2|0:0,0:0:0:0:
142,48,279919,1,2,2:3:0:0:
326,340,280091,6,0,P|334:285|346:230,1,111,10|0,1:2|0:0,0:0:0:0:
391,65,280262,1,2,2:3:0:0:
97,138,280434,6,0,P|157:128|218:128,1,122.100003726196,2|0,1:2|0:0,0:0:0:0:
296,133,280605,2,0,P|356:142|414:161,1,122.100003726196,2|0,2:2|0:0,0:0:0:0:
496,200,280776,1,10,1:2:0:0:
296,46,280948,6,0,B|265:59|265:59|237:40,1,66.5999979675294,2|0,2:2|0:0,0:0:0:0:
0,108,281119,6,0,P|11:195|18:284,1,177.6,2|2,1:2|2:3,0:0:0:0:
18,378,281376,1,0,0:0:0:0:
18,378,281462,1,10,1:2:0:0:
86,158,281634,6,0,P|92:202|96:246,1,88.8,2|0,2:3|0:0,0:0:0:0:
103,330,281805,1,2,1:2:0:0:
395,197,281976,2,0,P|383:284|376:373,1,177.6,2|10,2:2|1:2,0:0:0:0:
240,331,282319,6,0,P|241:297|244:264,1,66.5999979675294,2|0,2:2|0:0,0:0:0:0:
333,136,282491,6,0,P|336:91|342:47,1,88.8,2|0,1:2|0:0,0:0:0:0:
167,3,282662,2,0,P|172:47|176:91,1,88.8,2|0,2:2|0:0,0:0:0:0:
6,74,282834,2,0,P|49:68|94:64,1,88.8,10|0,1:2|0:0,0:0:0:0:
501,114,283005,2,0,P|456:110|412:104,1,88.8,2|0,2:2|0:0,0:0:0:0:
258,63,283176,5,2,1:2:0:0:
226,384,283348,2,0,B|208:321|208:321|280:265|248:179,1,210.899994368363,2|10,2:2|1:2,0:0:0:0:
394,360,283691,2,0,P|356:349|318:341,1,77.6999976287843,2|0,2:2|0:0,0:0:0:0:
0,272,283862,6,0,P|86:252|172:229,1,177.6,2|2,1:2|2:3,0:0:0:0:
252,192,284119,1,0,0:0:0:0:
252,192,284205,1,10,1:2:0:0:
57,111,284376,2,0,P|64:143|68:176,1,66.5999979675294,2|0,2:3|0:0,0:0:0:0:
374,144,284548,6,0,P|383:90|399:37,1,111,2|0,1:2|0:0,0:0:0:0:
128,12,284719,2,0,P|138:66|141:121,1,111,2|0,2:2|0:0,0:0:0:0:
252,192,284891,1,10,1:2:0:0:
264,29,285062,6,0,P|262:62|260:95,1,66.5999979675294,2|0,2:2|0:0,0:0:0:0:
376,301,285234,5,2,1:2:0:0:
432,257,285319,1,0,0:0:0:0:
501,277,285405,1,2,2:3:0:0:
126,286,285576,5,10,1:2:0:0:
70,330,285661,1,0,0:0:0:0:
1,310,285747,1,2,2:3:0:0:
164,355,285919,6,0,P|229:343|295:338,1,133.199995935059,2|0,1:2|0:0,0:0:0:0:
339,231,286090,2,0,P|273:241|206:246,1,133.199995935059,2|0,2:2|0:0,0:0:0:0:
139,208,286262,1,10,1:2:0:0:
368,384,286434,6,0,P|371:350|375:317,1,66.5999979675294,2|0,2:2|0:0,0:0:0:0:
56,255,286605,6,0,P|48:166|35:78,1,177.6,6|2,1:2|2:3,0:0:0:0:
15,0,286862,1,0,0:0:0:0:
15,0,286947,1,10,1:2:0:0:
320,116,287119,6,0,P|324:71|330:27,1,88.8,2|0,2:3|0:0,0:0:0:0:
401,80,287291,1,2,1:2:0:0:
91,19,287462,2,0,B|141:-3|190:57|140:27|196:91|249:65,1,177.6,2|10,2:2|1:2,0:0:0:0:
255,249,287805,6,0,P|251:204|245:160,1,88.8,2|0,2:2|0:0,0:0:0:0:
512,147,287976,2,0,B|462:125|413:185|463:155|407:219|354:193,1,177.6,2|2,1:2|2:2,0:0:0:0:
2,332,288319,2,0,B|52:310|101:370|51:340|107:404|160:378,1,177.6,10|2,1:2|2:2,0:0:0:0:
327,330,288662,6,0,P|273:331|214:326,1,111,2|0,1:2|0:0,0:0:0:0:
512,286,288834,2,0,P|462:304|406:318,1,111,2|0,2:2|0:0,0:0:0:0:
141,307,289005,1,10,1:2:0:0:
388,244,289176,6,0,P|355:250|322:250,1,66.5999979675294,2|0,2:2|0:0,0:0:0:0:
128,31,289348,6,0,P|147:76|158:125,1,99.8999969512941,2|0,1:2|0:0,0:0:0:0:
356,18,289519,2,0,P|343:66|340:116,1,99.8999969512941,2|0,2:2|0:0,0:0:0:0:
2,205,289691,2,0,P|51:196|101:192,1,99.8999969512941,10|0,1:2|0:0,0:0:0:0:
510,150,289862,2,0,P|460:154|410:162,1,99.8999969512941,2|0,2:2|0:0,0:0:0:0:
255,308,290033,5,2,1:2:0:0:
263,310,290119,1,0,0:0:0:0:
270,305,290205,2,0,P|264:260|262:216,1,88.8,2|0,2:2|0:0,0:0:0:0:
258,41,290376,5,10,1:2:0:0:
250,39,290462,1,0,0:0:0:0:
243,44,290548,2,0,P|248:88|250:132,1,88.8,2|0,2:2|0:0,0:0:0:0:
413,369,290719,6,0,P|415:313|422:258,1,111,2|0,1:2|0:0,0:0:0:0:
460,81,290890,1,2,2:3:0:0:
129,384,291062,6,0,P|118:329|103:275,1,111,10|0,1:2|0:0,0:0:0:0:
43,120,291234,1,2,2:3:0:0:
428,178,291405,6,0,P|362:174|296:176,1,133.199995935059,2|0,1:2|0:0,0:0:0:0:
84,202,291576,2,0,P|149:189|215:183,1,133.199995935059,2|0,2:2|0:0,0:0:0:0:
512,194,291747,1,10,1:2:0:0:
349,98,291919,6,0,P|353:65|361:32,1,66.5999979675294,2|0,2:2|0:0,0:0:0:0:
129,0,292091,6,0,P|143:53|150:108,1,111,2|10,1:2|2:2,0:0:0:0:
221,48,292776,1,2,2:2:0:0:
242,220,292948,2,0,B|205:180|205:180|228:128,1,111,2|2,1:2|1:2,0:0:0:0:
305,166,293462,6,0,P|332:162|359:155,1,55.5,2|2,1:2|2:2,0:0:0:0:
512,291,293805,2,0,P|484:284|457:280,1,55.5,10|2,2:2|2:2,0:0:0:0:
418,213,294148,1,2,2:2:0:0:
352,383,294319,2,0,P|357:328|364:273,1,111,2|2,2:2|2:2,0:0:0:0:
123,187,294834,6,0,P|126:214|129:242,1,55.5,2|0,1:2|0:0,0:0:0:0:
269,347,295176,2,0,P|271:319|275:291,1,55.5,10|0,2:2|0:0,0:0:0:0:
202,269,295519,1,2,2:2:0:0:
285,211,295691,1,2,1:2:0:0:
183,69,295862,1,8,2:2:0:0:
255,18,296034,1,2,1:2:0:0:
236,135,296205,5,2,1:2:0:0:
236,135,296548,5,2,2:2:0:0:
403,106,296719,1,2,2:2:0:0:
328,119,296891,1,2,2:2:0:0:
512,89,297234,5,2,2:2:0:0:
343,243,297576,5,14,1:1:0:0:
343,243,297748,2,0,P|335:286|330:330,1,88.8,2|10,2:2|1:2,0:0:0:0:
255,280,298091,1,2,2:3:0:0:
190,383,298262,2,0,P|184:338|177:295,1,88.8,10|2,1:2|2:3,0:0:0:0:
162,218,298605,2,0,B|112:196|63:256|113:226|57:290|4:264,1,177.6,10|10,1:2|1:2,0:0:0:0:
213,152,299119,6,0,P|208:108|202:64,1,88.8,2|10,2:2|1:2,0:0:0:0:
128,33,299462,1,2,2:3:0:0:
298,0,299634,2,0,P|291:43|287:88,1,88.8,10|2,1:2|2:3,0:0:0:0:
354,137,299976,2,0,B|404:115|453:175|403:145|459:209|512:183,1,177.6,10|10,1:2|1:2,0:0:0:0:
383,350,300491,6,0,P|338:346|294:341,2,88.8,2|10|2,2:2|1:2|2:3,0:0:0:0:
128,289,301005,2,0,P|172:285|216:280,1,88.8,10|2,1:2|2:3,0:0:0:0:
45,384,301348,2,0,P|38:295|27:207,1,177.6,10|10,1:2|1:2,0:0:0:0:
0,29,301862,6,0,B|-21:67|-21:67|4:103,1,88.8,2|10,2:2|1:2,0:0:0:0:
73,66,302205,1,2,2:3:0:0:
72,143,302376,2,0,P|138:149|204:158,1,133.2,10|0,1:2|0:0,0:0:0:0:
354,94,302719,2,0,P|309:99|265:104,1,88.8,10|2,1:2|2:3,0:0:0:0:
242,295,303062,5,10,1:2:0:0:
242,295,303234,2,0,P|239:339|237:383,2,88.8,2|10|2,2:2|1:2|2:3,0:0:0:0:
344,381,303748,2,0,B|322:342|322:342|348:306,1,88.8,10|2,1:2|2:3,0:0:0:0:
129,371,304091,2,0,B|154:334|154:334|133:296,1,88.8,10|2,1:2|2:3,0:0:0:0:
266,186,304434,5,10,1:2:0:0:
266,186,304605,2,0,B|316:164|365:224|315:194|371:258|424:232,1,177.6,2|2,2:2|2:3,0:0:0:0:
499,186,305119,2,0,P|496:141|491:97,1,88.8,10|2,1:2|2:3,0:0:0:0:
337,19,305462,2,0,P|341:63|344:107,1,88.8,10|2,1:2|2:3,0:0:0:0:
181,211,305805,5,10,1:2:0:0:
181,211,305976,2,0,P|178:166|173:122,1,88.8,2|10,2:2|1:2,0:0:0:0:
33,6,306319,1,2,2:3:0:0:
45,83,306491,2,0,P|49:127|52:171,1,88.8,10|2,1:2|2:3,0:0:0:0:
90,267,306834,2,0,P|45:262|1:259,1,88.8,10|2,1:2|2:3,0:0:0:0:
212,326,307176,5,10,1:2:0:0:
212,326,307348,2,0,P|256:328|300:333,1,88.8,2|10,2:2|1:2,0:0:0:0:
457,343,307691,1,2,2:3:0:0:
374,295,307863,2,0,P|378:339|381:383,1,88.8,10|2,1:2|2:3,0:0:0:0:
263,251,308205,2,0,P|260:206|255:162,1,88.8,10|2,1:2|2:3,0:0:0:0:
310,19,308548,5,14,1:1:0:0:
310,19,308891,2,0,B|245:57|245:57|168:32,2,155.399995257569,10|10|10,1:2|1:2|1:2,0:0:0:0:
477,158,309919,5,10,1:2:0:0:
477,158,310091,2,0,P|480:119|487:68,1,77.6999976287843,2|10,2:2|1:2,0:0:0:0:
370,187,310434,1,0,0:0:0:0:
370,187,310606,2,0,P|373:148|377:110,1,77.6999976287843,10|0,1:2|0:0,0:0:0:0:
512,240,310948,2,0,P|435:254|355:275,1,155.399995257569,10|10,1:2|1:2,0:0:0:0:
282,356,311462,6,0,P|243:348|206:340,1,77.6999976287843,2|10,2:2|1:2,0:0:0:0:
136,384,311805,1,0,0:0:0:0:
0,271,311976,2,0,P|37:263|75:255,1,77.6999976287843,10|0,1:2|0:0,0:0:0:0:
171,162,312319,2,0,P|164:200|160:238,1,77.6999976287843,10|0,1:2|0:0,0:0:0:0:
24,153,312662,5,10,1:2:0:0:
24,153,312834,2,0,P|14:75|0:0,1,155.399995257569,2|0,2:2|0:0,0:0:0:0:
137,61,313348,2,0,P|175:56|213:49,1,77.6999976287843,10|0,1:2|0:0,0:0:0:0:
277,113,313691,2,0,P|316:117|354:123,1,77.6999976287843,10|0,1:2|0:0,0:0:0:0:
512,156,314034,5,10,1:2:0:0:
512,156,314376,2,0,P|499:233|490:311,2,155.399995257569,10|10|10,1:2|1:2|1:2,0:0:0:0:
374,11,315405,5,10,1:2:0:0:
374,11,315576,2,0,P|363:77|355:143,1,133.199995935059,2|0,2:2|0:0,0:0:0:0:
432,145,316091,2,0,P|435:111|439:78,1,66.5999979675294,10|0,1:2|0:0,0:0:0:0:
293,12,316434,2,0,P|288:45|285:78,1,66.5999979675294,10|0,1:2|0:0,0:0:0:0:
274,251,316776,5,10,1:2:0:0:
274,251,317118,2,0,P|328:242|384:236,2,111,10|10|10,1:2|1:2|1:2,0:0:0:0:
221,64,318319,6,0,L|224:41,2,13.875,2|0|0,2:2|0:0|0:0,0:0:0:0:
100,33,318491,6,0,L|93:10,2,13.875,2|0|0,2:2|0:0|0:0,0:0:0:0:
9,122,318662,6,0,L|-6:104,2,13.875,2|0|0,2:2|0:0|0:0,0:0:0:0:
124,121,318834,6,0,L|117:98,4,13.875,2|0|0|0|0,2:2|0:0|0:0|0:0|0:0,0:0:0:0:
174,276,319091,2,0,P|163:222|182:170,1,111
261,0,319519,5,14,1:1:0:0:
261,0,319862,1,10,1:2:0:0:
340,45,320205,2,0,P|352:109|330:171,1,133.199995935059,10|10,1:2|1:2,0:0:0:0:
458,295,320891,5,10,1:2:0:0:
512,227,321062,2,0,B|447:208|447:208|390:242,1,133.199995935059,2|0,2:2|0:0,0:0:0:0:
310,250,321576,2,0,P|279:259|246:264,1,66.5999979675294,10|0,1:2|0:0,0:0:0:0:
309,380,321919,2,0,P|277:370|244:365,1,66.5999979675294,10|0,1:2|0:0,0:0:0:0:
139,339,322262,5,10,1:2:0:0:
139,339,322434,2,0,P|133:272|125:206,1,133.199995935059,2|0,2:2|0:0,0:0:0:0:
52,252,322948,2,0,P|56:285|58:318,1,66.5999979675294,10|0,1:2|0:0,0:0:0:0:
46,169,323291,2,0,P|43:135|39:102,1,66.5999979675294,10|0,1:2|0:0,0:0:0:0:
166,0,323634,5,10,1:2:0:0:
166,0,323805,2,0,P|172:56|178:132,1,133.199995935059,2|0,2:2|0:0,0:0:0:0:
252,62,324319,2,0,P|284:70|316:77,1,66.5999979675294,10|0,1:2|0:0,0:0:0:0:
356,152,324662,2,0,P|388:143|420:136,1,66.5999979675294,10|0,1:2|0:0,0:0:0:0:
512,66,325005,5,10,1:2:0:0:
512,66,325176,2,0,P|505:122|499:198,1,133.199995935059,2|0,2:2|0:0,0:0:0:0:
393,291,325691,2,0,B|456:267|456:267|511:303,1,133.199995935059,10|10,1:2|1:2,0:0:0:0:
316,384,326376,5,10,1:2:0:0:
316,384,326547,2,0,P|310:317|303:251,1,133.199995935059,2|0,2:2|0:0,0:0:0:0:
231,319,327062,2,0,P|199:309|166:301,1,66.5999979675294,10|0,1:2|0:0,0:0:0:0:
16,287,327405,2,0,P|48:278|80:269,1,66.5999979675294,10|0,1:2|0:0,0:0:0:0:
150,212,327748,5,10,1:2:0:0:
150,212,327919,2,0,B|109:157|109:157|134:96,1,133.199995935059,2|0,2:2|0:0,0:0:0:0:
200,5,328434,2,0,P|208:37|214:69,1,66.5999979675294,10|0,1:2|0:0,0:0:0:0:
286,127,328776,2,0,P|292:94|300:62,1,66.5999979675294,10|0,1:2|0:0,0:0:0:0:
367,0,329119,5,10,1:2:0:0:
367,0,329291,2,0,B|407:54|407:54|382:115,1,133.199995935059,2|0,2:2|0:0,0:0:0:0:
362,198,329805,2,0,P|394:192|427:185,1,66.5999979675294,10|0,1:2|0:0,0:0:0:0:
512,276,330148,2,0,P|479:269|446:263,1,66.5999979675294,10|0,1:2|0:0,0:0:0:0:
246,252,330491,5,6,3:2:0:0:
246,252,330834,2,0,P|242:193|234:137,2,111,2|2|2,3:3|3:2|3:2,0:0:0:0:
151,346,331862,5,2,3:3:0:0:
151,346,332205,2,0,P|147:287|139:231,2,111,2|2|2,3:3|3:2|3:2,0:0:0:0:
24,320,333234,5,2,3:3:0:0:
24,320,333577,2,0,P|20:261|12:205,2,111,2|2|2,3:3|3:2|3:2,0:0:0:0:
24,320,334605,5,2,3:3:0:0:
139,235,334948,1,2,3:3:0:0:
246,252,335291,1,2,3:2:0:0:
489,237,335976,6,0,P|493:203|498:168,1,66.5999979675294,6|0,3:2|3:3,0:0:0:0:
512,95,336662,1,2,3:2:0:0:
512,95,337005,1,2,3:2:0:0:
271,167,337348,6,0,P|268:139|266:111,1,55.5,0|0,3:3|3:3,0:0:0:0:
265,33,338034,1,2,3:2:0:0:
265,33,338377,1,2,3:2:0:0:
94,258,338719,6,0,P|87:236|80:215,1,44.4,0|0,3:3|3:3,0:0:0:0:
58,144,339405,1,2,3:2:0:0:
58,144,339748,1,2,3:2:0:0:
269,10,340434,5,2,2:2:0:0:
229,176,340605,1,2,2:2:0:0:
243,95,340776,1,2,2:2:0:0:
215,327,341119,5,2,2:2:0:0:
