osu file format v14

[General]
AudioFilename: audio.mp3
AudioLeadIn: 0
PreviewTime: 131485
Countdown: 0
SampleSet: Normal
StackLeniency: 0.2
Mode: 0
LetterboxInBreaks: 0
WidescreenStoryboard: 0

[Editor]
Bookmarks: 153600
DistanceSpacing: 0.4
BeatDivisor: 4
GridSize: 32
TimelineZoom: 1.8

[Metadata]
Title:Shoulder Boulders (Original Mix)
TitleUnicode:Shoulder Boulders (Original Mix)
Artist:S3RL
ArtistUnicode:S3RL
Creator:FCL
Version:extra
Source:
Tags:
BeatmapID:1357554
BeatmapSetID:640175

[Difficulty]
HPDrainRate:6
CircleSize:4.2
OverallDifficulty:8
ApproachRate:9.1
SliderMultiplier:2
SliderTickRate:1

[Events]
//Background and Video events
0,0,"lewd.jpg",0,0
//Break Periods
2,120885,126942
2,219428,227073
//Storyboard Layer 0 (Background)
//Storyboard Layer 1 (Fail)
//Storyboard Layer 2 (Pass)
//Storyboard Layer 3 (Foreground)
//Storyboard Layer 4 (Overlay)
//Storyboard Sound Samples

[TimingPoints]
0,342.857142857143,4,1,1,60,1,0
6514,-100,4,1,1,60,0,0
8914,-125,4,2,1,60,0,0
9257,-83.3333333333333,4,2,1,60,0,0
9600,-100,4,1,1,60,0,0
16457,-100,4,1,1,60,0,0
27342,-100,4,2,1,80,0,0
27428,-133.333333333333,4,2,1,80,0,0
38400,-117.647058823529,4,2,1,80,0,0
41142,-117.647058823529,4,2,1,80,0,0
43371,-117.647058823529,4,1,1,80,0,0
43885,-90.9090909090909,4,1,1,80,0,0
46285,-200,4,1,1,80,0,0
46457,-76.9230769230769,4,1,1,80,0,0
46628,-90.9090909090909,4,1,1,80,0,0
47828,-76.9230769230769,4,1,1,80,0,0
48171,-90.9090909090909,4,1,1,80,0,0
49285,-76.9230769230769,4,1,1,80,0,0
49714,-90.9090909090909,4,1,1,80,0,0
51942,-76.9230769230769,4,1,1,80,0,0
52114,-76.9230769230769,4,1,1,80,0,0
53828,-90.9090909090909,4,1,1,80,0,0
54171,-111.111111111111,4,1,1,80,0,0
54857,-90.9090909090908,4,1,1,80,0,1
55200,-90.9090909090908,4,1,1,80,0,0
57428,-76.9230769230769,4,1,1,80,0,0
57600,-90.9090909090908,4,1,1,80,0,0
58800,-76.9230769230769,4,1,1,80,0,0
59142,-90.9090909090908,4,1,1,80,0,0
60257,-76.9230769230769,4,1,1,80,0,0
60685,-90.9090909090908,4,1,1,80,0,0
63000,-76.9230769230769,4,1,1,80,0,0
63428,-111.111111111111,4,2,1,50,0,0
65657,-111.111111111111,4,2,1,80,0,0
65828,-117.647058823529,4,1,1,80,0,0
75428,-100,4,1,1,80,0,0
76800,-111.111111111111,4,1,1,80,0,0
87771,-100,4,2,1,50,0,0
96685,-125,4,2,1,50,0,0
97028,-83.3333333333333,4,2,1,50,0,0
98400,-83.3333333333333,4,2,1,80,0,0
98571,-76.9230769230769,4,1,1,80,0,0
98742,-125,4,1,1,80,0,0
100114,-100,4,1,1,80,0,0
100371,-76.9230769230769,4,1,1,80,0,0
100800,-166.666666666667,4,1,1,80,0,0
101142,-76.9230769230769,4,1,1,80,0,0
101485,-125,4,1,1,80,0,0
102514,-76.9230769230769,4,1,1,80,0,0
103542,-125,4,1,1,80,0,0
103885,-76.9230769230769,4,1,1,80,0,0
104228,-125,4,1,1,80,0,0
105257,-100,4,1,1,80,0,0
106971,-125,4,1,1,80,0,0
107485,-76.9230769230769,4,1,1,80,0,0
107657,-125,4,1,1,80,0,0
108000,-76.9230769230769,4,1,1,80,0,0
109371,-166.666666666667,4,1,1,80,0,0
109714,-125,4,1,1,80,0,0
111085,-100,4,1,1,80,0,0
111342,-76.9230769230769,4,1,1,80,0,0
111771,-166.666666666667,4,1,1,80,0,0
112114,-76.9230769230769,4,1,1,80,0,0
112457,-125,4,1,1,80,0,0
113485,-76.9230769230769,4,1,1,80,0,0
114685,-62.5,4,1,1,80,0,0
114857,-76.9230769230769,4,1,1,80,0,0
115200,-125,4,1,1,80,0,0
117257,-100,4,1,1,80,0,0
117600,-76.9230769230769,4,1,1,80,0,0
117942,-125,4,1,1,80,0,0
118457,-76.9230769230769,4,1,1,80,0,0
120000,-166.666666666667,4,1,1,80,0,0
120342,-76.9230769230769,4,1,1,80,0,0
128914,-100,4,2,1,50,0,0
131485,-100,4,1,1,80,0,0
131657,-83.3333333333333,4,1,1,80,0,1
152228,-166.666666666667,4,2,1,80,0,0
153600,-83.3333333333333,4,1,1,80,0,1
164571,-90.9090909090909,4,1,1,80,0,0
167314,-100,4,1,1,80,0,0
168685,-111.111111111111,4,1,1,80,0,0
174171,-111.111111111111,4,1,1,40,0,0
175542,-133.333333333333,4,2,1,80,0,0
186342,-117.647058823529,4,1,1,80,0,0
191314,-100,4,1,1,80,0,0
192000,-117.647058823529,4,1,1,80,0,0
197485,-90.9090909090909,4,1,1,80,0,0
200057,-76.9230769230769,4,1,1,80,0,0
200228,-90.9090909090909,4,1,1,80,0,0
201428,-76.9230769230769,4,1,1,80,0,0
201771,-90.9090909090909,4,1,1,80,0,0
202885,-76.9230769230769,4,1,1,80,0,0
202971,-90.9090909090909,4,1,1,80,0,0
205542,-76.9230769230769,4,1,1,80,0,0
205714,-76.9230769230769,4,1,1,80,0,0
207428,-90.9090909090908,4,1,1,80,0,0
207771,-111.111111111111,4,1,1,80,0,0
208457,-90.9090909090909,4,1,1,80,0,1
210514,-90.9090909090909,4,1,1,80,0,0
212400,-76.9230769230769,4,1,1,80,0,0
212742,-90.9090909090909,4,1,1,80,0,0
213857,-76.9230769230769,4,1,1,80,0,0
213942,-90.9090909090909,4,1,1,80,0,0
217028,-111.111111111111,4,2,1,80,0,0
230400,-117.647058823529,4,1,1,80,0,0
238628,-166.666666666667,4,2,1,80,0,0
241200,-83.3333333333334,4,1,1,80,0,1
261942,-166.666666666667,4,2,1,80,0,0
263314,-83.3333333333334,4,1,1,80,0,1
283885,-125,4,2,1,60,0,0
284571,-200,4,2,1,60,0,0
285257,-100,4,1,1,80,0,0
294171,-125,4,1,1,80,0,0
294514,-83.3333333333333,4,1,1,80,0,0
294857,-100,4,1,1,80,0,0
307200,-100,4,1,1,60,0,0
316114,-125,4,1,1,60,0,0
316457,-83.3333333333333,4,1,1,60,0,0
316800,-100,4,1,1,60,0,0

[Colours]
Combo1 : 51,0,255
Combo2 : 22,180,124
Combo3 : 39,151,233
Combo4 : 44,218,222

[HitObjects]
154,179,0,6,0,L|326:169,1,150,4|0,0:0|2:0,0:0:0:0:
367,215,342,1,0,0:0:0:0:
375,186,428,1,0,2:0:0:0:
382,156,514,2,0,L|378:88,1,50,2|0,2:2|2:0,2:0:0:0:
263,52,685,1,0,0:0:0:0:
189,248,857,1,0,2:0:0:0:
218,256,943,1,0,2:0:0:0:
248,263,1029,2,0,L|316:259,1,50,0|0,0:0|2:0,0:0:0:0:
471,247,1200,1,2,2:0:0:0:
304,367,1371,5,0,0:0:0:0:
304,367,1714,1,0,0:0:0:0:
304,367,2057,1,0,0:0:0:0:
304,367,2400,1,0,0:0:0:0:
304,367,2742,5,0,0:0:0:0:
304,367,3085,1,0,0:0:0:0:
313,349,3171,1,0,2:0:0:0:
314,329,3257,2,0,P|310:292|289:251,1,50,0|0,2:0|2:0,2:0:0:0:
174,207,3428,2,0,L|288:202,1,100,2|0,0:2|2:0,0:0:0:0:
327,153,3685,1,0,2:2:0:0:
339,168,3771,1,0,0:0:0:0:
208,367,4114,5,0,0:0:0:0:
208,367,4457,1,0,0:0:0:0:
208,367,4800,1,0,0:0:0:0:
208,367,5143,1,0,0:0:0:0:
208,367,5485,5,0,0:0:0:0:
197,338,5571,1,0,2:0:0:0:
186,309,5657,2,0,L|190:248,1,50,2|0,2:2|2:0,2:0:0:0:
335,312,5828,5,0,0:0:0:0:
347,278,5914,1,0,2:0:0:0:
360,245,6000,2,0,L|355:175,1,50,2|0,2:0|2:0,2:0:0:0:
220,193,6171,5,0,0:0:0:0:
206,154,6257,1,0,2:0:0:0:
191,116,6343,2,0,L|196:37,1,50,2|0,2:0|2:0,2:0:0:0:
406,136,6514,6,0,L|401:57,1,50,2|0,0:2|2:0,0:0:0:0:
398,0,6685,1,0,2:0:0:0:
208,17,6857,5,0,0:0:0:0:
208,17,7200,1,0,0:0:0:0:
208,17,7543,1,0,0:0:0:0:
208,17,7886,1,0,0:0:0:0:
208,17,8228,5,0,0:0:0:0:
275,65,8400,1,0,2:0:0:0:
253,85,8485,1,0,2:0:0:0:
225,96,8571,2,0,P|190:95|164:82,1,50,2|0,0:2|2:0,0:0:0:0:
71,175,8742,2,0,P|106:176|132:189,1,50,2|0,2:2|2:0,2:0:0:0:
198,312,8914,6,2,P|236:245|203:214,1,120,2|0,0:2|0:2,0:2:0:0:
215,220,9257,6,0,L|352:211,1,119.999996337891,2|0,0:2|0:0,0:0:0:0:
304,17,9600,5,0,0:0:0:0:
304,17,9943,1,0,0:0:0:0:
304,17,10285,2,0,L|309:140,1,100,2|0,0:2|3:1,0:0:0:0:
208,367,10628,2,0,L|203:267,1,100,2|0,0:2|3:0,0:0:0:0:
436,202,10971,6,0,L|251:209,1,150,4|0,0:0|2:0,0:0:0:0:
193,142,11314,1,0,0:0:0:0:
185,171,11400,1,0,2:0:0:0:
177,199,11485,1,0,2:0:0:0:
309,124,11657,2,0,L|306:34,1,50,2|0,0:2|2:0,0:0:0:0:
125,8,11828,1,0,2:0:0:0:
120,37,11914,1,0,2:0:0:0:
113,66,12000,2,0,L|118:129,1,50,2|0,0:2|2:0,0:0:0:0:
138,298,12171,1,2,2:2:0:0:
43,148,12342,5,8,0:0:0:0:
43,148,12685,1,8,0:0:0:0:
43,148,13028,1,8,0:0:0:0:
43,148,13371,1,8,0:0:0:0:
43,148,13714,5,8,0:0:0:0:
43,148,14057,1,8,0:0:0:0:
55,132,14142,1,0,2:0:0:0:
73,124,14228,1,0,2:0:0:0:
231,223,14400,1,8,0:0:0:0:
213,232,14485,1,0,2:0:0:0:
193,231,14571,2,0,P|157:216|127:174,1,50,2|0,2:0|2:0,2:0:0:0:
161,48,14742,1,8,0:0:0:0:
161,48,14914,1,2,2:2:0:0:
43,236,15085,5,8,0:0:0:0:
43,236,15428,1,8,0:0:0:0:
43,236,15771,1,8,0:0:0:0:
43,236,16114,1,8,0:0:0:0:
43,236,16457,5,8,0:0:0:0:
51,224,16542,1,0,2:0:0:0:
58,210,16628,1,8,2:1:0:0:
172,335,16801,1,8,0:0:0:0:
172,335,16972,1,8,2:1:0:0:
38,180,17143,5,8,0:0:0:0:
46,168,17228,1,0,2:0:0:0:
53,154,17314,1,8,2:1:0:0:
212,332,17485,1,8,0:0:0:0:
212,332,17656,1,8,2:1:0:0:
86,285,17828,5,8,0:0:0:0:
248,147,18000,1,8,2:1:0:0:
234,297,18171,1,8,0:0:0:0:
98,135,18342,1,8,2:1:0:0:
245,310,18514,5,8,0:0:0:0:
263,131,18686,1,8,2:1:0:0:
72,302,18857,1,8,0:0:0:0:
87,115,19028,1,8,2:1:0:0:
234,196,19200,5,8,0:0:0:0:
257,203,19285,1,8,0:0:0:0:
282,203,19371,1,8,0:0:0:0:
305,194,19457,1,8,0:0:0:0:
324,177,19542,1,8,0:0:0:0:
336,155,19628,1,8,0:0:0:0:
339,131,19714,1,8,0:0:0:0:
334,107,19800,1,8,0:0:0:0:
291,75,19885,5,8,0:0:0:0:
282,113,19970,1,8,0:0:0:0:
295,151,20056,1,8,0:0:0:0:
324,177,20142,1,8,0:0:0:0:
363,184,20227,1,8,0:0:0:0:
400,170,20313,1,8,0:0:0:0:
425,140,20399,1,8,0:0:0:0:
431,101,20485,1,8,0:0:0:0:
401,62,20571,5,0,2:0:0:0:
256,192,21942,12,0,27342,0:0:0:0:
261,309,27428,6,0,L|266:175,1,112.500004291535,0|0,1:0|0:0,0:0:0:0:
267,181,27771,2,0,P|241:226|195:242,1,75.0000028610231,0|0,1:0|0:0,0:0:0:0:
114,216,28114,1,0,1:0:0:0:
114,216,28285,1,0,0:0:0:0:
114,216,28457,2,0,L|117:319,1,75.0000028610231,0|0,1:0|0:0,0:0:0:0:
243,357,28800,5,0,1:0:0:0:
263,282,28971,1,0,0:0:0:0:
412,211,29142,1,0,1:0:0:0:
392,286,29313,1,0,0:0:0:0:
327,145,29485,2,0,L|330:59,2,75.0000028610231,2|2|2,1:2|0:2|1:2,0:0:0:0:
327,145,30000,1,2,0:0:0:0:
251,222,30171,6,0,P|221:177|240:95,1,112.500004291535,0|0,1:0|0:0,0:0:0:0:
235,110,30514,2,0,L|231:20,1,75.0000028610231,0|0,1:0|0:0,0:0:0:0:
129,90,30857,1,0,1:0:0:0:
129,90,31028,1,0,0:0:0:0:
129,90,31200,2,0,P|141:126|127:177,1,75.0000028610231,0|0,1:0|0:0,0:0:0:0:
41,294,31542,5,0,1:0:0:0:
138,281,31714,1,0,0:0:0:0:
233,265,31885,1,0,1:2:0:0:
41,294,32228,6,0,L|141:289,1,75.0000028610231,2|0,1:2|0:0,0:0:0:0:
233,265,32571,2,0,L|333:260,1,75.0000028610231,2|0,1:2|0:0,0:0:0:0:
428,356,32914,6,0,L|423:251,1,75.0000028610231,0|0,1:0|0:0,0:0:0:0:
372,147,33257,2,0,L|375:221,1,75.0000028610231,0|0,1:0|0:0,0:0:0:0:
311,336,33600,2,0,L|306:231,1,75.0000028610231,0|0,1:0|0:0,0:0:0:0:
255,127,33942,2,0,L|258:201,1,75.0000028610231,0|0,1:0|0:0,0:0:0:0:
341,69,34285,5,2,1:2:0:0:
246,35,34457,1,2,0:2:0:0:
401,152,34628,1,2,1:2:0:0:
462,69,34800,1,2,0:2:0:0:
353,222,34971,2,0,L|358:320,2,75.0000028610231,0|2|2,1:0|0:2|1:2,0:0:0:0:
353,222,35485,1,2,0:0:0:0:
223,231,35657,5,0,1:0:0:0:
223,231,35828,1,0,0:0:0:0:
134,125,36000,1,0,1:0:0:0:
134,125,36171,1,0,0:0:0:0:
268,107,36342,1,0,1:0:0:0:
268,107,36514,1,0,0:0:0:0:
268,107,36685,2,0,P|227:137|303:165,1,150.000005722046,0|0,1:0|0:0,0:0:0:0:
153,270,38400,6,0,L|144:144,1,85.0000016212464,0|0,3:0|0:0,0:0:0:0:
301,106,38742,2,0,L|307:190,1,85.0000016212464,0|0,3:0|0:0,0:0:0:0:
139,284,39085,2,0,L|130:158,1,85.0000016212464,0|0,3:0|0:0,0:0:0:0:
317,89,39428,2,0,L|323:173,1,85.0000016212464,0|0,3:0|0:0,0:0:0:0:
48,205,39771,6,0,L|174:196,1,85.0000016212464,0|0,3:0|0:0,0:0:0:0:
385,103,40114,2,0,L|300:109,1,85.0000016212464,0|0,3:0|0:0,0:0:0:0:
35,222,40457,2,0,L|161:213,1,85.0000016212464,0|0,3:0|0:0,0:0:0:0:
401,83,40800,2,0,L|316:89,1,85.0000016212464,0|0,3:0|0:0,0:0:0:0:
254,304,41142,5,8,0:1:0:0:
191,100,41314,1,8,0:1:0:0:
361,228,41485,1,8,0:1:0:0:
148,224,41657,1,8,0:1:0:0:
323,102,41828,5,8,0:1:0:0:
253,326,42000,1,8,0:1:0:0:
178,81,42172,1,8,0:1:0:0:
383,235,42343,1,8,0:1:0:0:
126,231,42514,2,0,L|116:199,18,21.2500004053116,8|0|0|0|0|0|0|0|0|0|0|0|0|0|0|0|0|0|0,2:1|2:2|2:2|2:2|2:2|2:2|2:2|2:2|2:2|2:2|2:2|2:2|2:2|2:2|2:2|2:2|2:2|2:2|2:2,2:2:0:0:
149,302,43371,5,8,0:0:0:0:
323,143,43542,1,8,0:0:0:0:
280,138,43627,1,8,0:0:0:0:
238,134,43713,1,8,0:0:0:0:
363,311,43885,6,0,L|370:175,1,110.000003356934,6|0,0:0|0:0,0:0:0:0:
232,24,44228,2,0,L|237:133,1,110.000003356934,10|0,0:0|0:0,0:0:0:0:
149,311,44571,2,0,L|142:175,1,110.000003356934,10|0,0:0|0:0,0:0:0:0:
64,25,44914,2,0,L|61:100,1,55.0000016784668,10|0,0:0|2:0,0:0:0:0:
103,262,45085,6,0,B|189:292|173:226|285:260,1,165.000005035401,2|0,0:0|2:0,0:0:0:0:
323,304,45428,1,0,0:0:0:0:
48,323,45600,2,0,P|27:265|55:186,1,110.000003356934,10|0,0:0|0:0,0:0:0:0:
169,31,45942,1,10,0:0:0:0:
143,201,46114,1,0,0:0:0:0:
348,237,46285,1,10,0:0:0:0:
446,95,46457,2,0,L|371:110,1,64.9999970245363
206,113,46628,6,0,B|256:135|256:135|343:117,1,110.000003356934,10|0,0:0|0:0,0:0:0:0:
444,259,46971,2,0,B|438:203|438:203|379:137,1,110.000003356934,10|0,0:0|0:0,0:0:0:0:
451,0,47314,2,0,B|406:32|406:32|378:116,1,110.000003356934,10|0,0:0|0:0,0:0:0:0:
331,274,47657,2,0,L|310:343,1,55.0000016784668,10|0,0:0|2:0,0:0:0:0:
139,273,47828,6,0,B|206:267|206:267|238:280|238:280|339:273,1,194.999991073609,2|0,0:0|2:0,0:0:0:0:
244,348,48171,1,0,0:0:0:0:
98,194,48342,6,0,P|134:167|234:162,1,110.000003356934,10|0,0:0|0:0,0:0:0:0:
399,229,48685,1,10,0:0:0:0:
335,89,48857,1,0,0:0:0:0:
399,229,49028,2,0,L|392:343,1,110.000003356934,10|0,0:0|2:0,0:0:0:0:
396,347,49285,6,0,L|401:283,1,64.9999970245363
401,282,49714,6,0,P|346:279|272:230,1,110.000003356934,10|0,0:0|0:0,0:0:0:0:
76,191,50057,2,0,P|131:188|205:139,1,110.000003356934,10|0,0:0|0:0,0:0:0:0:
330,26,50400,2,0,P|314:62|320:122,1,55.0000016784668,10|0,0:0|2:0,0:0:0:0:
375,226,50571,6,0,B|297:255|297:255|185:222,1,165.000005035401,2|0,0:0|2:0,0:0:0:0:
179,164,50914,1,0,0:0:0:0:
73,341,51085,2,0,L|69:211,1,110.000003356934,10|0,0:0|0:0,0:0:0:0:
227,75,51428,1,10,0:0:0:0:
77,124,51600,1,0,0:0:0:0:
312,153,51771,1,10,0:0:0:0:
266,361,51942,2,0,L|261:264,1,64.9999970245363,0|0,0:0|2:0,0:0:0:0:
132,301,52114,6,0,L|306:294,1,129.999994049073,10|0,0:0|0:0,0:0:0:0:
441,147,52457,2,0,L|311:152,1,129.999994049073,10|0,0:0|0:0,0:0:0:0:
61,48,52800,2,0,L|235:41,1,129.999994049073,10|0,0:0|0:0,0:0:0:0:
459,26,53142,1,10,0:0:0:0:
334,250,53314,1,2,0:0:0:0:
190,42,53485,6,0,B|176:99|176:99|210:186,1,129.999994049073,10|0,0:0|0:0,0:0:0:0:
206,271,53828,6,0,B|219:216|219:216|189:128,1,110.000003356934,2|0,0:0|0:0,0:0:0:0:
124,159,54171,6,2,P|141:215|246:104,1,314.999990386963,2|0,0:2|2:2,0:2:0:0:
427,252,54857,5,14,0:0:0:0:
201,165,55028,1,10,0:0:0:0:
427,252,55200,1,10,0:0:0:0:
427,252,55542,2,0,L|416:362,1,110.000003356934,2|8,0:0|0:2,0:0:0:0:
496,126,55885,2,0,P|457:133|413:122,1,55.0000016784668,10|0,0:0|2:0,0:0:0:0:
257,55,56057,6,0,P|204:67|179:182,1,165.000005035401,10|0,0:2|2:0,0:0:0:0:
222,218,56400,1,8,0:2:0:0:
75,340,56571,2,0,P|61:291|77:210,1,110.000003356934,10|8,0:0|0:2,0:0:0:0:
286,364,56914,1,10,0:0:0:0:
141,311,57085,1,8,0:2:0:0:
365,184,57257,1,10,0:0:0:0:
467,339,57428,2,0,L|361:337,1,64.9999970245363,8|0,0:2|2:0,0:0:0:0:
300,351,57600,6,0,P|346:362|422:300,1,110.000003356934,10|8,0:0|0:2,0:0:0:0:
236,133,57942,2,0,L|234:284,1,110.000003356934,10|8,0:0|0:2,0:0:0:0:
354,64,58285,1,10,0:0:0:0:
238,0,58457,1,8,0:2:0:0:
368,145,58628,2,0,L|462:147,1,55.0000016784668,10|0,0:0|2:0,0:0:0:0:
283,361,58800,6,0,B|286:294|286:294|298:265|298:265|303:138,1,194.999991073609,10|0,0:2|2:0,0:0:0:0:
354,64,59142,1,8,0:2:0:0:
376,233,59314,2,0,P|327:265|265:254,1,110.000003356934,10|8,0:0|0:2,0:0:0:0:
75,152,59657,2,0,P|132:139|168:88,1,110.000003356934,10|8,0:0|0:2,0:0:0:0:
107,271,60000,2,0,P|164:283|200:334,1,110.000003356934,10|8,0:0|0:2,0:0:0:0:
206,329,60257,6,0,P|192:301|154:275,1,64.9999970245363
166,280,60685,6,0,L|300:275,1,110.000003356934,10|8,0:0|0:2,0:0:0:0:
364,108,61028,2,0,L|369:242,1,110.000003356934,10|8,0:0|0:2,0:0:0:0:
484,32,61371,2,0,L|414:35,1,55.0000016784668,10|0,0:0|2:0,0:0:0:0:
240,168,61542,6,0,P|197:131|221:12,1,165.000005035401,10|0,0:2|2:0,0:0:0:0:
274,9,61885,1,8,0:2:0:0:
315,206,62057,2,0,P|254:248|184:236,1,110.000003356934,10|8,0:0|0:2,0:0:0:0:
100,77,62400,1,10,0:0:0:0:
95,185,62571,1,8,0:2:0:0:
255,76,62742,2,0,P|316:118|386:106,1,110.000003356934,10|8,0:0|0:2,0:0:0:0:
403,68,63000,1,0,0:0:0:0:
411,85,63085,1,4,2:2:0:0:
369,248,63428,5,0,0:0:0:0:
352,244,63514,1,0,0:0:0:0:
335,240,63600,1,0,0:0:0:0:
252,320,63771,2,0,L|248:258,1,44.999998626709,2|0,0:0|0:0,0:0:0:0:
242,166,63942,1,0,0:0:0:0:
232,179,64028,1,0,0:0:0:0:
198,186,64114,5,2,0:0:0:0:
198,186,64285,1,2,0:0:0:0:
296,65,64457,5,4,1:0:0:0:
296,65,64800,1,2,0:0:0:0:
312,67,64885,1,2,0:0:0:0:
328,69,64971,2,0,L|387:66,1,44.999998626709,2|0,0:0|0:0,0:0:0:0:
265,153,65142,1,2,0:0:0:0:
281,155,65227,1,2,0:0:0:0:
297,157,65314,1,2,0:0:0:0:
297,157,65657,6,0,L|356:154,1,44.999998626709,0|0,3:0|0:0,0:0:0:0:
346,282,65828,6,0,L|340:129,1,127.50000243187,14|0,0:0|2:0,0:0:0:0:
339,141,66171,2,0,P|375:175|426:185,1,85.0000016212464,8|0,0:0|3:0,0:0:0:0:
507,99,66514,1,8,0:0:0:0:
507,99,66685,1,0,3:0:0:0:
413,24,66857,2,0,L|418:135,1,85.0000016212464,8|0,0:0|3:0,0:0:0:0:
497,257,67200,5,8,0:0:0:0:
420,264,67371,1,0,3:0:0:0:
264,120,67542,1,8,0:0:0:0:
271,197,67713,1,0,3:0:0:0:
289,378,67885,2,0,L|279:275,1,85.0000016212464,8|0,0:0|3:0,0:0:0:0:
77,307,68228,2,0,L|182:300,1,85.0000016212464,8|2,0:0|3:2,0:0:0:0:
208,235,68485,1,0,0:0:0:0:
208,235,68571,6,0,P|187:282|230:363,1,127.50000243187,10|0,0:0|2:0,0:0:0:0:
226,341,68914,2,0,L|328:333,1,85.0000016212464,8|0,0:0|3:0,0:0:0:0:
397,205,69257,1,8,0:0:0:0:
397,205,69428,1,0,3:0:0:0:
476,349,69600,2,0,L|391:355,1,85.0000016212464,8|0,0:0|3:0,0:0:0:0:
287,269,69942,5,8,0:0:0:0:
287,141,70114,1,0,3:0:0:0:
397,205,70285,1,8,0:0:0:0:
275,292,70628,5,8,0:0:0:0:
275,119,70800,1,0,3:0:0:0:
423,205,70971,2,0,L|420:315,1,85.0000016212464,8|2,0:0|3:2,0:0:0:0:
369,353,71228,1,2,0:0:0:0:
369,353,71314,6,0,P|411:329|462:322,1,85.0000016212464,10|0,0:0|3:0,0:0:0:0:
345,174,71657,2,0,P|387:198|438:205,1,85.0000016212464,8|0,0:0|3:0,0:0:0:0:
206,330,72000,2,0,P|252:317|303:324,1,85.0000016212464,8|0,0:0|3:0,0:0:0:0:
187,139,72342,2,0,P|233:150|284:144,1,85.0000016212464,8|0,0:0|3:0,0:0:0:0:
399,39,72685,5,8,0:0:0:0:
445,130,72857,1,0,3:0:0:0:
256,229,73028,1,8,0:0:0:0:
347,183,73200,1,0,3:0:0:0:
161,277,73371,2,0,B|151:315|151:315|168:366,2,85.0000016212464,8|0|8,0:0|3:0|0:0,0:0:0:0:
105,198,73885,1,2,3:2:0:0:
105,198,73971,1,2,0:2:0:0:
105,198,74057,5,10,0:0:0:0:
87,113,74228,1,0,3:0:0:0:
221,35,74400,5,8,0:0:0:0:
203,120,74571,1,0,3:0:0:0:
340,230,74742,5,8,0:0:0:0:
322,145,74913,1,0,3:0:0:0:
306,61,75085,2,0,L|314:199,1,127.50000243187,8|0,0:0|2:0,0:0:0:0:
313,188,75428,6,0,P|361:182|442:179,1,100,2|0,2:3|3:0,3:0:0:0:
199,188,75771,2,0,P|150:182|69:179,1,100,2|0,2:3|3:0,3:0:0:0:
256,17,76114,2,0,L|256:133,1,100,2|0,2:3|3:0,3:0:0:0:
256,367,76457,2,0,L|256:267,1,100,2|2,2:3|3:2,3:0:0:0:
329,104,76800,6,0,P|306:170|233:183,1,134.999995880127,14|0,0:0|2:0,0:0:0:0:
231,182,77142,2,0,P|266:204|296:265,1,89.9999972534181,8|0,0:0|3:0,0:0:0:0:
431,187,77485,1,8,0:0:0:0:
431,187,77657,1,0,3:0:0:0:
368,324,77828,2,0,L|247:322,1,89.9999972534181,8|0,0:0|3:0,0:0:0:0:
103,238,78171,5,8,0:0:0:0:
133,331,78342,1,0,3:0:0:0:
315,185,78514,1,8,0:0:0:0:
225,143,78685,1,0,3:0:0:0:
366,245,78857,2,0,P|392:208|385:149,1,89.9999972534181,8|0,0:0|3:0,0:0:0:0:
321,323,79200,2,0,L|438:316,1,89.9999972534181,8|2,0:0|3:2,0:0:0:0:
488,356,79457,1,2,0:2:0:0:
488,356,79542,6,0,L|477:195,1,134.999995880127,10|0,0:0|2:0,0:0:0:0:
483,211,79885,2,0,L|387:219,1,89.9999972534181,8|0,0:0|3:0,0:0:0:0:
338,80,80228,1,8,0:0:0:0:
338,80,80400,1,0,3:0:0:0:
246,253,80571,2,0,P|306:270|356:259,1,89.9999972534181,8|0,0:0|3:0,0:0:0:0:
162,351,80914,5,8,0:0:0:0:
63,259,81085,1,0,3:0:0:0:
157,162,81257,1,8,0:0:0:0:
155,361,81600,5,8,0:0:0:0:
42,256,81771,1,0,3:0:0:0:
149,146,81942,2,0,B|192:133|192:133|259:140,1,89.9999972534181,8|2,0:0|3:2,0:0:0:0:
323,204,82200,1,2,0:0:0:0:
323,204,82285,6,0,L|327:94,1,89.9999972534181,10|0,0:0|3:0,0:0:0:0:
241,300,82628,2,0,L|244:210,1,89.9999972534181,8|0,0:0|3:0,0:0:0:0:
323,282,82971,2,0,L|433:286,1,89.9999972534181,8|0,0:0|3:0,0:0:0:0:
235,137,83314,2,0,L|146:134,1,89.9999972534181,8|0,0:0|3:0,0:0:0:0:
345,49,83657,5,8,0:0:0:0:
318,137,83828,1,0,3:0:0:0:
501,193,84000,1,8,0:0:0:0:
407,164,84171,1,0,3:0:0:0:
499,277,84342,2,0,L|493:369,2,89.9999972534181,8|0|8,0:0|3:0|0:0,0:0:0:0:
385,353,84857,1,2,3:2:0:0:
385,353,84942,1,2,2:0:0:0:
385,353,85028,5,10,0:0:0:0:
374,258,85200,1,0,3:0:0:0:
184,206,85371,5,8,0:0:0:0:
279,195,85542,1,0,3:0:0:0:
355,68,85714,5,8,0:0:0:0:
355,68,85886,1,0,3:0:0:0:
355,68,86057,2,0,P|370:129|286:112,1,179.999994506836,8|0,0:0|2:0,0:0:0:0:
94,147,87771,5,0,0:0:0:0:
172,135,87942,1,0,0:0:0:0:
252,128,88114,1,2,0:0:0:0:
249,142,88200,1,2,0:0:0:0:
244,156,88285,2,0,L|253:225,1,50,2|0,0:0|0:0,0:0:0:0:
272,339,88457,1,8,0:0:0:0:
407,259,88628,5,2,0:0:0:0:
393,256,88714,1,2,0:0:0:0:
379,251,88799,2,0,L|310:260,1,50,2|0,0:0|0:0,0:0:0:0:
196,279,88971,1,2,0:0:0:0:
291,127,89142,5,0,0:0:0:0:
292,146,89313,1,0,0:0:0:0:
294,166,89484,1,0,0:0:0:0:
295,186,89656,1,0,0:0:0:0:
337,229,89828,5,8,0:0:0:0:
290,246,90000,1,0,0:0:0:0:
251,214,90171,1,0,0:0:0:0:
259,165,90342,1,0,0:0:0:0:
305,147,90514,1,0,0:0:0:0:
344,178,90685,1,0,0:0:0:0:
337,229,90857,5,2,0:0:0:0:
349,221,90942,1,2,0:0:0:0:
361,212,91028,2,0,P|368:186|363:142,1,50,2|0,0:0|0:0,0:0:0:0:
296,48,91200,1,8,1:1:0:0:
475,198,91371,5,2,0:0:0:0:
463,205,91456,1,2,0:0:0:0:
450,212,91542,2,0,P|423:206|360:147,1,100,2|0,0:0|0:0,0:0:0:0:
213,109,91885,5,0,0:0:0:0:
204,127,92056,1,0,0:0:0:0:
198,146,92227,1,0,0:0:0:0:
195,165,92399,1,0,0:0:0:0:
250,153,92571,5,8,1:0:0:0:
176,121,92742,1,0,0:0:0:0:
96,133,92914,1,0,0:0:0:0:
27,173,93085,1,0,0:0:0:0:
169,41,93257,5,2,0:0:0:0:
183,41,93342,1,2,0:0:0:0:
197,44,93428,2,0,P|231:64|258:94,1,50,2|0,0:0|0:0,0:0:0:0:
419,93,93600,5,2,0:0:0:0:
399,96,93685,1,2,0:0:0:0:
380,104,93771,2,0,P|345:134|320:175,1,50,2|0,0:0|0:0,0:0:0:0:
145,191,93942,5,10,1:0:0:0:
169,201,94027,1,2,0:0:0:0:
190,216,94114,2,0,P|216:240|236:292,1,50,2|0,0:0|0:0,0:0:0:0:
357,249,94285,6,0,P|339:300|338:338,1,50,2|0,0:0|0:0,0:0:0:0:
391,370,94457,1,2,0:0:0:0:
419,93,94628,5,0,0:0:0:0:
411,85,94800,1,0,0:0:0:0:
419,78,94971,1,0,0:0:0:0:
426,85,95142,1,0,0:0:0:0:
434,178,95314,5,8,0:1:0:0:
349,147,95485,1,0,0:0:0:0:
333,58,95657,1,0,0:0:0:0:
402,0,95828,1,0,0:0:0:0:
487,31,96000,1,0,0:0:0:0:
502,120,96171,5,2,0:0:0:0:
491,109,96257,1,2,0:0:0:0:
481,97,96342,2,0,L|394:94,1,50,2|0,0:0|0:0,0:0:0:0:
299,145,96514,2,0,L|348:146,1,50,2|0,0:0|0:0,0:0:0:0:
204,306,96685,6,0,L|206:176,1,120,8|0,1:0|0:0,0:0:0:0:
219,203,97028,6,0,P|186:179|213:206,1,119.999996337891,2|0,0:0|0:0,0:0:0:0:
256,192,97371,12,0,98314,2:0:0:0:
246,287,98400,5,8,0:1:0:0:
246,287,98571,2,0,L|239:183,1,64.9999970245363,8|0,0:0|2:0,0:0:0:0:
326,112,98742,6,0,B|318:0|318:0|326:32|354:55,2,160,6|0|8,0:0|0:0|0:0,0:0:0:0:
326,112,99600,1,2,2:0:0:0:
240,156,99771,1,2,2:0:0:0:
373,265,99942,1,2,0:2:0:0:
388,242,100028,1,2,0:2:0:0:
402,219,100114,6,0,L|465:216,1,50,2|0,0:2|2:0,0:0:0:0:
272,175,100285,1,0,2:0:0:0:
207,235,100371,2,0,B|272:257|272:257|336:235,1,129.999994049073,0|0,0:0|2:0,0:0:0:0:
138,133,100628,2,0,P|133:170|169:235,1,64.9999970245363,0|0,0:0|2:0,0:0:0:0:
196,351,100800,6,0,L|80:354,1,89.9999972534181,2|0,0:2|2:0,0:0:0:0:
106,353,101142,6,0,B|97:319|97:319|117:244,1,64.9999970245363,0|0,0:0|2:0,0:0:0:0:
216,157,101314,2,0,B|225:123|225:123|204:41,1,64.9999970245363,2|0,0:2|2:0,0:0:0:0:
104,59,101485,6,2,B|62:35|56:2|56:2|23:46|32:111|66:145|66:145|51:171|71:212,1,280,2|0,0:0|2:0,0:0:0:0:
132,177,102171,5,8,0:0:0:0:
153,166,102256,1,0,0:0:0:0:
177,164,102342,1,0,0:0:0:0:
200,169,102428,1,0,0:0:0:0:
225,213,102514,6,0,P|248:215|317:178,1,64.9999970245363,10|0,0:0|0:0,0:0:0:0:
327,39,102685,2,0,P|325:62|362:131,1,64.9999970245363,10|0,0:0|0:0,0:0:0:0:
492,198,102857,6,0,L|333:206,1,129.999994049073,2|0,0:2|2:0,0:0:0:0:
284,320,103114,2,0,B|289:281|311:261|311:261|282:227|289:183,1,129.999994049073,0|0,0:0|2:0,0:0:0:0:
362,317,103371,2,0,L|452:313,1,64.9999970245363,0|0,0:0|2:0,0:0:0:0:
228,260,103542,6,0,P|216:216|221:154,1,80,10|0,0:0|0:0,0:0:0:0:
100,64,103885,5,2,0:2:0:0:
72,111,103971,1,2,2:2:0:0:
108,152,104057,1,2,0:2:0:0:
157,130,104142,1,2,0:2:0:0:
153,76,104228,6,0,B|127:112|127:112|149:233,2,160,2|0|8,0:2|0:0|0:0,0:0:0:0:
153,76,105085,1,0,0:0:0:0:
293,178,105257,2,0,P|316:133|300:60,1,100,2|2,0:2|0:2,0:0:0:0:
249,34,105514,1,2,0:2:0:0:
238,116,105600,6,0,L|368:108,1,100,2|0,0:2|0:0,0:0:0:0:
197,226,105942,2,0,L|97:232,1,100,2|0,0:2|0:0,0:0:0:0:
345,313,106285,5,10,0:0:0:0:
373,208,106457,1,0,2:0:0:0:
167,71,106628,1,2,0:2:0:0:
135,169,106800,1,0,2:0:0:0:
481,222,106971,6,2,B|427:226|427:226|386:211|386:211|254:215,1,200,2|0,0:0|2:0,0:0:0:0:
283,214,107485,6,0,P|299:183|297:118,1,64.9999970245363
148,61,107657,6,0,L|146:8,3,40
219,91,108000,6,0,L|229:182,1,64.9999970245363,0|0,0:0|2:0,0:0:0:0:
53,207,108171,2,0,L|63:298,1,64.9999970245363,0|0,0:0|2:0,0:0:0:0:
185,327,108342,5,2,0:2:0:0:
217,323,108427,1,2,2:2:0:0:
249,320,108513,1,2,2:2:0:0:
281,316,108599,1,2,0:2:0:0:
310,281,108685,5,2,2:2:0:0:
264,279,108770,1,2,2:2:0:0:
219,278,108856,1,2,0:2:0:0:
173,276,108942,1,2,2:2:0:0:
143,238,109028,6,0,P|132:209|156:230,3,64.9999970245363,8|0|0|0,0:0|0:0|0:0|0:0,0:0:0:0:
57,221,109371,6,0,P|76:168|124:139,1,89.9999972534181
101,147,109714,6,0,B|60:172|56:208|56:208|48:168|0:120,2,160,6|0|8,0:0|0:0|0:0,0:0:0:0:
101,147,110571,1,2,0:2:0:0:
232,80,110742,1,2,0:2:0:0:
228,220,110914,1,2,0:2:0:0:
241,210,111000,1,2,0:2:0:0:
252,199,111085,6,0,P|283:196|328:220,1,50,2|0,0:2|2:0,0:0:0:0:
456,310,111257,1,0,0:0:0:0:
498,238,111342,2,0,B|448:236|448:236|419:247|419:247|359:245,1,129.999994049073,0|0,0:0|2:0,0:0:0:0:
316,64,111600,2,0,L|314:128,1,64.9999970245363,0|0,0:0|2:0,0:0:0:0:
297,278,111771,6,0,P|281:322|285:378,1,89.9999972534181,2|0,0:2|2:0,0:0:0:0:
281,364,112114,6,0,P|292:325|288:274,1,64.9999970245363,0|0,0:0|2:0,0:0:0:0:
176,164,112285,2,0,P|176:123|193:74,1,64.9999970245363,0|0,0:0|2:0,0:0:0:0:
390,43,112457,6,2,P|422:99|326:51,1,280,2|0,0:0|2:0,0:0:0:0:
364,94,113142,5,8,0:0:0:0:
368,117,113228,1,0,0:0:0:0:
372,140,113314,1,2,0:2:0:0:
376,163,113400,1,0,0:0:0:0:
406,191,113485,6,0,L|306:188,1,64.9999970245363,2|0,0:2|2:0,0:0:0:0:
227,65,113657,2,0,L|127:62,1,64.9999970245363,2|0,0:2|2:0,0:0:0:0:
49,250,113828,6,0,P|112:236|123:129,1,129.999994049073,2|0,0:2|2:0,0:0:0:0:
72,51,114085,2,0,B|47:91|47:91|69:191,1,129.999994049073,0|0,0:0|2:0,0:0:0:0:
22,325,114342,2,0,P|55:325|113:359,1,64.9999970245363,0|0,0:0|2:0,0:0:0:0:
318,309,114514,5,10,0:0:0:0:
328,292,114600,1,0,0:0:0:0:
317,219,114685,2,0,P|288:177|268:121,1,80,0|0,3:0|3:0,3:0:0:0:
104,71,114857,5,2,0:2:0:0:
139,109,114942,1,2,2:2:0:0:
191,104,115028,1,2,0:2:0:0:
217,58,115114,1,2,0:2:0:0:
195,10,115200,6,0,L|191:188,1,160,2|0,0:2|0:0,0:0:0:0:
191,169,115714,1,0,0:0:0:0:
426,309,115885,1,8,0:0:0:0:
338,295,116057,1,0,0:0:0:0:
250,283,116228,1,2,0:2:0:0:
405,141,116400,1,2,0:2:0:0:
409,180,116485,1,2,2:2:0:0:
416,219,116571,5,2,0:2:0:0:
312,190,116742,1,0,0:0:0:0:
174,329,116914,1,2,0:2:0:0:
282,361,117085,1,0,0:0:0:0:
283,113,117257,6,0,L|156:108,1,100,10|0,0:0|0:0,0:0:0:0:
106,225,117514,1,2,0:2:0:0:
106,225,117600,2,0,B|73:164|73:164|97:92,1,129.999994049073,0|2,0:0|0:2,0:0:0:0:
367,52,117942,6,2,B|381:84|370:109|370:109|375:120|375:120|328:189|383:264,1,200,2|0,0:0|2:0,0:0:0:0:
368,241,118457,6,0,P|388:279|377:337,1,64.9999970245363
276,365,118628,5,8,0:0:0:0:
270,353,118714,1,0,0:0:0:0:
236,339,118800,1,0,0:0:0:0:
230,327,118886,1,0,0:0:0:0:
193,303,118971,6,0,L|182:218,1,64.9999970245363,0|0,0:0|2:0,0:0:0:0:
279,58,119142,2,0,L|287:122,1,64.9999970245363,0|0,0:0|2:0,0:0:0:0:
322,318,119314,5,2,0:2:0:0:
293,332,119399,1,2,0:2:0:0:
261,336,119485,1,2,0:2:0:0:
230,327,119571,1,2,0:2:0:0:
165,360,119657,5,2,0:2:0:0:
165,360,119742,1,2,0:2:0:0:
165,360,119828,2,2,P|190:319|183:253,1,64.9999970245363,2|2,0:2|0:2,0:2:0:0:
200,79,120000,6,0,P|230:117|224:174,1,89.9999972534181,2|0,0:0|2:0,0:0:0:0:
230,157,120342,6,2,P|221:198|237:157,1,129.999994049073,2|0,0:2|0:2,0:2:0:0:
230,157,120685,1,12,0:0:0:0:
256,192,127542,12,0,128828,2:0:0:0:
170,259,128914,5,2,0:0:0:0:
141,172,129085,1,2,0:0:0:0:
197,99,129257,1,0,0:0:0:0:
197,99,129428,1,0,0:0:0:0:
373,199,129600,5,2,0:0:0:0:
295,225,129771,1,0,0:0:0:0:
231,175,129943,1,0,0:0:0:0:
355,272,130114,1,2,0:0:0:0:
230,117,131485,5,8,0:0:0:0:
219,88,131571,1,8,0:0:0:0:
225,58,131657,2,0,L|319:60,1,59.9999981689454,12|0,1:0|2:0,0:0:0:0:
418,159,131828,2,0,L|280:156,1,119.999996337891,2|0,3:1|0:0,0:0:0:0:
128,52,132171,1,0,3:0:0:0:
26,207,132342,2,0,L|145:209,1,119.999996337891,2|0,0:1|3:0,0:0:0:0:
360,111,132685,1,0,0:0:0:0:
442,267,132857,2,0,L|322:264,1,119.999996337891,2|0,3:1|0:0,0:0:0:0:
171,366,133200,1,0,3:0:0:0:
199,135,133371,6,0,P|230:197|200:286,1,119.999996337891,2|0,0:0|3:0,0:0:0:0:
225,245,133714,1,0,0:0:0:0:
394,85,133885,2,0,B|341:64|341:64|267:78,1,119.999996337891,2|0,3:1|0:0,0:0:0:0:
110,151,134228,1,2,3:1:0:0:
321,258,134400,5,0,0:0:0:0:
321,258,134571,1,2,3:1:0:0:
84,138,134742,1,0,0:0:0:0:
84,138,134914,1,0,3:0:0:0:
165,313,135085,2,0,P|196:249|183:163,1,119.999996337891,2|0,0:0|3:0,0:0:0:0:
108,40,135428,1,0,0:0:0:0:
373,86,135600,2,0,P|302:91|234:145,1,119.999996337891,2|0,3:1|0:0,0:0:0:0:
352,283,135942,5,0,3:0:0:0:
102,376,136114,2,0,L|91:230,1,119.999996337891,2|0,0:0|3:0,0:0:0:0:
264,28,136457,1,0,3:0:0:0:
260,114,136628,2,0,P|205:90|178:38,1,119.999996337891,2|0,3:1|0:0,0:0:0:0:
8,82,136971,1,2,3:1:0:0:
167,221,137142,5,0,0:0:0:0:
260,114,137314,1,2,3:1:0:0:
33,184,137485,1,0,0:0:0:0:
208,330,137657,2,0,P|263:301|289:217,1,119.999996337891,0|2,3:0|0:1,0:0:0:0:
246,83,138000,1,0,3:0:0:0:
345,335,138171,2,0,P|382:285|370:198,1,119.999996337891,0|2,0:0|3:1,0:0:0:0:
230,66,138514,5,0,0:0:0:0:
485,152,138685,2,0,L|338:149,1,119.999996337891,0|2,3:0|0:0,0:0:0:0:
194,224,139028,1,0,3:0:0:0:
241,39,139200,1,0,0:0:0:0:
325,228,139371,2,0,P|339:267|319:349,1,119.999996337891,2|0,3:1|0:0,0:0:0:0:
423,77,139714,1,2,3:1:0:0:
260,139,139885,5,0,0:0:0:0:
260,139,140057,1,2,3:1:0:0:
448,188,140228,1,0,0:0:0:0:
196,300,140400,2,0,L|185:135,1,119.999996337891,0|2,3:0|0:0,0:0:0:0:
421,199,140742,1,0,3:0:0:0:
118,340,140914,2,0,L|107:175,1,119.999996337891,0|2,0:0|3:1,0:0:0:0:
282,45,141257,5,0,0:0:0:0:
110,220,141428,2,0,P|80:181|82:96,1,119.999996337891,0|2,3:0|0:0,0:0:0:0:
198,256,141771,1,0,3:0:0:0:
287,18,141942,1,0,0:0:0:0:
404,140,142114,5,2,3:1:0:0:
404,140,142285,1,2,0:1:0:0:
404,140,142457,1,2,3:1:0:0:
213,141,142628,5,4,0:0:0:0:
308,337,142800,2,0,P|332:264|298:184,1,119.999996337891,2|0,3:1|0:0,0:0:0:0:
213,112,143142,1,0,3:0:0:0:
58,239,143314,2,0,L|231:222,1,119.999996337891,2|0,0:1|3:0,0:0:0:0:
242,22,143657,1,0,0:0:0:0:
451,76,143828,2,0,L|331:87,1,119.999996337891,2|0,3:1|0:0,0:0:0:0:
84,113,144171,5,0,3:0:0:0:
290,240,144342,1,2,0:1:0:0:
256,113,144514,1,0,3:0:0:0:
128,333,144685,2,0,L|255:322,1,119.999996337891,0|2,0:0|3:1,0:0:0:0:
414,378,145028,1,0,0:0:0:0:
498,172,145200,1,2,3:1:0:0:
319,372,145371,5,0,0:0:0:0:
319,372,145542,1,2,3:1:0:0:
266,157,145714,1,0,0:0:0:0:
437,26,145885,2,0,P|430:84|351:146,1,119.999996337891,0|2,3:0|0:1,0:0:0:0:
180,177,146228,1,0,3:0:0:0:
429,302,146400,2,0,P|382:266|368:167,1,119.999996337891,0|2,0:0|3:1,0:0:0:0:
437,26,146742,5,0,0:0:0:0:
197,155,146914,2,0,P|251:132|344:169,1,119.999996337891,0|2,3:0|0:0,0:0:0:0:
429,302,147257,1,0,3:0:0:0:
261,217,147428,1,0,0:0:0:0:
424,106,147600,1,2,3:1:0:0:
309,320,147771,1,0,0:0:0:0:
174,136,147942,1,2,3:1:0:0:
343,29,148114,6,0,L|350:174,1,119.999996337891,0|2,0:0|3:1,0:0:0:0:
478,246,148457,1,0,0:0:0:0:
242,354,148628,2,0,L|236:234,1,119.999996337891,0|2,3:0|0:1,0:0:0:0:
448,327,148971,1,0,3:0:0:0:
167,384,149142,2,0,L|161:264,1,119.999996337891,0|2,0:0|3:1,3:0:0:0:
293,82,149485,5,0,0:0:0:0:
120,161,149657,1,0,3:0:0:0:
236,234,149828,1,2,0:0:0:0:
70,106,150000,1,0,3:0:0:0:
70,106,150171,1,0,0:0:0:0:
293,82,150342,2,0,P|329:135|298:225,1,119.999996337891,2|0,3:1|0:0,0:0:0:0:
157,43,150685,1,2,3:1:0:0:
393,55,150857,5,0,0:0:0:0:
393,55,151028,1,2,3:1:0:0:
446,226,151200,1,0,0:0:0:0:
232,251,151371,2,0,P|254:215|349:193,1,119.999996337891,0|2,3:0|0:1,0:0:0:0:
413,330,151714,1,0,3:0:0:0:
485,117,151885,2,0,P|428:101|392:54,1,119.999996337891,0|2,0:0|3:1,0:0:0:0:
221,65,152228,5,2,0:0:0:0:
221,65,152400,1,2,0:0:0:0:
137,89,152742,5,2,0:0:0:0:
137,89,152914,1,2,0:0:0:0:
53,116,153085,6,0,L|55:44,2,59.9999981689454,2|2|2,0:1|0:1|0:1,0:0:0:0:
172,276,153600,5,4,0:0:0:0:
225,197,153771,2,0,P|151:189|88:243,1,119.999996337891,8|0,3:2|0:0,0:0:0:0:
236,352,154114,1,8,3:2:0:0:
302,146,154285,2,0,P|373:124|445:165,1,119.999996337891,0|8,0:0|3:2,0:0:0:0:
264,271,154628,1,0,0:0:0:0:
220,82,154800,1,8,3:2:0:0:
421,293,154971,6,0,B|339:292|339:292|300:273|300:273|169:270,1,239.999992675781
91,345,155485,1,8,3:2:0:0:
43,173,155657,1,0,0:0:0:0:
184,55,155828,2,0,B|203:107|203:107|180:183,1,119.999996337891,8|0,3:2|0:0,0:0:0:0:
50,24,156171,1,8,3:2:0:0:
257,31,156342,5,0,0:0:0:0:
394,135,156514,2,0,L|391:275,1,119.999996337891,8|0,3:2|0:0,0:0:0:0:
257,353,156857,1,8,3:2:0:0:
120,254,157028,2,0,L|118:135,1,119.999996337891,0|8,0:0|3:2,0:0:0:0:
242,253,157371,1,0,0:0:0:0:
38,298,157542,1,8,3:2:0:0:
252,135,157714,5,0,0:0:0:0:
339,228,157885,1,8,3:2:0:0:
421,35,158057,1,0,0:0:0:0:
330,108,158228,1,8,3:2:0:0:
512,283,158400,2,0,B|455:298|455:298|358:267,1,119.999996337891,0|8,0:0|3:2,0:0:0:0:
179,152,158742,1,0,0:0:0:0:
138,145,158827,1,0,2:0:0:0:
103,167,158913,1,8,3:2:0:0:
91,206,158999,1,0,2:0:0:0:
107,244,159084,5,0,0:0:0:0:
298,154,159257,2,0,L|148:151,1,119.999996337891,8|0,3:2|0:0,0:0:0:0:
307,322,159600,1,8,3:2:0:0:
361,95,159771,2,0,L|511:92,1,119.999996337891,0|8,0:0|3:2,0:0:0:0:
275,47,160114,1,0,0:0:0:0:
475,289,160285,1,8,3:2:0:0:
475,289,160371,1,0,2:0:0:0:
475,289,160457,6,0,L|470:139,1,119.999996337891,0|8,0:0|3:2,0:0:0:0:
275,47,160800,2,0,L|278:166,1,119.999996337891,0|8,0:0|3:2,0:0:0:0:
120,268,161142,1,0,0:0:0:0:
310,319,161314,1,8,3:2:0:0:
160,123,161485,1,0,0:0:0:0:
68,350,161657,1,8,3:2:0:0:
160,99,161828,5,0,0:0:0:0:
225,271,162000,1,8,3:2:0:0:
317,59,162171,1,0,0:0:0:0:
237,29,162342,2,0,P|237:86|323:148,1,119.999996337891,8|0,3:2|0:0,0:0:0:0:
459,206,162685,1,8,3:2:0:0:
379,236,162857,2,0,P|379:179|465:117,1,119.999996337891,0|8,0:0|3:2,0:0:0:0:
335,329,163200,5,0,0:0:0:0:
305,327,163285,1,0,2:0:0:0:
275,325,163371,1,8,3:2:0:0:
120,266,163542,1,0,0:0:0:0:
149,264,163627,1,0,2:0:0:0:
179,262,163713,1,8,3:2:0:0:
266,195,163885,1,0,0:0:0:0:
186,344,164057,5,8,3:2:0:0:
186,344,164228,1,0,0:0:0:0:
186,344,164400,1,8,3:2:0:0:
305,285,164571,5,0,0:0:0:0:
369,208,164742,2,0,P|302:186|232:216,1,110.000003356934
195,263,165085,1,0,0:0:0:0:
260,108,165257,2,0,P|201:145|179:218,1,110.000003356934
371,77,165600,1,0,0:0:0:0:
284,22,165771,1,0,0:0:0:0:
399,172,165942,6,0,B|315:167|315:167|277:184|277:184|166:177,1,220.000006713867,8|8,0:0|0:0,0:0:0:0:
93,243,166457,1,0,0:0:0:0:
128,67,166628,1,8,0:0:0:0:
7,138,166800,2,0,L|142:143,1,110.000003356934,0|8,0:0|0:0,0:0:0:0:
226,52,167142,1,0,0:0:0:0:
174,202,167314,5,8,0:0:0:0:
219,287,167485,2,0,L|328:282,1,100,0|8,0:0|0:0,0:0:0:0:
380,168,167828,1,0,0:0:0:0:
318,101,168000,2,0,L|219:97,1,100,8|0,0:0|0:0,0:0:0:0:
281,178,168342,1,8,0:0:0:0:
343,21,168514,1,0,0:0:0:0:
416,94,168685,5,8,0:0:0:0:
330,8,168857,1,0,0:0:0:0:
219,97,169028,2,0,P|265:81|333:90,1,89.9999972534181,8|0,0:0|0:0,0:0:0:0:
299,277,169371,1,8,0:0:0:0:
214,260,169542,2,0,P|198:214|207:146,1,89.9999972534181,0|8,0:0|0:0,0:0:0:0:
176,144,169800,1,0,2:0:0:0:
180,126,169885,1,0,0:0:0:0:
184,108,169971,1,0,2:0:0:0:
188,90,170057,5,12,0:0:0:0:
118,108,170228,1,8,0:0:0:0:
102,37,170400,1,8,0:0:0:0:
171,20,170571,1,8,0:0:0:0:
263,119,170742,5,8,0:0:0:0:
279,190,170913,1,8,0:0:0:0:
349,172,171085,1,8,0:0:0:0:
332,102,171256,1,8,0:0:0:0:
89,333,171428,5,8,0:0:0:0:
57,195,171600,1,8,0:0:0:0:
192,164,171771,1,8,0:0:0:0:
224,300,171942,1,8,0:0:0:0:
25,172,172114,5,8,0:0:0:0:
254,316,172286,1,8,0:0:0:0:
210,130,172457,1,8,0:0:0:0:
70,362,172628,1,8,0:0:0:0:
308,191,172800,5,8,0:0:0:0:
325,191,172885,1,8,0:0:0:0:
343,192,172971,1,8,0:0:0:0:
361,193,173057,1,8,0:0:0:0:
379,193,173142,1,8,0:0:0:0:
397,194,173228,1,8,0:0:0:0:
415,195,173314,1,8,0:0:0:0:
433,195,173400,1,8,0:0:0:0:
453,220,173485,5,8,0:0:0:0:
435,220,173570,1,8,0:0:0:0:
417,221,173656,1,8,0:0:0:0:
399,222,173742,1,8,0:0:0:0:
381,222,173827,1,8,0:0:0:0:
363,223,173913,1,8,0:0:0:0:
345,224,173999,1,8,0:0:0:0:
327,224,174085,1,8,0:0:0:0:
305,249,174171,5,0,2:0:0:0:
136,145,175542,6,0,L|277:140,1,112.500004291535,4|0,1:2|0:0,0:0:0:0:
258,124,175885,2,0,L|259:202,1,75.0000028610231,0|0,1:0|0:0,0:0:0:0:
390,271,176228,1,0,1:0:0:0:
390,271,176400,1,0,0:0:0:0:
390,271,176571,2,0,P|345:257|290:261,1,75.0000028610231,0|0,1:0|0:0,0:0:0:0:
174,327,176914,5,0,1:0:0:0:
252,338,177085,1,0,0:0:0:0:
125,202,177257,1,0,1:0:0:0:
114,274,177428,1,0,0:0:0:0:
61,123,177600,2,0,L|135:128,2,75.0000028610231,0|0|0,1:0|0:0|1:0,0:0:0:0:
61,123,178114,1,0,0:0:0:0:
179,56,178285,6,0,P|210:94|198:177,1,112.500004291535,0|0,1:0|0:0,0:0:0:0:
201,171,178628,2,0,P|236:153|303:155,1,75.0000028610231,0|0,1:0|0:0,0:0:0:0:
402,207,178971,1,0,1:0:0:0:
330,234,179142,1,0,0:0:0:0:
389,99,179314,2,0,L|385:8,1,75.0000028610231,0|0,1:0|0:0,0:0:0:0:
482,139,179657,5,0,1:0:0:0:
502,242,179828,1,0,0:0:0:0:
402,207,180000,1,0,1:0:0:0:
482,139,180342,6,0,P|499:179|501:236,1,75.0000028610231,0|0,1:0|0:0,1:0:0:0:
427,340,180685,2,0,P|432:303|448:268,1,75.0000028610231,0|0,1:0|0:0,0:0:0:0:
381,157,181028,6,0,L|279:163,1,75.0000028610231,0|0,1:0|0:0,0:0:0:0:
128,212,181371,2,0,L|230:218,1,75.0000028610231,0|0,1:0|0:0,0:0:0:0:
281,334,181714,2,0,P|298:274|287:235,1,75.0000028610231,0|0,1:0|0:0,0:0:0:0:
232,48,182057,2,0,P|215:108|226:147,1,75.0000028610231,0|0,1:0|0:0,0:0:0:0:
391,186,182400,5,0,1:0:0:0:
318,133,182571,1,0,0:0:0:0:
196,259,182742,1,0,1:0:0:0:
136,192,182914,1,0,0:0:0:0:
345,307,183085,1,0,1:0:0:0:
391,186,183257,1,0,0:0:0:0:
284,350,183428,2,0,L|182:354,1,75.0000028610231,0|0,1:0|0:0,0:0:0:0:
78,269,183771,5,0,1:0:0:0:
78,269,183942,1,0,0:0:0:0:
160,148,184114,1,0,1:0:0:0:
160,148,184285,1,0,0:0:0:0:
242,37,184457,1,0,1:0:0:0:
242,37,184628,1,0,0:0:0:0:
242,37,184800,2,0,B|300:87|300:87|322:1,1,150.000005722046,0|0,1:0|1:0,0:0:0:0:
197,146,186342,6,0,P|221:133|268:134,1,42.5000008106232
354,115,186514,6,0,B|319:140|319:140|220:128,1,127.50000243187,4|0,0:0|0:0,0:0:0:0:
247,147,186857,2,0,L|235:243,1,85.0000016212464
361,318,187200,1,0,0:0:0:0:
361,318,187371,1,0,0:0:0:0:
489,214,187542,2,0,P|438:207|370:220,1,85.0000016212464
228,305,187885,5,0,0:0:0:0:
259,189,188057,1,0,0:0:0:0:
220,337,188228,1,0,0:0:0:0:
182,163,188400,1,0,0:0:0:0:
301,42,188571,2,0,L|297:141,2,85.0000016212464
376,161,189085,1,0,0:0:0:0:
376,161,189171,1,0,0:0:0:0:
376,161,189257,6,0,P|344:196|250:194,1,127.50000243187
253,219,189600,2,0,L|150:214,1,85.0000016212464
266,296,189942,1,0,0:0:0:0:
297,126,190114,1,0,0:0:0:0:
168,214,190285,2,0,L|163:317,1,85.0000016212464
256,194,190628,5,0,0:0:0:0:
164,124,190799,1,0,0:0:0:0:
39,157,190971,1,0,0:0:0:0:
256,194,191314,6,0,B|271:143|271:143|249:89,1,100
250,5,191657,2,0,B|235:56|235:56|257:110,1,100
346,138,191914,1,0,0:0:0:0:
346,138,192000,6,0,P|360:105|350:39,1,85.0000016212464
285,211,192342,2,0,P|271:244|281:310,1,85.0000016212464
429,170,192685,2,0,P|442:136|496:97,1,85.0000016212464
419,252,193028,2,0,P|405:285|351:324,1,85.0000016212464
245,199,193371,5,0,0:0:0:0:
339,243,193542,1,0,0:0:0:0:
138,287,193714,1,0,0:0:0:0:
111,150,193885,1,0,0:0:0:0:
210,356,194057,1,0,0:0:0:0:
61,297,194228,1,0,0:0:0:0:
245,199,194400,1,0,0:0:0:0:
106,128,194571,1,0,0:0:0:0:
106,128,194657,1,0,0:0:0:0:
106,128,194742,5,0,0:0:0:0:
123,32,194914,1,0,0:0:0:0:
272,92,195085,5,0,0:0:0:0:
289,188,195257,1,0,0:0:0:0:
415,132,195428,5,0,0:0:0:0:
432,36,195600,1,0,0:0:0:0:
410,163,195771,2,0,P|461:149|440:228,1,170.000003242493,0|0,0:0|2:0,0:0:0:0:
256,192,196200,12,0,197400,0:0:0:0:
191,307,197485,6,0,P|230:264|237:187,1,110.000003356934,12|0,0:0|0:0,0:0:0:0:
315,48,197828,2,0,P|276:91|269:168,1,110.000003356934,8|0,0:0|0:0,0:0:0:0:
426,203,198171,2,0,L|287:200,1,110.000003356934,8|0,0:0|0:0,0:0:0:0:
122,299,198514,2,0,L|123:229,1,55.0000016784668,8|0,0:0|0:0,0:0:0:0:
130,85,198685,6,0,B|110:124|130:164|130:164|150:207|108:265,1,165.000005035401
51,266,199028,1,0,0:0:0:0:
196,125,199200,2,0,L|324:121,1,110.000003356934,8|0,0:0|0:0,0:0:0:0:
458,226,199542,1,8,0:0:0:0:
437,119,199714,1,0,0:0:0:0:
443,308,199885,1,8,0:0:0:0:
293,182,200057,2,0,P|308:152|282:90,1,64.9999970245363
209,40,200228,6,0,P|211:108|278:157,1,110.000003356934,8|0,0:0|0:0,0:0:0:0:
119,356,200571,2,0,L|116:230,1,110.000003356934,8|0,0:0|0:0,0:0:0:0:
320,337,200914,2,0,L|323:211,1,110.000003356934,8|0,0:0|0:0,0:0:0:0:
417,62,201257,2,0,P|403:89|417:138,1,55.0000016784668,8|0,0:0|0:0,0:0:0:0:
512,227,201428,6,0,B|473:247|438:232|438:232|424:236|424:236|376:208|278:240,1,194.999991073609
266,293,201771,1,0,0:0:0:0:
318,123,201942,1,0,0:0:0:0:
213,175,202114,1,0,0:0:0:0:
434,239,202285,1,0,0:0:0:0:
476,99,202457,1,0,0:0:0:0:
405,331,202628,2,0,L|292:334,1,110.000003356934
291,339,202885,6,0,L|369:337,1,64.9999970245363
355,337,203314,6,0,B|372:282|372:282|347:204,1,110.000003356934
189,111,203657,2,0,B|172:160|172:160|189:215,1,110.000003356934
350,56,204000,2,0,L|274:61,1,55.0000016784668
127,78,204171,6,0,B|100:159|100:159|131:260,1,165.000005035401
176,289,204514,1,0,0:0:0:0:
362,178,204685,2,0,P|318:156|221:175,1,110.000003356934
430,307,205028,1,0,0:0:0:0:
471,205,205200,1,0,0:0:0:0:
342,337,205371,1,0,0:0:0:0:
262,91,205542,2,0,L|258:160,1,64.9999970245363
125,293,205714,6,0,P|166:247|273:231,1,129.999994049073
457,116,206057,2,0,P|395:117|314:189,1,129.999994049073
148,42,206400,2,0,P|203:69|246:168,1,129.999994049073
268,362,206742,1,0,0:0:0:0:
448,217,206914,1,0,0:0:0:0:
36,282,207085,6,0,P|75:230|17:134,1,129.999994049073
82,72,207428,6,0,P|53:125|74:181,1,110.000003356934
129,131,207771,6,2,B|287:42|268:182|437:81,1,314.999990386963,2|0,0:0|0:0,0:0:0:0:
340,37,208457,5,12,0:0:0:0:
403,199,208628,1,8,0:0:0:0:
468,364,208800,1,8,0:0:0:0:
340,37,209142,1,8,0:0:0:0:
460,339,209485,5,8,0:0:0:0:
351,68,209657,1,8,0:0:0:0:
341,343,210000,5,8,0:0:0:0:
460,45,210172,1,8,0:0:0:0:
339,120,210514,6,0,L|346:251,1,110.000003356934
145,244,210857,2,0,L|152:375,1,110.000003356934
216,281,211114,1,0,0:0:0:0:
216,281,211200,6,0,P|223:231|175:172,1,110.000003356934
17,85,211542,2,0,L|176:79,1,110.000003356934
352,12,211885,2,0,L|358:171,1,110.000003356934
484,263,212228,2,0,L|410:267,1,55.0000016784668
256,359,212400,6,0,B|297:314|297:314|275:136,1,194.999991073609
269,98,212742,1,0,0:0:0:0:
90,253,212914,2,0,P|175:278|230:254,1,110.000003356934
374,96,213257,2,0,P|285:90|237:126,1,110.000003356934
473,276,213600,2,0,L|478:124,1,110.000003356934
482,158,213857,6,0,L|479:237,1,64.9999970245363
479,222,214285,6,0,B|428:209|428:209|336:238,1,110.000003356934
236,348,214628,2,0,B|181:365|181:365|130:352,1,110.000003356934
53,163,214971,2,0,L|50:241,1,55.0000016784668
0,102,215142,6,0,B|97:58|80:134|193:85,1,165.000005035401
219,51,215485,1,0,0:0:0:0:
353,226,215657,2,0,L|217:220,1,110.000003356934
485,138,216000,1,0,0:0:0:0:
437,255,216171,1,0,0:0:0:0:
292,95,216342,1,0,0:0:0:0:
464,120,216514,1,0,0:0:0:0:
471,99,216600,1,0,0:0:0:0:
477,78,216685,1,4,0:0:0:0:
377,206,217028,5,0,0:0:0:0:
391,216,217114,1,0,0:0:0:0:
403,229,217200,1,0,0:0:0:0:
292,331,217371,2,0,P|284:297|293:265,1,44.999998626709
312,171,217542,1,0,0:0:0:0:
307,153,217628,1,0,0:0:0:0:
271,132,217714,5,0,0:0:0:0:
271,132,217885,1,0,0:0:0:0:
166,240,218057,5,4,0:0:0:0:
166,240,218400,1,0,0:0:0:0:
156,224,218485,1,0,0:0:0:0:
150,206,218571,2,0,P|156:171|185:139,1,44.999998626709
243,255,218742,1,0,0:0:0:0:
239,273,218827,1,0,0:0:0:0:
230,290,218914,1,0,0:0:0:0:
256,192,227657,12,0,230314,0:0:0:0:
163,207,230400,6,0,L|301:211,1,127.50000243187,12|0,0:0|0:0,0:0:0:0:
306,215,230742,2,0,P|256:235|225:288,1,85.0000016212464,8|0,0:0|0:0,0:0:0:0:
397,309,231085,1,8,0:0:0:0:
397,309,231257,1,0,0:0:0:0:
483,156,231428,2,0,L|482:271,1,85.0000016212464,8|0,0:0|0:0,0:0:0:0:
316,322,231771,5,8,0:0:0:0:
299,245,231942,1,0,0:0:0:0:
369,88,232114,1,8,0:0:0:0:
352,165,232285,1,0,0:0:0:0:
232,32,232457,2,0,L|324:28,2,85.0000016212464,8|0|8,0:0|0:0|0:0,0:0:0:0:
232,32,232971,1,0,0:0:0:0:
152,150,233142,6,0,P|116:113|133:39,1,127.50000243187,8|0,0:0|0:0,0:0:0:0:
141,32,233485,2,0,P|108:75|42:83,1,85.0000016212464,8|0,0:0|0:0,0:0:0:0:
34,222,233828,1,8,0:0:0:0:
34,222,234000,1,0,0:0:0:0:
147,330,234171,2,0,P|192:308|261:310,1,85.0000016212464,8|0,0:0|0:0,0:0:0:0:
357,347,234514,5,8,0:0:0:0:
372,246,234685,1,0,0:0:0:0:
386,144,234857,2,0,L|382:40,1,85.0000016212464,8|0,0:0|0:0,0:0:0:0:
227,182,235200,2,0,P|297:175|335:192,1,85.0000016212464,8|0,0:0|0:0,0:0:0:0:
485,267,235542,2,0,P|418:290|391:321,1,85.0000016212464,8|0,0:0|0:0,0:0:0:0:
239,342,235885,5,8,0:1:0:0:
189,285,236056,1,8,0:1:0:0:
187,208,236228,1,8,0:1:0:0:
226,141,236400,1,8,0:1:0:0:
376,294,236571,5,8,0:1:0:0:
282,289,236742,1,8,0:1:0:0:
189,285,236913,1,8,0:1:0:0:
95,280,237085,1,8,0:1:0:0:
344,106,237257,5,8,0:1:0:0:
186,217,237428,1,8,0:1:0:0:
379,220,237600,1,8,0:1:0:0:
225,104,237771,1,8,0:1:0:0:
282,289,237942,5,8,0:1:0:0:
190,77,238114,1,8,0:1:0:0:
417,247,238286,1,8,0:1:0:0:
153,239,238457,1,8,0:1:0:0:
376,86,238628,5,0,1:0:0:0:
384,154,238800,2,0,L|386:86,1,59.9999981689454,2|0,0:0|0:0,0:0:0:0:
282,131,239142,1,0,0:0:0:0:
290,199,239314,2,0,L|292:131,1,59.9999981689454,2|0,0:0|0:0,0:0:0:0:
197,170,239657,1,0,0:0:0:0:
208,161,239828,1,2,0:0:0:0:
123,249,241200,5,8,0:0:0:0:
113,214,241285,1,8,0:0:0:0:
106,178,241371,2,0,L|114:99,1,59.9999981689454,12|0,0:0|0:0,0:0:0:0:
307,225,241542,2,0,L|163:208,1,119.999996337891
157,40,241885,1,0,0:0:0:0:
348,148,242057,2,0,L|467:162,1,119.999996337891
301,321,242400,1,0,0:0:0:0:
231,148,242571,2,0,P|218:95|245:11,1,119.999996337891
467,162,242914,5,0,0:0:0:0:
294,232,243085,2,0,P|241:245|157:218,1,119.999996337891
28,111,243428,1,0,0:0:0:0:
41,265,243600,1,0,0:0:0:0:
164,92,243771,1,0,0:0:0:0:
5,196,243942,1,0,0:0:0:0:
287,347,244114,6,0,B|307:285|307:285|291:221,1,119.999996337891
164,92,244457,1,0,0:0:0:0:
365,22,244628,2,0,L|374:166,1,119.999996337891
183,86,244971,1,0,0:0:0:0:
437,0,245142,2,0,L|446:144,1,119.999996337891
496,283,245485,5,0,0:0:0:0:
405,354,245657,2,0,P|361:322|347:236,1,119.999996337891
113,177,246000,1,0,0:0:0:0:
204,248,246172,2,0,P|248:216|262:130,1,119.999996337891
488,33,246514,1,0,0:0:0:0:
407,181,246685,1,0,0:0:0:0:
246,35,246857,5,0,0:0:0:0:
246,35,247028,1,0,0:0:0:0:
105,158,247200,1,0,0:0:0:0:
330,244,247371,2,0,P|336:178|329:91,1,119.999996337891
167,41,247714,1,0,0:0:0:0:
126,233,247885,2,0,P|120:299|127:386,1,119.999996337891
41,153,248228,5,0,0:0:0:0:
41,153,248400,1,0,0:0:0:0:
241,257,248571,1,0,0:0:0:0:
231,133,248742,1,0,0:0:0:0:
5,359,248914,2,0,P|77:344|148:363,1,119.999996337891
384,275,249257,1,0,0:0:0:0:
255,338,249428,1,0,0:0:0:0:
455,172,249600,6,0,L|460:34,1,119.999996337891
265,7,249942,1,0,0:0:0:0:
84,123,250114,2,0,P|161:110|201:36,1,119.999996337891
3,52,250457,1,0,0:0:0:0:
233,158,250629,2,0,P|272:90|241:12,1,119.999996337891
431,172,250971,5,0,0:0:0:0:
229,277,251142,2,0,L|233:135,1,119.999996337891
341,314,251485,1,0,0:0:0:0:
79,364,251657,1,0,0:0:0:0:
144,152,251828,5,0,0:0:0:0:
144,152,252000,1,0,0:0:0:0:
144,152,252171,1,0,0:0:0:0:
325,227,252342,5,4,0:0:0:0:
398,93,252514,2,0,P|350:124|268:121,1,119.999996337891
133,25,252857,1,0,0:0:0:0:
203,292,253028,2,0,P|200:234|243:165,1,119.999996337891
398,93,253371,1,0,0:0:0:0:
133,25,253542,2,0,P|183:51|222:123,1,119.999996337891
389,226,253885,5,0,0:0:0:0:
280,307,254057,1,0,0:0:0:0:
470,339,254228,1,0,0:0:0:0:
259,236,254400,2,0,L|139:238,1,119.999996337891
39,97,254742,1,0,0:0:0:0:
39,97,254914,1,0,0:0:0:0:
300,24,255085,6,0,P|271:77|180:113,1,119.999996337891
31,62,255428,1,0,0:0:0:0:
196,172,255600,2,0,L|203:335,1,119.999996337891
346,373,255942,1,0,0:0:0:0:
487,250,256114,2,0,L|492:130,1,119.999996337891
314,49,256457,5,0,0:0:0:0:
260,126,256628,1,0,0:0:0:0:
462,232,256800,1,0,0:0:0:0:
295,195,256971,1,0,0:0:0:0:
512,129,257142,1,0,0:0:0:0:
259,206,257314,2,0,L|93:208,1,119.999996337891
328,318,257657,1,0,0:0:0:0:
381,123,257828,5,0,0:0:0:0:
381,123,258000,1,0,0:0:0:0:
259,206,258171,1,0,0:0:0:0:
512,179,258342,2,0,P|454:162|394:164,1,119.999996337891
80,279,258685,1,0,0:0:0:0:
199,322,258857,2,0,P|256:305|316:307,1,119.999996337891
472,96,259200,5,0,0:0:0:0:
316,83,259371,2,0,L|489:77,1,119.999996337891
327,230,259714,1,0,0:0:0:0:
483,217,259885,2,0,L|363:212,1,119.999996337891
144,81,260228,1,0,0:0:0:0:
218,231,260400,1,0,0:0:0:0:
338,38,260571,6,0,P|278:42|182:24,1,119.999996337891
24,151,260914,1,0,0:0:0:0:
106,212,261085,2,0,B|126:153|126:153|108:79,1,119.999996337891
17,266,261429,1,0,0:0:0:0:
99,327,261600,2,0,B|119:268|119:268|101:194,1,119.999996337891
255,178,261942,5,2,0:0:0:0:
255,178,262114,1,2,0:0:0:0:
337,162,262457,5,2,0:0:0:0:
337,162,262629,1,2,0:0:0:0:
420,146,262800,6,0,L|489:147,2,59.9999981689454
240,263,263314,5,4,0:0:0:0:
141,109,263485,2,0,P|196:80|285:86,1,119.999996337891
358,311,263828,1,0,0:0:0:0:
141,304,263999,2,0,P|112:249|118:160,1,119.999996337891
281,357,264342,1,0,0:0:0:0:
56,331,264514,1,0,0:0:0:0:
334,92,264685,6,0,B|385:151|385:151|354:331,1,239.999992675781
268,222,265200,1,0,0:0:0:0:
473,167,265371,1,0,0:0:0:0:
260,67,265542,2,0,L|116:62,1,119.999996337891
10,210,265885,1,0,0:0:0:0:
229,156,266057,5,0,0:0:0:0:
380,284,266228,2,0,P|329:301|221:285,1,119.999996337891
208,134,266571,1,0,0:0:0:0:
64,345,266742,2,0,P|123:347|180:329,1,119.999996337891
322,122,267085,1,0,0:0:0:0:
263,299,267257,1,0,0:0:0:0:
134,92,267428,5,0,0:0:0:0:
277,49,267600,1,0,0:0:0:0:
200,192,267771,1,0,0:0:0:0:
28,144,267942,1,0,0:0:0:0:
214,341,268114,2,0,L|219:182,1,119.999996337891
372,42,268457,5,0,0:0:0:0:
349,69,268542,1,0,0:0:0:0:
340,104,268628,1,0,0:0:0:0:
346,139,268714,1,0,0:0:0:0:
366,168,268799,5,0,0:0:0:0:
505,272,268971,2,0,P|462:274|353:261,1,119.999996337891
218,73,269314,1,0,0:0:0:0:
503,108,269485,2,0,P|443:114|383:112,1,119.999996337891
204,256,269828,1,0,0:0:0:0:
255,62,270000,1,0,0:0:0:0:
255,62,270085,1,0,0:0:0:0:
255,62,270171,6,0,B|276:117|276:117|254:195,1,119.999996337891
449,273,270514,2,0,B|394:294|394:294|316:272,1,119.999996337891
46,227,270857,2,0,B|101:206|101:206|179:228,1,119.999996337891
374,122,271200,1,0,0:0:0:0:
177,61,271371,1,0,0:0:0:0:
294,216,271542,5,0,0:0:0:0:
294,216,271714,1,0,0:0:0:0:
393,31,271885,1,0,0:0:0:0:
255,61,272057,1,0,0:0:0:0:
493,125,272228,2,0,L|363:121,1,119.999996337891
26,105,272571,1,0,0:0:0:0:
199,114,272742,1,0,0:0:0:0:
81,259,272914,5,0,0:0:0:0:
77,223,273000,1,0,0:0:0:0:
74,187,273085,1,0,0:0:0:0:
203,314,273257,1,0,0:0:0:0:
199,278,273343,1,0,0:0:0:0:
196,242,273428,1,0,0:0:0:0:
318,349,273600,1,0,0:0:0:0:
390,229,273771,5,0,0:0:0:0:
390,229,273942,1,0,0:0:0:0:
390,229,274114,1,0,0:0:0:0:
299,113,274285,5,4,0:0:0:0:
475,50,274457,2,0,P|410:81|333:65,1,119.999996337891
219,163,274800,1,0,0:0:0:0:
43,100,274972,2,0,P|108:131|185:115,1,119.999996337891
232,321,275314,1,0,0:0:0:0:
347,176,275485,1,0,0:0:0:0:
91,295,275657,6,0,B|64:133|64:133|110:63,1,239.999992675781
219,48,276171,1,0,0:0:0:0:
154,206,276342,1,0,0:0:0:0:
248,352,276514,2,0,L|407:341,1,119.999996337891
493,186,276857,1,0,0:0:0:0:
452,337,277028,5,0,0:0:0:0:
337,212,277200,2,0,P|328:156|337:59,1,119.999996337891
435,4,277542,1,0,0:0:0:0:
181,92,277714,2,0,P|184:152|175:211,1,119.999996337891
18,337,278057,1,0,0:0:0:0:
307,355,278228,1,0,0:0:0:0:
77,236,278400,5,0,0:0:0:0:
161,308,278571,1,0,0:0:0:0:
261,129,278742,2,0,L|395:121,1,119.999996337891
205,47,279085,1,0,0:0:0:0:
155,176,279257,1,0,0:0:0:0:
348,261,279428,1,0,0:0:0:0:
381,236,279513,1,0,0:0:0:0:
400,199,279599,1,0,0:0:0:0:
400,158,279685,1,0,0:0:0:0:
380,121,279770,5,8,0:0:0:0:
380,121,279942,1,8,0:0:0:0:
318,181,280114,1,8,0:0:0:0:
318,181,280285,1,8,0:0:0:0:
381,236,280457,1,8,0:0:0:0:
381,236,280628,1,8,0:0:0:0:
438,173,280800,1,8,0:0:0:0:
438,173,280971,1,8,0:0:0:0:
433,161,281057,1,0,0:0:0:0:
428,150,281142,5,8,0:0:0:0:
350,242,281314,1,8,0:0:0:0:
259,165,281485,1,8,0:0:0:0:
336,73,281657,1,8,0:0:0:0:
351,271,281828,5,8,0:0:0:0:
332,46,282000,1,8,0:0:0:0:
229,168,282171,1,8,0:0:0:0:
455,149,282343,1,8,0:0:0:0:
407,343,282514,5,8,0:0:0:0:
379,355,282599,1,8,0:0:0:0:
349,357,282685,1,8,0:0:0:0:
321,350,282771,1,8,0:0:0:0:
296,333,282856,1,8,0:0:0:0:
278,309,282942,1,8,0:0:0:0:
269,281,283028,1,8,0:0:0:0:
269,251,283113,1,8,0:0:0:0:
298,226,283200,5,8,0:0:0:0:
297,243,283285,1,8,0:0:0:0:
297,261,283371,1,8,0:0:0:0:
297,279,283457,1,8,0:0:0:0:
297,297,283542,1,8,0:0:0:0:
297,315,283628,1,8,0:0:0:0:
296,333,283714,1,8,0:0:0:0:
296,351,283799,1,8,0:0:0:0:
324,375,283885,6,0,L|386:372,2,40,2|2|2,0:0|0:0|0:0,0:0:0:0:
195,295,284228,2,0,L|133:292,2,40,2|2|2,0:0|0:0|0:0,0:0:0:0:
361,225,284571,2,2,P|344:273|295:202,1,175,2|0,0:0|0:0,0:0:0:0:
320,234,285257,6,0,L|324:97,1,100,4|0,0:0|0:0,0:0:0:0:
175,39,285600,1,0,0:0:0:0:
184,67,285685,1,0,0:0:0:0:
191,96,285771,2,0,L|188:161,1,50
180,290,285942,1,0,0:0:0:0:
346,250,286114,1,0,0:0:0:0:
320,234,286199,1,0,0:0:0:0:
292,221,286285,2,0,L|227:218,1,50
98,210,286456,1,0,0:0:0:0:
40,356,286628,6,0,L|177:350,1,100
60,283,286971,2,0,L|197:277,1,100
357,138,287314,2,0,L|220:144,1,100
337,211,287657,2,0,L|200:217,1,100
125,61,288000,6,0,P|113:110|140:187,1,100
231,303,288342,1,0,0:0:0:0:
240,285,288428,1,0,0:0:0:0:
243,264,288514,2,0,P|242:237|224:186,1,50
322,65,288685,2,0,P|314:111|313:174,1,100
396,216,288942,1,0,0:0:0:0:
415,238,289028,2,0,P|423:284|424:347,1,100
246,359,289371,6,0,P|232:316|263:235,1,100
155,279,289714,2,0,P|160:234|222:173,1,100
102,168,290057,2,0,P|125:129|207:101,1,100
102,45,290400,2,0,P|139:20|226:29,1,100
434,103,290742,5,0,0:0:0:0:
404,106,290828,1,0,0:0:0:0:
375,95,290914,2,0,P|352:73|341:35,1,50
382,219,291085,5,0,0:0:0:0:
348,208,291171,1,0,0:0:0:0:
323,181,291257,2,0,P|310:147|317:102,1,50
282,308,291428,5,0,0:0:0:0:
253,280,291514,1,0,0:0:0:0:
241,242,291600,2,0,P|243:201|271:160,1,50
138,254,291771,6,0,P|157:218|200:192,1,50
145,340,291942,1,0,0:0:0:0:
0,179,292114,6,0,L|134:169,1,100
158,26,292457,2,0,L|168:160,1,100
79,249,292800,2,0,L|213:239,1,100
237,96,293143,2,0,L|247:230,1,100
414,333,293485,6,0,P|366:307|279:313,1,100
234,360,293742,1,0,0:0:0:0:
234,360,293828,2,0,L|238:274,1,50
153,220,294000,2,0,L|157:134,1,50
315,100,294171,6,0,P|274:104|240:38,1,120
238,42,294514,6,0,B|264:95|264:95|227:186,1,119.999996337891
470,250,294857,6,0,L|326:242,1,100,2|0,2:3|3:0,3:0:0:0:
42,250,295200,2,0,L|186:242,1,100,2|0,2:3|3:0,3:0:0:0:
294,20,295542,2,0,P|298:66|293:143,1,100,2|0,2:3|3:0,3:0:0:0:
218,364,295885,2,0,P|214:318|219:241,1,100,2|0,2:3|3:0,3:0:0:0:
466,204,296228,6,0,B|416:206|416:206|393:198|393:198|277:200,1,150,4|0,0:0|0:0,0:0:0:0:
223,147,296571,1,0,0:0:0:0:
209,174,296657,1,0,0:0:0:0:
209,203,296742,1,0,0:0:0:0:
364,70,296914,2,0,L|280:74,1,50
120,37,297085,1,0,0:0:0:0:
132,64,297171,1,0,0:0:0:0:
130,94,297257,2,0,L|134:178,1,50
141,306,297428,1,0,0:0:0:0:
306,193,297600,6,0,P|255:206|172:189,1,100
334,256,297942,2,0,P|284:274|200:266,1,100
63,88,298285,2,0,P|114:101|197:84,1,100
35,151,298627,2,0,P|84:169|168:161,1,100
309,31,298971,6,0,B|297:78|297:78|310:137,1,100
433,221,299314,1,0,0:0:0:0:
428,240,299400,1,0,0:0:0:0:
423,259,299485,1,0,0:0:0:0:
283,286,299657,1,0,0:0:0:0:
278,305,299743,1,0,0:0:0:0:
273,324,299828,2,0,L|270:254,1,50
133,293,300000,1,0,0:0:0:0:
133,293,300171,1,0,0:0:0:0:
224,116,300342,6,0,L|222:238,1,100
314,129,300685,2,0,L|290:248,1,100
403,154,301028,2,0,L|359:267,1,100
483,195,301371,2,0,L|420:299,1,100
229,344,301714,5,0,0:0:0:0:
222,324,301800,1,0,0:0:0:0:
223,304,301885,2,0,P|226:284|255:247,1,50
367,247,302057,1,0,0:0:0:0:
367,247,302228,1,0,0:0:0:0:
174,228,302400,5,0,0:0:0:0:
191,203,302486,1,0,0:0:0:0:
216,190,302571,1,0,0:0:0:0:
300,304,302742,1,0,0:0:0:0:
300,304,302914,2,0,L|223:306,1,50
76,357,303085,6,0,P|69:308|75:245,1,100
234,192,303428,2,0,P|185:199|122:193,1,100
252,17,303771,2,0,P|259:66|253:129,1,100
417,175,304114,2,0,P|368:182|305:176,1,100
197,362,304457,6,0,L|193:243,1,100
208,154,304714,1,0,0:0:0:0:
196,167,304800,2,0,P|254:189|290:251,1,100
112,351,305142,1,0,0:0:0:0:
104,321,305228,1,0,0:0:0:0:
96,291,305314,1,0,0:0:0:0:
48,134,305485,2,0,L|47:248,1,100
194,163,307200,6,0,L|389:161,1,150,4|0,0:0|0:0,0:0:0:0:
411,222,307542,1,0,0:0:0:0:
387,240,307628,1,0,0:0:0:0:
363,258,307714,2,0,L|360:322,1,50
266,359,307885,1,0,0:0:0:0:
116,274,308057,1,0,0:0:0:0:
137,253,308142,1,0,0:0:0:0:
164,240,308228,2,0,P|184:235|242:246,1,50
142,354,308400,1,0,0:0:0:0:
29,235,308571,5,0,0:0:0:0:
29,235,308914,1,0,0:0:0:0:
29,235,309257,1,0,0:0:0:0:
29,235,309600,1,0,0:0:0:0:
29,235,309942,5,0,0:0:0:0:
29,235,310285,1,0,0:0:0:0:
37,216,310371,1,0,0:0:0:0:
45,197,310457,2,0,L|41:139,1,50
7,22,310628,2,0,P|64:40|126:19,1,100
176,0,310885,1,0,0:0:0:0:
171,19,310971,1,0,0:0:0:0:
29,149,311314,5,0,0:0:0:0:
29,149,311657,1,0,0:0:0:0:
29,149,312000,1,0,0:0:0:0:
29,149,312343,1,0,0:0:0:0:
29,149,312685,5,0,0:0:0:0:
47,156,312771,1,0,0:0:0:0:
65,163,312857,2,0,L|137:156,1,50
329,205,313028,5,0,0:0:0:0:
306,213,313114,1,0,0:0:0:0:
283,222,313200,2,0,L|191:213,1,50
18,173,313370,5,0,0:0:0:0:
43,182,313456,1,0,0:0:0:0:
69,192,313542,2,0,L|165:183,1,50
281,256,313714,6,0,L|184:247,1,50
362,317,313885,1,0,0:0:0:0:
483,149,314057,5,0,0:0:0:0:
483,149,314400,1,0,0:0:0:0:
483,149,314743,1,0,0:0:0:0:
483,149,315086,1,0,0:0:0:0:
483,149,315428,5,0,0:0:0:0:
483,149,315600,1,0,0:0:0:0:
470,122,315685,1,0,0:0:0:0:
473,92,315771,2,0,L|476:36,1,50
360,131,315942,2,0,L|357:75,1,50
229,170,316114,6,0,L|235:29,1,120
234,50,316457,6,0,P|201:95|116:108,1,119.999996337891
52,242,316800,6,0,B|105:223|105:223|175:240,1,100,8|0,3:1|2:0,0:0:0:0:
460,242,317142,2,0,B|407:223|407:223|337:240,1,100,8|0,3:1|2:0,0:0:0:0:
220,14,317485,2,0,L|217:150,1,100,8|0,3:1|2:0,0:0:0:0:
292,370,317828,2,0,L|295:234,1,100,8|0,3:1|2:0,0:0:0:0:
449,104,318171,6,0,B|400:124|400:124|294:106,1,150
217,113,318514,1,0,0:0:0:0:
227,141,318600,1,0,0:0:0:0:
237,168,318685,1,0,0:0:0:0:
129,278,318857,2,0,L|132:170,1,100
49,113,319114,1,0,0:0:0:0:
49,113,319200,2,0,L|121:114,1,50
22,287,319371,1,0,0:0:0:0:
211,341,319542,5,0,0:0:0:0:
211,341,319885,1,0,0:0:0:0:
211,341,320228,1,0,0:0:0:0:
211,341,320571,1,0,0:0:0:0:
211,341,320914,5,0,0:0:0:0:
211,341,321257,1,0,0:0:0:0:
219,322,321342,1,0,0:0:0:0:
222,302,321428,1,0,0:0:0:0:
123,220,321600,1,0,0:0:0:0:
115,201,321685,1,0,0:0:0:0:
112,181,321771,2,0,P|112:156|125:123,1,50
241,46,321942,1,0,0:0:0:0:
241,46,322114,1,0,0:0:0:0:
301,341,322285,5,0,0:0:0:0:
301,341,322628,1,0,0:0:0:0:
301,341,322971,1,0,0:0:0:0:
301,341,323314,1,0,0:0:0:0:
301,341,323657,5,0,0:0:0:0:
310,323,323742,1,0,0:0:0:0:
318,304,323828,1,0,0:0:0:0:
429,304,324000,1,0,0:0:0:0:
429,304,324171,1,0,0:0:0:0:
318,304,324342,5,0,0:0:0:0:
330,276,324427,1,0,0:0:0:0:
342,249,324513,1,0,0:0:0:0:
483,251,324685,1,0,0:0:0:0:
483,251,324857,2,0,L|470:176,1,50
301,43,325028,5,0,0:0:0:0:
301,43,325371,1,0,0:0:0:0:
301,43,325714,1,0,0:0:0:0:
301,43,326057,1,0,0:0:0:0:
301,43,326400,5,0,0:0:0:0:
301,43,326571,1,0,0:0:0:0:
320,65,326657,1,0,0:0:0:0:
324,94,326742,2,0,L|320:226,1,100
223,319,327085,1,0,0:0:0:0:
252,314,327171,1,0,0:0:0:0:
281,309,327257,1,0,0:0:0:0:
499,278,327428,2,0,L|367:274,1,100
