osu file format v14

[General]
AudioFilename: audio.mp3
AudioLeadIn: 0
PreviewTime: -1
Countdown: 0
SampleSet: Normal
StackLeniency: 0.7
Mode: 3
LetterboxInBreaks: 0
SpecialStyle: 0
WidescreenStoryboard: 0

[Editor]
Bookmarks: -11,14132,15675,16532,17218,20818,22361,27847,28190,33332,33675,42932,55275,60590,71390,71560,79917,80817
DistanceSpacing: 1.2
BeatDivisor: 16
GridSize: 4
TimelineZoom: 1.699999

[Metadata]
Title:Scary Movie
TitleUnicode:Scary Movie
Artist:S3RL
ArtistUnicode:S3RL
Creator:Enygmatique
Version:Hard
Source:
Tags:
BeatmapID:1794084
BeatmapSetID:858445

[Difficulty]
HPDrainRate:5
CircleSize:4
OverallDifficulty:5
ApproachRate:5
SliderMultiplier:1.4
SliderTickRate:1

[Events]
//Background and Video events
0,0,"maxresdefault.jpg",0,0
//Break Periods
2,43132,47904
//Storyboard Layer 0 (Background)
//Storyboard Layer 1 (Fail)
//Storyboard Layer 2 (Pass)
//Storyboard Layer 3 (Foreground)
//Storyboard Sound Samples

[TimingPoints]
11389,342.857142857143,4,1,0,7,1,0
11390,342.857142857143,4,1,0,7,1,1
14132,-133.333333333333,4,1,0,7,0,1
14218,-100,4,1,0,7,0,1
14304,-83.3333333333333,4,1,0,7,0,1
14389,-10000,4,1,0,7,0,1
14475,-83.3333333333333,4,1,0,7,0,1
14475,-100,4,1,0,7,0,1
14561,-133.333333333333,4,1,0,7,0,1
14647,-83.3333333333333,4,1,0,7,0,1
14732,-100,4,1,0,7,0,1
14818,-83.3333333333333,4,1,0,7,0,1
14904,-133.333333333333,4,1,0,7,0,1
14989,-83.3333333333333,4,1,0,7,0,1
15075,-133.333333333333,4,1,0,7,0,1
15161,-100,4,1,0,7,0,1
15247,-133.333333333333,4,1,0,7,0,1
15504,-83.3333333333333,4,1,0,7,0,1
15589,-100,4,1,0,7,0,1
15675,-133.333333333333,4,1,0,7,0,0
16532,-100,4,1,0,7,0,0
16532,-66.6666666666667,4,1,0,7,0,0
16590,-10000,4,1,0,7,0,0
16618,-100,4,1,0,7,0,0
16875,-66.6666666666667,4,1,0,7,0,0
16961,-133.333333333333,4,1,0,7,0,0
17018,-10000,4,1,0,7,0,0
17132,-66.6666666666667,4,1,0,7,0,0
17218,-100,4,1,0,7,0,0
20818,-133.333333333333,4,1,0,7,0,0
22018,-66.6666666666667,4,1,0,7,0,0
22104,-133.333333333333,4,1,0,7,0,0
22361,-100,4,1,0,7,0,0
27847,-66.6666666666667,4,1,0,7,0,0
28104,-133.333333333333,4,1,0,7,0,0
28190,-100,4,1,0,7,0,0
33332,-133.333333333333,4,1,0,7,0,0
33418,-181.818181818182,4,1,0,7,0,0
33504,-285.714285714286,4,1,0,7,0,0
33590,-666.666666666667,4,1,0,7,0,0
33618,999999999,4,1,0,7,1,0
33675,342.857142857143,4,1,0,7,1,0
33675,-100,4,1,0,7,0,0
42932,-133.333333333333,4,1,0,7,0,0
55275,342.857142857143,4,1,0,7,1,0
55275,-111.111111111111,4,1,0,7,0,0
55317,999999999,4,1,0,7,1,0
55446,342.857142857143,4,1,0,7,1,0
55488,999999999,4,1,0,7,1,0
55617,342.857142857143,4,1,0,7,1,0
55659,999999999,4,1,0,7,1,0
55788,342.857142857143,4,1,0,7,1,0
55830,999999999,4,1,0,7,1,0
55959,342.857142857143,4,1,0,7,1,0
56001,999999999,4,1,0,7,1,0
56130,342.857142857143,4,1,0,7,1,0
56172,999999999,4,1,0,7,1,0
56301,342.857142857143,4,1,0,7,1,0
56343,999999999,4,1,0,7,1,0
56472,342.857142857143,4,1,0,7,1,0
56514,999999999,4,1,0,7,1,0
56643,342.857142857143,4,1,0,7,1,0
56685,999999999,4,1,0,7,1,0
56814,342.857142857143,4,1,0,7,1,0
56856,999999999,4,1,0,7,1,0
56985,342.857142857143,4,1,0,7,1,0
57027,999999999,4,1,0,7,1,0
57156,342.857142857143,4,1,0,7,1,0
57198,999999999,4,1,0,7,1,0
57327,342.857142857143,4,1,0,7,1,0
57369,999999999,4,1,0,7,1,0
57498,342.857142857143,4,1,0,7,1,0
57540,999999999,4,1,0,7,1,0
57669,342.857142857143,4,1,0,7,1,0
57711,999999999,4,1,0,7,1,0
57839,342.857142857143,4,1,0,7,1,0
57881,999999999,4,1,0,7,1,0
58009,342.857142857143,4,1,0,7,1,0
58051,999999999,4,1,0,7,1,0
58179,342.857142857143,4,1,0,7,1,0
58221,999999999,4,1,0,7,1,0
58349,342.857142857143,4,1,0,7,1,0
58391,999999999,4,1,0,7,1,0
58519,342.857142857143,4,1,0,7,1,0
58561,999999999,4,1,0,7,1,0
58689,342.857142857143,4,1,0,7,1,0
58731,999999999,4,1,0,7,1,0
58859,342.857142857143,4,1,0,7,1,0
58901,999999999,4,1,0,7,1,0
59029,342.857142857143,4,1,0,7,1,0
59071,999999999,4,1,0,7,1,0
59200,342.857142857143,4,1,0,7,1,0
59242,999999999,4,1,0,7,1,0
59370,342.857142857143,4,1,0,7,1,0
59412,999999999,4,1,0,7,1,0
59563,342.857142857143,4,1,0,7,1,0
59605,999999999,4,1,0,7,1,0
59733,342.857142857143,4,1,0,7,1,0
59775,999999999,4,1,0,7,1,0
59903,342.857142857143,4,1,0,7,1,0
59945,342.857142857143,4,1,0,7,1,0
60073,342.857142857143,4,1,0,7,1,0
60115,342.857142857143,4,1,0,7,1,0
60243,342.857142857143,4,1,0,7,1,0
60285,342.857142857143,4,1,0,7,1,0
60491,999999999,4,1,0,7,1,0
60504,-100,4,1,0,7,0,0
60590,342.857142857143,4,1,0,7,1,0
60761,999999999,4,1,0,7,1,0
60804,342.857142857143,4,1,0,7,1,0
60932,999999999,4,1,0,7,1,0
60975,342.857142857143,4,1,0,7,1,0
61104,999999999,4,1,0,7,1,0
61147,342.857142857143,4,1,0,7,1,0
61275,999999999,4,1,0,7,1,0
61318,342.857142857143,4,1,0,7,1,0
61447,999999999,4,1,0,7,1,0
61490,342.857142857143,4,1,0,7,1,0
61618,999999999,4,1,0,7,1,0
61661,342.857142857143,4,1,0,7,1,0
61789,999999999,4,1,0,7,1,0
61832,342.857142857143,4,1,0,7,1,0
61961,999999999,4,1,0,7,1,0
62004,342.857142857143,4,1,0,7,1,0
62132,999999999,4,1,0,7,1,0
62175,342.857142857143,4,1,0,7,1,0
62304,999999999,4,1,0,7,1,0
62347,342.857142857143,4,1,0,7,1,0
62475,999999999,4,1,0,7,1,0
62518,342.857142857143,4,1,0,7,1,0
62647,999999999,4,1,0,7,1,0
62690,342.857142857143,4,1,0,7,1,0
62818,999999999,4,1,0,7,1,0
62861,342.857142857143,4,1,0,7,1,0
62989,999999999,4,1,0,7,1,0
63032,342.857142857143,4,1,0,7,1,0
63161,999999999,4,1,0,7,1,0
63204,342.857142857143,4,1,0,7,1,0
63332,999999999,4,1,0,7,1,0
63375,342.857142857143,4,1,0,7,1,0
63504,999999999,4,1,0,7,1,0
63547,342.857142857143,4,1,0,7,1,0
63675,999999999,4,1,0,7,1,0
63718,342.857142857143,4,1,0,7,1,0
63847,999999999,4,1,0,7,1,0
63890,342.857142857143,4,1,0,7,1,0
64018,999999999,4,1,0,7,1,0
64061,342.857142857143,4,1,0,7,1,0
64189,999999999,4,1,0,7,1,0
64232,342.857142857143,4,1,0,7,1,0
64361,999999999,4,1,0,7,1,0
64404,342.857142857143,4,1,0,7,1,0
64532,999999999,4,1,0,7,1,0
64575,342.857142857143,4,1,0,7,1,0
64704,999999999,4,1,0,7,1,0
64747,342.857142857143,4,1,0,7,1,0
64875,999999999,4,1,0,7,1,0
64918,342.857142857143,4,1,0,7,1,0
65047,999999999,4,1,0,7,1,0
65090,342.857142857143,4,1,0,7,1,0
65218,999999999,4,1,0,7,1,0
65261,342.857142857143,4,1,0,7,1,0
65389,999999999,4,1,0,7,1,0
65432,342.857142857143,4,1,0,7,1,0
65561,999999999,4,1,0,7,1,0
65604,342.857142857143,4,1,0,7,1,0
65732,999999999,4,1,0,7,1,0
65775,342.857142857143,4,1,0,7,1,0
65904,999999999,4,1,0,7,1,0
65947,342.857142857143,4,1,0,7,1,0
66075,999999999,4,1,0,7,1,0
66118,342.857142857143,4,1,0,7,1,0
66247,999999999,4,1,0,7,1,0
66290,342.857142857143,4,1,0,7,1,0
66418,999999999,4,1,0,7,1,0
66461,342.857142857143,4,1,0,7,1,0
66589,999999999,4,1,0,7,1,0
66632,342.857142857143,4,1,0,7,1,0
66761,3999999999,4,1,0,7,1,0
66804,342.857142857143,4,1,0,7,1,0
66932,999999999,4,1,0,7,1,0
66975,342.857142857143,4,1,0,7,1,0
67104,999999999,4,1,0,7,1,0
67147,342.857142857143,4,1,0,7,1,0
67275,999999999,4,1,0,7,1,0
67318,342.857142857143,4,1,0,7,1,0
67447,999999999,4,1,0,7,1,0
67490,342.857142857143,4,1,0,7,1,0
67618,999999999,4,1,0,7,1,0
67661,342.857142857143,4,1,0,7,1,0
67789,999999999,4,1,0,7,1,0
67832,342.857142857143,4,1,0,7,1,0
67961,999999999,4,1,0,7,1,0
68004,342.857142857143,4,1,0,7,1,0
68132,999999999,4,1,0,7,1,0
68175,342.857142857143,4,1,0,7,1,0
68304,999999999,4,1,0,7,1,0
68347,342.857142857143,4,1,0,7,1,0
68475,999999999,4,1,0,7,1,0
68518,342.857142857143,4,1,0,7,1,0
68647,999999999,4,1,0,7,1,0
68690,342.857142857143,4,1,0,7,1,0
68818,999999999,4,1,0,7,1,0
68861,342.857142857143,4,1,0,7,1,0
71389,171.428571428571,4,1,0,7,1,0
71410,171.428571428571,4,1,0,7,1,0
71431,171.428571428571,4,1,0,7,1,0
71452,171.428571428571,4,1,0,7,1,0
71474,171.428571428571,4,1,0,7,1,0
71495,171.428571428571,4,1,0,7,1,0
71517,171.428571428571,4,1,0,7,1,0
71538,171.428571428571,4,1,0,7,1,0
71560,342.857142857143,4,1,0,7,1,0
71730,342.857142857143,4,1,0,7,1,0
71731,999999999,4,1,0,7,1,0
71816,342.857142857143,4,1,0,7,1,0
72073,999999999,4,1,0,7,1,0
72159,342.857142857143,4,1,0,7,1,0
72416,999999999,4,1,0,7,1,0
72502,342.857142857143,4,1,0,7,1,0
72759,3999999999,4,1,0,7,1,0
72845,342.857142857143,4,1,0,7,1,0
73102,999999999,4,1,0,7,1,0
73187,342.857142857143,4,1,0,7,1,0
73444,999999999,4,1,0,7,1,0
73529,342.857142857143,4,1,0,7,1,0
73785,999999999,4,1,0,7,1,0
73871,342.857142857143,4,1,0,7,1,0
74128,999999999,4,1,0,7,1,0
74214,342.857142857143,4,1,0,7,1,0
74471,999999999,4,1,0,7,1,0
74557,342.857142857143,4,1,0,7,1,0
74814,999999999,4,1,0,7,1,0
74900,342.857142857143,4,1,0,7,1,0
75157,999999999,4,1,0,7,1,0
75243,342.857142857143,4,1,0,7,1,0
75500,999999999,4,1,0,7,1,0
75586,342.857142857143,4,1,0,7,1,0
75843,999999999,4,1,0,7,1,0
75929,342.857142857143,4,1,0,7,1,0
76185,999999999,4,1,0,7,1,0
76271,342.857142857143,4,1,0,7,1,0
76528,999999999,4,1,0,7,1,0
76614,342.857142857143,4,1,0,7,1,0
76871,999999999,4,1,0,7,1,0
76957,342.857142857143,4,1,0,7,1,0
77214,999999999,4,1,0,7,1,0
77300,342.857142857143,4,1,0,7,1,0
79932,-66.6666666666667,4,1,0,7,0,0
79961,-10000,4,1,0,7,0,0
79990,-100,4,1,0,7,0,0
80047,-66.6666666666667,4,1,0,7,0,0
80075,-10000,4,1,0,7,0,0
80104,-100,4,1,0,7,0,0
80161,-66.6666666666667,4,1,0,7,0,0
80190,-10000,4,1,0,7,0,0
80218,-100,4,1,0,7,0,0
80275,-66.6666666666667,4,1,0,7,0,0
80304,-10000,4,1,0,7,0,0
80332,-100,4,1,0,7,0,0
80390,-66.6666666666667,4,1,0,7,0,0
80418,-10000,4,1,0,7,0,0
80447,-100,4,1,0,7,0,0
80504,-66.6666666666667,4,1,0,7,0,0
80532,-10000,4,1,0,7,0,0
80561,-100,4,1,0,7,0,0
80618,-66.6666666666667,4,1,0,7,0,0
80647,-10000,4,1,0,7,0,0
80675,-100,4,1,0,7,0,0
80732,-66.6666666666667,4,1,0,7,0,0
80761,-10000,4,1,0,7,0,0
80790,-100,4,1,0,7,0,0
82700,342.857142857143,4,1,0,7,1,0
104557,-125,4,1,0,7,0,0
105757,-66.6666666666667,4,1,0,7,0,0
105928,-100,4,1,0,7,0,0
121785,-66.6666666666667,4,1,0,7,0,0
121871,-133.333333333333,4,1,0,7,0,0
122128,-66.6666666666667,4,1,0,7,0,0
122214,-133.333333333333,4,1,0,7,0,0
122300,-100,4,1,0,7,0,0
126585,-133.333333333333,4,1,0,7,0,0
133442,-100,4,1,0,7,0,0
136185,-10000,4,1,0,7,0,0
138500,-66.6666666666667,4,1,0,7,0,0
138585,-133.333333333333,4,1,0,7,0,0
138671,-66.6666666666667,4,1,0,7,0,0
138842,-133.333333333333,4,1,0,7,0,0
138928,-10000,4,1,0,7,0,0
139185,-100,4,1,0,7,0,0
148357,-100,4,1,0,7,0,0
148442,-10000,4,1,0,7,0,0
148528,-100,4,1,0,7,0,0
148614,-10000,4,1,0,7,0,0
148700,-100,4,1,0,7,0,0
148785,-10000,4,1,0,7,0,0
148871,-100,4,1,0,7,0,0
148957,-10000,4,1,0,7,0,0
149042,-100,4,1,0,7,0,0
149128,-10000,4,1,0,7,0,0
149214,-100,4,1,0,7,0,0
149300,-10000,4,1,0,7,0,0
149385,-100,4,1,0,7,0,0
149471,-10000,4,1,0,7,0,0
149557,-100,4,1,0,7,0,0
149642,-10000,4,1,0,7,0,0
149728,-100,4,1,0,7,0,0
149814,-133.333333333333,4,1,0,7,0,0
149900,-66.6666666666667,4,1,0,7,0,0
150157,-133.333333333333,4,1,0,7,0,0
150242,-100,4,1,0,7,0,0
158128,-133.333333333333,4,1,0,7,0,0
158385,-153.846153846154,4,1,0,7,0,0
159500,-133.333333333333,4,1,0,7,0,0
159842,-166.666666666667,4,1,0,7,0,0
160871,-100,4,1,0,7,0,0
161042,-133.333333333333,4,1,0,7,0,0
161214,-181.818181818182,4,1,0,7,0,0
162242,-166.666666666667,4,1,0,7,0,0
162585,-153.846153846154,4,1,0,7,0,0
163271,-133.333333333333,4,1,0,7,0,0
163442,-100,4,1,0,7,0,0
163528,-66.6666666666667,4,1,0,7,0,0
163614,-100,4,1,0,7,0,0
163700,-133.333333333333,4,1,0,7,0,0
164300,-222.222222222222,4,1,0,7,0,0
167728,-66.6666666666667,4,1,0,7,0,0
167900,-1000,4,1,0,7,0,0
169400,-25,4,1,0,7,0,0
169421,-10000,4,1,0,7,0,0
169442,342.857142857143,4,1,0,7,1,0
169442,342.857142857143,4,1,0,7,1,0
169507,-25,4,1,0,7,0,0
169527,342.857142857143,4,1,0,7,1,0
169528,-10000,4,1,0,7,0,0
169614,-25,4,1,0,7,0,0
169656,342.857142857143,4,1,0,7,1,0
169657,-10000,4,1,0,7,0,0
169764,-25.6410256410256,4,1,0,7,0,0
169827,342.857142857143,4,1,0,7,1,0
169828,-10000,4,1,0,7,0,0
169978,-27.027027027027,4,1,0,7,0,0
170084,342.857142857143,4,1,0,7,1,0
170085,-10000,4,1,0,7,0,0
170300,-28.5714285714286,4,1,0,7,0,0
170513,342.857142857143,4,1,0,7,1,0
170514,-10000,4,1,0,7,0,0
170792,-50,4,1,0,7,0,0
171070,342.857142857143,4,1,0,7,1,0
171071,-10000,4,1,0,7,0,0
171414,-25,4,1,0,7,0,0
171756,999999999,4,1,0,7,1,0
171757,-66.6666666666667,4,1,0,7,0,0
175870,342.857142857143,4,1,0,7,1,0

[HitObjects]
64,192,11389,5,0,0:0:0:0:
448,192,11389,1,0,0:0:0:0:
192,192,11475,1,0,0:0:0:0:
64,192,11561,1,0,0:0:0:0:
448,192,11561,1,0,0:0:0:0:
320,192,11647,1,0,0:0:0:0:
64,192,11732,1,0,0:0:0:0:
448,192,11732,1,0,0:0:0:0:
192,192,11818,1,0,0:0:0:0:
320,192,11904,1,0,0:0:0:0:
192,192,11989,1,0,0:0:0:0:
448,192,12075,1,0,0:0:0:0:
320,192,12075,1,0,0:0:0:0:
64,192,12075,1,0,0:0:0:0:
192,192,12161,1,0,0:0:0:0:
320,192,12247,1,0,0:0:0:0:
64,192,12247,1,0,0:0:0:0:
192,192,12332,1,0,0:0:0:0:
448,192,12332,1,0,0:0:0:0:
64,192,12418,1,0,0:0:0:0:
320,192,12418,1,0,0:0:0:0:
448,192,12504,1,0,0:0:0:0:
192,192,12589,128,0,12675:0:0:0:0:
320,192,12589,1,0,0:0:0:0:
64,192,12761,1,0,0:0:0:0:
448,192,12761,1,0,0:0:0:0:
320,192,12761,128,0,12847:0:0:0:0:
192,192,12932,128,0,13104:0:0:0:0:
64,192,12932,1,0,0:0:0:0:
448,192,13018,1,0,0:0:0:0:
64,192,13104,1,0,0:0:0:0:
320,192,13104,1,0,0:0:0:0:
448,192,13189,1,0,0:0:0:0:
192,192,13275,1,0,0:0:0:0:
320,192,13275,128,0,13447:0:0:0:0:
64,192,13361,1,0,0:0:0:0:
448,192,13447,1,0,0:0:0:0:
192,192,13447,1,0,0:0:0:0:
64,192,13532,1,0,0:0:0:0:
320,192,13618,1,0,0:0:0:0:
192,192,13704,1,0,0:0:0:0:
64,192,13789,1,0,0:0:0:0:
448,192,13789,1,0,0:0:0:0:
320,192,13832,1,0,0:0:0:0:
64,192,13875,1,0,0:0:0:0:
448,192,13918,1,0,0:0:0:0:
320,192,13961,1,0,0:0:0:0:
192,192,14047,1,0,0:0:0:0:
448,192,14132,1,0,0:0:0:0:
64,192,14132,1,0,0:0:0:0:
320,192,14218,1,0,0:0:0:0:
192,192,14304,1,0,0:0:0:0:
64,192,14475,1,0,0:0:0:0:
448,192,14475,1,0,0:0:0:0:
192,192,14561,1,0,0:0:0:0:
448,192,14561,1,0,0:0:0:0:
320,192,14647,1,0,0:0:0:0:
64,192,14647,1,0,0:0:0:0:
64,192,14818,1,0,0:0:0:0:
320,192,14818,1,0,0:0:0:0:
448,192,14904,1,0,0:0:0:0:
320,192,14989,1,0,0:0:0:0:
64,192,14989,1,0,0:0:0:0:
192,192,15075,1,0,0:0:0:0:
64,192,15161,1,0,0:0:0:0:
448,192,15161,1,0,0:0:0:0:
320,192,15504,1,0,0:0:0:0:
448,192,15504,1,0,0:0:0:0:
192,192,15589,1,0,0:0:0:0:
64,192,15675,1,0,0:0:0:0:
448,192,15847,128,0,16532:0:0:0:0:
320,192,16532,128,0,16618:0:0:0:0:
64,192,16704,128,0,16790:0:0:0:0:
192,192,16790,128,0,16875:0:0:0:0:
448,192,16875,128,0,17047:0:0:0:0:
64,192,17218,128,0,17304:0:0:0:0:
448,192,17218,1,0,0:0:0:0:
192,192,17218,1,0,0:0:0:0:
192,192,17432,128,0,17518:0:0:0:0:
64,192,17561,1,0,0:0:0:0:
448,192,17561,1,0,0:0:0:0:
320,192,17647,128,0,17732:0:0:0:0:
448,192,17904,128,0,17990:0:0:0:0:
320,192,17904,1,0,0:0:0:0:
64,192,17904,1,0,0:0:0:0:
64,192,18118,128,0,18204:0:0:0:0:
192,192,18247,1,0,0:0:0:0:
448,192,18247,1,0,0:0:0:0:
192,192,18375,128,0,18461:0:0:0:0:
320,192,18590,128,0,18675:0:0:0:0:
64,192,18590,1,0,0:0:0:0:
448,192,18590,1,0,0:0:0:0:
448,192,18890,128,0,18975:0:0:0:0:
320,192,18932,1,0,0:0:0:0:
64,192,18932,1,0,0:0:0:0:
64,192,19061,128,0,19147:0:0:0:0:
64,192,19275,1,0,0:0:0:0:
448,192,19275,1,0,0:0:0:0:
192,192,19361,128,0,19447:0:0:0:0:
320,192,19618,128,0,19704:0:0:0:0:
64,192,19618,1,0,0:0:0:0:
448,192,19618,1,0,0:0:0:0:
448,192,19875,128,0,19961:0:0:0:0:
64,192,19961,1,0,0:0:0:0:
320,192,19961,1,0,0:0:0:0:
64,192,20090,128,0,20175:0:0:0:0:
64,192,20304,1,0,0:0:0:0:
448,192,20304,1,0,0:0:0:0:
192,192,20390,128,0,20475:0:0:0:0:
64,192,20647,1,0,0:0:0:0:
448,192,20647,1,0,0:0:0:0:
320,192,20690,128,0,20775:0:0:0:0:
448,192,20990,128,0,21118:0:0:0:0:
320,192,21161,128,0,21247:0:0:0:0:
64,192,21332,128,0,21418:0:0:0:0:
192,192,21418,128,0,21675:0:0:0:0:
448,192,21675,128,0,22018:0:0:0:0:
320,192,22018,128,0,22190:0:0:0:0:
192,192,22190,1,0,0:0:0:0:
64,192,22361,1,0,0:0:0:0:
448,192,22361,1,0,0:0:0:0:
320,192,22447,1,0,0:0:0:0:
64,192,22532,1,0,0:0:0:0:
320,192,22618,1,0,0:0:0:0:
64,192,22704,1,0,0:0:0:0:
448,192,22704,1,0,0:0:0:0:
192,192,22790,1,0,0:0:0:0:
448,192,22875,1,0,0:0:0:0:
64,192,22961,1,0,0:0:0:0:
320,192,23047,1,0,0:0:0:0:
448,192,23047,1,0,0:0:0:0:
192,192,23132,1,0,0:0:0:0:
320,192,23218,1,0,0:0:0:0:
192,192,23304,1,0,0:0:0:0:
64,192,23390,1,0,0:0:0:0:
448,192,23390,1,0,0:0:0:0:
192,192,23475,1,0,0:0:0:0:
320,192,23561,1,0,0:0:0:0:
64,192,23647,1,0,0:0:0:0:
192,192,23732,1,0,0:0:0:0:
448,192,23732,1,0,0:0:0:0:
320,192,23818,1,0,0:0:0:0:
64,192,23904,1,0,0:0:0:0:
320,192,23990,1,0,0:0:0:0:
64,192,24075,1,0,0:0:0:0:
448,192,24075,1,0,0:0:0:0:
192,192,24161,1,0,0:0:0:0:
448,192,24247,1,0,0:0:0:0:
192,192,24332,1,0,0:0:0:0:
64,192,24418,1,0,0:0:0:0:
320,192,24418,1,0,0:0:0:0:
448,192,24504,1,0,0:0:0:0:
320,192,24590,1,0,0:0:0:0:
64,192,24675,1,0,0:0:0:0:
192,192,24761,1,0,0:0:0:0:
448,192,24761,1,0,0:0:0:0:
320,192,24847,1,0,0:0:0:0:
64,192,24932,1,0,0:0:0:0:
320,192,25018,1,0,0:0:0:0:
64,192,25104,1,0,0:0:0:0:
448,192,25104,1,0,0:0:0:0:
320,192,25190,1,0,0:0:0:0:
192,192,25275,1,0,0:0:0:0:
320,192,25361,1,0,0:0:0:0:
64,192,25447,1,0,0:0:0:0:
448,192,25447,1,0,0:0:0:0:
192,192,25532,1,0,0:0:0:0:
320,192,25618,1,0,0:0:0:0:
192,192,25704,1,0,0:0:0:0:
64,192,25790,1,0,0:0:0:0:
448,192,25790,1,0,0:0:0:0:
320,192,25875,1,0,0:0:0:0:
64,192,25961,1,0,0:0:0:0:
320,192,26047,1,0,0:0:0:0:
64,192,26132,1,0,0:0:0:0:
448,192,26132,1,0,0:0:0:0:
320,192,26218,1,0,0:0:0:0:
64,192,26304,1,0,0:0:0:0:
320,192,26390,1,0,0:0:0:0:
64,192,26475,1,0,0:0:0:0:
448,192,26475,1,0,0:0:0:0:
320,192,26561,1,0,0:0:0:0:
64,192,26647,1,0,0:0:0:0:
192,192,26732,1,0,0:0:0:0:
448,192,26818,1,0,0:0:0:0:
64,192,26818,1,0,0:0:0:0:
320,192,26904,1,0,0:0:0:0:
192,192,26990,1,0,0:0:0:0:
320,192,27075,1,0,0:0:0:0:
64,192,27161,1,0,0:0:0:0:
448,192,27161,1,0,0:0:0:0:
320,192,27247,1,0,0:0:0:0:
64,192,27332,1,0,0:0:0:0:
320,192,27418,1,0,0:0:0:0:
64,192,27504,1,0,0:0:0:0:
448,192,27504,1,0,0:0:0:0:
192,192,27504,1,0,0:0:0:0:
64,192,27675,1,0,0:0:0:0:
320,192,27675,1,0,0:0:0:0:
448,192,27675,1,0,0:0:0:0:
64,192,27847,1,0,0:0:0:0:
192,192,27847,1,0,0:0:0:0:
448,192,27847,1,0,0:0:0:0:
320,192,27847,128,0,28190:0:0:0:0:
64,192,28190,1,0,0:0:0:0:
192,192,28190,1,0,0:0:0:0:
448,192,28190,1,0,0:0:0:0:
64,192,28361,1,0,0:0:0:0:
448,192,28361,1,0,0:0:0:0:
192,192,28447,1,0,0:0:0:0:
448,192,28532,1,0,0:0:0:0:
64,192,28618,1,0,0:0:0:0:
320,192,28704,1,0,0:0:0:0:
448,192,28704,1,0,0:0:0:0:
192,192,28790,1,0,0:0:0:0:
320,192,28875,1,0,0:0:0:0:
192,192,28961,1,0,0:0:0:0:
64,192,29047,1,0,0:0:0:0:
448,192,29047,1,0,0:0:0:0:
192,192,29132,1,0,0:0:0:0:
320,192,29218,1,0,0:0:0:0:
64,192,29304,1,0,0:0:0:0:
192,192,29390,1,0,0:0:0:0:
448,192,29390,1,0,0:0:0:0:
320,192,29475,1,0,0:0:0:0:
64,192,29561,1,0,0:0:0:0:
320,192,29647,1,0,0:0:0:0:
64,192,29732,1,0,0:0:0:0:
448,192,29732,1,0,0:0:0:0:
192,192,29818,1,0,0:0:0:0:
448,192,29904,1,0,0:0:0:0:
192,192,29990,1,0,0:0:0:0:
64,192,30075,1,0,0:0:0:0:
320,192,30075,1,0,0:0:0:0:
448,192,30161,1,0,0:0:0:0:
320,192,30247,1,0,0:0:0:0:
64,192,30332,1,0,0:0:0:0:
192,192,30418,1,0,0:0:0:0:
448,192,30418,1,0,0:0:0:0:
320,192,30504,1,0,0:0:0:0:
64,192,30590,1,0,0:0:0:0:
448,192,30590,1,0,0:0:0:0:
192,192,30675,1,0,0:0:0:0:
320,192,30675,1,0,0:0:0:0:
448,192,30761,1,0,0:0:0:0:
320,192,30761,1,0,0:0:0:0:
320,192,30847,1,0,0:0:0:0:
64,192,30847,1,0,0:0:0:0:
192,192,30847,1,0,0:0:0:0:
192,192,30932,1,0,0:0:0:0:
448,192,30932,1,0,0:0:0:0:
320,192,31018,1,0,0:0:0:0:
64,192,31018,1,0,0:0:0:0:
64,192,31104,1,0,0:0:0:0:
448,192,31104,1,0,0:0:0:0:
192,192,31190,1,0,0:0:0:0:
320,192,31275,1,0,0:0:0:0:
192,192,31361,1,0,0:0:0:0:
64,192,31447,1,0,0:0:0:0:
448,192,31447,1,0,0:0:0:0:
320,192,31532,1,0,0:0:0:0:
64,192,31618,1,0,0:0:0:0:
320,192,31704,1,0,0:0:0:0:
64,192,31790,1,0,0:0:0:0:
448,192,31790,1,0,0:0:0:0:
320,192,31875,1,0,0:0:0:0:
64,192,31961,1,0,0:0:0:0:
448,192,31961,1,0,0:0:0:0:
192,192,31961,128,0,33075:0:0:0:0:
64,192,32304,1,0,0:0:0:0:
448,192,32304,1,0,0:0:0:0:
64,192,32647,1,0,0:0:0:0:
448,192,32647,1,0,0:0:0:0:
64,192,32990,1,0,0:0:0:0:
448,192,32990,1,0,0:0:0:0:
448,192,33332,1,0,0:0:0:0:
320,192,33418,1,0,0:0:0:0:
192,192,33504,1,0,0:0:0:0:
64,192,33590,1,0,0:0:0:0:
320,192,33675,1,0,0:0:0:0:
448,192,33675,1,0,0:0:0:0:
192,192,33761,1,0,0:0:0:0:
64,192,33847,1,0,0:0:0:0:
448,192,33847,1,0,0:0:0:0:
192,192,33932,1,0,0:0:0:0:
320,192,34018,1,0,0:0:0:0:
64,192,34018,1,0,0:0:0:0:
448,192,34104,1,0,0:0:0:0:
192,192,34190,1,0,0:0:0:0:
320,192,34190,1,0,0:0:0:0:
64,192,34275,1,0,0:0:0:0:
320,192,34361,1,0,0:0:0:0:
448,192,34361,1,0,0:0:0:0:
192,192,34447,1,0,0:0:0:0:
64,192,34447,1,0,0:0:0:0:
448,192,34532,1,0,0:0:0:0:
64,192,34618,1,0,0:0:0:0:
320,192,34704,1,0,0:0:0:0:
448,192,34704,1,0,0:0:0:0:
192,192,34790,1,0,0:0:0:0:
448,192,34875,1,0,0:0:0:0:
320,192,34875,1,0,0:0:0:0:
64,192,34961,1,0,0:0:0:0:
448,192,35047,1,0,0:0:0:0:
192,192,35047,1,0,0:0:0:0:
320,192,35132,1,0,0:0:0:0:
64,192,35132,1,0,0:0:0:0:
192,192,35218,1,0,0:0:0:0:
448,192,35304,1,0,0:0:0:0:
64,192,35390,1,0,0:0:0:0:
192,192,35390,1,0,0:0:0:0:
448,192,35475,1,0,0:0:0:0:
192,192,35561,1,0,0:0:0:0:
64,192,35561,1,0,0:0:0:0:
448,192,35647,1,0,0:0:0:0:
64,192,35732,1,0,0:0:0:0:
320,192,35732,1,0,0:0:0:0:
192,192,35818,1,0,0:0:0:0:
448,192,35904,1,0,0:0:0:0:
64,192,35904,1,0,0:0:0:0:
320,192,35990,1,0,0:0:0:0:
64,192,36075,1,0,0:0:0:0:
448,192,36075,1,0,0:0:0:0:
192,192,36161,1,0,0:0:0:0:
448,192,36247,128,0,36332:0:0:0:0:
320,192,36247,1,0,0:0:0:0:
64,192,36247,1,0,0:0:0:0:
64,192,36332,1,0,0:0:0:0:
192,192,36418,128,0,36504:0:0:0:0:
320,192,36418,1,0,0:0:0:0:
64,192,36504,1,0,0:0:0:0:
448,192,36590,128,0,36675:0:0:0:0:
320,192,36590,1,0,0:0:0:0:
64,192,36675,1,0,0:0:0:0:
192,192,36761,128,0,36847:0:0:0:0:
320,192,36761,1,0,0:0:0:0:
448,192,36847,1,0,0:0:0:0:
448,192,36932,128,0,37018:0:0:0:0:
320,192,36932,1,0,0:0:0:0:
64,192,37018,1,0,0:0:0:0:
192,192,37104,128,0,37190:0:0:0:0:
320,192,37104,1,0,0:0:0:0:
64,192,37190,1,0,0:0:0:0:
448,192,37275,128,0,37361:0:0:0:0:
320,192,37275,1,0,0:0:0:0:
64,192,37361,1,0,0:0:0:0:
192,192,37447,128,0,37532:0:0:0:0:
320,192,37447,1,0,0:0:0:0:
448,192,37618,128,0,37704:0:0:0:0:
64,192,37790,128,0,37875:0:0:0:0:
320,192,37790,1,0,0:0:0:0:
192,192,37961,128,0,38047:0:0:0:0:
320,192,37961,1,0,0:0:0:0:
448,192,38132,128,0,38218:0:0:0:0:
64,192,38304,128,0,38390:0:0:0:0:
320,192,38475,128,0,38561:0:0:0:0:
192,192,38647,128,0,38732:0:0:0:0:
320,192,38818,1,0,0:0:0:0:
448,192,38818,1,0,0:0:0:0:
192,192,38904,1,0,0:0:0:0:
64,192,38990,1,0,0:0:0:0:
448,192,38990,1,0,0:0:0:0:
192,192,39075,1,0,0:0:0:0:
320,192,39161,1,0,0:0:0:0:
64,192,39161,1,0,0:0:0:0:
448,192,39247,1,0,0:0:0:0:
192,192,39332,1,0,0:0:0:0:
320,192,39332,1,0,0:0:0:0:
64,192,39418,1,0,0:0:0:0:
320,192,39504,1,0,0:0:0:0:
448,192,39504,1,0,0:0:0:0:
192,192,39590,1,0,0:0:0:0:
64,192,39590,1,0,0:0:0:0:
448,192,39675,1,0,0:0:0:0:
64,192,39761,1,0,0:0:0:0:
320,192,39847,1,0,0:0:0:0:
448,192,39847,1,0,0:0:0:0:
192,192,39932,1,0,0:0:0:0:
448,192,40018,1,0,0:0:0:0:
320,192,40018,1,0,0:0:0:0:
64,192,40104,1,0,0:0:0:0:
448,192,40190,1,0,0:0:0:0:
192,192,40190,1,0,0:0:0:0:
320,192,40275,1,0,0:0:0:0:
64,192,40275,1,0,0:0:0:0:
192,192,40361,1,0,0:0:0:0:
448,192,40447,1,0,0:0:0:0:
64,192,40532,1,0,0:0:0:0:
192,192,40532,1,0,0:0:0:0:
448,192,40618,1,0,0:0:0:0:
192,192,40704,1,0,0:0:0:0:
64,192,40704,1,0,0:0:0:0:
448,192,40790,1,0,0:0:0:0:
64,192,40875,1,0,0:0:0:0:
320,192,40875,1,0,0:0:0:0:
192,192,40961,1,0,0:0:0:0:
448,192,41047,1,0,0:0:0:0:
64,192,41047,1,0,0:0:0:0:
320,192,41132,1,0,0:0:0:0:
64,192,41218,1,0,0:0:0:0:
448,192,41218,1,0,0:0:0:0:
192,192,41304,1,0,0:0:0:0:
448,192,41390,128,0,41475:0:0:0:0:
320,192,41390,1,0,0:0:0:0:
64,192,41390,1,0,0:0:0:0:
64,192,41475,1,0,0:0:0:0:
320,192,41561,1,0,0:0:0:0:
448,192,41561,1,0,0:0:0:0:
64,192,41647,1,0,0:0:0:0:
192,192,41647,1,0,0:0:0:0:
320,192,41732,1,0,0:0:0:0:
448,192,41732,1,0,0:0:0:0:
64,192,41818,1,0,0:0:0:0:
192,192,41818,1,0,0:0:0:0:
320,192,41904,1,0,0:0:0:0:
448,192,41904,1,0,0:0:0:0:
64,192,41990,1,0,0:0:0:0:
192,192,41990,1,0,0:0:0:0:
320,192,42075,1,0,0:0:0:0:
448,192,42075,1,0,0:0:0:0:
64,192,42161,1,0,0:0:0:0:
192,192,42161,1,0,0:0:0:0:
320,192,42247,1,0,0:0:0:0:
448,192,42247,1,0,0:0:0:0:
64,192,42332,1,0,0:0:0:0:
192,192,42332,1,0,0:0:0:0:
320,192,42418,1,0,0:0:0:0:
448,192,42418,1,0,0:0:0:0:
64,192,42504,1,0,0:0:0:0:
192,192,42504,1,0,0:0:0:0:
320,192,42590,1,0,0:0:0:0:
448,192,42590,1,0,0:0:0:0:
64,192,42675,1,0,0:0:0:0:
192,192,42675,1,0,0:0:0:0:
320,192,42761,1,0,0:0:0:0:
448,192,42761,1,0,0:0:0:0:
64,192,42847,1,0,0:0:0:0:
192,192,42847,1,0,0:0:0:0:
320,192,42932,1,0,0:0:0:0:
448,192,42932,1,0,0:0:0:0:
64,192,49104,5,0,0:0:0:0:
320,192,49790,1,0,0:0:0:0:
192,192,50475,1,0,0:0:0:0:
448,192,51161,1,0,0:0:0:0:
448,192,55275,1,0,0:0:0:0:
64,192,55275,1,0,0:0:0:0:
192,192,55446,1,0,0:0:0:0:
192,192,55617,1,0,0:0:0:0:
448,192,55788,1,0,0:0:0:0:
192,192,55961,1,0,0:0:0:0:
192,192,56130,1,0,0:0:0:0:
320,192,56301,1,0,0:0:0:0:
192,192,56472,1,0,0:0:0:0:
64,192,56643,1,0,0:0:0:0:
448,192,56643,1,0,0:0:0:0:
192,192,56814,1,0,0:0:0:0:
192,192,56985,1,0,0:0:0:0:
448,192,57156,1,0,0:0:0:0:
192,192,57327,1,0,0:0:0:0:
192,192,57498,1,0,0:0:0:0:
320,192,57669,1,0,0:0:0:0:
192,192,57840,1,0,0:0:0:0:
64,192,58009,1,0,0:0:0:0:
448,192,58009,1,0,0:0:0:0:
192,192,58179,1,0,0:0:0:0:
192,192,58349,1,0,0:0:0:0:
448,192,58519,1,0,0:0:0:0:
192,192,58689,1,0,0:0:0:0:
192,192,58859,1,0,0:0:0:0:
320,192,59029,1,0,0:0:0:0:
192,192,59200,1,0,0:0:0:0:
64,192,59370,1,0,0:0:0:0:
448,192,59370,1,0,0:0:0:0:
192,192,59563,1,0,0:0:0:0:
192,192,59733,1,0,0:0:0:0:
448,192,59903,1,0,0:0:0:0:
320,192,60073,1,0,0:0:0:0:
192,192,60243,1,0,0:0:0:0:
64,192,60491,1,0,0:0:0:0:
448,192,60590,1,0,0:0:0:0:
320,192,60590,1,0,0:0:0:0:
192,192,60675,1,0,0:0:0:0:
320,192,60675,1,0,0:0:0:0:
448,192,60761,1,0,0:0:0:0:
64,192,60761,1,0,0:0:0:0:
192,192,60932,1,0,0:0:0:0:
192,192,61104,1,0,0:0:0:0:
448,192,61275,1,0,0:0:0:0:
192,192,61447,1,0,0:0:0:0:
64,192,61447,1,0,0:0:0:0:
320,192,61447,1,0,0:0:0:0:
192,192,61618,1,0,0:0:0:0:
448,192,61618,1,0,0:0:0:0:
320,192,61790,1,0,0:0:0:0:
192,192,61961,1,0,0:0:0:0:
448,192,62132,1,0,0:0:0:0:
64,192,62132,1,0,0:0:0:0:
320,192,62132,1,0,0:0:0:0:
192,192,62304,1,0,0:0:0:0:
192,192,62475,1,0,0:0:0:0:
448,192,62647,1,0,0:0:0:0:
192,192,62818,1,0,0:0:0:0:
64,192,62818,1,0,0:0:0:0:
448,192,62818,1,0,0:0:0:0:
192,192,62990,1,0,0:0:0:0:
320,192,63161,1,0,0:0:0:0:
192,192,63332,1,0,0:0:0:0:
64,192,63504,1,0,0:0:0:0:
448,192,63504,1,0,0:0:0:0:
320,192,63504,1,0,0:0:0:0:
192,192,63675,1,0,0:0:0:0:
192,192,63847,1,0,0:0:0:0:
448,192,64018,1,0,0:0:0:0:
192,192,64190,1,0,0:0:0:0:
64,192,64190,1,0,0:0:0:0:
448,192,64190,1,0,0:0:0:0:
192,192,64361,1,0,0:0:0:0:
320,192,64361,1,0,0:0:0:0:
320,192,64532,1,0,0:0:0:0:
192,192,64704,1,0,0:0:0:0:
64,192,64875,1,0,0:0:0:0:
448,192,64875,1,0,0:0:0:0:
320,192,64875,1,0,0:0:0:0:
192,192,65047,1,0,0:0:0:0:
192,192,65218,1,0,0:0:0:0:
448,192,65390,1,0,0:0:0:0:
192,192,65561,1,0,0:0:0:0:
64,192,65561,1,0,0:0:0:0:
448,192,65561,1,0,0:0:0:0:
192,192,65732,1,0,0:0:0:0:
320,192,65904,1,0,0:0:0:0:
192,192,66075,1,0,0:0:0:0:
64,192,66247,1,0,0:0:0:0:
448,192,66247,1,0,0:0:0:0:
320,192,66247,1,0,0:0:0:0:
192,192,66418,1,0,0:0:0:0:
192,192,66590,1,0,0:0:0:0:
448,192,66761,1,0,0:0:0:0:
320,192,66761,1,0,0:0:0:0:
192,192,66932,1,0,0:0:0:0:
64,192,66932,1,0,0:0:0:0:
192,192,67104,1,0,0:0:0:0:
448,192,67104,1,0,0:0:0:0:
320,192,67275,1,0,0:0:0:0:
192,192,67447,1,0,0:0:0:0:
320,192,67447,1,0,0:0:0:0:
448,192,67618,1,0,0:0:0:0:
64,192,67618,1,0,0:0:0:0:
320,192,67618,1,0,0:0:0:0:
192,192,67790,1,0,0:0:0:0:
192,192,67961,1,0,0:0:0:0:
448,192,68132,1,0,0:0:0:0:
320,192,68132,1,0,0:0:0:0:
192,192,68304,1,0,0:0:0:0:
64,192,68304,1,0,0:0:0:0:
448,192,68304,1,0,0:0:0:0:
192,192,68475,1,0,0:0:0:0:
320,192,68647,1,0,0:0:0:0:
192,192,68818,1,0,0:0:0:0:
320,192,68818,1,0,0:0:0:0:
448,192,68990,1,0,0:0:0:0:
64,192,68990,1,0,0:0:0:0:
320,192,68990,1,0,0:0:0:0:
192,192,69161,1,0,0:0:0:0:
192,192,69332,1,0,0:0:0:0:
64,192,69332,1,0,0:0:0:0:
448,192,69332,1,0,0:0:0:0:
320,192,69332,1,0,0:0:0:0:
448,192,69504,1,0,0:0:0:0:
192,192,69675,1,0,0:0:0:0:
64,192,69675,1,0,0:0:0:0:
448,192,69675,1,0,0:0:0:0:
192,192,69847,1,0,0:0:0:0:
320,192,70018,1,0,0:0:0:0:
64,192,70018,1,0,0:0:0:0:
448,192,70018,1,0,0:0:0:0:
192,192,70190,1,0,0:0:0:0:
448,192,70361,1,0,0:0:0:0:
64,192,70361,1,0,0:0:0:0:
192,192,70532,1,0,0:0:0:0:
192,192,70704,1,0,0:0:0:0:
64,192,70704,1,0,0:0:0:0:
448,192,70704,1,0,0:0:0:0:
448,192,70875,1,0,0:0:0:0:
192,192,71047,1,0,0:0:0:0:
64,192,71047,1,0,0:0:0:0:
448,192,71047,1,0,0:0:0:0:
192,192,71218,1,0,0:0:0:0:
320,192,71390,1,0,0:0:0:0:
64,192,71390,1,0,0:0:0:0:
448,192,71390,1,0,0:0:0:0:
192,192,71390,128,0,71561:0:0:0:0:
320,192,71730,1,0,0:0:0:0:
64,192,71731,1,0,0:0:0:0:
448,192,71731,1,0,0:0:0:0:
64,192,72073,1,0,0:0:0:0:
192,192,72073,1,0,0:0:0:0:
448,192,72073,1,0,0:0:0:0:
64,192,72416,1,0,0:0:0:0:
320,192,72416,1,0,0:0:0:0:
448,192,72416,1,0,0:0:0:0:
64,192,72759,1,0,0:0:0:0:
192,192,72759,1,0,0:0:0:0:
448,192,72759,1,0,0:0:0:0:
64,192,73102,1,0,0:0:0:0:
320,192,73102,1,0,0:0:0:0:
448,192,73102,1,0,0:0:0:0:
64,192,73444,1,0,0:0:0:0:
192,192,73444,1,0,0:0:0:0:
448,192,73444,1,0,0:0:0:0:
64,192,73787,1,0,0:0:0:0:
192,192,73787,1,0,0:0:0:0:
448,192,73787,1,0,0:0:0:0:
320,192,73872,1,0,0:0:0:0:
448,192,73958,1,0,0:0:0:0:
192,192,74129,1,0,0:0:0:0:
320,192,74129,1,0,0:0:0:0:
64,192,74215,1,0,0:0:0:0:
192,192,74301,1,0,0:0:0:0:
64,192,74387,1,0,0:0:0:0:
320,192,74472,1,0,0:0:0:0:
448,192,74472,1,0,0:0:0:0:
448,192,74644,1,0,0:0:0:0:
320,192,74729,1,0,0:0:0:0:
448,192,74815,1,0,0:0:0:0:
64,192,74815,1,0,0:0:0:0:
192,192,74815,1,0,0:0:0:0:
64,192,74987,1,0,0:0:0:0:
192,192,75072,1,0,0:0:0:0:
64,192,75158,1,0,0:0:0:0:
320,192,75158,1,0,0:0:0:0:
448,192,75158,1,0,0:0:0:0:
448,192,75329,1,0,0:0:0:0:
320,192,75415,1,0,0:0:0:0:
448,192,75501,1,0,0:0:0:0:
64,192,75501,1,0,0:0:0:0:
192,192,75501,1,0,0:0:0:0:
64,192,75672,1,0,0:0:0:0:
192,192,75758,1,0,0:0:0:0:
64,192,75844,1,0,0:0:0:0:
320,192,75844,1,0,0:0:0:0:
448,192,75844,1,0,0:0:0:0:
448,192,76015,1,0,0:0:0:0:
320,192,76101,1,0,0:0:0:0:
448,192,76187,1,0,0:0:0:0:
64,192,76187,1,0,0:0:0:0:
192,192,76187,1,0,0:0:0:0:
64,192,76358,1,0,0:0:0:0:
192,192,76444,1,0,0:0:0:0:
64,192,76529,1,0,0:0:0:0:
320,192,76529,1,0,0:0:0:0:
448,192,76529,1,0,0:0:0:0:
448,192,76701,1,0,0:0:0:0:
320,192,76787,1,0,0:0:0:0:
448,192,76872,1,0,0:0:0:0:
64,192,76872,1,0,0:0:0:0:
192,192,76872,1,0,0:0:0:0:
64,192,77044,1,0,0:0:0:0:
192,192,77129,1,0,0:0:0:0:
64,192,77215,1,0,0:0:0:0:
320,192,77215,1,0,0:0:0:0:
448,192,77215,1,0,0:0:0:0:
448,192,77387,1,0,0:0:0:0:
320,192,77472,1,0,0:0:0:0:
192,192,77558,1,0,0:0:0:0:
64,192,77558,1,0,0:0:0:0:
448,192,77558,1,0,0:0:0:0:
448,192,77729,1,0,0:0:0:0:
320,192,77729,1,0,0:0:0:0:
64,192,77729,1,0,0:0:0:0:
64,192,77901,1,0,0:0:0:0:
320,192,77901,1,0,0:0:0:0:
448,192,77901,1,0,0:0:0:0:
64,192,78161,1,0,0:0:0:0:
320,192,78161,1,0,0:0:0:0:
448,192,78161,1,0,0:0:0:0:
64,192,78361,1,0,0:0:0:0:
320,192,78361,1,0,0:0:0:0:
448,192,78361,1,0,0:0:0:0:
64,192,78590,1,0,0:0:0:0:
320,192,78590,1,0,0:0:0:0:
448,192,78590,1,0,0:0:0:0:
64,192,78818,1,0,0:0:0:0:
320,192,78818,1,0,0:0:0:0:
448,192,78818,1,0,0:0:0:0:
64,192,79047,1,0,0:0:0:0:
320,192,79047,1,0,0:0:0:0:
448,192,79047,1,0,0:0:0:0:
64,192,79275,1,0,0:0:0:0:
320,192,79275,1,0,0:0:0:0:
448,192,79275,1,0,0:0:0:0:
64,192,79504,1,0,0:0:0:0:
320,192,79504,1,0,0:0:0:0:
448,192,79504,1,0,0:0:0:0:
64,192,79732,1,0,0:0:0:0:
320,192,79732,1,0,0:0:0:0:
448,192,79732,1,0,0:0:0:0:
64,192,79961,1,0,0:0:0:0:
192,192,79961,1,0,0:0:0:0:
192,192,80075,1,0,0:0:0:0:
320,192,80075,1,0,0:0:0:0:
320,192,80190,1,0,0:0:0:0:
448,192,80190,1,0,0:0:0:0:
448,192,80304,1,0,0:0:0:0:
64,192,80304,1,0,0:0:0:0:
64,192,80418,1,0,0:0:0:0:
192,192,80418,1,0,0:0:0:0:
192,192,80532,1,0,0:0:0:0:
320,192,80532,1,0,0:0:0:0:
320,192,80647,1,0,0:0:0:0:
448,192,80647,1,0,0:0:0:0:
448,192,80761,1,0,0:0:0:0:
64,192,80761,1,0,0:0:0:0:
64,192,80875,1,0,0:0:0:0:
192,192,80875,1,0,0:0:0:0:
192,192,80990,1,0,0:0:0:0:
320,192,80990,1,0,0:0:0:0:
320,192,81104,1,0,0:0:0:0:
448,192,81104,1,0,0:0:0:0:
448,192,81218,1,0,0:0:0:0:
64,192,81218,1,0,0:0:0:0:
64,192,81332,1,0,0:0:0:0:
320,192,81332,1,0,0:0:0:0:
320,192,82700,1,0,0:0:0:0:
448,192,82700,1,0,0:0:0:0:
192,192,82700,128,0,83042:0:0:0:0:
448,192,82957,1,0,0:0:0:0:
320,192,83042,1,0,0:0:0:0:
64,192,83042,1,0,0:0:0:0:
448,192,83214,1,0,0:0:0:0:
320,192,83385,128,0,83557:0:0:0:0:
64,192,83642,1,0,0:0:0:0:
192,192,83642,1,0,0:0:0:0:
192,192,83728,1,0,0:0:0:0:
320,192,83728,1,0,0:0:0:0:
448,192,83985,1,0,0:0:0:0:
320,192,83985,1,0,0:0:0:0:
192,192,84071,1,0,0:0:0:0:
320,192,84071,1,0,0:0:0:0:
64,192,84071,128,0,84242:0:0:0:0:
192,192,84242,1,0,0:0:0:0:
320,192,84242,1,0,0:0:0:0:
192,192,84414,128,0,84585:0:0:0:0:
320,192,84414,1,0,0:0:0:0:
448,192,84414,1,0,0:0:0:0:
320,192,84671,128,0,84757:0:0:0:0:
64,192,84671,1,0,0:0:0:0:
192,192,84671,1,0,0:0:0:0:
448,192,84757,128,0,84928:0:0:0:0:
192,192,84757,1,0,0:0:0:0:
192,192,85100,1,0,0:0:0:0:
320,192,85100,1,0,0:0:0:0:
320,192,85357,1,0,0:0:0:0:
448,192,85357,1,0,0:0:0:0:
64,192,85442,1,0,0:0:0:0:
192,192,85442,1,0,0:0:0:0:
192,192,85614,1,0,0:0:0:0:
320,192,85614,1,0,0:0:0:0:
64,192,85785,1,0,0:0:0:0:
192,192,85785,1,0,0:0:0:0:
448,192,86042,128,0,86128:0:0:0:0:
320,192,86042,1,0,0:0:0:0:
192,192,86042,1,0,0:0:0:0:
320,192,86128,128,0,86300:0:0:0:0:
64,192,86128,1,0,0:0:0:0:
192,192,86128,1,0,0:0:0:0:
192,192,86385,1,0,0:0:0:0:
64,192,86471,128,0,86728:0:0:0:0:
448,192,86471,1,0,0:0:0:0:
320,192,86471,1,0,0:0:0:0:
448,192,86728,1,0,0:0:0:0:
192,192,86814,128,0,88185:0:0:0:0:
320,192,86814,1,0,0:0:0:0:
64,192,86814,1,0,0:0:0:0:
448,192,87071,1,0,0:0:0:0:
64,192,87157,1,0,0:0:0:0:
448,192,87414,1,0,0:0:0:0:
64,192,87500,1,0,0:0:0:0:
448,192,87757,1,0,0:0:0:0:
64,192,87842,1,0,0:0:0:0:
448,192,88100,1,0,0:0:0:0:
64,192,88185,1,0,0:0:0:0:
320,192,88185,128,0,88442:0:0:0:0:
192,192,88442,1,0,0:0:0:0:
64,192,88528,1,0,0:0:0:0:
320,192,88528,1,0,0:0:0:0:
448,192,88785,1,0,0:0:0:0:
64,192,88871,1,0,0:0:0:0:
320,192,88871,1,0,0:0:0:0:
192,192,88914,1,0,0:0:0:0:
320,192,88957,1,0,0:0:0:0:
64,192,88957,1,0,0:0:0:0:
448,192,89000,1,0,0:0:0:0:
192,192,89000,1,0,0:0:0:0:
320,192,89042,1,0,0:0:0:0:
64,192,89042,1,0,0:0:0:0:
448,192,89085,1,0,0:0:0:0:
192,192,89085,1,0,0:0:0:0:
320,192,89128,1,0,0:0:0:0:
448,192,89171,1,0,0:0:0:0:
64,192,89214,1,0,0:0:0:0:
192,192,89214,1,0,0:0:0:0:
448,192,89471,1,0,0:0:0:0:
192,192,89557,128,0,89814:0:0:0:0:
320,192,89557,1,0,0:0:0:0:
64,192,89557,1,0,0:0:0:0:
448,192,89814,1,0,0:0:0:0:
320,192,89900,128,0,90157:0:0:0:0:
64,192,89900,1,0,0:0:0:0:
192,192,89900,1,0,0:0:0:0:
64,192,90157,1,0,0:0:0:0:
192,192,90242,128,0,90500:0:0:0:0:
320,192,90242,1,0,0:0:0:0:
448,192,90242,1,0,0:0:0:0:
320,192,90500,1,0,0:0:0:0:
448,192,90585,128,0,90842:0:0:0:0:
320,192,90585,1,0,0:0:0:0:
64,192,90585,1,0,0:0:0:0:
320,192,90842,1,0,0:0:0:0:
320,192,90928,128,0,91185:0:0:0:0:
192,192,90928,1,0,0:0:0:0:
64,192,90928,1,0,0:0:0:0:
192,192,91185,1,0,0:0:0:0:
320,192,91271,128,0,91528:0:0:0:0:
64,192,91271,1,0,0:0:0:0:
448,192,91271,1,0,0:0:0:0:
192,192,91528,1,0,0:0:0:0:
320,192,91614,128,0,91871:0:0:0:0:
64,192,91614,1,0,0:0:0:0:
448,192,91614,1,0,0:0:0:0:
192,192,91871,1,0,0:0:0:0:
320,192,91957,128,0,92042:0:0:0:0:
64,192,91957,1,0,0:0:0:0:
448,192,91957,1,0,0:0:0:0:
320,192,92214,128,0,92300:0:0:0:0:
448,192,92214,1,0,0:0:0:0:
192,192,92300,128,0,93671:0:0:0:0:
64,192,92300,1,0,0:0:0:0:
448,192,92300,1,0,0:0:0:0:
448,192,92557,1,0,0:0:0:0:
64,192,92642,1,0,0:0:0:0:
448,192,92900,1,0,0:0:0:0:
64,192,92985,1,0,0:0:0:0:
448,192,93242,1,0,0:0:0:0:
64,192,93328,1,0,0:0:0:0:
448,192,93585,1,0,0:0:0:0:
64,192,93671,1,0,0:0:0:0:
320,192,93671,1,0,0:0:0:0:
64,192,94014,1,0,0:0:0:0:
320,192,94014,1,0,0:0:0:0:
320,192,94271,1,0,0:0:0:0:
192,192,94357,1,0,0:0:0:0:
448,192,94357,1,0,0:0:0:0:
192,192,94700,1,0,0:0:0:0:
320,192,94700,1,0,0:0:0:0:
192,192,94957,1,0,0:0:0:0:
320,192,95042,1,0,0:0:0:0:
448,192,95042,1,0,0:0:0:0:
448,192,95257,1,0,0:0:0:0:
320,192,95300,1,0,0:0:0:0:
192,192,95342,1,0,0:0:0:0:
64,192,95385,1,0,0:0:0:0:
448,192,95385,1,0,0:0:0:0:
192,192,95642,1,0,0:0:0:0:
64,192,95728,1,0,0:0:0:0:
320,192,95728,1,0,0:0:0:0:
192,192,96071,1,0,0:0:0:0:
320,192,96071,1,0,0:0:0:0:
448,192,96328,1,0,0:0:0:0:
192,192,96414,1,0,0:0:0:0:
64,192,96414,1,0,0:0:0:0:
192,192,96757,1,0,0:0:0:0:
320,192,96757,1,0,0:0:0:0:
448,192,97014,1,0,0:0:0:0:
320,192,97100,1,0,0:0:0:0:
64,192,97100,1,0,0:0:0:0:
192,192,97357,1,0,0:0:0:0:
64,192,97442,1,0,0:0:0:0:
320,192,97442,1,0,0:0:0:0:
192,192,97785,1,0,0:0:0:0:
320,192,97785,1,0,0:0:0:0:
448,192,98042,1,0,0:0:0:0:
64,192,98128,1,0,0:0:0:0:
320,192,98128,1,0,0:0:0:0:
192,192,98471,1,0,0:0:0:0:
320,192,98471,1,0,0:0:0:0:
448,192,98585,1,0,0:0:0:0:
320,192,98700,1,0,0:0:0:0:
192,192,98814,1,0,0:0:0:0:
320,192,98814,1,0,0:0:0:0:
192,192,99042,1,0,0:0:0:0:
64,192,99157,1,0,0:0:0:0:
320,192,99157,1,0,0:0:0:0:
64,192,99385,1,0,0:0:0:0:
320,192,99385,1,0,0:0:0:0:
64,192,99614,1,0,0:0:0:0:
320,192,99614,1,0,0:0:0:0:
192,192,99842,1,0,0:0:0:0:
448,192,99842,1,0,0:0:0:0:
192,192,100071,1,0,0:0:0:0:
448,192,100071,1,0,0:0:0:0:
320,192,100185,1,0,0:0:0:0:
192,192,100300,1,0,0:0:0:0:
448,192,100300,1,0,0:0:0:0:
64,192,100528,1,0,0:0:0:0:
320,192,100528,1,0,0:0:0:0:
64,192,100757,1,0,0:0:0:0:
320,192,100757,1,0,0:0:0:0:
64,192,100985,1,0,0:0:0:0:
320,192,100985,1,0,0:0:0:0:
192,192,101214,1,0,0:0:0:0:
448,192,101214,1,0,0:0:0:0:
192,192,101442,1,0,0:0:0:0:
448,192,101442,1,0,0:0:0:0:
320,192,101471,1,0,0:0:0:0:
192,192,101514,1,0,0:0:0:0:
64,192,101557,1,0,0:0:0:0:
320,192,101600,1,0,0:0:0:0:
192,192,101671,1,0,0:0:0:0:
448,192,101671,1,0,0:0:0:0:
64,192,101900,1,0,0:0:0:0:
320,192,101900,1,0,0:0:0:0:
192,192,102014,1,0,0:0:0:0:
448,192,102014,1,0,0:0:0:0:
64,192,102128,1,0,0:0:0:0:
320,192,102128,1,0,0:0:0:0:
192,192,102242,1,0,0:0:0:0:
448,192,102242,1,0,0:0:0:0:
64,192,102357,1,0,0:0:0:0:
320,192,102357,1,0,0:0:0:0:
192,192,102471,1,0,0:0:0:0:
448,192,102471,1,0,0:0:0:0:
64,192,102585,1,0,0:0:0:0:
320,192,102585,1,0,0:0:0:0:
192,192,102700,1,0,0:0:0:0:
448,192,102700,1,0,0:0:0:0:
64,192,102814,1,0,0:0:0:0:
320,192,102814,1,0,0:0:0:0:
192,192,102928,1,0,0:0:0:0:
448,192,102928,1,0,0:0:0:0:
64,192,103042,1,0,0:0:0:0:
320,192,103042,1,0,0:0:0:0:
192,192,103157,1,0,0:0:0:0:
448,192,103157,1,0,0:0:0:0:
64,192,103271,1,0,0:0:0:0:
320,192,103271,1,0,0:0:0:0:
192,192,104642,1,0,0:0:0:0:
320,192,104642,1,0,0:0:0:0:
320,192,104985,1,0,0:0:0:0:
448,192,104985,1,0,0:0:0:0:
192,192,105100,1,0,0:0:0:0:
320,192,105100,1,0,0:0:0:0:
64,192,105214,1,0,0:0:0:0:
192,192,105214,1,0,0:0:0:0:
192,192,105328,1,0,0:0:0:0:
448,192,105328,1,0,0:0:0:0:
320,192,105442,1,0,0:0:0:0:
192,192,105442,1,0,0:0:0:0:
64,192,105557,1,0,0:0:0:0:
192,192,105557,1,0,0:0:0:0:
192,192,105671,1,0,0:0:0:0:
320,192,105671,1,0,0:0:0:0:
448,192,105757,128,0,106014:0:0:0:0:
64,192,105842,1,0,0:0:0:0:
64,192,106014,128,0,106357:0:0:0:0:
192,192,106014,1,0,0:0:0:0:
320,192,106014,1,0,0:0:0:0:
320,192,106185,1,0,0:0:0:0:
192,192,106357,128,0,106700:0:0:0:0:
320,192,106357,1,0,0:0:0:0:
448,192,106357,1,0,0:0:0:0:
448,192,106528,1,0,0:0:0:0:
64,192,106614,1,0,0:0:0:0:
320,192,106700,128,0,107042:0:0:0:0:
64,192,106700,1,0,0:0:0:0:
448,192,106700,1,0,0:0:0:0:
448,192,106871,1,0,0:0:0:0:
64,192,107042,1,0,0:0:0:0:
192,192,107042,1,0,0:0:0:0:
192,192,107214,1,0,0:0:0:0:
448,192,107300,128,0,107385:0:0:0:0:
64,192,107300,1,0,0:0:0:0:
320,192,107385,128,0,107642:0:0:0:0:
64,192,107385,1,0,0:0:0:0:
192,192,107385,1,0,0:0:0:0:
64,192,107557,1,0,0:0:0:0:
192,192,107642,128,0,107728:0:0:0:0:
448,192,107642,1,0,0:0:0:0:
448,192,107728,128,0,107985:0:0:0:0:
64,192,107728,1,0,0:0:0:0:
320,192,107728,1,0,0:0:0:0:
64,192,107900,1,0,0:0:0:0:
192,192,107985,128,0,108071:0:0:0:0:
320,192,107985,1,0,0:0:0:0:
320,192,108071,128,0,108414:0:0:0:0:
64,192,108071,1,0,0:0:0:0:
448,192,108071,1,0,0:0:0:0:
64,192,108242,1,0,0:0:0:0:
192,192,108328,1,0,0:0:0:0:
448,192,108414,1,0,0:0:0:0:
64,192,108414,1,0,0:0:0:0:
320,192,108585,1,0,0:0:0:0:
192,192,108671,128,0,108757:0:0:0:0:
448,192,108671,1,0,0:0:0:0:
64,192,108757,128,0,109014:0:0:0:0:
320,192,108757,1,0,0:0:0:0:
448,192,108928,1,0,0:0:0:0:
320,192,109014,128,0,109100:0:0:0:0:
192,192,109014,1,0,0:0:0:0:
192,192,109100,128,0,109357:0:0:0:0:
448,192,109100,1,0,0:0:0:0:
64,192,109100,1,0,0:0:0:0:
448,192,109271,1,0,0:0:0:0:
320,192,109357,128,0,109442:0:0:0:0:
64,192,109357,1,0,0:0:0:0:
64,192,109442,128,0,109785:0:0:0:0:
448,192,109442,1,0,0:0:0:0:
192,192,109442,1,0,0:0:0:0:
320,192,109614,1,0,0:0:0:0:
448,192,109785,128,0,110128:0:0:0:0:
192,192,109785,1,0,0:0:0:0:
320,192,109785,1,0,0:0:0:0:
192,192,109957,1,0,0:0:0:0:
320,192,110128,128,0,111500:0:0:0:0:
64,192,110128,1,0,0:0:0:0:
192,192,110128,1,0,0:0:0:0:
64,192,110300,1,0,0:0:0:0:
64,192,110471,1,0,0:0:0:0:
192,192,110471,1,0,0:0:0:0:
448,192,110642,1,0,0:0:0:0:
64,192,110814,1,0,0:0:0:0:
192,192,110814,1,0,0:0:0:0:
448,192,110985,1,0,0:0:0:0:
64,192,111157,1,0,0:0:0:0:
192,192,111157,1,0,0:0:0:0:
192,192,111328,1,0,0:0:0:0:
192,192,111500,128,0,111842:0:0:0:0:
64,192,111500,1,0,0:0:0:0:
448,192,111500,1,0,0:0:0:0:
448,192,111671,1,0,0:0:0:0:
320,192,111842,1,0,0:0:0:0:
448,192,111842,1,0,0:0:0:0:
64,192,112014,1,0,0:0:0:0:
320,192,112100,128,0,112185:0:0:0:0:
192,192,112100,1,0,0:0:0:0:
448,192,112185,128,0,112528:0:0:0:0:
64,192,112185,1,0,0:0:0:0:
192,192,112357,1,0,0:0:0:0:
192,192,112528,1,0,0:0:0:0:
320,192,112528,1,0,0:0:0:0:
64,192,112700,1,0,0:0:0:0:
448,192,112785,128,0,112871:0:0:0:0:
192,192,112785,1,0,0:0:0:0:
192,192,112871,128,0,113214:0:0:0:0:
320,192,112871,1,0,0:0:0:0:
64,192,112871,1,0,0:0:0:0:
320,192,113042,1,0,0:0:0:0:
448,192,113128,1,0,0:0:0:0:
320,192,113214,128,0,113471:0:0:0:0:
448,192,113214,1,0,0:0:0:0:
64,192,113214,1,0,0:0:0:0:
448,192,113385,1,0,0:0:0:0:
192,192,113471,128,0,113557:0:0:0:0:
64,192,113471,1,0,0:0:0:0:
448,192,113557,128,0,113900:0:0:0:0:
64,192,113557,1,0,0:0:0:0:
320,192,113557,1,0,0:0:0:0:
192,192,113728,1,0,0:0:0:0:
320,192,113814,1,0,0:0:0:0:
320,192,113900,128,0,114157:0:0:0:0:
64,192,113900,1,0,0:0:0:0:
192,192,113900,1,0,0:0:0:0:
192,192,114071,1,0,0:0:0:0:
64,192,114157,128,0,114242:0:0:0:0:
448,192,114157,1,0,0:0:0:0:
192,192,114242,128,0,114585:0:0:0:0:
320,192,114242,1,0,0:0:0:0:
448,192,114414,1,0,0:0:0:0:
320,192,114585,128,0,114928:0:0:0:0:
64,192,114585,1,0,0:0:0:0:
448,192,114585,1,0,0:0:0:0:
192,192,114757,1,0,0:0:0:0:
64,192,114842,1,0,0:0:0:0:
448,192,114928,128,0,115271:0:0:0:0:
192,192,114928,1,0,0:0:0:0:
192,192,115100,1,0,0:0:0:0:
64,192,115185,1,0,0:0:0:0:
320,192,115271,128,0,115614:0:0:0:0:
192,192,115271,1,0,0:0:0:0:
64,192,115442,1,0,0:0:0:0:
448,192,115528,1,0,0:0:0:0:
192,192,115614,128,0,116385:0:0:0:0:
64,192,115614,1,0,0:0:0:0:
320,192,115785,1,0,0:0:0:0:
320,192,115957,1,0,0:0:0:0:
448,192,115957,1,0,0:0:0:0:
64,192,116128,1,0,0:0:0:0:
320,192,116300,1,0,0:0:0:0:
448,192,116300,1,0,0:0:0:0:
320,192,116471,1,0,0:0:0:0:
448,192,116557,1,0,0:0:0:0:
64,192,116557,1,0,0:0:0:0:
64,192,116642,1,0,0:0:0:0:
320,192,116642,1,0,0:0:0:0:
320,192,116728,1,0,0:0:0:0:
192,192,116814,1,0,0:0:0:0:
448,192,116900,1,0,0:0:0:0:
64,192,116900,1,0,0:0:0:0:
64,192,116985,128,0,117328:0:0:0:0:
192,192,116985,1,0,0:0:0:0:
320,192,116985,1,0,0:0:0:0:
320,192,117157,1,0,0:0:0:0:
192,192,117328,128,0,117671:0:0:0:0:
320,192,117328,1,0,0:0:0:0:
448,192,117328,1,0,0:0:0:0:
448,192,117500,1,0,0:0:0:0:
64,192,117585,1,0,0:0:0:0:
320,192,117671,128,0,118014:0:0:0:0:
64,192,117671,1,0,0:0:0:0:
448,192,117671,1,0,0:0:0:0:
448,192,117842,1,0,0:0:0:0:
64,192,118014,1,0,0:0:0:0:
192,192,118014,1,0,0:0:0:0:
192,192,118185,1,0,0:0:0:0:
448,192,118271,128,0,118357:0:0:0:0:
64,192,118271,1,0,0:0:0:0:
320,192,118357,128,0,118614:0:0:0:0:
64,192,118357,1,0,0:0:0:0:
192,192,118357,1,0,0:0:0:0:
64,192,118528,1,0,0:0:0:0:
192,192,118614,128,0,118700:0:0:0:0:
448,192,118614,1,0,0:0:0:0:
448,192,118700,128,0,118957:0:0:0:0:
64,192,118700,1,0,0:0:0:0:
320,192,118700,1,0,0:0:0:0:
64,192,118871,1,0,0:0:0:0:
192,192,118957,128,0,119042:0:0:0:0:
320,192,118957,1,0,0:0:0:0:
320,192,119042,128,0,119385:0:0:0:0:
64,192,119042,1,0,0:0:0:0:
448,192,119042,1,0,0:0:0:0:
64,192,119214,1,0,0:0:0:0:
192,192,119300,1,0,0:0:0:0:
448,192,119385,1,0,0:0:0:0:
64,192,119385,1,0,0:0:0:0:
320,192,119557,1,0,0:0:0:0:
192,192,119642,128,0,119728:0:0:0:0:
448,192,119642,1,0,0:0:0:0:
64,192,119728,128,0,119985:0:0:0:0:
320,192,119728,1,0,0:0:0:0:
448,192,119900,1,0,0:0:0:0:
320,192,119985,128,0,120071:0:0:0:0:
192,192,119985,1,0,0:0:0:0:
192,192,120071,128,0,120328:0:0:0:0:
448,192,120071,1,0,0:0:0:0:
64,192,120071,1,0,0:0:0:0:
448,192,120242,1,0,0:0:0:0:
320,192,120328,128,0,120414:0:0:0:0:
64,192,120328,1,0,0:0:0:0:
64,192,120414,128,0,120757:0:0:0:0:
448,192,120414,1,0,0:0:0:0:
192,192,120414,1,0,0:0:0:0:
320,192,120585,1,0,0:0:0:0:
448,192,120757,128,0,121100:0:0:0:0:
192,192,120757,1,0,0:0:0:0:
320,192,120757,1,0,0:0:0:0:
192,192,120928,1,0,0:0:0:0:
320,192,121100,128,0,122471:0:0:0:0:
64,192,121100,1,0,0:0:0:0:
192,192,121100,1,0,0:0:0:0:
64,192,121271,1,0,0:0:0:0:
64,192,121442,1,0,0:0:0:0:
192,192,121442,1,0,0:0:0:0:
448,192,121614,1,0,0:0:0:0:
64,192,121785,1,0,0:0:0:0:
192,192,121785,1,0,0:0:0:0:
448,192,121785,128,0,122300:0:0:0:0:
192,192,121957,1,0,0:0:0:0:
64,192,122042,1,0,0:0:0:0:
192,192,122128,1,0,0:0:0:0:
64,192,122214,1,0,0:0:0:0:
192,192,122300,1,0,0:0:0:0:
64,192,122385,1,0,0:0:0:0:
192,192,122471,128,0,122814:0:0:0:0:
64,192,122471,1,0,0:0:0:0:
448,192,122471,1,0,0:0:0:0:
448,192,122642,1,0,0:0:0:0:
320,192,122814,1,0,0:0:0:0:
448,192,122814,1,0,0:0:0:0:
64,192,122985,1,0,0:0:0:0:
320,192,123071,128,0,123157:0:0:0:0:
192,192,123071,1,0,0:0:0:0:
448,192,123157,128,0,123500:0:0:0:0:
64,192,123157,1,0,0:0:0:0:
192,192,123328,1,0,0:0:0:0:
192,192,123500,1,0,0:0:0:0:
320,192,123500,1,0,0:0:0:0:
64,192,123671,1,0,0:0:0:0:
448,192,123757,128,0,123842:0:0:0:0:
192,192,123757,1,0,0:0:0:0:
192,192,123842,128,0,124185:0:0:0:0:
320,192,123842,1,0,0:0:0:0:
64,192,123842,1,0,0:0:0:0:
320,192,124014,1,0,0:0:0:0:
448,192,124100,1,0,0:0:0:0:
320,192,124185,128,0,124442:0:0:0:0:
448,192,124185,1,0,0:0:0:0:
64,192,124185,1,0,0:0:0:0:
448,192,124357,1,0,0:0:0:0:
192,192,124442,128,0,124528:0:0:0:0:
64,192,124442,1,0,0:0:0:0:
448,192,124528,128,0,124871:0:0:0:0:
64,192,124528,1,0,0:0:0:0:
320,192,124528,1,0,0:0:0:0:
192,192,124700,1,0,0:0:0:0:
320,192,124785,1,0,0:0:0:0:
320,192,124871,128,0,125128:0:0:0:0:
64,192,124871,1,0,0:0:0:0:
192,192,124871,1,0,0:0:0:0:
192,192,125042,1,0,0:0:0:0:
64,192,125128,128,0,125214:0:0:0:0:
448,192,125128,1,0,0:0:0:0:
192,192,125214,128,0,125557:0:0:0:0:
320,192,125214,1,0,0:0:0:0:
448,192,125385,1,0,0:0:0:0:
320,192,125557,128,0,125900:0:0:0:0:
64,192,125557,1,0,0:0:0:0:
448,192,125557,1,0,0:0:0:0:
192,192,125728,1,0,0:0:0:0:
64,192,125814,1,0,0:0:0:0:
448,192,125900,128,0,126242:0:0:0:0:
192,192,125900,1,0,0:0:0:0:
192,192,126071,1,0,0:0:0:0:
64,192,126157,1,0,0:0:0:0:
320,192,126242,128,0,126585:0:0:0:0:
192,192,126242,1,0,0:0:0:0:
64,192,126414,1,0,0:0:0:0:
192,192,126585,128,0,127957:0:0:0:0:
320,192,126928,1,0,0:0:0:0:
64,192,127271,1,0,0:0:0:0:
448,192,127614,1,0,0:0:0:0:
320,192,127957,1,0,0:0:0:0:
448,192,127957,1,0,0:0:0:0:
320,192,128300,1,0,0:0:0:0:
448,192,128300,1,0,0:0:0:0:
192,192,128642,1,0,0:0:0:0:
320,192,128642,1,0,0:0:0:0:
448,192,128642,1,0,0:0:0:0:
64,192,128985,1,0,0:0:0:0:
192,192,128985,1,0,0:0:0:0:
320,192,128985,1,0,0:0:0:0:
448,192,128985,1,0,0:0:0:0:
64,192,129328,1,0,0:0:0:0:
320,192,129328,1,0,0:0:0:0:
192,192,129328,1,0,0:0:0:0:
64,192,129671,1,0,0:0:0:0:
192,192,129671,1,0,0:0:0:0:
64,192,130014,1,0,0:0:0:0:
192,192,130014,1,0,0:0:0:0:
64,192,130357,1,0,0:0:0:0:
192,192,130357,1,0,0:0:0:0:
320,192,130357,1,0,0:0:0:0:
64,192,130700,1,0,0:0:0:0:
192,192,130700,1,0,0:0:0:0:
320,192,130700,1,0,0:0:0:0:
448,192,130700,1,0,0:0:0:0:
192,192,131042,1,0,0:0:0:0:
320,192,131042,1,0,0:0:0:0:
448,192,131042,1,0,0:0:0:0:
320,192,131385,1,0,0:0:0:0:
448,192,131385,1,0,0:0:0:0:
320,192,131728,1,0,0:0:0:0:
448,192,131728,1,0,0:0:0:0:
192,192,132071,1,0,0:0:0:0:
320,192,132071,1,0,0:0:0:0:
448,192,132071,1,0,0:0:0:0:
64,192,132414,1,0,0:0:0:0:
192,192,132414,1,0,0:0:0:0:
448,192,132414,1,0,0:0:0:0:
320,192,132414,1,0,0:0:0:0:
64,192,132757,1,0,0:0:0:0:
192,192,132757,1,0,0:0:0:0:
320,192,132757,1,0,0:0:0:0:
64,192,133100,1,0,0:0:0:0:
192,192,133100,1,0,0:0:0:0:
64,192,133442,1,0,0:0:0:0:
192,192,133442,1,0,0:0:0:0:
320,192,133614,1,0,0:0:0:0:
448,192,133614,1,0,0:0:0:0:
64,192,133785,1,0,0:0:0:0:
192,192,133785,1,0,0:0:0:0:
320,192,133957,1,0,0:0:0:0:
448,192,133957,1,0,0:0:0:0:
64,192,134128,1,0,0:0:0:0:
192,192,134128,1,0,0:0:0:0:
320,192,134300,1,0,0:0:0:0:
448,192,134300,1,0,0:0:0:0:
64,192,134471,1,0,0:0:0:0:
192,192,134471,1,0,0:0:0:0:
320,192,134642,1,0,0:0:0:0:
448,192,134642,1,0,0:0:0:0:
64,192,134814,1,0,0:0:0:0:
192,192,134814,1,0,0:0:0:0:
320,192,134985,1,0,0:0:0:0:
448,192,134985,1,0,0:0:0:0:
64,192,135157,1,0,0:0:0:0:
192,192,135157,1,0,0:0:0:0:
320,192,135328,1,0,0:0:0:0:
448,192,135328,1,0,0:0:0:0:
64,192,135500,1,0,0:0:0:0:
192,192,135500,1,0,0:0:0:0:
320,192,135671,1,0,0:0:0:0:
448,192,135671,1,0,0:0:0:0:
64,192,135842,1,0,0:0:0:0:
192,192,135842,1,0,0:0:0:0:
320,192,136014,1,0,0:0:0:0:
448,192,136014,1,0,0:0:0:0:
320,192,138585,1,0,0:0:0:0:
448,192,138585,1,0,0:0:0:0:
192,192,138671,1,0,0:0:0:0:
64,192,138757,1,0,0:0:0:0:
320,192,138757,1,0,0:0:0:0:
192,192,138928,1,0,0:0:0:0:
320,192,138928,1,0,0:0:0:0:
448,192,139271,128,0,139528:0:0:0:0:
64,192,139271,1,0,0:0:0:0:
320,192,139271,1,0,0:0:0:0:
192,192,139357,1,0,0:0:0:0:
320,192,139442,1,0,0:0:0:0:
64,192,139528,1,0,0:0:0:0:
448,192,139614,128,0,139871:0:0:0:0:
192,192,139614,1,0,0:0:0:0:
320,192,139614,1,0,0:0:0:0:
320,192,139700,1,0,0:0:0:0:
64,192,139785,1,0,0:0:0:0:
320,192,139871,1,0,0:0:0:0:
448,192,139957,128,0,140214:0:0:0:0:
64,192,139957,1,0,0:0:0:0:
192,192,139957,1,0,0:0:0:0:
64,192,140042,1,0,0:0:0:0:
320,192,140128,1,0,0:0:0:0:
64,192,140214,1,0,0:0:0:0:
448,192,140300,128,0,140557:0:0:0:0:
192,192,140300,1,0,0:0:0:0:
320,192,140300,1,0,0:0:0:0:
320,192,140385,1,0,0:0:0:0:
64,192,140471,1,0,0:0:0:0:
320,192,140557,1,0,0:0:0:0:
448,192,140642,128,0,140900:0:0:0:0:
64,192,140642,1,0,0:0:0:0:
192,192,140642,1,0,0:0:0:0:
64,192,140728,1,0,0:0:0:0:
320,192,140814,1,0,0:0:0:0:
64,192,140900,1,0,0:0:0:0:
448,192,140985,128,0,141242:0:0:0:0:
192,192,140985,1,0,0:0:0:0:
320,192,140985,1,0,0:0:0:0:
320,192,141071,1,0,0:0:0:0:
64,192,141157,1,0,0:0:0:0:
320,192,141242,1,0,0:0:0:0:
448,192,141328,128,0,141585:0:0:0:0:
64,192,141328,1,0,0:0:0:0:
192,192,141328,1,0,0:0:0:0:
192,192,141414,1,0,0:0:0:0:
320,192,141500,1,0,0:0:0:0:
64,192,141585,1,0,0:0:0:0:
448,192,141671,128,0,141928:0:0:0:0:
192,192,141671,128,0,141928:0:0:0:0:
320,192,141671,1,0,0:0:0:0:
64,192,141671,1,0,0:0:0:0:
320,192,141757,1,0,0:0:0:0:
64,192,141842,1,0,0:0:0:0:
64,192,141928,1,0,0:0:0:0:
192,192,142014,128,0,142271:0:0:0:0:
448,192,142014,128,0,142271:0:0:0:0:
320,192,142014,1,0,0:0:0:0:
320,192,142100,1,0,0:0:0:0:
64,192,142185,1,0,0:0:0:0:
320,192,142271,1,0,0:0:0:0:
192,192,142357,128,0,142614:0:0:0:0:
448,192,142357,128,0,142614:0:0:0:0:
64,192,142357,1,0,0:0:0:0:
320,192,142357,1,0,0:0:0:0:
320,192,142442,1,0,0:0:0:0:
64,192,142528,1,0,0:0:0:0:
320,192,142614,1,0,0:0:0:0:
192,192,142700,128,0,142957:0:0:0:0:
448,192,142700,128,0,142957:0:0:0:0:
64,192,142700,1,0,0:0:0:0:
64,192,142785,1,0,0:0:0:0:
320,192,142871,1,0,0:0:0:0:
64,192,142957,1,0,0:0:0:0:
192,192,143042,128,0,143300:0:0:0:0:
448,192,143042,128,0,143300:0:0:0:0:
320,192,143042,1,0,0:0:0:0:
320,192,143128,1,0,0:0:0:0:
64,192,143214,1,0,0:0:0:0:
320,192,143300,1,0,0:0:0:0:
192,192,143385,128,0,143642:0:0:0:0:
448,192,143385,128,0,143642:0:0:0:0:
64,192,143385,1,0,0:0:0:0:
320,192,143385,1,0,0:0:0:0:
64,192,143471,1,0,0:0:0:0:
320,192,143557,1,0,0:0:0:0:
64,192,143642,1,0,0:0:0:0:
192,192,143728,128,0,143985:0:0:0:0:
448,192,143728,128,0,143985:0:0:0:0:
64,192,143728,1,0,0:0:0:0:
320,192,143814,1,0,0:0:0:0:
320,192,143900,1,0,0:0:0:0:
64,192,143985,1,0,0:0:0:0:
192,192,144071,128,0,144328:0:0:0:0:
448,192,144071,128,0,144328:0:0:0:0:
320,192,144071,1,0,0:0:0:0:
320,192,144157,1,0,0:0:0:0:
64,192,144157,1,0,0:0:0:0:
64,192,144242,1,0,0:0:0:0:
320,192,144328,1,0,0:0:0:0:
192,192,144414,128,0,144671:0:0:0:0:
448,192,144414,128,0,144671:0:0:0:0:
64,192,144414,1,0,0:0:0:0:
320,192,144414,1,0,0:0:0:0:
64,192,144500,1,0,0:0:0:0:
320,192,144585,1,0,0:0:0:0:
320,192,144671,1,0,0:0:0:0:
192,192,144757,128,0,145014:0:0:0:0:
448,192,144757,128,0,145014:0:0:0:0:
64,192,144757,1,0,0:0:0:0:
320,192,144842,1,0,0:0:0:0:
320,192,144928,1,0,0:0:0:0:
64,192,145014,1,0,0:0:0:0:
192,192,145100,128,0,145357:0:0:0:0:
448,192,145100,128,0,145357:0:0:0:0:
320,192,145100,1,0,0:0:0:0:
320,192,145185,1,0,0:0:0:0:
64,192,145271,1,0,0:0:0:0:
320,192,145357,1,0,0:0:0:0:
192,192,145442,128,0,145700:0:0:0:0:
448,192,145442,128,0,145700:0:0:0:0:
64,192,145442,1,0,0:0:0:0:
320,192,145442,1,0,0:0:0:0:
64,192,145528,1,0,0:0:0:0:
320,192,145614,1,0,0:0:0:0:
320,192,145700,1,0,0:0:0:0:
192,192,145785,128,0,146042:0:0:0:0:
448,192,145785,128,0,146042:0:0:0:0:
64,192,145785,1,0,0:0:0:0:
320,192,145871,1,0,0:0:0:0:
64,192,145957,1,0,0:0:0:0:
320,192,146042,1,0,0:0:0:0:
192,192,146128,128,0,146385:0:0:0:0:
448,192,146128,128,0,146385:0:0:0:0:
320,192,146128,1,0,0:0:0:0:
64,192,146214,1,0,0:0:0:0:
320,192,146300,1,0,0:0:0:0:
64,192,146385,1,0,0:0:0:0:
192,192,146471,128,0,146728:0:0:0:0:
448,192,146471,128,0,146728:0:0:0:0:
64,192,146471,1,0,0:0:0:0:
320,192,146471,1,0,0:0:0:0:
320,192,146557,1,0,0:0:0:0:
64,192,146642,1,0,0:0:0:0:
64,192,146728,1,0,0:0:0:0:
448,192,146814,128,0,147071:0:0:0:0:
320,192,146814,1,0,0:0:0:0:
64,192,146814,1,0,0:0:0:0:
192,192,146900,1,0,0:0:0:0:
64,192,146985,1,0,0:0:0:0:
320,192,146985,1,0,0:0:0:0:
192,192,147071,1,0,0:0:0:0:
64,192,147157,1,0,0:0:0:0:
320,192,147157,1,0,0:0:0:0:
192,192,147242,1,0,0:0:0:0:
448,192,147242,1,0,0:0:0:0:
320,192,147328,1,0,0:0:0:0:
64,192,147328,1,0,0:0:0:0:
448,192,147414,1,0,0:0:0:0:
192,192,147414,1,0,0:0:0:0:
320,192,147500,1,0,0:0:0:0:
64,192,147585,1,0,0:0:0:0:
448,192,147585,1,0,0:0:0:0:
320,192,147585,1,0,0:0:0:0:
192,192,147671,1,0,0:0:0:0:
320,192,147757,1,0,0:0:0:0:
64,192,147757,1,0,0:0:0:0:
448,192,147842,1,0,0:0:0:0:
192,192,147842,1,0,0:0:0:0:
64,192,147928,1,0,0:0:0:0:
320,192,147928,1,0,0:0:0:0:
192,192,148014,1,0,0:0:0:0:
448,192,148014,1,0,0:0:0:0:
64,192,148100,1,0,0:0:0:0:
320,192,148100,1,0,0:0:0:0:
192,192,148185,1,0,0:0:0:0:
448,192,148185,1,0,0:0:0:0:
64,192,148271,1,0,0:0:0:0:
320,192,148271,1,0,0:0:0:0:
192,192,148357,1,0,0:0:0:0:
448,192,148357,1,0,0:0:0:0:
320,192,148442,1,0,0:0:0:0:
448,192,148442,1,0,0:0:0:0:
192,192,148528,1,0,0:0:0:0:
320,192,148528,1,0,0:0:0:0:
64,192,148614,1,0,0:0:0:0:
192,192,148614,1,0,0:0:0:0:
192,192,148700,1,0,0:0:0:0:
320,192,148700,1,0,0:0:0:0:
320,192,148785,1,0,0:0:0:0:
448,192,148785,1,0,0:0:0:0:
192,192,148871,1,0,0:0:0:0:
320,192,148871,1,0,0:0:0:0:
64,192,148957,1,0,0:0:0:0:
192,192,148957,1,0,0:0:0:0:
320,192,149042,1,0,0:0:0:0:
448,192,149042,1,0,0:0:0:0:
192,192,149128,1,0,0:0:0:0:
320,192,149128,1,0,0:0:0:0:
64,192,149214,1,0,0:0:0:0:
192,192,149214,1,0,0:0:0:0:
320,192,149300,1,0,0:0:0:0:
448,192,149300,1,0,0:0:0:0:
320,192,149385,1,0,0:0:0:0:
192,192,149385,1,0,0:0:0:0:
64,192,149471,1,0,0:0:0:0:
192,192,149471,1,0,0:0:0:0:
320,192,149557,1,0,0:0:0:0:
448,192,149557,1,0,0:0:0:0:
192,192,149642,1,0,0:0:0:0:
320,192,149642,1,0,0:0:0:0:
64,192,149728,1,0,0:0:0:0:
192,192,149728,1,0,0:0:0:0:
320,192,149814,1,0,0:0:0:0:
448,192,149814,1,0,0:0:0:0:
192,192,149814,128,0,150157:0:0:0:0:
64,192,150242,128,0,150500:0:0:0:0:
448,192,150242,1,0,0:0:0:0:
192,192,150242,1,0,0:0:0:0:
320,192,150328,1,0,0:0:0:0:
192,192,150414,1,0,0:0:0:0:
448,192,150500,1,0,0:0:0:0:
64,192,150585,128,0,150842:0:0:0:0:
320,192,150585,1,0,0:0:0:0:
192,192,150585,1,0,0:0:0:0:
192,192,150671,1,0,0:0:0:0:
448,192,150757,1,0,0:0:0:0:
192,192,150842,1,0,0:0:0:0:
64,192,150928,128,0,151185:0:0:0:0:
448,192,150928,1,0,0:0:0:0:
320,192,150928,1,0,0:0:0:0:
448,192,151014,1,0,0:0:0:0:
192,192,151100,1,0,0:0:0:0:
448,192,151185,1,0,0:0:0:0:
64,192,151271,128,0,151528:0:0:0:0:
320,192,151271,1,0,0:0:0:0:
192,192,151271,1,0,0:0:0:0:
192,192,151357,1,0,0:0:0:0:
448,192,151442,1,0,0:0:0:0:
192,192,151528,1,0,0:0:0:0:
64,192,151614,128,0,151871:0:0:0:0:
448,192,151614,1,0,0:0:0:0:
320,192,151614,1,0,0:0:0:0:
448,192,151700,1,0,0:0:0:0:
192,192,151785,1,0,0:0:0:0:
448,192,151871,1,0,0:0:0:0:
64,192,151957,128,0,152214:0:0:0:0:
320,192,151957,1,0,0:0:0:0:
192,192,151957,1,0,0:0:0:0:
192,192,152042,1,0,0:0:0:0:
448,192,152128,1,0,0:0:0:0:
192,192,152214,1,0,0:0:0:0:
64,192,152300,128,0,152557:0:0:0:0:
448,192,152300,1,0,0:0:0:0:
320,192,152300,1,0,0:0:0:0:
320,192,152385,1,0,0:0:0:0:
192,192,152471,1,0,0:0:0:0:
448,192,152557,1,0,0:0:0:0:
64,192,152642,128,0,152900:0:0:0:0:
192,192,152642,1,0,0:0:0:0:
448,192,152642,1,0,0:0:0:0:
320,192,152728,1,0,0:0:0:0:
448,192,152814,1,0,0:0:0:0:
320,192,152900,1,0,0:0:0:0:
320,192,152985,128,0,153242:0:0:0:0:
64,192,152985,128,0,153242:0:0:0:0:
192,192,152985,1,0,0:0:0:0:
192,192,153071,1,0,0:0:0:0:
448,192,153157,1,0,0:0:0:0:
192,192,153242,1,0,0:0:0:0:
320,192,153328,128,0,153585:0:0:0:0:
64,192,153328,128,0,153585:0:0:0:0:
448,192,153328,1,0,0:0:0:0:
192,192,153328,1,0,0:0:0:0:
192,192,153414,1,0,0:0:0:0:
448,192,153500,1,0,0:0:0:0:
192,192,153585,1,0,0:0:0:0:
320,192,153671,128,0,153928:0:0:0:0:
64,192,153671,128,0,153928:0:0:0:0:
448,192,153671,1,0,0:0:0:0:
448,192,153757,1,0,0:0:0:0:
192,192,153842,1,0,0:0:0:0:
448,192,153928,1,0,0:0:0:0:
320,192,154014,128,0,154271:0:0:0:0:
64,192,154014,128,0,154271:0:0:0:0:
192,192,154014,1,0,0:0:0:0:
192,192,154100,1,0,0:0:0:0:
448,192,154185,1,0,0:0:0:0:
192,192,154271,1,0,0:0:0:0:
320,192,154357,128,0,154614:0:0:0:0:
64,192,154357,128,0,154614:0:0:0:0:
448,192,154357,1,0,0:0:0:0:
192,192,154357,1,0,0:0:0:0:
448,192,154442,1,0,0:0:0:0:
192,192,154528,1,0,0:0:0:0:
448,192,154614,1,0,0:0:0:0:
320,192,154700,128,0,154957:0:0:0:0:
64,192,154700,128,0,154957:0:0:0:0:
448,192,154700,1,0,0:0:0:0:
192,192,154785,1,0,0:0:0:0:
192,192,154871,1,0,0:0:0:0:
448,192,154957,1,0,0:0:0:0:
320,192,155042,128,0,155300:0:0:0:0:
64,192,155042,128,0,155300:0:0:0:0:
192,192,155042,1,0,0:0:0:0:
192,192,155128,1,0,0:0:0:0:
448,192,155128,1,0,0:0:0:0:
448,192,155214,1,0,0:0:0:0:
192,192,155300,1,0,0:0:0:0:
320,192,155385,128,0,155642:0:0:0:0:
64,192,155385,128,0,155642:0:0:0:0:
448,192,155385,1,0,0:0:0:0:
192,192,155385,1,0,0:0:0:0:
448,192,155471,1,0,0:0:0:0:
192,192,155557,1,0,0:0:0:0:
192,192,155642,1,0,0:0:0:0:
320,192,155728,128,0,155985:0:0:0:0:
64,192,155728,128,0,155985:0:0:0:0:
448,192,155728,1,0,0:0:0:0:
192,192,155814,1,0,0:0:0:0:
192,192,155900,1,0,0:0:0:0:
448,192,155985,1,0,0:0:0:0:
320,192,156071,128,0,156328:0:0:0:0:
64,192,156071,128,0,156328:0:0:0:0:
192,192,156071,1,0,0:0:0:0:
192,192,156157,1,0,0:0:0:0:
448,192,156242,1,0,0:0:0:0:
192,192,156328,1,0,0:0:0:0:
320,192,156414,128,0,156671:0:0:0:0:
64,192,156414,128,0,156671:0:0:0:0:
448,192,156414,1,0,0:0:0:0:
192,192,156414,1,0,0:0:0:0:
448,192,156500,1,0,0:0:0:0:
192,192,156585,1,0,0:0:0:0:
192,192,156671,1,0,0:0:0:0:
320,192,156757,128,0,157014:0:0:0:0:
64,192,156757,128,0,157014:0:0:0:0:
448,192,156757,1,0,0:0:0:0:
192,192,156842,1,0,0:0:0:0:
448,192,156928,1,0,0:0:0:0:
192,192,157014,1,0,0:0:0:0:
320,192,157100,128,0,157357:0:0:0:0:
64,192,157100,128,0,157357:0:0:0:0:
192,192,157100,1,0,0:0:0:0:
448,192,157185,1,0,0:0:0:0:
192,192,157271,1,0,0:0:0:0:
448,192,157357,1,0,0:0:0:0:
320,192,157442,128,0,157700:0:0:0:0:
64,192,157442,128,0,157700:0:0:0:0:
448,192,157442,1,0,0:0:0:0:
192,192,157442,1,0,0:0:0:0:
192,192,157528,1,0,0:0:0:0:
448,192,157614,1,0,0:0:0:0:
448,192,157700,1,0,0:0:0:0:
192,192,157785,128,0,158042:0:0:0:0:
320,192,158128,128,0,158214:0:0:0:0:
448,192,158385,128,0,159500:0:0:0:0:
320,192,159500,128,0,159671:0:0:0:0:
192,192,159842,128,0,160871:0:0:0:0:
320,192,160871,128,0,161214:0:0:0:0:
448,192,160871,128,0,161214:0:0:0:0:
192,192,161214,128,0,162242:0:0:0:0:
320,192,162242,128,0,162328:0:0:0:0:
320,192,162585,128,0,163614:0:0:0:0:
192,192,163614,128,0,163871:0:0:0:0:
448,192,163614,128,0,164300:0:0:0:0:
64,192,164300,128,0,164642:0:0:0:0:
192,192,164642,128,0,164728:0:0:0:0:
448,192,164985,128,0,165328:0:0:0:0:
192,192,165500,128,0,165671:0:0:0:0:
448,192,165842,128,0,166014:0:0:0:0:
192,192,166357,128,0,166528:0:0:0:0:
448,192,166700,128,0,166957:0:0:0:0:
192,192,167128,128,0,167385:0:0:0:0:
448,192,167600,128,0,167771:0:0:0:0:
64,192,167728,128,0,169357:0:0:0:0:
192,192,167728,128,0,168071:0:0:0:0:
320,192,167985,1,0,0:0:0:0:
448,192,168028,1,0,0:0:0:0:
320,192,169442,1,0,0:0:0:0:
320,192,169527,1,0,0:0:0:0:
320,192,169656,1,0,0:0:0:0:
320,192,169827,1,0,0:0:0:0:
320,192,170084,1,0,0:0:0:0:
320,192,170512,1,0,0:0:0:0:
320,192,171070,1,0,0:0:0:0:
320,192,171755,128,0,175934:0:0:0:0:
