osu file format v14

[General]
AudioFilename: audio.mp3
AudioLeadIn: 0
PreviewTime: 54027
Countdown: 0
SampleSet: None
StackLeniency: 0.4
Mode: 0
LetterboxInBreaks: 0
WidescreenStoryboard: 1

[Editor]
Bookmarks: 9799,152830,328372,437744,547801,646544,822087,963627,1172084,1399971,1704428,1814143,1918371,2028278,2224827,2344141,2442884,2632141
DistanceSpacing: 1.2
BeatDivisor: 4
GridSize: 16
TimelineZoom: 2.1

[Metadata]
Title:S3RL Presently Presents (First Half)
TitleUnicode:S3RL Presently Presents (First Half)
Artist:S3RL
ArtistUnicode:S3RL
Creator:olteR
Version:Tell Me What You Want
Source:
Tags:
BeatmapID:4053813
BeatmapSetID:526385

[Difficulty]
HPDrainRate:4
CircleSize:4
OverallDifficulty:8
ApproachRate:9.2
SliderMultiplier:2
SliderTickRate:1

[Events]
//Background and Video events
0,0,"bg.jpg",0,0
//Break Periods
//Storyboard Layer 0 (Background)
//Storyboard Layer 1 (Fail)
//Storyboard Layer 2 (Pass)
//Storyboard Layer 3 (Foreground)
//Storyboard Layer 4 (Overlay)
//Storyboard Sound Samples

[TimingPoints]
9800,342.857142857143,4,3,0,70,1,0
10142,342.857142857143,4,1,0,70,1,0
10142,-100,4,1,0,70,0,0
14257,-100,4,3,0,70,0,0
14942,-100,4,2,0,70,0,0
15628,-100,4,3,0,70,0,0
17685,-100,4,2,0,70,0,0
21114,-100,4,1,0,70,0,0
25228,-66.6666666666667,4,2,0,70,0,0
26600,-100,4,1,0,70,0,0
32084,-133.333333333333,4,1,0,70,0,0
36200,-100,4,1,0,70,0,0
37914,-133.333333333333,4,1,0,70,0,0
38942,-200,4,1,0,70,0,0
43057,-100,4,3,0,70,0,0
45799,-133.333333333333,4,3,0,70,0,0
48884,-100,4,3,0,70,0,0
49227,-80,4,3,0,70,0,0
49570,-66.6666666666667,4,3,0,70,0,0
49913,-100,4,3,0,70,0,0
54027,-100,4,2,0,80,0,0
58656,-200,4,2,0,80,0,0
59513,-100,4,2,0,70,0,0
63627,-200,4,2,0,70,0,0
64999,-100,4,1,0,70,0,0
66370,-133.333333333333,4,3,0,70,0,0
67742,-100,4,1,0,70,0,0
73227,-100,4,2,0,70,0,0
75627,-100,4,3,0,70,0,0
75970,-100,4,1,0,70,0,0
77342,-133.333333333333,4,2,0,60,0,0
78370,-100,4,1,0,70,0,0
80084,-133.333333333333,4,2,0,60,0,0
81456,-100,4,1,0,70,0,0
85570,-200,4,2,0,70,0,0
86599,-200,4,3,0,70,0,0
86942,-100,4,1,0,70,0,0
91056,-100,4,2,0,60,0,0
91742,-133.333333333333,4,2,0,60,0,0
92427,-100,4,1,0,70,0,0
100313,-100,4,3,0,70,0,0
100827,-100,4,1,0,70,0,0
102027,-100,4,2,0,70,0,0
103570,-100,4,1,0,70,0,0
110599,-133.333333333333,4,1,0,60,0,0
110942,-200,4,1,0,50,0,0
117113,-133.333333333333,4,1,0,50,0,0
122599,-100,4,1,0,70,0,0
124999,-200,4,1,0,50,0,0
125342,-100,4,1,0,70,0,0
130827,-100,4,3,0,70,0,0
133570,-133.333333333333,4,2,0,70,0,0
136484,-133.333333333333,4,3,0,70,0,0
137342,-100,4,3,0,70,0,0
145313,-100,4,2,0,70,0,0
145913,-100,4,2,0,60,0,0
146599,-100,4,2,0,50,0,0
147284,-100,4,2,0,40,0,0
152830,342.857142857143,4,2,0,70,1,0
154887,-133.333333333333,4,2,0,70,0,0
155572,-100,4,2,0,70,0,0
157630,-133.333333333333,4,2,0,70,0,0
158315,-100,4,2,0,70,0,0
160372,-133.333333333333,4,2,0,70,0,0
161058,-100,4,2,0,70,0,0
163115,-133.333333333333,4,2,0,70,0,0
163801,-100,4,1,0,70,0,0
173401,-200,4,2,0,70,0,0
174772,-100,4,3,0,80,0,1
183001,-100,4,1,0,80,0,1
184372,-133.333333333333,4,2,0,80,0,0
185572,-100,4,3,0,80,0,0
185744,-100,4,1,0,80,0,1
195344,-100,4,2,0,70,0,0
196715,-100,4,3,0,70,0,0
202372,-100,4,1,0,70,0,0
204944,-100,4,3,0,70,0,0
207344,-100,4,1,0,70,0,0
207687,-100,4,3,0,70,0,0
212487,-133.333333333333,4,3,0,70,0,0
213172,-100,4,3,0,70,0,0
217287,-133.333333333333,4,2,0,70,0,0
218658,-100,4,3,0,70,0,0
223458,-133.333333333333,4,3,0,70,0,0
225344,-100,4,3,0,70,0,0
228258,-133.333333333333,4,2,0,70,0,0
228601,-100,4,2,0,70,0,0
228944,-80,4,2,0,70,0,0
229630,-100,4,2,0,60,0,0
240601,-100,4,2,0,50,0,0
251572,-133.333333333333,4,2,0,70,0,0
262201,-100,4,1,0,70,0,0
267344,-133.333333333333,4,1,0,70,0,0
268030,-100,4,1,0,70,0,0
273515,-100,4,3,0,70,0,0
279001,-133.333333333333,4,3,0,70,0,0
283801,-66.6666666666667,4,2,0,70,0,0
284144,-100,4,1,0,70,0,0
284487,-100,4,3,0,80,0,1
295115,-100,4,3,0,80,0,0
295458,-100,4,1,0,80,0,1
306087,-100,4,2,0,50,0,0
306430,-100,4,1,0,80,0,1
317401,-100,4,3,0,80,0,1
323572,-100,4,3,0,75,0,1
324258,-100,4,3,0,70,0,1
324944,-100,4,3,0,65,0,1
325630,-100,4,3,0,60,0,1
326315,-100,4,3,0,55,0,1
327001,-100,4,3,0,50,0,1
327687,-66.6666666666667,4,2,0,70,0,0
328372,-133.333333333333,4,3,0,60,0,0
334201,-100,4,3,0,70,0,0
337115,-117.647058823529,4,3,0,60,0,0
337630,-142.857142857143,4,3,0,50,0,0
338144,-181.818181818182,4,3,0,40,0,0
338658,-133.333333333333,4,2,0,60,0,0
350315,-100,4,2,0,65,0,0
361287,-100,4,1,0,70,0,0
366601,-100,4,3,0,70,0,0
377744,-200,4,3,0,70,0,0
381858,-100,4,3,0,70,0,0
383230,-83.3333333333333,4,1,0,80,0,1
388715,-83.3333333333333,4,3,0,70,0,1
389058,-83.3333333333333,4,1,0,80,0,1
391458,-100,4,1,0,80,0,1
393515,-133.333333333333,4,1,0,80,0,1
394201,-83.3333333333333,4,1,0,80,0,1
399687,-200,4,2,0,40,0,1
400030,-83.3333333333333,4,1,0,80,0,1
403801,-133.333333333333,4,1,0,80,0,1
404487,-83.3333333333333,4,1,0,80,0,0
405172,-83.3333333333333,4,1,0,80,0,1
424887,-83.3333333333333,4,1,0,70,0,1
425744,-83.3333333333333,4,1,0,70,0,0
426944,-111.111111111111,4,1,0,70,0,0
429687,-111.111111111111,4,1,0,60,0,0
432601,-200,4,3,0,60,0,0
436715,-200,4,2,0,60,0,0
436887,-133.333333333333,4,2,0,60,0,0
437744,-142.857142857143,4,2,0,70,0,0
438430,-125,4,2,0,70,0,0
438944,-100,4,2,0,70,0,0
440315,-142.857142857143,4,2,0,70,0,0
440487,-125,4,2,0,70,0,0
440830,-111.111111111111,4,2,0,70,0,0
441687,-142.857142857143,4,2,0,70,0,0
443230,-125,4,2,0,70,0,0
443572,-111.111111111111,4,2,0,70,0,0
444601,-125,4,2,0,70,0,0
445972,-142.857142857143,4,2,0,70,0,0
447344,-125,4,2,0,70,0,0
447687,-111.111111111111,4,2,0,70,0,0
448715,-125,4,2,0,60,0,0
449401,-142.857142857143,4,2,0,60,0,0
449915,-111.111111111111,4,2,0,60,0,0
451287,-125,4,2,0,60,0,0
451458,-111.111111111111,4,2,0,60,0,0
451801,-100,4,2,0,60,0,0
452658,-111.111111111111,4,2,0,60,0,0
452830,-100,4,2,0,60,0,0
453172,-90.9090909090909,4,2,0,60,0,0
454544,-100,4,2,0,60,0,0
455572,-111.111111111111,4,2,0,60,0,0
456258,-142.857142857143,4,2,0,60,0,0
456944,-125,4,2,0,60,0,0
457630,-166.666666666667,4,2,0,60,0,0
458315,-142.857142857143,4,2,0,60,0,0
458658,-200,4,2,0,60,0,0
459687,-133.333333333333,4,2,0,60,0,0
481972,-100,4,1,0,70,0,0
498515,-100,4,1,0,40,0,0
498772,-100,4,1,0,45,0,0
499115,-100,4,1,0,50,0,0
499458,-100,4,1,0,55,0,0
499801,-100,4,1,0,60,0,0
500144,-100,4,1,0,60,0,0
500487,-100,4,1,0,70,0,0
500830,-100,4,1,0,75,0,0
501858,-100,4,1,0,70,0,0
503915,-100,4,1,0,80,0,1
513515,-111.111111111111,4,1,0,80,0,1
514544,-200,4,1,0,70,0,0
514887,-100,4,1,0,80,0,1
524487,-144.927536231884,4,2,0,70,0,0
525858,-100,4,1,0,80,0,1
535458,-111.111111111111,4,1,0,80,0,1
536487,-133.333333333333,4,1,0,80,0,1
536830,-100,4,1,0,80,0,1
547801,-100,4,1,0,70,0,0
553287,-133.333333333333,4,2,0,60,0,0
564258,-111.111111111111,4,2,0,70,0,0
569744,-111.111111111111,4,3,0,70,0,0
577630,-111.111111111111,4,1,0,70,0,0
577972,-90.0900900900901,4,1,0,80,0,1
588772,-90.0900900900901,4,1,0,80,0,0
588944,-90.0900900900901,4,1,0,80,0,1
598544,-200,4,1,0,70,0,0
599915,-100,4,1,0,80,0,1
602487,-83.3333333333333,4,1,0,80,0,1
603001,-100,4,1,0,80,0,1
605401,-83.3333333333333,4,1,0,80,0,1
605744,-100,4,1,0,80,0,1
606601,-83.3333333333333,4,1,0,80,0,1
607115,-100,4,1,0,80,0,1
607972,-111.111111111111,4,1,0,80,0,1
608487,-100,4,1,0,80,0,1
609515,-100,4,2,0,80,0,1
610372,-200,4,2,0,80,0,1
610887,-100,4,1,0,80,0,1
612087,-83.3333333333333,4,1,0,80,0,1
612601,-100,4,1,0,80,0,1
613458,-83.3333333333333,4,1,0,80,0,1
613972,-100,4,1,0,80,0,1
615172,-111.111111111111,4,1,0,80,0,1
615515,-125,4,1,0,80,0,1
615858,-142.857142857143,4,1,0,80,0,1
616372,-100,4,1,0,80,0,1
617572,-83.3333333333333,4,1,0,80,0,1
618087,-100,4,1,0,80,0,1
618944,-111.111111111111,4,1,0,80,0,1
619458,-100,4,1,0,80,0,1
620487,-100,4,1,0,70,0,0
632830,-133.333333333333,4,2,0,60,0,0
646544,-100,4,1,0,70,0,0
648944,-66.6666666666667,4,1,0,70,0,0
649287,-100,4,1,0,70,0,0
651687,-66.6666666666667,4,1,0,70,0,0
652030,-100,4,1,0,70,0,0
654430,-66.6666666666667,4,1,0,70,0,0
654772,-100,4,1,0,70,0,0
656144,-133.333333333333,4,1,0,70,0,0
657172,-66.6666666666667,4,1,0,70,0,0
657515,-100,4,1,0,70,0,0
659915,-66.6666666666667,4,1,0,70,0,0
660258,-100,4,1,0,70,0,0
662658,-66.6666666666667,4,1,0,70,0,0
663001,-100,4,1,0,70,0,0
665401,-66.6666666666667,4,1,0,70,0,0
665744,-100,4,1,0,70,0,0
667115,-133.333333333333,4,1,0,70,0,0
667801,-111.111111111111,4,2,0,70,0,0
684944,-125,4,2,0,70,0,0
687001,-142.857142857143,4,2,0,70,0,0
690087,-142.857142857143,4,1,0,70,0,0
690430,-111.111111111111,4,2,0,70,0,0
700030,-111.111111111111,4,1,0,70,0,0
700715,-200,4,2,0,70,0,0
701401,-100,4,1,0,80,0,1
712030,-83.3333333333333,4,1,0,80,0,1
713058,-100,4,1,0,80,0,1
713744,-83.3333333333333,4,1,0,80,0,1
714430,-100,4,1,0,80,0,1
715287,-83.3333333333333,4,1,0,80,0,1
715801,-100,4,1,0,80,0,1
716487,-83.3333333333333,4,1,0,80,0,1
717515,-200,4,1,0,70,0,1
718201,-100,4,1,0,80,0,1
721972,-125,4,1,0,80,0,1
722658,-166.666666666667,4,1,0,80,0,1
723001,-166.666666666667,4,1,0,80,0,0
723344,-100,4,1,0,80,0,1
732944,-133.333333333333,4,1,0,80,0,1
734230,-133.333333333333,4,1,0,80,0,0
734315,-100,4,1,0,80,0,1
743915,-133.333333333333,4,1,0,70,0,0
744601,-111.111111111111,4,2,0,70,0,0
769972,-100,4,2,0,70,0,0
772544,-90.9090909090909,4,2,0,70,0,0
775458,-111.111111111111,4,2,0,70,0,0
776830,-111.111111111111,4,1,0,70,0,0
777515,-200,4,2,0,70,0,0
778201,-100,4,1,0,80,0,1
786430,-133.333333333333,4,1,0,80,0,1
787030,-133.333333333333,4,3,0,80,0,1
788487,-133.333333333333,4,3,0,80,0,0
788658,-133.333333333333,4,1,0,80,0,0
789172,-83.3333333333333,4,1,0,80,0,1
790887,-66.6666666666667,4,1,0,80,0,1
791230,-83.3333333333333,4,1,0,80,0,1
793630,-66.6666666666667,4,1,0,80,0,1
793972,-83.3333333333333,4,1,0,80,0,1
796372,-66.6666666666667,4,1,0,80,0,1
796715,-83.3333333333333,4,1,0,80,0,1
798772,-66.6666666666667,4,1,0,80,0,1
799458,-66.6666666666667,4,1,0,80,0,0
800144,-83.3333333333333,4,1,0,80,0,1
804601,-66.6666666666667,4,1,0,80,0,1
805630,-83.3333333333333,4,1,0,80,0,1
809744,-83.3333333333333,4,1,0,80,0,0
810087,-66.6666666666667,4,1,0,80,0,0
810430,-55.5555555555556,4,1,0,80,0,0
810772,-55.5555555555556,4,3,0,80,0,0
811115,-100,4,1,0,80,0,1
819400,500,4,1,0,70,1,0
819900,-100,4,1,0,60,0,0
820538,681.818181818182,4,1,0,50,1,0
821219,1000,4,1,0,40,1,0
823969,389.61038961039,4,1,0,40,1,0
838828,342.857142857143,4,1,0,5,1,0
842942,342.857142857143,4,2,0,40,1,0
864884,-100,4,1,0,60,0,0
866084,-133.333333333333,4,1,0,60,0,0
866599,-100,4,1,0,60,0,0
868827,-133.333333333333,4,1,0,60,0,0
869342,-100,4,1,0,60,0,0
870027,-133.333333333333,4,1,0,60,0,0
870370,-100,4,1,0,60,0,0
871570,-133.333333333333,4,1,0,60,0,0
872084,-100,4,1,0,60,0,0
875856,-100,4,2,0,60,0,0
877227,-100,4,2,0,50,0,0
878599,-100,4,2,0,40,0,0
879456,-100,4,2,0,30,0,0
882713,-100,4,1,0,60,0,0
886827,-66.6666666666667,4,1,0,70,0,1
904999,-100,4,1,0,70,0,1
905342,-66.6666666666667,4,1,0,70,0,1
906027,-100,4,1,0,50,0,0
907399,-133.333333333333,4,3,0,20,0,0
908427,-133.333333333333,4,1,0,30,0,0
908770,-66.6666666666667,4,1,0,70,0,1
927970,-100,4,1,0,60,0,0
930713,-133.333333333333,4,1,0,40,0,0
933456,-100,4,3,0,40,0,0
936884,-100,4,3,0,45,0,0
937570,-100,4,3,0,50,0,0
938256,-100,4,3,0,55,0,0
938942,-100,4,3,0,60,0,0
946484,-133.333333333333,4,3,0,60,0,0
947170,-100,4,3,0,60,0,0
949227,-76.9230769230769,4,3,0,60,0,0
949913,-100,4,3,0,60,0,0
957627,-200,4,3,0,60,0,0
958142,-100,4,3,0,60,0,0
960542,-200,4,3,0,60,0,0
960884,-100,4,3,0,60,0,0
962256,-133.333333333333,4,2,0,20,0,0
962770,-133.333333333333,4,2,0,30,0,0
963199,-133.333333333333,4,2,0,40,0,0
963370,-133.333333333333,4,2,0,50,0,0
963627,-133.333333333333,4,2,0,60,0,0
973227,-200,4,3,0,30,0,0
973570,-133.333333333333,4,3,0,40,0,0
973913,-100,4,3,0,50,0,0
974598,-100,4,1,0,60,0,0
984199,-133.333333333333,4,1,0,60,0,0
985056,-100,4,3,0,60,0,0
987799,-100,4,3,0,40,0,0
987970,-100,4,3,0,50,0,0
988142,-100,4,3,0,60,0,0
989342,-100,4,3,0,50,0,0
989513,-100,4,3,0,40,0,0
989684,-100,4,3,0,60,0,0
993284,-100,4,3,0,40,0,0
993456,-100,4,3,0,50,0,0
993627,-100,4,3,0,60,0,0
995170,-133.333333333333,4,1,0,40,0,0
996199,-133.333333333333,4,3,0,40,0,0
996542,-83.3333333333333,4,3,0,70,0,1
1006142,-100,4,1,0,60,0,0
1006827,-200,4,1,0,40,0,0
1007513,-100,4,1,0,60,0,0
1015742,-100,4,2,0,40,0,0
1017113,-100,4,2,0,30,0,0
1018142,-100,4,2,0,20,0,0
1018484,-100,4,2,0,40,0,0
1020542,-80,4,2,0,40,0,0
1021913,-133.333333333333,4,2,0,40,0,0
1023970,-100,4,2,0,40,0,0
1024656,-151.515151515152,4,2,0,40,0,0
1026370,-100,4,2,0,40,0,0
1030142,-151.515151515152,4,2,0,40,0,0
1030484,-100,4,2,0,40,0,0
1037684,-59.1715976331361,4,2,0,40,0,0
1038370,-100,4,2,0,40,0,0
1038884,-66.6666666666667,4,2,0,40,0,0
1040427,-100,4,3,0,50,0,0
1043170,-100,4,3,0,55,0,0
1045913,-100,4,3,0,60,0,0
1048656,-100,4,3,0,65,0,0
1050027,-100,4,1,0,65,0,0
1051399,-83.3333333333333,4,3,0,70,0,1
1059627,-83.3333333333333,4,3,0,50,0,0
1060313,-83.3333333333333,4,3,0,30,0,0
1060999,-83.3333333333333,4,3,0,40,0,0
1061342,-83.3333333333333,4,3,0,50,0,0
1061684,-200,4,3,0,60,0,0
1062370,-83.3333333333333,4,3,0,70,0,1
1071970,-100,4,3,0,70,0,0
1072656,-100,4,1,0,60,0,0
1073342,-83.3333333333333,4,3,0,70,0,1
1081913,-83.3333333333333,4,3,0,60,0,1
1082427,-83.3333333333333,4,1,0,50,0,0
1082599,-83.3333333333333,4,1,0,30,0,0
1082942,-100,4,1,0,40,0,0
1083627,-100,4,1,0,60,0,0
1083799,-83.3333333333333,4,1,0,60,0,0
1084313,-83.3333333333333,4,1,0,70,0,1
1093913,-100,4,1,0,60,0,0
1094599,-200,4,1,0,40,0,0
1095284,-100,4,2,0,40,0,0
1095970,-83.3333333333333,4,2,0,40,0,0
1096656,-100,4,2,0,40,0,0
1097342,-83.3333333333333,4,2,0,40,0,0
1097684,-125,4,2,0,40,0,0
1098027,-100,4,2,0,40,0,0
1098370,-83.3333333333333,4,2,0,40,0,0
1099399,-100,4,2,0,40,0,0
1099742,-125,4,2,0,40,0,0
1100084,-83.3333333333333,4,2,0,40,0,0
1100427,-100,4,2,0,40,0,0
1101456,-83.3333333333333,4,2,0,40,0,0
1102142,-125,4,2,0,40,0,0
1102484,-111.111111111111,4,2,0,40,0,0
1102656,-99.9999999999999,4,2,0,40,0,0
1102827,-90.9090909090909,4,2,0,40,0,0
1102999,-83.3333333333333,4,2,0,40,0,0
1103513,-100,4,2,0,40,0,0
1104884,-125,4,2,0,40,0,0
1105227,-100,4,2,0,40,0,0
1105570,-83.3333333333333,4,2,0,40,0,0
1105913,-71.4285714285714,4,2,0,40,0,0
1106256,-100,4,2,0,40,0,0
1108313,-125,4,2,0,40,0,0
1108999,-100,4,2,0,40,0,0
1111056,-125,4,2,0,40,0,0
1111742,-100,4,2,0,40,0,0
1112770,-83.3333333333333,4,2,0,40,0,0
1112942,-125,4,2,0,40,0,0
1113113,-100,4,2,0,40,0,0
1116542,-83.3333333333333,4,2,0,40,0,0
1116884,-100,4,2,0,40,0,0
1117913,-83.3333333333333,4,2,0,40,0,0
1118942,-100,4,2,0,40,0,0
1120656,-83.3333333333333,4,2,0,40,0,0
1120999,-100,4,2,0,40,0,0
1122713,-100,4,3,0,50,0,0
1127170,-100,4,1,0,50,0,0
1128199,-83.3333333333333,4,1,0,70,0,1
1137113,-100,4,1,0,50,0,0
1137799,-100,4,1,0,30,0,0
1138484,-125,4,1,0,40,0,0
1138742,-100,4,1,0,50,0,0
1138999,-83.3333333333333,4,1,0,60,0,0
1139170,-83.3333333333333,4,1,0,70,0,1
1149627,-83.3333333333333,4,1,0,60,0,0
1150142,-83.3333333333333,4,1,0,70,0,1
1161113,-100,4,1,0,60,0,0
1171742,-100,4,3,0,60,0,0
1188542,-100,4,2,0,40,0,0
1194027,-200,4,2,0,50,0,0
1218713,-100,4,2,0,50,0,0
1237913,-133.333333333333,4,2,0,40,0,0
1240313,-133.333333333333,4,1,0,50,0,0
1262599,-100,4,1,0,60,0,0
1273570,-80,4,1,0,60,0,0
1279055,-200,4,1,0,60,0,0
1281799,-100,4,1,0,60,0,0
1284542,-80,4,1,0,70,0,1
1289342,-66.6666666666667,4,1,0,70,0,1
1289684,-133.333333333333,4,1,0,70,0,1
1290027,-80,4,1,0,70,0,1
1294142,-80,4,1,0,50,0,0
1295170,-80,4,1,0,70,0,0
1295513,-80,4,1,0,70,0,1
1300313,-66.6666666666667,4,1,0,70,0,1
1300656,-133.333333333333,4,1,0,70,0,1
1300999,-80,4,1,0,70,0,1
1305113,-80,4,3,0,50,0,0
1306484,-80,4,1,0,70,0,1
1325684,-80,4,3,0,70,0,0
1325770,-80,4,2,0,50,0,0
1331308,428.571428571429,4,3,0,50,1,0
1331522,454.545454545455,4,2,0,50,1,0
1331522,-133.333333333333,4,2,0,50,0,0
1333303,428.571428571429,4,2,0,50,1,0
1333303,-133.333333333333,4,2,0,50,0,0
1336713,410.958904109589,4,2,0,50,1,0
1336713,-133.333333333333,4,2,0,50,0,0
1339983,394.736842105263,4,2,0,50,1,0
1339983,-133.333333333333,4,2,0,50,0,0
1343130,384.615384615385,4,2,0,50,1,0
1343130,-133.333333333333,4,2,0,50,0,0
1346192,370.37037037037,4,2,0,50,1,0
1346192,-133.333333333333,4,2,0,50,0,0
1349141,357.142857142857,4,2,0,50,1,0
1349141,-133.333333333333,4,2,0,50,0,0
1350560,348.837209302326,4,3,0,60,1,0
1353343,342.857142857143,4,3,0,70,1,0
1353343,-133.333333333333,4,3,0,70,0,0
1356085,-80,4,1,0,70,0,1
1375285,-80,4,1,0,70,0,0
1377685,-80,4,3,0,70,0,0
1378028,-80,4,1,0,70,0,1
1382828,-66.6666666666667,4,1,0,70,0,1
1383171,-100,4,1,0,70,0,1
1383514,-80,4,1,0,70,0,1
1387628,-80,4,1,0,70,0,0
1389000,-100,4,1,0,70,0,1
1393800,-66.6666666666667,4,1,0,70,0,1
1394143,-100,4,1,0,70,0,1
1398600,-100,4,3,0,70,0,0
1399971,-100,4,2,0,60,0,0
1408714,-100,4,1,0,60,0,0
1409743,-100,4,2,0,60,0,0
1414885,-66.6666666666667,4,2,0,60,0,0
1416085,-100,4,2,0,60,0,0
1419685,-100,4,1,0,60,0,0
1420543,-100,4,2,0,30,0,0
1420885,-100,4,2,0,40,0,0
1421228,-100,4,2,0,50,0,0
1421571,-100,4,2,0,60,0,0
1421914,-133.333333333333,4,2,0,60,0,0
1430314,-200,4,2,0,60,0,0
1431514,-200,4,3,0,60,0,0
1432885,-133.333333333333,4,2,0,60,0,0
1441285,-200,4,2,0,60,0,0
1443857,-200,4,3,0,60,0,0
1454828,-100,4,1,0,60,0,0
1460314,-100,4,3,0,60,0,0
1463057,-100,4,1,0,60,0,0
1465800,-83.3333333333333,4,1,0,70,0,1
1470428,-83.3333333333333,4,1,0,30,0,1
1470943,-83.3333333333333,4,1,0,70,0,1
1474028,-100,4,1,0,50,0,1
1475400,-125,4,1,0,30,0,1
1476771,-83.3333333333333,4,1,0,70,0,1
1485000,-83.3333333333333,4,2,0,10,0,1
1485343,-83.3333333333333,4,2,0,20,0,1
1485685,-83.3333333333333,4,2,0,30,0,1
1486028,-83.3333333333333,4,2,0,40,0,1
1486371,-83.3333333333333,4,2,0,50,0,0
1486714,-83.3333333333333,4,2,0,60,0,0
1487057,-83.3333333333333,4,2,0,70,0,0
1487743,-83.3333333333333,4,1,0,70,0,1
1494600,-100,4,1,0,70,0,1
1497343,-125,4,1,0,70,0,1
1498714,-83.3333333333333,4,1,0,70,0,1
1505571,-100,4,1,0,70,0,1
1508314,-166.666666666667,4,1,0,20,0,0
1508657,-125,4,1,0,40,0,0
1509000,-100,4,1,0,60,0,0
1524600,-66.6666666666667,4,1,0,60,0,0
1526143,-100,4,1,0,60,0,0
1533000,-100,4,1,0,30,0,0

[HitObjects]
300,76,328372,6,0,P|364:152|396:216,1,150.000005722046,0|0,0:3|0:0,0:0:0:0:
224,320,328887,2,0,P|160:292|88:220,1,150.000005722046
236,84,329401,2,0,P|224:164|192:224,1,150.000005722046
76,143,329915,2,0,P|163:179|195:239,1,150.000005722046
44,348,330430,6,0,P|88:316|108:312,1,75.0000028610231
237,292,330772,2,0,P|164:297|116:244,1,150.000005722046
272,152,331287,2,0,L|452:152,1,150.000005722046
379,265,331801,2,0,P|332:289|206:281,1,150.000005722046
102,193,332315,2,0,P|78:240|86:366,1,150.000005722046
285,330,332830,2,0,P|213:295|129:280,1,150.000005722046
138,81,333344,6,0,L|209:137,1,75.0000028610231
240,260,333687,2,0,P|241:187|173:115,1,150.000005722046
132,265,334201,6,0,P|171:323|305:348,1,200,4|0,0:3|0:0,0:0:0:0:
431,281,334715,2,0,P|341:247|233:262,1,200
81,154,335230,2,0,P|115:204|259:258,1,200
239,58,335744,2,0,L|239:260,1,200
410,166,336258,6,0,L|302:166,1,100
142,184,336601,2,0,P|186:235|343:254,1,200
408,99,337115,2,0,L|249:198,1,170.000003242493
149,107,337630,2,0,L|268:192,1,139.999995727539
410,166,338144,2,0,L|307:231,1,110.000003356934
119,215,338658,5,0,0:0:0:0:
250,323,338830,1,0,0:0:0:0:
254,225,339001,1,0,0:0:0:0:
135,322,339172,1,0,0:0:0:0:
254,225,339344,2,0,P|211:137|151:98,1,150.000005722046,4|0,0:3|0:0,0:0:0:0:
99,241,339858,2,0,L|192:186,1,75.0000028610231
290,118,340201,2,0,L|197:173,3,75.0000028610231
225,156,341230,5,0,0:0:0:0:
174,242,341401,1,0,0:0:0:0:
257,290,341572,1,0,0:0:0:0:
305,206,341744,1,0,0:0:0:0:
225,156,341915,1,0,0:0:0:0:
174,242,342087,2,0,P|121:199|111:105,1,150.000005722046
225,156,342601,2,0,L|291:215,1,75.0000028610231
409,162,342944,2,0,L|343:221,3,75.0000028610231
353,211,344144,5,0,0:0:0:0:
222,179,344315,1,0,0:0:0:0:
316,101,344487,1,0,0:0:0:0:
353,211,344658,1,0,0:0:0:0:
222,179,344830,2,0,B|151:234|177:312,1,150.000005722046
247,261,345344,1,0,0:0:0:0:
247,261,345515,1,0,0:0:0:0:
247,261,345687,2,0,L|337:267,3,75.0000028610231
477,278,346887,5,0,0:0:0:0:
421,209,347058,1,0,0:0:0:0:
477,140,347230,1,0,0:0:0:0:
421,71,347401,1,0,0:0:0:0:
365,140,347572,2,0,P|336:185|231:228,1,150.000005722046
143,154,348087,5,0,0:0:0:0:
251,154,348258,1,0,0:0:0:0:
143,262,348430,1,0,0:0:0:0:
251,262,348601,1,0,0:0:0:0:
143,370,348772,1,0,0:0:0:0:
251,370,348944,2,0,P|310:347|329:314,1,75.0000028610231
394,232,349287,1,0,0:0:0:0:
224,185,349458,5,0,0:0:0:0:
224,185,349544,1,0,0:0:0:0:
224,185,349630,1,0,0:0:0:0:
46,137,349801,1,0,0:0:0:0:
227,104,349972,1,0,0:0:0:0:
41,220,350144,1,0,0:0:0:0:
199,274,350315,6,0,P|291:266|312:155,1,200,8|8,0:0|0:0,0:0:0:0:
132,129,350830,2,0,L|133:248,1,100,0|8,0:0|0:0,0:0:0:0:
5,291,351172,1,0,0:0:0:0:
187,348,351344,1,8,0:0:0:0:
5,291,351515,1,0,0:0:0:0:
199,274,351687,2,0,P|291:266|312:155,1,200,8|8,0:0|0:0,0:0:0:0:
137,78,352201,5,0,0:0:0:0:
55,213,352372,1,8,0:0:0:0:
231,210,352544,1,0,0:0:0:0:
81,102,352715,1,8,0:0:0:0:
141,249,352887,1,0,0:0:0:0:
187,120,353058,6,0,P|236:89|394:83,1,200,8|8,0:0|0:0,0:0:0:0:
410,239,353572,2,0,P|346:245|297:257,1,100,0|8,0:0|0:0,0:0:0:0:
65,261,353915,1,0,0:0:0:0:
288,330,354087,1,8,0:0:0:0:
65,261,354258,1,0,0:0:0:0:
311,252,354430,2,0,P|360:242|500:295,1,200,8|8,0:0|0:0,0:0:0:0:
497,292,354944,1,0,0:0:0:0:
206,331,355115,5,8,0:0:0:0:
431,335,355287,1,0,0:0:0:0:
204,240,355458,1,8,0:0:0:0:
421,237,355630,1,0,0:0:0:0:
202,149,355801,6,0,P|288:147|427:165,1,200,8|8,0:0|0:0,0:0:0:0:
351,224,356315,2,0,P|281:218|227:219,1,100,0|8,0:0|0:0,0:0:0:0:
41,179,356658,1,0,0:0:0:0:
122,358,356830,1,8,0:0:0:0:
41,179,357001,1,0,0:0:0:0:
154,207,357172,2,0,P|209:200|359:227,1,200,8|8,0:0|0:0,0:0:0:0:
251,357,357687,5,0,0:0:0:0:
482,255,357858,1,8,0:0:0:0:
236,338,358030,1,0,0:0:0:0:
422,183,358201,1,8,0:0:0:0:
213,313,358372,1,0,0:0:0:0:
343,142,358544,2,0,P|296:180|140:205,1,200,8|8,0:0|0:0,0:0:0:0:
66,90,359058,5,0,0:0:0:0:
127,238,359230,1,8,0:0:0:0:
188,79,359401,1,0,0:0:0:0:
127,238,359572,1,8,0:0:0:0:
66,90,359744,1,0,0:0:0:0:
127,238,359915,5,10,0:0:0:0:
127,238,360001,1,2,0:0:0:0:
127,238,360087,1,2,0:0:0:0:
188,79,360258,1,10,0:0:0:0:
239,236,360430,2,0,P|303:238|351:214,1,100,2|8,0:0|0:0,0:0:0:0:
284,67,360772,2,0,P|220:65|172:89,1,100,2|12,0:0|0:0,0:0:0:0:
76,166,361115,1,2,0:0:0:0:
140,296,361287,6,0,P|200:304|256:288,1,100,8|2,0:3|0:2,0:0:0:0:
208,176,361630,2,0,P|257:167|306:175,1,100,8|2,0:3|0:2,0:2:0:0:
354,302,361972,2,0,P|409:278|450:237,1,100,8|2,0:3|0:2,0:0:0:0:
306,175,362315,1,8,0:3:0:0:
238,295,362487,2,0,P|189:304|140:296,1,100,2|8,0:2|0:3,0:0:0:0:
108,129,362830,5,2,0:2:0:0:
179,227,363001,1,8,0:3:0:0:
262,136,363172,1,2,0:2:0:0:
103,209,363344,2,0,P|117:275|147:299,1,100,8|2,0:3|0:2,0:0:0:0:
274,209,363687,2,0,P|260:275|230:299,1,100,8|2,0:3|0:2,0:0:0:0:
103,209,364030,6,0,P|117:143|147:119,2,100,8|2|8,0:3|0:2|0:3,0:0:0:0:
177,188,364544,1,2,0:2:0:0:
213,119,364715,2,0,P|245:156|250:206,1,100,8|2,0:3|0:2,0:0:0:0:
231,275,365058,2,0,P|280:270|317:238,1,100,8|2,0:3|0:2,0:0:0:0:
340,78,365401,5,8,0:3:0:0:
317,238,365572,1,2,0:2:0:0:
415,89,365744,1,8,0:3:0:0:
392,249,365915,1,2,0:2:0:0:
488,100,366087,2,0,P|476:155|421:190,1,100,8|2,0:3|0:2,0:0:0:0:
297,177,366430,2,0,P|233:166|169:198,1,100,8|2,0:3|0:2,0:0:0:0:
179,197,366687,1,0,0:0:0:0:
156,216,366772,6,0,P|102:248|45:251,1,100,0|2,0:1|0:2,0:0:0:0:
33,216,367030,1,0,0:0:0:0:
34,183,367115,2,0,P|88:151|145:148,1,100,0|2,0:1|0:2,0:0:0:0:
271,172,367458,6,0,P|339:182|390:168,1,100,0|2,0:1|0:2,0:0:0:0:
387,168,367715,1,0,0:0:0:0:
397,150,367801,1,0,0:1:0:0:
399,130,367887,1,0,0:0:0:0:
394,110,367972,2,0,P|344:51|300:42,1,100,2|0,0:2|0:1,0:0:0:0:
120,80,368315,5,2,0:2:0:0:
120,80,368401,1,0,0:0:0:0:
120,80,368487,2,0,P|144:148|184:172,1,100,0|2,0:1|0:2,0:0:0:0:
312,192,368830,2,0,P|380:200|416:232,1,100,0|2,0:1|0:2,0:0:0:0:
416,236,369087,1,0,0:0:0:0:
424,252,369172,1,0,0:1:0:0:
424,272,369258,1,0,0:0:0:0:
419,291,369344,1,2,0:2:0:0:
242,335,369515,5,0,0:1:0:0:
312,192,369687,1,2,0:2:0:0:
191,330,369858,1,0,0:1:0:0:
121,187,370030,1,2,0:2:0:0:
220,328,370201,1,0,0:1:0:0:
292,159,370372,1,2,0:2:0:0:
106,193,370544,1,0,0:1:0:0:
220,328,370715,1,2,0:2:0:0:
220,328,371058,5,0,0:0:0:0:
220,328,371230,1,0,0:0:0:0:
220,328,371401,1,0,0:0:0:0:
236,317,371487,1,0,0:0:0:0:
250,303,371572,1,2,0:2:0:0:
262,286,371658,1,0,0:0:0:0:
265,266,371744,1,2,0:2:0:0:
263,245,371830,1,0,0:0:0:0:
258,225,371915,6,0,P|239:172|176:129,1,100,2|2,0:2|0:2,0:0:0:0:
48,215,372258,2,0,P|78:272|210:318,1,200,2|0,0:2|0:0,0:0:0:0:
351,201,372772,1,2,0:2:0:0:
146,231,372944,1,2,0:2:0:0:
326,328,373115,1,2,0:2:0:0:
222,173,373287,1,2,0:2:0:0:
70,256,373458,1,2,0:2:0:0:
248,294,373630,5,2,0:2:0:0:
141,179,373801,1,2,0:2:0:0:
114,350,373973,1,2,0:2:0:0:
254,211,374144,1,2,0:2:0:0:
68,208,374315,1,2,0:2:0:0:
227,346,374487,1,2,0:2:0:0:
186,154,374658,1,2,0:2:0:0:
108,320,374830,1,2,0:2:0:0:
271,182,375001,5,2,0:2:0:0:
53,192,375172,1,2,0:2:0:0:
255,336,375344,1,2,0:2:0:0:
216,101,375515,1,2,0:2:0:0:
25,234,375687,1,2,0:2:0:0:
261,362,375858,1,2,0:2:0:0:
223,156,376030,1,2,0:2:0:0:
68,234,376201,1,2,0:2:0:0:
288,303,376372,5,2,0:2:0:0:
268,101,376544,1,2,0:2:0:0:
147,273,376715,1,2,0:2:0:0:
358,204,376887,1,2,0:2:0:0:
150,129,377058,1,2,0:2:0:0:
230,284,377230,1,2,0:2:0:0:
319,68,377401,1,2,0:2:0:0:
156,155,377572,1,2,0:2:0:0:
344,253,377744,5,4,0:0:0:0:
347,238,377830,1,0,0:0:0:0:
349,223,377915,1,0,0:0:0:0:
345,208,378001,1,0,0:0:0:0:
339,193,378087,2,0,L|317:160,3,25
312,164,378430,5,4,0:0:0:0:
298,158,378515,1,0,0:0:0:0:
283,153,378601,1,0,0:0:0:0:
268,148,378687,1,0,0:0:0:0:
253,144,378772,2,0,L|216:140,3,25
213,143,379115,5,4,0:0:0:0:
198,147,379201,1,0,0:0:0:0:
184,153,379287,1,0,0:0:0:0:
171,161,379372,1,0,0:0:0:0:
159,171,379458,2,0,L|136:201,3,25
137,204,379801,5,4,0:0:0:0:
134,218,379887,1,0,0:0:0:0:
132,232,379972,1,0,0:0:0:0:
132,247,380058,1,0,0:0:0:0:
135,261,380144,2,0,L|142:291,3,25
151,296,380487,5,4,0:0:0:0:
163,303,380572,1,0,0:0:0:0:
176,308,380658,1,0,0:0:0:0:
191,308,380744,1,0,0:0:0:0:
206,307,380830,1,4,0:0:0:0:
220,303,380915,1,0,0:0:0:0:
234,297,381001,1,0,0:0:0:0:
247,290,381087,1,0,0:0:0:0:
258,280,381172,5,4,0:0:0:0:
269,269,381258,1,0,0:0:0:0:
279,258,381344,1,0,0:0:0:0:
289,246,381430,1,0,0:0:0:0:
298,234,381515,1,4,0:0:0:0:
307,222,381601,1,0,0:0:0:0:
315,209,381687,1,0,0:0:0:0:
322,196,381772,1,0,0:0:0:0:
329,182,381858,6,0,P|349:137|315:80,1,100
307,74,382115,1,0,0:0:0:0:
280,60,382201,2,0,P|209:45|166:51,1,100
153,56,382458,1,0,0:0:0:0:
127,71,382544,1,0,0:0:0:0:
108,95,382630,1,0,0:0:0:0:
104,124,382715,1,0,0:0:0:0:
104,154,382801,1,0,0:0:0:0:
105,184,382887,2,0,L|108:292,1,100
267,310,383230,6,4,P|358:298|385:265,1,119.999996337891,4|0,0:3|0:0,0:3:0:0:
212,155,383572,2,0,P|121:167|94:200,1,119.999996337891,4|0,0:3|0:0,0:0:0:0:
374,281,383915,2,0,P|409:196|394:156,1,119.999996337891,4|0,0:3|0:0,0:0:0:0:
172,223,384258,1,4,0:3:0:0:
335,206,384430,2,0,L|204:217,1,119.999996337891,0|4,0:0|0:3,0:0:0:0:
188,48,384772,5,0,0:0:0:0:
215,216,384944,1,4,0:3:0:0:
280,53,385115,1,0,0:0:0:0:
335,206,385287,2,0,P|416:218|458:246,1,119.999996337891,4|0,0:3|0:0,0:0:0:0:
327,355,385630,2,0,P|246:343|204:315,1,119.999996337891,4|0,0:3|0:0,0:0:0:0:
255,135,385972,6,0,P|174:147|132:175,1,119.999996337891,4|0,0:3|0:0,0:0:0:0:
222,237,386315,2,0,P|303:225|345:197,1,119.999996337891,4|0,0:3|0:0,0:0:0:0:
142,166,386658,1,4,0:3:0:0:
334,205,386830,1,0,0:0:0:0:
115,124,387001,1,4,0:3:0:0:
360,255,387172,2,0,P|387:209|359:149,1,119.999996337891,0|4,0:0|0:3,0:0:0:0:
115,124,387515,5,0,0:0:0:0:
196,318,387687,1,4,0:3:0:0:
254,128,387858,1,0,0:0:0:0:
73,256,388030,1,4,0:3:0:0:
98,280,388115,1,0,0:0:0:0:
129,297,388201,1,0,0:0:0:0:
162,311,388287,1,0,0:0:0:0:
196,318,388372,2,0,P|270:307|308:265,1,119.999996337891,4|0,0:3|0:0,0:0:0:0:
150,128,388715,5,8,0:0:0:0:
150,128,388887,1,8,0:0:0:0:
150,128,389058,2,0,P|221:195|296:202,1,119.999996337891,4|0,0:3|0:0,0:0:0:0:
426,228,389401,2,0,P|376:144|333:123,1,119.999996337891,4|0,0:3|0:0,0:0:0:0:
157,236,389744,2,0,P|211:298|270:311,1,119.999996337891,4|0,0:3|0:0,0:0:0:0:
426,228,390087,1,4,0:3:0:0:
426,228,390258,5,0,0:0:0:0:
216,125,390430,1,4,0:3:0:0:
244,310,390601,1,0,0:0:0:0:
389,200,390772,2,0,L|361:47,1,119.999996337891,4|0,0:3|0:0,0:0:0:0:
216,125,391115,2,0,L|244:278,1,119.999996337891,4|0,0:3|0:0,0:0:0:0:
433,313,391458,6,0,L|293:308,1,100,6|2,0:3|0:3,0:0:0:0:
113,238,391801,2,0,L|253:233,1,100,6|2,0:3|0:3,0:0:0:0:
417,130,392144,2,0,L|277:135,1,100,6|2,0:3|0:3,0:0:0:0:
87,50,392487,2,0,L|227:45,1,100,6|2,0:3|0:3,0:0:0:0:
417,130,392830,6,0,P|408:200|365:238,1,100,8|0,0:3|0:0,0:0:0:0:
368,241,393087,1,8,0:3:0:0:
345,260,393172,2,0,P|264:290|211:271,1,100,8|0,0:3|0:0,0:0:0:0:
145,134,393515,6,8,L|177:129,7,25.0000009536744,8|8|8|8|8|8|8|8,0:3|0:3|0:3|0:3|0:3|0:3|0:3|0:3,0:3:0:0:
219,92,393972,2,8,L|187:87,1,25.0000009536744,8|4,0:3|0:3,0:3:0:0:
360,104,394201,6,0,P|424:136|476:200,1,119.999996337891,4|0,0:3|0:0,0:0:0:0:
397,282,394544,2,0,P|333:250|281:186,1,119.999996337891,4|0,0:3|0:0,0:0:0:0:
157,69,394887,2,0,P|93:101|41:165,1,119.999996337891,4|0,0:3|0:0,0:0:0:0:
104,296,395230,2,0,P|188:308|248:284,1,119.999996337891,4|0,0:3|0:0,0:0:0:0:
254,286,395487,1,0,0:0:0:0:
281,263,395572,1,4,0:3:0:0:
316,270,395658,1,0,0:0:0:0:
350,279,395744,2,0,P|424:271|424:214,1,119.999996337891,0|4,0:0|0:3,0:0:0:0:
314,93,396087,5,0,0:0:0:0:
238,241,396258,2,0,P|313:276|377:276,1,119.999996337891,4|0,0:3|0:0,0:0:0:0:
393,90,396601,2,0,P|359:31|273:9,1,119.999996337891,4|0,0:3|0:0,0:0:0:0:
122,96,396944,6,0,P|134:164|176:217,1,119.999996337891,4|0,0:3|0:0,0:0:0:0:
189,222,397201,1,0,0:0:0:0:
216,238,397287,2,0,P|282:249|348:225,1,119.999996337891,4|0,0:3|0:0,0:0:0:0:
211,118,397630,2,0,L|216:262,1,119.999996337891,4|0,0:3|0:0,0:0:0:0:
378,288,397972,2,0,P|307:337|237:332,1,119.999996337891,4|0,0:3|0:0,0:0:0:0:
239,341,398230,1,0,0:0:0:0:
203,339,398315,1,4,0:3:0:0:
169,325,398401,1,0,0:0:0:0:
138,306,398487,2,0,P|92:243|99:176,1,119.999996337891,0|4,0:0|0:3,0:0:0:0:
378,288,398830,5,0,0:0:0:0:
199,160,399001,2,0,P|122:180|78:215,1,119.999996337891,4|0,0:3|0:0,0:0:0:0:
268,244,399344,2,0,P|345:264|389:299,1,119.999996337891,4|0,0:3|0:0,0:0:0:0:
188,261,399687,2,0,L|182:167,1,75
199,160,400030,5,4,0:3:0:0:
221,159,400115,1,0,0:0:0:0:
243,158,400201,1,0,0:0:0:0:
251,331,400372,2,0,P|194:349|135:341,1,119.999996337891,4|0,0:3|0:0,0:0:0:0:
96,213,400715,2,0,P|140:173|198:159,1,119.999996337891,4|0,0:3|0:0,0:0:0:0:
306,267,401058,6,0,P|384:261|416:214,1,119.999996337891,4|0,0:3|0:0,0:0:0:0:
431,204,401315,1,0,0:0:0:0:
447,171,401401,2,0,P|446:106|393:82,1,119.999996337891,4|0,0:3|0:0,0:0:0:0:
156,76,401744,2,0,L|271:133,1,119.999996337891,4|0,0:3|0:0,0:0:0:0:
144,275,402087,2,0,L|259:218,1,119.999996337891,4|0,0:3|0:0,0:0:0:0:
402,81,402430,6,0,P|435:161|396:258,1,179.999994506836,2|2,0:2|0:2,0:0:0:0:
362,303,402772,2,0,P|294:249|228:233,1,119.999996337891,2|2,0:2|0:2,0:0:0:0:
62,210,403115,2,0,P|107:162|198:136,1,119.999996337891,2|2,0:2|0:2,0:0:0:0:
263,238,403458,2,0,P|184:246|125:197,1,119.999996337891,2|2,0:2|0:2,0:0:0:0:
124,216,403715,1,2,0:2:0:0:
98,190,403801,2,2,L|45:210,3,37.5000014305115,2|2|2|2,0:2|0:2|0:2|0:2,0:2:0:0:
113,157,404144,2,2,L|166:137,3,37.5000014305115,2|2|2|2,0:2|0:2|0:2|0:2,0:2:0:0:
84,154,404487,6,0,P|53:94|99:26,1,119.999996337891
312,94,404830,1,0,0:0:0:0:
126,94,405001,1,0,0:0:0:0:
254,270,405172,2,0,P|332:226|309:91,1,239.999992675781,4|4,0:3|0:3,0:0:0:0:
126,94,405687,6,0,L|136:233,1,119.999996337891,0|4,0:0|0:3,0:0:0:0:
271,339,406030,1,0,0:0:0:0:
125,272,406201,1,4,0:3:0:0:
291,241,406372,1,0,0:0:0:0:
117,348,406544,2,0,P|54:305|52:244,1,119.999996337891,4|0,0:3|0:0,0:0:0:0:
120,73,406887,1,4,0:3:0:0:
185,216,407058,5,0,0:0:0:0:
334,58,407230,1,4,0:3:0:0:
264,236,407401,1,0,0:0:0:0:
260,22,407573,1,4,0:3:0:0:
338,200,407744,1,0,0:0:0:0:
181,42,407915,6,0,P|114:82|96:233,1,239.999992675781,4|4,0:3|0:3,0:0:0:0:
176,118,408430,2,0,P|249:131|290:167,1,119.999996337891,0|4,0:0|0:3,0:0:0:0:
338,338,408772,1,0,0:0:0:0:
430,177,408944,1,4,0:3:0:0:
338,338,409115,1,0,0:0:0:0:
283,158,409287,2,0,P|206:190|143:190,1,119.999996337891,4|0,0:3|0:0,0:0:0:0:
43,75,409630,1,4,0:3:0:0:
269,78,409801,1,0,0:0:0:0:
108,201,409972,5,4,0:3:0:0:
225,354,410144,1,0,0:0:0:0:
273,183,410315,1,4,0:3:0:0:
122,342,410487,1,0,0:0:0:0:
193,182,410658,2,0,P|202:109|364:35,1,239.999992675781,4|4,0:3|0:3,0:0:0:0:
417,147,411172,6,0,P|397:211|338:247,1,119.999996337891,0|4,0:0|0:3,0:0:0:0:
155,241,411515,1,0,0:0:0:0:
356,241,411687,1,4,0:3:0:0:
173,160,411858,1,0,0:0:0:0:
322,310,412030,2,0,P|250:326|195:319,1,119.999996337891,4|0,0:3|0:0,0:0:0:0:
173,160,412372,1,4,0:3:0:0:
116,311,412544,1,0,0:0:0:0:
43,159,412715,5,4,0:3:0:0:
236,228,412887,1,0,0:0:0:0:
65,307,413058,1,4,0:3:0:0:
129,122,413230,1,0,0:0:0:0:
191,321,413401,2,0,P|269:320|325:177,1,239.999992675781,4|4,0:3|0:3,0:0:0:0:
129,122,413915,5,0,0:0:0:0:
191,321,414087,1,4,0:3:0:0:
249,124,414258,1,0,0:0:0:0:
101,307,414430,1,4,0:3:0:0:
100,113,414601,1,0,0:0:0:0:
218,313,414772,2,0,P|265:243|325:254,1,119.999996337891,4|0,0:3|0:0,0:0:0:0:
293,240,415115,5,4,0:3:0:0:
390,78,415287,1,0,0:0:0:0:
372,73,415372,1,0,0:0:0:0:
354,69,415458,1,4,0:3:0:0:
293,240,415630,1,0,0:0:0:0:
176,80,415801,1,4,0:3:0:0:
306,238,415972,1,0,0:0:0:0:
377,76,416144,6,0,P|432:133|397:280,1,239.999992675781,4|4,0:3|0:3,0:0:0:0:
157,272,416658,1,0,0:0:0:0:
368,178,416830,1,4,0:3:0:0:
157,98,417001,1,0,0:0:0:0:
363,185,417172,1,4,0:3:0:0:
163,272,417344,1,0,0:0:0:0:
395,293,417515,2,0,P|469:216|420:77,1,239.999992675781,4|4,0:3|0:3,0:0:0:0:
234,50,418030,5,0,0:0:0:0:
223,265,418201,1,4,0:3:0:0:
344,110,418372,1,0,0:0:0:0:
137,150,418544,1,4,0:3:0:0:
321,213,418715,1,0,0:0:0:0:
181,75,418887,2,0,P|103:71|91:220,1,239.999992675781,4|4,0:3|0:3,0:0:0:0:
321,213,419401,5,0,0:0:0:0:
73,204,419572,1,4,0:3:0:0:
321,213,419744,1,0,0:0:0:0:
73,204,419915,1,4,0:3:0:0:
321,213,420087,1,0,0:0:0:0:
73,204,420258,2,0,P|173:139|330:123,1,239.999992675781,4|4,0:3|0:3,0:0:0:0:
291,324,420772,5,0,0:0:0:0:
161,204,420944,1,4,0:3:0:0:
344,214,421115,1,0,0:0:0:0:
178,177,421287,1,4,0:3:0:0:
348,92,421459,1,0,0:0:0:0:
182,17,421630,2,0,P|108:115|180:212,1,239.999992675781,4|4,0:3|0:3,0:0:0:0:
328,278,422144,5,0,0:0:0:0:
248,139,422315,1,4,0:3:0:0:
109,219,422487,1,0,0:0:0:0:
189,358,422658,1,4,0:3:0:0:
328,278,422830,1,0,0:0:0:0:
248,139,423001,2,0,P|147:113|116:232,1,239.999992675781,4|4,0:3|0:3,0:0:0:0:
236,346,423515,5,0,0:0:0:0:
184,184,423687,1,4,0:3:0:0:
303,340,423858,1,0,0:0:0:0:
389,195,424030,1,4,0:3:0:0:
271,338,424201,1,0,0:0:0:0:
184,184,424372,2,0,P|111:269|173:375,1,239.999992675781,4|4,0:3|0:3,0:0:0:0:
389,258,424887,5,0,0:0:0:0:
193,277,425058,1,0,0:0:0:0:
378,165,425230,1,0,0:0:0:0:
184,184,425401,1,0,0:0:0:0:
379,83,425572,1,0,0:0:0:0:
177,96,425744,1,2,0:2:0:0:
177,96,425830,1,2,0:2:0:0:
177,96,425915,1,2,0:2:0:0:
207,283,426087,5,2,0:2:0:0:
177,96,426258,1,2,0:2:0:0:
177,96,426601,1,2,0:2:0:0:
177,96,426772,1,8,0:3:0:0:
177,96,426944,6,0,L|187:199,1,89.9999972534181,2|8,0:2|0:3,0:0:0:0:
288,286,427287,2,0,L|278:183,1,89.9999972534181,2|8,0:2|0:3,0:0:0:0:
336,43,427630,2,0,L|346:146,1,89.9999972534181,2|8,0:2|0:3,0:0:0:0:
447,233,427973,2,0,L|437:130,1,89.9999972534181,2|8,0:2|0:3,0:0:0:0:
336,43,428315,6,0,L|258:96,1,89.9999972534181,2|8,0:2|0:3,0:0:0:0:
283,253,428658,2,0,L|205:200,1,89.9999972534181,2|8,0:2|0:3,0:0:0:0:
154,79,429001,2,0,L|76:132,1,89.9999972534181,2|8,0:2|0:3,0:0:0:0:
101,289,429344,2,0,L|23:236,1,89.9999972534181,2|8,0:2|0:3,0:0:0:0:
154,79,429687,6,0,L|202:176,1,89.9999972534181,2|8,0:2|0:3,0:0:0:0:
250,91,430030,2,0,L|298:188,1,89.9999972534181,2|8,0:2|0:3,0:0:0:0:
346,103,430372,2,0,L|394:200,1,89.9999972534181,2|8,0:2|0:3,0:0:0:0:
442,115,430715,2,0,L|490:212,1,89.9999972534181,2|8,0:2|0:3,0:0:0:0:
442,276,431058,6,0,L|481:195,1,89.9999972534181,2|8,0:2|0:3,0:0:0:0:
346,288,431401,2,0,L|385:207,1,89.9999972534181,2|8,0:2|0:3,0:0:0:0:
250,300,431744,2,0,L|289:219,1,89.9999972534181,2|8,0:2|0:3,0:0:0:0:
154,312,432087,2,0,L|193:231,1,89.9999972534181,2|8,0:2|0:3,0:0:0:0:
240,112,432430,1,2,0:2:0:0:
292,220,432601,6,0,L|332:232,3,25,10|0|0|0,0:0|0:0|0:0|0:0,0:0:0:0:
348,220,432944,2,0,L|371:212,3,25,8|0|0|0,0:0|0:0|0:0|0:0,0:0:0:0:
405,222,433287,2,0,L|445:234,3,25,10|0|2|0,0:0|0:0|0:0|0:0,0:0:0:0:
458,255,433630,2,0,L|446:295,3,25,10|0|2|0,0:0|0:0|0:0|0:0,0:0:0:0:
426,301,433972,2,0,L|386:289,3,25,10|2|2|0,0:0|0:0|0:0|0:0,0:0:0:0:
367,289,434315,2,0,L|343:296,3,25,10|0|0|0,0:0|0:0|0:0|0:0,0:0:0:0:
311,293,434658,2,0,L|287:285,3,25,8|0|0|0,0:0|0:0|0:0|0:0,0:0:0:0:
249,285,435001,2,0,L|225:292,3,25,8|0|0|0,0:0|0:0|0:0|0:0,0:0:0:0:
199,292,435344,5,10,0:0:0:0:
46,339,435515,1,0,0:0:0:0:
202,244,435687,1,8,0:0:0:0:
29,243,435858,1,0,0:0:0:0:
211,190,436030,1,10,0:0:0:0:
29,161,436201,1,2,0:0:0:0:
221,137,436372,1,10,0:0:0:0:
40,61,436544,1,2,0:0:0:0:
239,90,436715,5,2,0:0:0:0:
239,90,436801,1,0,0:0:0:0:
239,90,436887,2,0,P|297:64|231:110,1,337.500012874604
