osu file format v14

[General]
AudioFilename: audio.mp3
AudioLeadIn: 0
PreviewTime: 54027
Countdown: 0
SampleSet: None
StackLeniency: 0.4
Mode: 0
LetterboxInBreaks: 0
WidescreenStoryboard: 1

[Editor]
Bookmarks: 9799,152830,328372,437744,547801,646544,822087,963627,1172084,1399971,1704428,1814143,1918371,2028278,2224827,2344141,2442884,2632141
DistanceSpacing: 1.2
BeatDivisor: 4
GridSize: 16
TimelineZoom: 2.1

[Metadata]
Title:S3RL Presently Presents (First Half)
TitleUnicode:S3RL Presently Presents (First Half)
Artist:S3RL
ArtistUnicode:S3RL
Creator:olteR
Version:Genre Police
Source:
Tags:
BeatmapID:4053806
BeatmapSetID:526385

[Difficulty]
HPDrainRate:4
CircleSize:4
OverallDifficulty:8
ApproachRate:9.2
SliderMultiplier:2
SliderTickRate:1

[Events]
//Background and Video events
0,0,"bg.jpg",0,0
//Break Periods
//Storyboard Layer 0 (Background)
//Storyboard Layer 1 (Fail)
//Storyboard Layer 2 (Pass)
//Storyboard Layer 3 (Foreground)
//Storyboard Layer 4 (Overlay)
//Storyboard Sound Samples

[TimingPoints]
9800,342.857142857143,4,3,0,70,1,0
10142,342.857142857143,4,1,0,70,1,0
10142,-100,4,1,0,70,0,0
14257,-100,4,3,0,70,0,0
14942,-100,4,2,0,70,0,0
15628,-100,4,3,0,70,0,0
17685,-100,4,2,0,70,0,0
21114,-100,4,1,0,70,0,0
25228,-66.6666666666667,4,2,0,70,0,0
26600,-100,4,1,0,70,0,0
32084,-133.333333333333,4,1,0,70,0,0
36200,-100,4,1,0,70,0,0
37914,-133.333333333333,4,1,0,70,0,0
38942,-200,4,1,0,70,0,0
43057,-100,4,3,0,70,0,0
45799,-133.333333333333,4,3,0,70,0,0
48884,-100,4,3,0,70,0,0
49227,-80,4,3,0,70,0,0
49570,-66.6666666666667,4,3,0,70,0,0
49913,-100,4,3,0,70,0,0
54027,-100,4,2,0,80,0,0
58656,-200,4,2,0,80,0,0
59513,-100,4,2,0,70,0,0
63627,-200,4,2,0,70,0,0
64999,-100,4,1,0,70,0,0
66370,-133.333333333333,4,3,0,70,0,0
67742,-100,4,1,0,70,0,0
73227,-100,4,2,0,70,0,0
75627,-100,4,3,0,70,0,0
75970,-100,4,1,0,70,0,0
77342,-133.333333333333,4,2,0,60,0,0
78370,-100,4,1,0,70,0,0
80084,-133.333333333333,4,2,0,60,0,0
81456,-100,4,1,0,70,0,0
85570,-200,4,2,0,70,0,0
86599,-200,4,3,0,70,0,0
86942,-100,4,1,0,70,0,0
91056,-100,4,2,0,60,0,0
91742,-133.333333333333,4,2,0,60,0,0
92427,-100,4,1,0,70,0,0
100313,-100,4,3,0,70,0,0
100827,-100,4,1,0,70,0,0
102027,-100,4,2,0,70,0,0
103570,-100,4,1,0,70,0,0
110599,-133.333333333333,4,1,0,60,0,0
110942,-200,4,1,0,50,0,0
117113,-133.333333333333,4,1,0,50,0,0
122599,-100,4,1,0,70,0,0
124999,-200,4,1,0,50,0,0
125342,-100,4,1,0,70,0,0
130827,-100,4,3,0,70,0,0
133570,-133.333333333333,4,2,0,70,0,0
136484,-133.333333333333,4,3,0,70,0,0
137342,-100,4,3,0,70,0,0
145313,-100,4,2,0,70,0,0
145913,-100,4,2,0,60,0,0
146599,-100,4,2,0,50,0,0
147284,-100,4,2,0,40,0,0
152830,342.857142857143,4,2,0,70,1,0
154887,-133.333333333333,4,2,0,70,0,0
155572,-100,4,2,0,70,0,0
157630,-133.333333333333,4,2,0,70,0,0
158315,-100,4,2,0,70,0,0
160372,-133.333333333333,4,2,0,70,0,0
161058,-100,4,2,0,70,0,0
163115,-133.333333333333,4,2,0,70,0,0
163801,-100,4,1,0,70,0,0
173401,-200,4,2,0,70,0,0
174772,-100,4,3,0,80,0,1
183001,-100,4,1,0,80,0,1
184372,-133.333333333333,4,2,0,80,0,0
185572,-100,4,3,0,80,0,0
185744,-100,4,1,0,80,0,1
195344,-100,4,2,0,70,0,0
196715,-100,4,3,0,70,0,0
202372,-100,4,1,0,70,0,0
204944,-100,4,3,0,70,0,0
207344,-100,4,1,0,70,0,0
207687,-100,4,3,0,70,0,0
212487,-133.333333333333,4,3,0,70,0,0
213172,-100,4,3,0,70,0,0
217287,-133.333333333333,4,2,0,70,0,0
218658,-100,4,3,0,70,0,0
223458,-133.333333333333,4,3,0,70,0,0
225344,-100,4,3,0,70,0,0
228258,-133.333333333333,4,2,0,70,0,0
228601,-100,4,2,0,70,0,0
228944,-80,4,2,0,70,0,0
229630,-100,4,2,0,60,0,0
240601,-100,4,2,0,50,0,0
251572,-133.333333333333,4,2,0,70,0,0
262201,-100,4,1,0,70,0,0
267344,-133.333333333333,4,1,0,70,0,0
268030,-100,4,1,0,70,0,0
273515,-100,4,3,0,70,0,0
279001,-133.333333333333,4,3,0,70,0,0
283801,-66.6666666666667,4,2,0,70,0,0
284144,-100,4,1,0,70,0,0
284487,-100,4,3,0,80,0,1
295115,-100,4,3,0,80,0,0
295458,-100,4,1,0,80,0,1
306087,-100,4,2,0,50,0,0
306430,-100,4,1,0,80,0,1
317401,-100,4,3,0,80,0,1
323572,-100,4,3,0,75,0,1
324258,-100,4,3,0,70,0,1
324944,-100,4,3,0,65,0,1
325630,-100,4,3,0,60,0,1
326315,-100,4,3,0,55,0,1
327001,-100,4,3,0,50,0,1
327687,-66.6666666666667,4,2,0,70,0,0
328372,-133.333333333333,4,3,0,60,0,0
334201,-100,4,3,0,70,0,0
337115,-117.647058823529,4,3,0,60,0,0
337630,-142.857142857143,4,3,0,50,0,0
338144,-181.818181818182,4,3,0,40,0,0
338658,-133.333333333333,4,2,0,60,0,0
350315,-100,4,2,0,65,0,0
361287,-100,4,1,0,70,0,0
366601,-100,4,3,0,70,0,0
377744,-200,4,3,0,70,0,0
381858,-100,4,3,0,70,0,0
383230,-83.3333333333333,4,1,0,80,0,1
388715,-83.3333333333333,4,3,0,70,0,1
389058,-83.3333333333333,4,1,0,80,0,1
391458,-100,4,1,0,80,0,1
393515,-133.333333333333,4,1,0,80,0,1
394201,-83.3333333333333,4,1,0,80,0,1
399687,-200,4,2,0,40,0,1
400030,-83.3333333333333,4,1,0,80,0,1
403801,-133.333333333333,4,1,0,80,0,1
404487,-83.3333333333333,4,1,0,80,0,0
405172,-83.3333333333333,4,1,0,80,0,1
424887,-83.3333333333333,4,1,0,70,0,1
425744,-83.3333333333333,4,1,0,70,0,0
426944,-111.111111111111,4,1,0,70,0,0
429687,-111.111111111111,4,1,0,60,0,0
432601,-200,4,3,0,60,0,0
436715,-200,4,2,0,60,0,0
436887,-133.333333333333,4,2,0,60,0,0
437744,-142.857142857143,4,2,0,70,0,0
438430,-125,4,2,0,70,0,0
438944,-100,4,2,0,70,0,0
440315,-142.857142857143,4,2,0,70,0,0
440487,-125,4,2,0,70,0,0
440830,-111.111111111111,4,2,0,70,0,0
441687,-142.857142857143,4,2,0,70,0,0
443230,-125,4,2,0,70,0,0
443572,-111.111111111111,4,2,0,70,0,0
444601,-125,4,2,0,70,0,0
445972,-142.857142857143,4,2,0,70,0,0
447344,-125,4,2,0,70,0,0
447687,-111.111111111111,4,2,0,70,0,0
448715,-125,4,2,0,60,0,0
449401,-142.857142857143,4,2,0,60,0,0
449915,-111.111111111111,4,2,0,60,0,0
451287,-125,4,2,0,60,0,0
451458,-111.111111111111,4,2,0,60,0,0
451801,-100,4,2,0,60,0,0
452658,-111.111111111111,4,2,0,60,0,0
452830,-100,4,2,0,60,0,0
453172,-90.9090909090909,4,2,0,60,0,0
454544,-100,4,2,0,60,0,0
455572,-111.111111111111,4,2,0,60,0,0
456258,-142.857142857143,4,2,0,60,0,0
456944,-125,4,2,0,60,0,0
457630,-166.666666666667,4,2,0,60,0,0
458315,-142.857142857143,4,2,0,60,0,0
458658,-200,4,2,0,60,0,0
459687,-133.333333333333,4,2,0,60,0,0
481972,-100,4,1,0,70,0,0
498515,-100,4,1,0,40,0,0
498772,-100,4,1,0,45,0,0
499115,-100,4,1,0,50,0,0
499458,-100,4,1,0,55,0,0
499801,-100,4,1,0,60,0,0
500144,-100,4,1,0,60,0,0
500487,-100,4,1,0,70,0,0
500830,-100,4,1,0,75,0,0
501858,-100,4,1,0,70,0,0
503915,-100,4,1,0,80,0,1
513515,-111.111111111111,4,1,0,80,0,1
514544,-200,4,1,0,70,0,0
514887,-100,4,1,0,80,0,1
524487,-144.927536231884,4,2,0,70,0,0
525858,-100,4,1,0,80,0,1
535458,-111.111111111111,4,1,0,80,0,1
536487,-133.333333333333,4,1,0,80,0,1
536830,-100,4,1,0,80,0,1
547801,-100,4,1,0,70,0,0
553287,-133.333333333333,4,2,0,60,0,0
564258,-111.111111111111,4,2,0,70,0,0
569744,-111.111111111111,4,3,0,70,0,0
577630,-111.111111111111,4,1,0,70,0,0
577972,-90.0900900900901,4,1,0,80,0,1
588772,-90.0900900900901,4,1,0,80,0,0
588944,-90.0900900900901,4,1,0,80,0,1
598544,-200,4,1,0,70,0,0
599915,-100,4,1,0,80,0,1
602487,-83.3333333333333,4,1,0,80,0,1
603001,-100,4,1,0,80,0,1
605401,-83.3333333333333,4,1,0,80,0,1
605744,-100,4,1,0,80,0,1
606601,-83.3333333333333,4,1,0,80,0,1
607115,-100,4,1,0,80,0,1
607972,-111.111111111111,4,1,0,80,0,1
608487,-100,4,1,0,80,0,1
609515,-100,4,2,0,80,0,1
610372,-200,4,2,0,80,0,1
610887,-100,4,1,0,80,0,1
612087,-83.3333333333333,4,1,0,80,0,1
612601,-100,4,1,0,80,0,1
613458,-83.3333333333333,4,1,0,80,0,1
613972,-100,4,1,0,80,0,1
615172,-111.111111111111,4,1,0,80,0,1
615515,-125,4,1,0,80,0,1
615858,-142.857142857143,4,1,0,80,0,1
616372,-100,4,1,0,80,0,1
617572,-83.3333333333333,4,1,0,80,0,1
618087,-100,4,1,0,80,0,1
618944,-111.111111111111,4,1,0,80,0,1
619458,-100,4,1,0,80,0,1
620487,-100,4,1,0,70,0,0
632830,-133.333333333333,4,2,0,60,0,0
646544,-100,4,1,0,70,0,0
648944,-66.6666666666667,4,1,0,70,0,0
649287,-100,4,1,0,70,0,0
651687,-66.6666666666667,4,1,0,70,0,0
652030,-100,4,1,0,70,0,0
654430,-66.6666666666667,4,1,0,70,0,0
654772,-100,4,1,0,70,0,0
656144,-133.333333333333,4,1,0,70,0,0
657172,-66.6666666666667,4,1,0,70,0,0
657515,-100,4,1,0,70,0,0
659915,-66.6666666666667,4,1,0,70,0,0
660258,-100,4,1,0,70,0,0
662658,-66.6666666666667,4,1,0,70,0,0
663001,-100,4,1,0,70,0,0
665401,-66.6666666666667,4,1,0,70,0,0
665744,-100,4,1,0,70,0,0
667115,-133.333333333333,4,1,0,70,0,0
667801,-111.111111111111,4,2,0,70,0,0
684944,-125,4,2,0,70,0,0
687001,-142.857142857143,4,2,0,70,0,0
690087,-142.857142857143,4,1,0,70,0,0
690430,-111.111111111111,4,2,0,70,0,0
700030,-111.111111111111,4,1,0,70,0,0
700715,-200,4,2,0,70,0,0
701401,-100,4,1,0,80,0,1
712030,-83.3333333333333,4,1,0,80,0,1
713058,-100,4,1,0,80,0,1
713744,-83.3333333333333,4,1,0,80,0,1
714430,-100,4,1,0,80,0,1
715287,-83.3333333333333,4,1,0,80,0,1
715801,-100,4,1,0,80,0,1
716487,-83.3333333333333,4,1,0,80,0,1
717515,-200,4,1,0,70,0,1
718201,-100,4,1,0,80,0,1
721972,-125,4,1,0,80,0,1
722658,-166.666666666667,4,1,0,80,0,1
723001,-166.666666666667,4,1,0,80,0,0
723344,-100,4,1,0,80,0,1
732944,-133.333333333333,4,1,0,80,0,1
734230,-133.333333333333,4,1,0,80,0,0
734315,-100,4,1,0,80,0,1
743915,-133.333333333333,4,1,0,70,0,0
744601,-111.111111111111,4,2,0,70,0,0
769972,-100,4,2,0,70,0,0
772544,-90.9090909090909,4,2,0,70,0,0
775458,-111.111111111111,4,2,0,70,0,0
776830,-111.111111111111,4,1,0,70,0,0
777515,-200,4,2,0,70,0,0
778201,-100,4,1,0,80,0,1
786430,-133.333333333333,4,1,0,80,0,1
787030,-133.333333333333,4,3,0,80,0,1
788487,-133.333333333333,4,3,0,80,0,0
788658,-133.333333333333,4,1,0,80,0,0
789172,-83.3333333333333,4,1,0,80,0,1
790887,-66.6666666666667,4,1,0,80,0,1
791230,-83.3333333333333,4,1,0,80,0,1
793630,-66.6666666666667,4,1,0,80,0,1
793972,-83.3333333333333,4,1,0,80,0,1
796372,-66.6666666666667,4,1,0,80,0,1
796715,-83.3333333333333,4,1,0,80,0,1
798772,-66.6666666666667,4,1,0,80,0,1
799458,-66.6666666666667,4,1,0,80,0,0
800144,-83.3333333333333,4,1,0,80,0,1
804601,-66.6666666666667,4,1,0,80,0,1
805630,-83.3333333333333,4,1,0,80,0,1
809744,-83.3333333333333,4,1,0,80,0,0
810087,-66.6666666666667,4,1,0,80,0,0
810430,-55.5555555555556,4,1,0,80,0,0
810772,-55.5555555555556,4,3,0,80,0,0
811115,-100,4,1,0,80,0,1
819400,500,4,1,0,70,1,0
819900,-100,4,1,0,60,0,0
820538,681.818181818182,4,1,0,50,1,0
821219,1000,4,1,0,40,1,0
823969,389.61038961039,4,1,0,40,1,0
838828,342.857142857143,4,1,0,5,1,0
842942,342.857142857143,4,2,0,40,1,0
864884,-100,4,1,0,60,0,0
866084,-133.333333333333,4,1,0,60,0,0
866599,-100,4,1,0,60,0,0
868827,-133.333333333333,4,1,0,60,0,0
869342,-100,4,1,0,60,0,0
870027,-133.333333333333,4,1,0,60,0,0
870370,-100,4,1,0,60,0,0
871570,-133.333333333333,4,1,0,60,0,0
872084,-100,4,1,0,60,0,0
875856,-100,4,2,0,60,0,0
877227,-100,4,2,0,50,0,0
878599,-100,4,2,0,40,0,0
879456,-100,4,2,0,30,0,0
882713,-100,4,1,0,60,0,0
886827,-66.6666666666667,4,1,0,70,0,1
904999,-100,4,1,0,70,0,1
905342,-66.6666666666667,4,1,0,70,0,1
906027,-100,4,1,0,50,0,0
907399,-133.333333333333,4,3,0,20,0,0
908427,-133.333333333333,4,1,0,30,0,0
908770,-66.6666666666667,4,1,0,70,0,1
927970,-100,4,1,0,60,0,0
930713,-133.333333333333,4,1,0,40,0,0
933456,-100,4,3,0,40,0,0
936884,-100,4,3,0,45,0,0
937570,-100,4,3,0,50,0,0
938256,-100,4,3,0,55,0,0
938942,-100,4,3,0,60,0,0
946484,-133.333333333333,4,3,0,60,0,0
947170,-100,4,3,0,60,0,0
949227,-76.9230769230769,4,3,0,60,0,0
949913,-100,4,3,0,60,0,0
957627,-200,4,3,0,60,0,0
958142,-100,4,3,0,60,0,0
960542,-200,4,3,0,60,0,0
960884,-100,4,3,0,60,0,0
962256,-133.333333333333,4,2,0,20,0,0
962770,-133.333333333333,4,2,0,30,0,0
963199,-133.333333333333,4,2,0,40,0,0
963370,-133.333333333333,4,2,0,50,0,0
963627,-133.333333333333,4,2,0,60,0,0
973227,-200,4,3,0,30,0,0
973570,-133.333333333333,4,3,0,40,0,0
973913,-100,4,3,0,50,0,0
974598,-100,4,1,0,60,0,0
984199,-133.333333333333,4,1,0,60,0,0
985056,-100,4,3,0,60,0,0
987799,-100,4,3,0,40,0,0
987970,-100,4,3,0,50,0,0
988142,-100,4,3,0,60,0,0
989342,-100,4,3,0,50,0,0
989513,-100,4,3,0,40,0,0
989684,-100,4,3,0,60,0,0
993284,-100,4,3,0,40,0,0
993456,-100,4,3,0,50,0,0
993627,-100,4,3,0,60,0,0
995170,-133.333333333333,4,1,0,40,0,0
996199,-133.333333333333,4,3,0,40,0,0
996542,-83.3333333333333,4,3,0,70,0,1
1006142,-100,4,1,0,60,0,0
1006827,-200,4,1,0,40,0,0
1007513,-100,4,1,0,60,0,0
1015742,-100,4,2,0,40,0,0
1017113,-100,4,2,0,30,0,0
1018142,-100,4,2,0,20,0,0
1018484,-100,4,2,0,40,0,0
1020542,-80,4,2,0,40,0,0
1021913,-133.333333333333,4,2,0,40,0,0
1023970,-100,4,2,0,40,0,0
1024656,-151.515151515152,4,2,0,40,0,0
1026370,-100,4,2,0,40,0,0
1030142,-151.515151515152,4,2,0,40,0,0
1030484,-100,4,2,0,40,0,0
1037684,-59.1715976331361,4,2,0,40,0,0
1038370,-100,4,2,0,40,0,0
1038884,-66.6666666666667,4,2,0,40,0,0
1040427,-100,4,3,0,50,0,0
1043170,-100,4,3,0,55,0,0
1045913,-100,4,3,0,60,0,0
1048656,-100,4,3,0,65,0,0
1050027,-100,4,1,0,65,0,0
1051399,-83.3333333333333,4,3,0,70,0,1
1059627,-83.3333333333333,4,3,0,50,0,0
1060313,-83.3333333333333,4,3,0,30,0,0
1060999,-83.3333333333333,4,3,0,40,0,0
1061342,-83.3333333333333,4,3,0,50,0,0
1061684,-200,4,3,0,60,0,0
1062370,-83.3333333333333,4,3,0,70,0,1
1071970,-100,4,3,0,70,0,0
1072656,-100,4,1,0,60,0,0
1073342,-83.3333333333333,4,3,0,70,0,1
1081913,-83.3333333333333,4,3,0,60,0,1
1082427,-83.3333333333333,4,1,0,50,0,0
1082599,-83.3333333333333,4,1,0,30,0,0
1082942,-100,4,1,0,40,0,0
1083627,-100,4,1,0,60,0,0
1083799,-83.3333333333333,4,1,0,60,0,0
1084313,-83.3333333333333,4,1,0,70,0,1
1093913,-100,4,1,0,60,0,0
1094599,-200,4,1,0,40,0,0
1095284,-100,4,2,0,40,0,0
1095970,-83.3333333333333,4,2,0,40,0,0
1096656,-100,4,2,0,40,0,0
1097342,-83.3333333333333,4,2,0,40,0,0
1097684,-125,4,2,0,40,0,0
1098027,-100,4,2,0,40,0,0
1098370,-83.3333333333333,4,2,0,40,0,0
1099399,-100,4,2,0,40,0,0
1099742,-125,4,2,0,40,0,0
1100084,-83.3333333333333,4,2,0,40,0,0
1100427,-100,4,2,0,40,0,0
1101456,-83.3333333333333,4,2,0,40,0,0
1102142,-125,4,2,0,40,0,0
1102484,-111.111111111111,4,2,0,40,0,0
1102656,-99.9999999999999,4,2,0,40,0,0
1102827,-90.9090909090909,4,2,0,40,0,0
1102999,-83.3333333333333,4,2,0,40,0,0
1103513,-100,4,2,0,40,0,0
1104884,-125,4,2,0,40,0,0
1105227,-100,4,2,0,40,0,0
1105570,-83.3333333333333,4,2,0,40,0,0
1105913,-71.4285714285714,4,2,0,40,0,0
1106256,-100,4,2,0,40,0,0
1108313,-125,4,2,0,40,0,0
1108999,-100,4,2,0,40,0,0
1111056,-125,4,2,0,40,0,0
1111742,-100,4,2,0,40,0,0
1112770,-83.3333333333333,4,2,0,40,0,0
1112942,-125,4,2,0,40,0,0
1113113,-100,4,2,0,40,0,0
1116542,-83.3333333333333,4,2,0,40,0,0
1116884,-100,4,2,0,40,0,0
1117913,-83.3333333333333,4,2,0,40,0,0
1118942,-100,4,2,0,40,0,0
1120656,-83.3333333333333,4,2,0,40,0,0
1120999,-100,4,2,0,40,0,0
1122713,-100,4,3,0,50,0,0
1127170,-100,4,1,0,50,0,0
1128199,-83.3333333333333,4,1,0,70,0,1
1137113,-100,4,1,0,50,0,0
1137799,-100,4,1,0,30,0,0
1138484,-125,4,1,0,40,0,0
1138742,-100,4,1,0,50,0,0
1138999,-83.3333333333333,4,1,0,60,0,0
1139170,-83.3333333333333,4,1,0,70,0,1
1149627,-83.3333333333333,4,1,0,60,0,0
1150142,-83.3333333333333,4,1,0,70,0,1
1161113,-100,4,1,0,60,0,0
1171742,-100,4,3,0,60,0,0
1188542,-100,4,2,0,40,0,0
1194027,-200,4,2,0,50,0,0
1218713,-100,4,2,0,50,0,0
1237913,-133.333333333333,4,2,0,40,0,0
1240313,-133.333333333333,4,1,0,50,0,0
1262599,-100,4,1,0,60,0,0
1273570,-80,4,1,0,60,0,0
1279055,-200,4,1,0,60,0,0
1281799,-100,4,1,0,60,0,0
1284542,-80,4,1,0,70,0,1
1289342,-66.6666666666667,4,1,0,70,0,1
1289684,-133.333333333333,4,1,0,70,0,1
1290027,-80,4,1,0,70,0,1
1294142,-80,4,1,0,50,0,0
1295170,-80,4,1,0,70,0,0
1295513,-80,4,1,0,70,0,1
1300313,-66.6666666666667,4,1,0,70,0,1
1300656,-133.333333333333,4,1,0,70,0,1
1300999,-80,4,1,0,70,0,1
1305113,-80,4,3,0,50,0,0
1306484,-80,4,1,0,70,0,1
1325684,-80,4,3,0,70,0,0
1325770,-80,4,2,0,50,0,0
1331308,428.571428571429,4,3,0,50,1,0
1331522,454.545454545455,4,2,0,50,1,0
1331522,-133.333333333333,4,2,0,50,0,0
1333303,428.571428571429,4,2,0,50,1,0
1333303,-133.333333333333,4,2,0,50,0,0
1336713,410.958904109589,4,2,0,50,1,0
1336713,-133.333333333333,4,2,0,50,0,0
1339983,394.736842105263,4,2,0,50,1,0
1339983,-133.333333333333,4,2,0,50,0,0
1343130,384.615384615385,4,2,0,50,1,0
1343130,-133.333333333333,4,2,0,50,0,0
1346192,370.37037037037,4,2,0,50,1,0
1346192,-133.333333333333,4,2,0,50,0,0
1349141,357.142857142857,4,2,0,50,1,0
1349141,-133.333333333333,4,2,0,50,0,0
1350560,348.837209302326,4,3,0,60,1,0
1353343,342.857142857143,4,3,0,70,1,0
1353343,-133.333333333333,4,3,0,70,0,0
1356085,-80,4,1,0,70,0,1
1375285,-80,4,1,0,70,0,0
1377685,-80,4,3,0,70,0,0
1378028,-80,4,1,0,70,0,1
1382828,-66.6666666666667,4,1,0,70,0,1
1383171,-100,4,1,0,70,0,1
1383514,-80,4,1,0,70,0,1
1387628,-80,4,1,0,70,0,0
1389000,-100,4,1,0,70,0,1
1393800,-66.6666666666667,4,1,0,70,0,1
1394143,-100,4,1,0,70,0,1
1398600,-100,4,3,0,70,0,0
1399971,-100,4,2,0,60,0,0
1408714,-100,4,1,0,60,0,0
1409743,-100,4,2,0,60,0,0
1414885,-66.6666666666667,4,2,0,60,0,0
1416085,-100,4,2,0,60,0,0
1419685,-100,4,1,0,60,0,0
1420543,-100,4,2,0,30,0,0
1420885,-100,4,2,0,40,0,0
1421228,-100,4,2,0,50,0,0
1421571,-100,4,2,0,60,0,0
1421914,-133.333333333333,4,2,0,60,0,0
1430314,-200,4,2,0,60,0,0
1431514,-200,4,3,0,60,0,0
1432885,-133.333333333333,4,2,0,60,0,0
1441285,-200,4,2,0,60,0,0
1443857,-200,4,3,0,60,0,0
1454828,-100,4,1,0,60,0,0
1460314,-100,4,3,0,60,0,0
1463057,-100,4,1,0,60,0,0
1465800,-83.3333333333333,4,1,0,70,0,1
1470428,-83.3333333333333,4,1,0,30,0,1
1470943,-83.3333333333333,4,1,0,70,0,1
1474028,-100,4,1,0,50,0,1
1475400,-125,4,1,0,30,0,1
1476771,-83.3333333333333,4,1,0,70,0,1
1485000,-83.3333333333333,4,2,0,10,0,1
1485343,-83.3333333333333,4,2,0,20,0,1
1485685,-83.3333333333333,4,2,0,30,0,1
1486028,-83.3333333333333,4,2,0,40,0,1
1486371,-83.3333333333333,4,2,0,50,0,0
1486714,-83.3333333333333,4,2,0,60,0,0
1487057,-83.3333333333333,4,2,0,70,0,0
1487743,-83.3333333333333,4,1,0,70,0,1
1494600,-100,4,1,0,70,0,1
1497343,-125,4,1,0,70,0,1
1498714,-83.3333333333333,4,1,0,70,0,1
1505571,-100,4,1,0,70,0,1
1508314,-166.666666666667,4,1,0,20,0,0
1508657,-125,4,1,0,40,0,0
1509000,-100,4,1,0,60,0,0
1524600,-66.6666666666667,4,1,0,60,0,0
1526143,-100,4,1,0,60,0,0
1533000,-100,4,1,0,30,0,0

[HitObjects]
162,134,646544,6,0,P|219:105|273:110,1,100
394,200,646887,2,0,P|337:171|283:176,1,100
162,266,647230,2,0,P|219:237|273:242,1,100
394,332,647572,2,0,P|337:303|283:308,1,100
153,349,647915,6,0,P|97:307|82:249,1,100
263,222,648258,1,0,0:0:0:0:
100,203,648430,1,0,0:0:0:0:
193,95,648601,2,0,P|148:118|98:221,1,150
70,277,648944,2,0,L|165:277,1,75.0000028610231,2|0,0:0|0:0,0:0:0:0:
273,277,649115,2,0,L|193:277,1,75.0000028610231,2|0,0:0|0:0,0:0:0:0:
145,277,649287,6,0,P|184:218|179:157,1,100
123,90,649630,2,0,P|182:51|243:56,1,100
335,53,649972,2,0,P|383:62|421:94,1,100
195,122,650315,2,0,P|239:173|288:192,1,100
417,244,650658,6,0,P|427:303|386:354,1,100
267,186,651001,1,0,0:0:0:0:
361,286,651172,1,0,0:0:0:0:
254,384,651344,2,0,P|179:344|142:256,1,150
134,257,651687,2,0,L|290:173,1,150.000005722046,2|0,0:0|0:0,0:0:0:0:
344,70,652030,6,0,P|328:141|345:199,1,100
409,244,652372,2,0,P|425:315|408:373,1,100
267,340,652715,2,0,P|263:290|278:243,1,100
355,166,653058,2,0,P|358:116|343:69,1,100
188,94,653401,6,0,L|303:123,1,100
285,249,653744,1,0,0:0:0:0:
284,118,653915,1,0,0:0:0:0:
366,228,654087,2,0,P|373:301|333:362,1,150
299,357,654430,2,2,L|221:352,3,75.0000028610231
191,344,654772,6,0,P|222:273|206:210,1,100
165,193,655115,2,0,P|235:175|298:190,1,100
310,293,655458,2,0,P|254:260|204:251,1,100
75,217,655801,2,0,P|110:262|151:276,1,100
165,193,656144,2,0,P|175:120|41:73,1,225.000008583069
96,136,656830,5,2,0:0:0:0:
96,147,656915,1,2,0:0:0:0:
96,158,657001,1,2,0:0:0:0:
95,169,657087,1,2,0:0:0:0:
94,180,657172,2,0,L|94:277,1,75.0000028610231,2|0,0:0|0:0,0:0:0:0:
174,293,657344,2,0,L|174:218,1,75.0000028610231,2|0,0:0|0:0,0:0:0:0:
173,134,657515,6,0,P|241:134|274:175,1,100,8|0,0:0|0:0,0:0:0:0:
302,260,657858,2,0,P|364:305|411:291,1,100,8|0,0:0|0:0,0:0:0:0:
499,222,658201,2,0,P|462:170|395:139,1,100,8|0,0:0|0:0,0:0:0:0:
262,152,658544,2,0,P|200:160|145:215,1,100,8|0,0:0|0:0,0:0:0:0:
161,342,658887,6,0,L|292:342,1,100,8|0,0:0|0:0,0:0:0:0:
227,224,659230,1,8,0:0:0:0:
327,300,659401,1,0,0:0:0:0:
262,152,659572,2,0,P|324:175|425:137,1,150,8|0,0:0|0:0,0:0:0:0:
411,80,659915,2,0,L|325:80,1,75.0000028610231,10|0,0:0|0:0,0:0:0:0:
262,77,660087,2,0,L|262:163,1,75.0000028610231,2|0,0:0|0:0,0:0:0:0:
227,224,660258,6,0,P|150:253|108:251,1,100,8|0,0:0|0:0,0:0:0:0:
20,158,660601,2,0,P|97:187|139:185,1,100,8|0,0:0|0:0,0:0:0:0:
227,92,660944,2,0,P|150:121|108:119,1,100,8|0,0:0|0:0,0:0:0:0:
20,26,661287,2,0,P|97:55|139:53,1,100,8|0,0:0|0:0,0:0:0:0:
227,92,661630,6,0,P|267:146|256:195,1,100,8|0,0:0|0:0,0:0:0:0:
111,206,661972,1,8,0:0:0:0:
266,278,662144,1,0,0:0:0:0:
199,158,662315,2,0,P|140:116|57:100,1,150,8|0,0:0|0:0,0:0:0:0:
70,175,662658,2,0,P|82:249|104:229,1,150.000005722046,10|0,0:0|0:0,0:0:0:0:
199,158,663001,6,0,L|300:158,1,100,8|0,0:0|0:0,0:0:0:0:
472,216,663344,2,0,L|371:216,1,100,8|0,0:0|0:0,0:0:0:0:
199,274,663687,2,0,L|300:274,1,100,8|0,0:0|0:0,0:0:0:0:
472,332,664030,2,0,L|371:332,1,100,8|0,0:0|0:0,0:0:0:0:
199,274,664372,6,0,L|199:166,1,100,8|0,0:0|0:0,0:0:0:0:
200,32,664715,1,8,0:0:0:0:
199,174,664887,1,0,0:0:0:0:
275,49,665058,2,0,P|326:68|365:162,1,150,8|0,0:0|0:0,0:0:0:0:
410,212,665401,2,2,L|332:212,3,75.0000028610231,10|2|2|2,0:0|0:0|0:0|0:0,0:0:0:0:
286,130,665744,6,0,P|230:148|181:199,1,100,8|0,0:0|0:0,0:0:0:0:
345,286,666087,2,0,P|289:268|240:217,1,100,8|0,0:0|0:0,0:0:0:0:
373,86,666430,2,0,P|317:104|268:155,1,100,8|0,0:0|0:0,0:0:0:0:
432,242,666772,2,0,P|376:224|327:173,1,100,8|0,0:0|0:0,0:0:0:0:
373,86,667115,2,0,P|302:72|246:198,1,225.000008583069,8|0,0:0|0:0,0:0:0:0:
318,149,667801,6,0,P|356:189|396:198,1,89.9999972534181
475,222,668144,1,0,0:0:0:0:
406,281,668315,1,0,0:0:0:0:
337,222,668487,2,0,P|222:209|220:268,1,179.999994506836,8|8,0:1|0:1,0:0:0:0:
319,314,669001,5,0,0:0:0:0:
397,360,669172,1,8,0:1:0:0:
475,314,669344,1,0,0:0:0:0:
397,268,669515,1,8,0:1:0:0:
475,222,669687,1,0,0:0:0:0:
337,130,669858,2,0,P|275:123|317:27,1,179.999994506836,8|10,0:1|0:1,0:0:0:0:
424,61,670372,1,2,0:1:0:0:
503,112,670544,5,8,0:1:0:0:
424,163,670715,1,0,0:0:0:0:
345,112,670887,1,8,0:1:0:0:
266,163,671058,1,0,0:0:0:0:
187,112,671230,2,0,P|97:108|49:211,1,179.999994506836,8|8,0:1|0:1,0:0:0:0:
133,176,671744,5,0,0:0:0:0:
87,241,671915,2,0,P|177:245|201:224,1,89.9999972534181,8|0,0:1|0:0,0:0:0:0:
254,179,672258,1,8,0:1:0:0:
286,280,672430,1,0,0:0:0:0:
254,179,672601,2,0,P|348:193|400:127,1,179.999994506836,8|10,0:1|0:1,0:0:0:0:
315,122,673115,1,0,0:0:0:0:
254,179,673287,5,8,0:1:0:0:
315,236,673458,1,0,0:0:0:0:
254,293,673630,1,8,0:1:0:0:
315,350,673801,1,0,0:1:0:0:
376,293,673972,2,0,P|453:244|431:137,1,179.999994506836,8|8,0:1|0:1,0:0:0:0:
386,209,674487,1,0,0:0:0:0:
376,293,674658,5,8,0:1:0:0:
309,243,674830,1,0,0:0:0:0:
376,293,675001,1,8,0:1:0:0:
299,326,675172,1,0,0:0:0:0:
222,293,675344,2,0,P|211:211|108:171,1,179.999994506836,8|10,0:1|0:1,0:0:0:0:
117,168,675772,1,2,0:1:0:0:
103,170,675858,1,2,0:1:0:0:
222,293,676030,5,8,0:1:0:0:
305,264,676201,1,0,0:0:0:0:
193,210,676372,1,8,0:1:0:0:
276,181,676543,1,0,0:0:0:0:
164,127,676715,2,0,P|266:92|340:100,1,179.999994506836,8|8,0:1|0:1,0:0:0:0:
274,304,677230,5,0,0:0:0:0:
176,255,677401,1,8,0:1:0:0:
78,206,677572,1,0,0:0:0:0:
68,85,677744,1,8,0:1:0:0:
166,134,677915,1,0,0:0:0:0:
264,183,678086,5,8,0:1:0:0:
264,183,678172,1,2,0:1:0:0:
264,183,678258,1,2,0:1:0:0:
264,183,678344,1,2,0:1:0:0:
264,183,678430,2,0,L|327:161,1,44.999998626709,10|0,0:1|0:0,0:0:0:0:
392,236,678601,2,0,L|349:250,1,44.999998626709,2|0,0:1|0:0,0:0:0:0:
315,266,678772,5,8,0:1:0:0:
264,183,678944,1,0,0:0:0:0:
232,317,679115,1,8,0:1:0:0:
181,234,679287,1,0,0:0:0:0:
264,183,679458,2,0,P|197:140|91:210,1,179.999994506836,8|8,0:1|0:1,0:0:0:0:
181,234,679972,1,0,0:0:0:0:
231,316,680144,5,8,0:1:0:0:
135,320,680315,1,0,0:0:0:0:
84,237,680487,1,8,0:1:0:0:
181,234,680658,1,0,0:0:0:0:
131,152,680830,2,0,P|212:139|279:240,1,179.999994506836,8|10,0:1|0:1,0:0:0:0:
288,299,681344,1,2,0:1:0:0:
281,196,681515,5,8,0:1:0:0:
345,165,681687,1,0,0:0:0:0:
368,97,681858,1,8,0:1:0:0:
336,32,682030,1,0,0:0:0:0:
267,8,682201,2,0,P|215:13|194:126,1,179.999994506836,8|8,0:1|0:1,0:0:0:0:
330,96,682715,5,0,0:0:0:0:
248,79,682887,1,8,0:1:0:0:
332,177,683058,1,0,0:0:0:0:
250,194,683230,1,8,0:1:0:0:
374,246,683401,1,0,0:0:0:0:
312,302,683572,2,0,L|131:303,1,179.999994506836,8|2,0:1|0:1,0:0:0:0:
98,145,684258,5,0,0:0:0:0:
146,214,684430,1,0,0:0:0:0:
194,145,684601,1,0,0:0:0:0:
242,214,684772,1,0,0:0:0:0:
290,145,684944,2,0,L|461:145,1,160
434,214,685630,5,0,0:0:0:0:
386,283,685802,1,0,0:0:0:0:
338,214,685973,1,0,0:0:0:0:
290,283,686144,1,0,0:0:0:0:
242,214,686316,2,0,L|68:215,1,160,0|2,0:0|0:1,0:0:0:0:
82,214,686744,1,2,0:1:0:0:
82,214,686830,1,2,0:1:0:0:
80,33,687001,6,0,P|129:73|159:77,1,69.9999978637696
273,57,687344,1,0,0:0:0:0:
304,183,687515,1,0,0:0:0:0:
194,144,687687,2,0,P|139:155|76:230,1,139.999995727539
206,225,688201,1,0,0:0:0:0:
114,298,688372,2,0,L|181:341,1,69.9999978637696
305,261,688715,2,0,L|238:304,1,69.9999978637696
358,339,689058,6,0,P|413:292|351:154,1,244.999992523194,2|0,0:1|0:1,0:0:0:0:
310,203,689744,2,2,L|358:227,3,34.9999989318848,2|2|2|2,0:1|0:1|0:1|0:1,0:1:0:0:
357,289,690087,2,0,L|309:313,1,34.9999989318848,0|0,0:1|0:1,0:1:0:0:
272,262,690258,2,0,L|224:238,1,34.9999989318848,0|0,0:1|0:1,0:1:0:0:
107,244,690430,6,0,L|181:313,1,89.9999972534181,2|0,0:1|0:0,0:0:0:0:
272,262,690772,2,0,L|206:200,1,89.9999972534181,2|0,0:1|0:0,0:0:0:0:
305,156,691115,2,0,L|371:218,1,89.9999972534181,2|0,0:1|0:0,0:0:0:0:
272,262,691458,1,2,0:1:0:0:
272,262,691630,2,0,L|206:200,1,89.9999972534181,2|0,0:1|0:0,0:0:0:0:
107,244,691972,2,0,L|181:313,1,89.9999972534181,2|0,0:1|0:0,0:0:0:0:
272,262,692315,2,0,L|337:200,1,89.9999972534181,2|0,0:1|0:0,0:0:0:0:
238,157,692658,2,0,L|172:218,1,89.9999972534181,2|0,0:1|0:0,0:0:0:0:
89,89,693001,5,2,0:1:0:0:
89,89,693172,2,0,L|196:89,1,89.9999972534181,2|0,0:1|0:0,0:0:0:0:
328,157,693515,2,0,L|238:157,1,89.9999972534181,2|0,0:1|0:0,0:0:0:0:
82,218,693858,2,0,L|172:218,1,89.9999972534181,2|0,0:1|0:0,0:0:0:0:
272,262,694201,1,2,0:1:0:0:
272,262,694372,2,0,L|272:165,1,89.9999972534181,2|0,0:1|0:0,0:0:0:0:
280,39,694715,2,0,L|375:116,1,89.9999972534181,2|0,0:1|0:0,0:0:0:0:
233,90,695058,2,0,L|138:167,1,89.9999972534181,2|0,0:1|0:0,0:0:0:0:
286,129,695401,2,0,L|381:206,1,89.9999972534181,2|0,0:1|0:0,0:0:0:0:
413,308,695744,5,2,0:1:0:0:
413,307,695915,2,0,P|368:303|331:279,1,89.9999972534181,2|0,0:1|0:0,0:0:0:0:
403,244,696258,2,0,P|366:218|346:178,1,89.9999972534181,2|0,0:1|0:0,0:0:0:0:
426,183,696601,2,0,P|407:142|409:97,1,89.9999972534181,2|0,0:1|0:0,0:0:0:0:
476,141,696944,2,0,P|480:96|504:59,1,89.9999972534181,2|0,0:1|0:0,0:0:0:0:
364,51,697287,6,0,P|300:40|244:58,1,89.9999972534181,2|0,0:1|0:0,0:0:0:0:
312,108,697630,2,0,P|251:130|211:174,1,89.9999972534181,2|0,0:1|0:0,0:0:0:0:
295,183,697972,2,0,P|253:232|241:290,1,89.9999972534181,2|0,0:1|0:0,0:0:0:0:
317,256,698315,2,0,P|306:320|324:376,1,89.9999972534181,2|0,0:1|0:0,0:0:0:0:
453,334,698658,6,0,L|448:278,1,44.999998626709,2|0,0:1|0:0,0:0:0:0:
312,211,698830,2,0,L|317:267,1,44.999998626709,2|0,0:1|0:0,0:0:0:0:
299,325,699001,2,0,L|355:320,1,44.999998626709,2|0,0:1|0:0,0:0:0:0:
422,184,699173,2,0,L|366:189,1,44.999998626709,2|0,0:1|0:0,0:0:0:0:
250,262,699344,6,0,L|245:206,1,44.999998626709,2|0,0:1|0:0,0:0:0:0:
109,139,699516,2,0,L|114:195,1,44.999998626709,2|0,0:1|0:0,0:0:0:0:
96,253,699687,2,0,L|152:248,1,44.999998626709,2|0,0:1|0:0,0:0:0:0:
219,112,699859,2,0,L|163:117,1,44.999998626709,2|0,0:1|0:0,0:0:0:0:
180,188,700030,5,4,0:3:0:0:
456,288,700372,1,4,0:3:0:0:
219,112,700715,2,0,L|312:167,1,100
387,280,701401,6,0,P|306:311|262:308,1,100,4|0,0:3|0:0,0:0:0:0:
181,269,701744,2,0,P|177:328|191:374,1,100,4|0,0:3|0:0,0:0:0:0:
278,137,702087,2,0,P|309:218|306:262,1,100,4|0,0:3|0:0,0:0:0:0:
98,198,702430,2,0,P|94:257|108:303,1,100,4|0,0:3|0:0,0:0:0:0:
188,232,702772,5,4,0:3:0:0:
188,232,702944,2,0,P|211:302|269:331,1,100,0|4,0:0|0:3,0:0:0:0:
418,275,703287,2,0,P|395:345|337:374,1,100,0|4,0:0|0:3,0:0:0:0:
260,250,703630,1,0,0:0:0:0:
260,250,703801,2,0,P|330:273|359:331,1,100,4|0,0:3|0:0,0:0:0:0:
345,291,704144,1,4,0:3:0:0:
345,291,704487,6,0,L|223:313,1,100,4|0,0:3|0:0,0:0:0:0:
185,179,704830,2,0,L|307:200,1,100,4|0,0:3|0:0,0:0:0:0:
345,66,705172,2,0,L|222:87,1,100,4|0,0:3|0:0,0:0:0:0:
185,179,705515,5,4,0:3:0:0:
185,179,705687,2,0,P|206:241|243:262,1,100,0|4,0:0|0:3,0:0:0:0:
356,193,706030,2,0,L|250:189,1,100,0|4,0:0|0:3,0:0:0:0:
83,184,706372,1,0,0:0:0:0:
196,308,706544,2,0,L|241:308,7,25,4|0|0|0|0|0|0|0,0:3|0:0|0:0|0:0|0:0|0:0|0:0|0:0,0:0:0:0:
208,273,706887,6,0,P|230:214|292:173,1,100,4|0,0:3|0:0,0:0:0:0:
444,197,707230,2,0,P|422:138|360:97,1,100,4|0,0:3|0:0,0:0:0:0:
225,94,707572,2,0,P|166:116|125:178,1,100,4|0,0:3|0:0,0:0:0:0:
208,273,707915,2,0,P|267:251|308:189,1,100,4|0,0:3|0:0,0:0:0:0:
225,94,708258,5,4,0:3:0:0:
225,94,708430,2,0,L|225:215,1,100,0|4,0:0|0:3,0:0:0:0:
380,165,708772,2,0,L|380:286,1,100,0|4,0:0|0:3,0:0:0:0:
132,265,709115,1,0,0:0:0:0:
132,265,709287,2,0,L|132:165,1,100,4|4,0:3|0:3,0:0:0:0:
319,187,709630,6,0,P|369:229|346:220,1,350,4|0,0:3|0:0,0:0:0:0:
331,227,710315,1,4,0:3:0:0:
192,286,710487,1,0,0:0:0:0:
314,205,710658,5,4,0:3:0:0:
178,196,710830,1,0,0:0:0:0:
320,162,711001,5,4,0:3:0:0:
191,114,711172,1,0,0:0:0:0:
336,137,711344,5,4,0:3:0:0:
228,32,711515,1,0,0:0:0:0:
361,126,711687,5,4,0:3:0:0:
316,6,711858,1,0,0:0:0:0:
405,131,712030,2,0,P|465:187|351:253,1,239.999992675781,4|4,0:3|0:3,0:0:0:0:
149,191,712544,6,0,L|214:203,1,59.9999981689454
264,212,712715,2,0,P|240:283|136:300,1,179.999994506836,4|0,0:3|0:0,0:0:0:0:
149,191,713058,2,0,L|76:285,1,100,4|0,0:3|0:0,0:0:0:0:
28,169,713401,2,0,L|101:75,1,100,4|0,0:3|0:0,0:0:0:0:
238,73,713744,6,0,P|324:69|383:145,1,179.999994506836,4|0,0:3|0:0,0:0:0:0:
381,135,714087,1,4,0:3:0:0:
242,193,714258,1,0,0:0:0:0:
120,260,714430,2,0,P|168:310|255:306,1,150,4|0,0:3|0:0,0:0:0:0:
245,312,714772,1,4,0:3:0:0:
242,193,714944,5,0,0:0:0:0:
242,193,715030,1,0,0:0:0:0:
242,193,715115,1,4,0:3:0:0:
364,265,715287,2,0,L|293:265,1,59.9999981689454
245,312,715458,2,0,P|185:262|169:149,1,179.999994506836,4|0,0:3|0:0,0:0:0:0:
195,102,715801,2,0,L|247:204,1,100,4|0,0:3|0:0,0:0:0:0:
285,102,716144,2,0,L|233:204,1,100,4|0,0:3|0:0,0:0:0:0:
245,312,716487,6,0,P|332:305|378:217,1,179.999994506836,4|0,0:3|0:0,0:0:0:0:
377,231,716830,1,4,0:3:0:0:
285,102,717001,1,0,0:0:0:0:
177,212,717172,2,0,L|248:316,1,119.999996337891,4|0,0:3|0:0,0:0:0:0:
377,231,717515,2,0,L|356:232,8,12.5,4|0|0|0|0|0|0|0|4,0:3|0:0|0:0|0:0|0:0|0:0|0:0|0:0|0:3,0:0:0:0:
246,328,718030,1,0,0:0:0:0:
246,328,718201,6,0,P|181:287|142:234,1,100,4|0,0:3|0:0,0:0:0:0:
42,197,718544,2,0,P|78:162|122:139,1,100,4|0,0:3|0:0,0:0:0:0:
246,212,718887,2,0,P|209:246|165:269,1,100,4|0,0:3|0:0,0:0:0:0:
122,139,719230,1,4,0:3:0:0:
244,130,719401,2,0,P|287:153|324:187,1,100,0|4,0:0|0:3,0:0:0:0:
165,268,719744,2,0,P|122:245|85:211,1,100,0|4,0:0|0:3,0:0:0:0:
241,60,720087,1,0,0:0:0:0:
241,60,720258,2,0,L|153:187,1,150,4|0,0:3|0:0,0:0:0:0:
125,250,720601,6,0,P|287:342|338:202,1,350,4|0,0:3|0:0,0:0:0:0:
345,235,721287,1,4,0:3:0:0:
202,267,721458,1,0,0:0:0:0:
345,235,721630,1,4,0:3:0:0:
203,152,721801,1,0,0:0:0:0:
345,235,721972,6,0,L|467:235,1,120
468,167,722315,2,0,L|346:167,1,120
351,99,722658,2,0,L|471:99,1,120,0|4,0:0|0:0,0:0:0:0:
465,235,723344,5,4,0:3:0:0:
465,235,723515,2,0,P|404:200|336:204,1,100,0|4,0:0|0:3,0:0:0:0:
271,114,723858,1,0,0:0:0:0:
271,114,723944,1,0,0:0:0:0:
271,114,724030,2,0,P|236:175|240:243,1,100,4|0,0:3|0:0,0:0:0:0:
337,286,724372,5,4,0:3:0:0:
337,286,724458,1,0,0:0:0:0:
337,286,724544,2,0,P|372:225|368:157,1,100,0|4,0:0|0:3,0:0:0:0:
271,114,724887,1,0,0:0:0:0:
271,114,724972,1,0,0:0:0:0:
271,114,725058,2,0,P|210:79|142:83,1,100,4|0,0:3|0:0,0:0:0:0:
133,278,725401,6,0,L|133:170,1,100,4|0,0:3|0:0,0:0:0:0:
271,114,725744,2,0,L|271:214,1,100,4|0,0:3|0:0,0:0:0:0:
271,348,726087,5,4,0:3:0:0:
271,348,726258,2,0,P|355:315|385:280,1,100,0|4,0:0|0:3,0:0:0:0:
470,160,726601,1,0,0:0:0:0:
470,160,726687,1,0,0:0:0:0:
470,160,726772,2,0,L|363:160,1,100,4|0,0:3|0:0,0:0:0:0:
195,268,727115,5,4,0:3:0:0:
195,268,727201,1,0,0:0:0:0:
195,268,727286,2,0,L|302:268,1,100,0|4,0:0|0:3,0:0:0:0:
470,260,727630,1,0,0:0:0:0:
470,260,727716,1,0,0:0:0:0:
470,260,727801,2,0,L|470:153,1,100,4|0,0:3|0:0,0:0:0:0:
215,94,728144,6,0,L|137:164,1,100,4|0,0:3|0:0,0:0:0:0:
297,290,728487,2,0,L|375:220,1,100,4|0,0:3|0:0,0:0:0:0:
215,94,728830,5,4,0:3:0:0:
215,94,729001,2,0,L|215:217,1,100,0|4,0:0|0:3,0:0:0:0:
381,142,729344,1,0,0:0:0:0:
381,142,729430,1,0,0:0:0:0:
381,142,729515,2,0,L|381:264,1,100,4|0,0:3|0:0,0:0:0:0:
96,163,729858,5,4,0:3:0:0:
96,163,729944,1,0,0:0:0:0:
96,163,730030,2,0,L|96:286,1,100,0|4,0:0|0:3,0:0:0:0:
441,239,730372,1,0,0:0:0:0:
441,239,730458,1,0,0:0:0:0:
441,239,730543,2,0,L|441:361,1,100,4|0,0:3|0:0,0:0:0:0:
206,321,730887,6,0,L|335:318,1,100,4|0,0:3|0:0,0:0:0:0:
287,171,731230,2,0,L|158:174,1,100,4|0,0:3|0:0,0:0:0:0:
106,321,731572,5,4,0:3:0:0:
106,321,731658,1,0,0:0:0:0:
106,321,731744,2,0,L|240:321,1,100,0|4,0:0|0:3,0:0:0:0:
387,171,732087,1,0,0:0:0:0:
387,171,732172,1,0,0:0:0:0:
387,171,732258,2,0,L|279:171,1,100,4|0,0:3|0:0,0:0:0:0:
106,221,732601,1,4,0:3:0:0:
106,221,732687,1,0,0:0:0:0:
106,221,732772,1,0,0:0:0:0:
388,338,732944,5,4,0:3:0:0:
396,309,733030,1,0,0:0:0:0:
389,280,733115,1,0,0:0:0:0:
377,252,733201,1,0,0:0:0:0:
357,228,733287,1,4,0:3:0:0:
179,197,733458,5,0,0:0:0:0:
171,226,733544,1,0,0:0:0:0:
178,255,733629,1,4,0:3:0:0:
357,228,733801,5,0,0:0:0:0:
365,199,733887,1,0,0:0:0:0:
358,170,733972,2,0,P|339:117|263:96,1,112.500004291535,4|0,0:3|0:0,0:0:0:0:
185,167,734315,6,0,L|325:162,1,100,4|0,0:3|0:0,0:0:0:0:
456,224,734658,2,0,L|316:229,1,100,4|0,0:3|0:0,0:0:0:0:
188,266,735001,2,0,L|185:167,1,100,4|0,0:3|0:0,0:0:0:0:
452,124,735344,2,0,L|455:223,1,100,4|0,0:3|0:0,0:0:0:0:
333,300,735687,6,0,P|255:290|174:260,1,150,4|0,0:3|0:0,0:0:0:0:
113,153,736030,2,0,L|98:211,1,50,4|0,0:3|0:0,0:0:0:0:
175,218,736201,2,0,L|190:276,1,50
262,196,736372,2,0,P|323:213|350:146,1,100,4|0,0:3|0:0,0:0:0:0:
197,149,736715,2,0,P|136:132|109:199,1,100,4|0,0:3|0:0,0:0:0:0:
100,314,737058,6,0,L|199:259,1,100,4|0,0:3|0:0,0:0:0:0:
284,100,737401,2,0,L|185:155,1,100,4|0,0:3|0:0,0:0:0:0:
87,169,737744,2,0,L|186:224,1,100,4|0,0:3|0:0,0:0:0:0:
349,244,738087,2,0,L|250:189,1,100,4|0,0:3|0:0,0:0:0:0:
87,169,738430,6,0,L|87:354,1,150,4|0,0:3|0:0,0:0:0:0:
162,275,738772,2,0,L|225:275,1,50,4|0,0:3|0:0,0:0:0:0:
211,195,738944,2,0,L|274:195,1,50
310,275,739115,2,0,P|356:224|355:156,1,100,4|0,0:3|0:0,0:0:0:0:
262,115,739458,2,0,P|216:166|217:234,1,100,4|0,0:3|0:0,0:0:0:0:
396,316,739801,6,0,P|356:284|299:275,1,100,4|0,0:3|0:0,0:0:0:0:
123,236,740144,2,0,P|163:204|220:195,1,100,4|0,0:3|0:0,0:0:0:0:
396,156,740487,2,0,P|356:124|299:115,1,100,4|0,0:3|0:0,0:0:0:0:
123,76,740830,2,0,P|163:44|220:35,1,100,4|0,0:3|0:0,0:0:0:0:
305,194,741172,6,0,P|236:172|191:95,1,150,4|0,0:3|0:0,0:0:0:0:
284,108,741515,2,0,L|330:79,1,50,4|0,0:3|0:0,0:0:0:0:
280,28,741687,2,0,L|234:57,1,50
193,110,741858,2,0,P|151:171|109:195,1,100,4|0,0:3|0:0,0:0:0:0:
243,269,742201,2,0,P|284:207|327:184,1,100,4|0,0:3|0:0,0:0:0:0:
79,271,742544,6,0,L|135:177,1,100,4|0,0:3|0:0,0:0:0:0:
294,183,742887,2,0,L|238:277,1,100,4|0,0:3|0:0,0:0:0:0:
130,185,743230,2,0,L|186:91,1,100,4|0,0:3|0:0,0:0:0:0:
345,97,743573,2,0,L|289:191,1,100,4|0,0:3|0:0,0:0:0:0:
181,99,743915,2,0,L|426:94,1,225.000008583069,4|0,0:3|0:0,0:0:0:0:
390,268,744601,6,0,P|321:303|281:300,1,89.9999972534181
217,247,744944,1,0,0:0:0:0:
216,340,745115,1,0,0:0:0:0:
131,281,745287,2,0,B|79:217|103:159|103:159|170:192|236:141,1,269.999991760254
159,95,745972,5,0,0:0:0:0:
84,78,746144,1,0,0:0:0:0:
30,143,746315,1,0,0:0:0:0:
105,160,746487,1,0,0:0:0:0:
173,201,746658,2,0,P|155:284|221:357,1,179.999994506836,0|2,0:0|0:1,0:0:0:0:
228,267,747172,1,2,0:1:0:0:
249,190,747344,5,0,0:0:0:0:
173,201,747515,2,0,P|119:179|95:131,1,89.9999972534181
101,154,747772,1,0,0:0:0:0:
101,154,747858,1,0,0:0:0:0:
168,97,748030,2,0,P|108:70|7:138,1,179.999994506836
173,201,748544,5,0,0:0:0:0:
173,201,748715,2,0,L|135:298,1,89.9999972534181
268,236,749058,1,0,0:0:0:0:
235,319,749230,1,0,0:0:0:0:
268,236,749401,2,0,P|274:177|405:125,1,179.999994506836,0|2,0:0|0:1,0:0:0:0:
369,116,750087,5,0,0:0:0:0:
346,203,750258,1,0,0:0:0:0:
369,116,750430,1,0,0:0:0:0:
434,184,750601,1,0,0:0:0:0:
346,203,750772,2,0,P|251:192|127:73,1,269.999991760254
38,75,751458,5,0,0:0:0:0:
45,164,751630,1,0,0:0:0:0:
94,238,751801,1,0,0:0:0:0:
182,250,751972,1,0,0:0:0:0:
269,229,752144,2,0,P|316:199|326:83,1,179.999994506836,0|2,0:0|0:1,0:0:0:0:
326,83,752572,1,2,0:1:0:0:
326,83,752658,1,2,0:1:0:0:
244,140,752830,5,0,0:0:0:0:
149,111,753001,1,0,0:0:0:0:
120,206,753172,1,0,0:0:0:0:
215,235,753343,1,0,0:0:0:0:
244,140,753515,2,0,L|191:312,1,179.999994506836
102,290,754030,5,0,0:0:0:0:
41,223,754201,1,0,0:0:0:0:
102,156,754372,1,0,0:0:0:0:
169,217,754544,1,0,0:0:0:0:
236,156,754715,1,0,0:0:0:0:
303,217,754887,5,2,0:1:0:0:
303,217,754972,1,2,0:1:0:0:
303,217,755058,1,2,0:1:0:0:
303,217,755144,1,2,0:1:0:0:
303,217,755230,2,0,L|348:242,1,44.999998626709,2|0,0:1|0:0,0:0:0:0:
409,192,755401,2,0,L|364:167,1,44.999998626709,2|0,0:1|0:0,0:0:0:0:
296,135,755572,5,0,0:0:0:0:
265,50,755744,1,0,0:0:0:0:
201,113,755915,1,0,0:0:0:0:
170,28,756087,1,0,0:0:0:0:
106,91,756258,2,0,P|137:174|234:201,1,179.999994506836,8|8,0:1|0:1,0:0:0:0:
217,203,756772,1,0,0:0:0:0:
291,152,756944,5,8,0:1:0:0:
372,190,757115,1,0,0:0:0:0:
308,253,757287,1,8,0:1:0:0:
391,285,757458,1,0,0:0:0:0:
320,341,757630,2,0,P|261:341|119:277,1,179.999994506836,8|10,0:1|0:1,0:0:0:0:
74,247,758144,1,2,0:1:0:0:
158,215,758315,5,8,0:1:0:0:
112,137,758487,1,0,0:0:0:0:
190,91,758658,1,8,0:1:0:0:
236,169,758830,1,0,0:1:0:0:
314,123,759001,2,0,L|435:283,1,179.999994506836,8|8,0:1|0:1,0:0:0:0:
357,329,759515,5,0,0:0:0:0:
305,255,759687,1,8,0:1:0:0:
245,187,759858,1,0,0:0:0:0:
155,177,760030,1,8,0:1:0:0:
73,139,760201,1,0,0:0:0:0:
37,56,760372,2,0,B|111:33|111:33|156:65|224:77,1,179.999994506836,8|10,0:1|0:1,0:0:0:0:
204,73,761058,5,8,0:1:0:0:
203,163,761230,1,0,0:0:0:0:
294,74,761401,1,8,0:1:0:0:
293,164,761572,1,0,0:0:0:0:
384,75,761744,2,0,B|427:200|346:253,1,179.999994506836,8|8,0:1|0:1,0:0:0:0:
360,242,762430,5,8,0:1:0:0:
321,323,762601,1,0,0:0:0:0:
262,255,762772,1,8,0:1:0:0:
295,171,762944,1,0,0:0:0:0:
205,177,763115,2,0,P|167:216|205:338,1,179.999994506836,8|10,0:1|0:1,0:0:0:0:
191,328,763544,1,2,0:1:0:0:
191,328,763630,1,2,0:1:0:0:
321,323,763801,6,0,P|351:274|350:224,1,89.9999972534181,8|0,0:1|0:0,0:0:0:0:
278,141,764144,1,8,0:1:0:0:
282,256,764315,1,0,0:0:0:0:
201,156,764487,2,0,P|126:155|27:80,1,179.999994506836,8|8,0:1|0:1,0:0:0:0:
127,76,765001,5,0,0:0:0:0:
216,66,765172,1,8,0:1:0:0:
201,156,765344,1,0,0:0:0:0:
285,124,765515,5,8,0:1:0:0:
338,196,765686,1,0,0:1:0:0:
252,228,765858,2,0,P|170:258|106:346,1,179.999994506836,8|8,0:1|0:1,0:0:0:0:
312,322,766544,6,2,L|340:318,6,22.4999993133545,2|2|2|2|2|2|2,0:1|0:1|0:1|0:1|0:1|0:1|0:1,0:1:0:0:
219,281,766887,2,0,L|276:305,1,44.999998626709,2|0,0:1|0:0,0:0:0:0:
365,269,767058,2,0,L|308:293,1,44.999998626709,2|0,0:1|0:0,0:0:0:0:
312,322,767230,6,0,P|260:353|204:347,1,89.9999972534181,2|0,0:1|0:0,0:0:0:0:
139,249,767572,2,0,P|191:280|247:274,1,89.9999972534181,2|0,0:1|0:0,0:0:0:0:
292,157,767915,2,0,P|240:188|184:182,1,89.9999972534181,2|0,0:1|0:0,0:0:0:0:
115,168,768258,1,2,0:1:0:0:
115,168,768430,2,0,P|124:231|171:267,1,89.9999972534181,2|0,0:1|0:0,0:0:0:0:
376,126,768772,2,0,L|275:162,1,89.9999972534181,2|0,0:1|0:0,0:0:0:0:
140,250,769115,2,0,L|241:286,1,89.9999972534181,2|0,0:1|0:0,0:0:0:0:
376,344,769458,2,0,L|275:380,1,89.9999972534181,2|0,0:1|0:0,0:0:0:0:
140,250,769801,5,2,0:1:0:0:
140,250,769972,2,0,P|193:202|201:162,1,100,2|0,0:1|0:0,0:0:0:0:
133,60,770315,2,0,P|80:108|72:148,1,100,2|0,0:1|0:0,0:0:0:0:
201,171,770658,2,0,L|341:171,1,100,2|0,0:1|0:0,0:0:0:0:
458,169,771001,5,2,0:1:0:0:
458,169,771172,2,0,P|448:229|408:267,1,100,2|0,0:1|0:0,0:0:0:0:
201,171,771515,2,0,L|331:171,1,100,2|0,0:1|0:0,0:0:0:0:
431,251,771858,2,0,L|311:251,1,100,2|0,0:1|0:0,0:0:0:0:
201,331,772201,2,0,L|327:330,1,100,2|0,0:1|0:0,0:0:0:0:
301,171,772544,5,2,0:1:0:0:
301,171,772715,2,0,P|270:105|228:91,1,110.000003356934,2|0,0:1|0:0,0:0:0:0:
166,195,773058,2,0,P|197:261|239:275,1,110.000003356934,2|0,0:1|0:0,0:0:0:0:
358,127,773401,2,0,P|327:61|285:47,1,110.000003356934,2|0,0:1|0:0,0:0:0:0:
109,239,773744,2,0,P|140:305|182:319,1,110.000003356934,2|0,0:1|0:0,0:0:0:0:
227,116,774087,6,0,P|181:143|166:195,1,110.000003356934,2|0,0:1|0:0,0:0:0:0:
239,297,774430,2,0,P|285:270|300:218,1,110.000003356934,2|0,0:1|0:0,0:0:0:0:
170,72,774773,2,0,P|124:99|109:151,1,110.000003356934,2|0,0:1|0:0,0:0:0:0:
296,341,775116,2,0,P|342:314|357:262,1,110.000003356934,2|0,0:1|0:0,0:0:0:0:
195,157,775458,6,0,L|196:214,1,44.999998626709,2|0,0:1|0:0,0:0:0:0:
357,218,775630,2,0,L|358:275,1,44.999998626709,2|0,0:1|0:0,0:0:0:0:
195,279,775801,2,0,L|196:336,1,44.999998626709,2|0,0:1|0:0,0:0:0:0:
357,340,775973,2,0,L|358:397,1,44.999998626709,2|0,0:1|0:0,0:0:0:0:
195,279,776144,6,0,L|196:222,1,44.999998626709,2|0,0:1|0:0,0:0:0:0:
357,218,776315,2,0,L|358:161,1,44.999998626709,2|0,0:1|0:0,0:0:0:0:
195,157,776487,2,0,L|196:100,1,44.999998626709,2|0,0:1|0:0,0:0:0:0:
357,96,776658,2,0,L|358:39,1,44.999998626709,2|0,0:1|0:0,0:0:0:0:
195,35,776830,5,4,0:3:0:0:
357,218,777172,1,4,0:3:0:0:
195,323,777515,2,0,P|156:318|83:336,1,100
195,323,778201,6,0,P|250:269|241:213,1,100,4|0,0:3|0:0,0:0:0:0:
96,114,778544,2,0,P|94:188|117:219,1,100,4|0,0:3|0:0,0:0:0:0:
251,250,778887,2,0,P|322:249|382:279,1,100,4|0,0:3|0:0,0:0:0:0:
479,346,779230,2,0,P|502:282|486:223,1,100,4|0,0:3|0:0,0:0:0:0:
371,57,779572,5,4,0:3:0:0:
371,57,779744,2,0,P|291:52|239:62,1,100,0|4,0:0|0:3,0:0:0:0:
64,165,780087,2,0,P|144:160|196:170,1,100,0|4,0:0|0:3,0:0:0:0:
421,229,780430,1,0,0:0:0:0:
421,229,780601,2,0,P|341:224|289:234,1,100,4|0,0:3|0:3,0:0:0:0:
321,226,780944,1,4,0:3:0:0:
64,65,781287,6,0,L|64:190,1,100,4|0,0:3|0:0,0:0:0:0:
163,262,781630,2,0,L|163:162,1,100,4|0,0:3|0:0,0:0:0:0:
262,259,781972,2,0,L|262:359,1,100,4|0,0:3|0:0,0:0:0:0:
163,262,782315,5,4,0:3:0:0:
163,262,782487,2,0,L|163:162,1,100,0|4,0:3|0:3,0:0:0:0:
339,202,782830,2,0,P|292:250|236:257,1,100,0|4,0:3|0:3,0:3:0:0:
163,162,783172,1,0,0:0:0:0:
163,162,783344,2,0,L|163:129,7,25
163,162,783687,6,0,P|158:233|176:271,1,100,4|0,0:3|0:0,0:0:0:0:
330,214,784030,2,0,P|250:199|202:210,1,100,4|0,0:3|0:0,0:0:0:0:
55,188,784372,2,0,P|50:259|68:297,1,100,4|0,0:3|0:0,0:0:0:0:
265,271,784715,2,0,P|185:256|137:267,1,100,4|0,0:3|0:0,0:0:0:0:
163,137,785058,5,4,0:3:0:0:
163,137,785230,2,0,P|229:93|290:93,1,100,0|4,0:0|0:3,0:0:0:0:
414,166,785572,2,0,P|348:210|287:210,1,100,0|4,0:0|0:3,0:0:0:0:
167,258,785915,1,0,0:0:0:0:
341,300,786087,2,0,P|412:309|470:340,1,100,4|0,0:3|0:0,0:0:0:0:
291,367,786430,6,0,B|219:282|284:136|379:279|418:193,1,262.500010013581,4|0,0:3|0:3,0:0:0:0:
413,204,787115,1,2,0:2:0:0:
426,190,787201,1,0,0:0:0:0:
436,174,787287,1,2,0:2:0:0:
440,155,787372,1,0,0:0:0:0:
437,136,787458,5,2,0:2:0:0:
427,119,787544,1,0,0:0:0:0:
414,104,787630,1,2,0:2:0:0:
398,94,787715,1,0,0:0:0:0:
379,89,787801,1,2,0:2:0:0:
238,147,787972,2,0,L|238:205,2,37.5000014305115,2|0|2,0:2|0:0|0:2,0:0:0:0:
379,89,788315,1,2,0:2:0:0:
241,61,788487,6,0,P|189:58|138:74,1,75.0000028610231,6|0,0:2|0:0,0:2:0:0:
170,303,788830,1,0,0:0:0:0:
204,128,789001,1,0,0:0:0:0:
250,305,789172,6,0,P|316:300|367:144,1,239.999992675781,4|4,0:3|0:3,0:0:0:0:
250,305,789687,1,0,0:0:0:0:
204,128,789858,5,4,0:3:0:0:
373,156,790030,1,0,0:0:0:0:
179,271,790201,1,4,0:3:0:0:
348,243,790373,1,0,0:0:0:0:
141,176,790544,6,0,P|128:105|188:54,1,119.999996337891,4|0,0:3|0:3,0:0:0:0:
384,72,790887,2,0,L|304:72,1,75.0000028610231,6|0,0:3|0:0,0:0:0:0:
141,176,791058,2,0,L|220:176,1,75.0000028610231,2|0,0:3|0:0,0:0:0:0:
288,177,791230,5,4,0:3:0:0:
140,327,791401,1,0,0:0:0:0:
361,318,791572,1,4,0:3:0:0:
385,301,791658,1,0,0:0:0:0:
403,277,791744,1,0,0:0:0:0:
219,217,791915,6,0,P|223:137|263:103,2,119.999996337891,4|0|4,0:3|0:0|0:3,0:0:0:0:
403,277,792430,1,0,0:0:0:0:
160,267,792601,2,0,P|231:294|278:271,1,119.999996337891,4|0,0:3|0:0,0:0:0:0:
392,112,792944,1,4,0:3:0:0:
178,108,793115,1,0,0:0:0:0:
320,226,793287,2,0,P|339:296|284:349,1,119.999996337891,4|0,0:3|0:0,0:0:0:0:
81,290,793630,2,0,P|147:252|54:139,1,225.000008583069,6|0,0:3|0:0,0:0:0:0:
83,211,793972,5,4,0:3:0:0:
268,278,794144,1,0,0:0:0:0:
83,211,794315,1,4,0:3:0:0:
282,163,794487,1,0,0:0:0:0:
76,73,794658,2,0,P|166:74|283:165,1,239.999992675781,4|4,0:3|0:3,0:0:0:0:
332,346,795172,5,0,0:0:0:0:
199,203,795344,1,4,0:3:0:0:
332,346,795515,1,0,0:0:0:0:
465,203,795687,1,4,0:3:0:0:
332,346,795858,1,0,0:0:0:0:
120,208,796030,2,0,P|155:265|214:279,1,119.999996337891,4|0,0:3|0:0,0:0:0:0:
384,192,796372,2,0,B|400:176|400:176|384:160|384:160|400:144|400:144|384:128|384:128|400:112,3,75.0000028610231,6|2|2|2,0:3|0:3|0:3|0:3,0:0:0:0:
384,192,796715,5,4,0:3:0:0:
217,85,796887,1,0,0:0:0:0:
276,268,797058,1,4,0:3:0:0:
342,76,797230,1,0,0:0:0:0:
153,184,797401,6,0,P|126:269|249:339,1,239.999992675781,4|4,0:3|0:3,0:0:0:0:
345,161,797915,1,0,0:0:0:0:
202,258,798087,1,4,0:3:0:0:
435,168,798258,1,0,0:0:0:0:
153,184,798430,1,4,0:3:0:0:
482,232,798601,1,0,0:0:0:0:
176,108,798772,5,6,0:3:0:0:
138,109,798858,1,2,0:3:0:0:
104,126,798944,1,2,0:3:0:0:
83,157,799030,1,2,0:3:0:0:
79,194,799115,2,0,P|92:228|121:251,1,75.0000028610231,6|0,0:3|0:0,0:0:0:0:
230,173,799287,2,0,P|216:138|187:115,1,75.0000028610231,2|0,0:3|0:0,0:0:0:0:
153,184,799458,5,4,0:3:0:0:
231,348,799630,1,0,0:0:0:0:
230,173,799801,1,0,0:3:0:0:
147,336,799972,1,0,0:0:0:0:
292,89,800144,6,0,P|306:147|351:185,1,119.999996337891,4|0,0:3|0:0,0:0:0:0:
220,294,800487,2,0,P|205:236|160:198,1,119.999996337891,4|0,0:3|0:0,0:0:0:0:
366,109,800830,1,4,0:3:0:0:
220,294,801001,1,0,0:0:0:0:
150,108,801172,1,4,0:3:0:0:
351,185,801344,1,0,0:0:0:0:
143,273,801515,6,0,P|207:259|262:186,1,119.999996337891,4|0,0:3|0:0,0:0:0:0:
150,108,801858,2,0,P|116:158|112:171,1,59.9999981689454,6|0,0:3|0:0,0:0:0:0:
245,222,802030,2,0,P|279:172|283:159,1,59.9999981689454,2|0,0:3|0:0,0:0:0:0:
145,275,802201,5,4,0:3:0:0:
269,69,802372,1,0,0:0:0:0:
311,284,802544,1,4,0:3:0:0:
150,108,802715,1,0,0:0:0:0:
145,275,802887,6,0,P|221:201|361:197,1,239.999992675781,4|4,0:3|0:3,0:0:0:0:
493,343,803401,1,0,0:0:0:0:
266,264,803572,1,4,0:3:0:0:
508,194,803744,1,0,0:0:0:0:
322,338,803915,1,4,0:3:0:0:
351,141,804087,1,0,0:0:0:0:
476,308,804258,2,0,P|408:263|336:255,1,119.999996337891,4|0,0:3|0:0,0:0:0:0:
230,263,804601,6,0,P|350:222|349:136,1,225.000008583069,6|0,0:3|0:0,0:0:0:0:
351,141,804944,1,4,0:3:0:0:
220,75,805115,1,0,0:0:0:0:
276,192,805287,1,4,0:3:0:0:
300,75,805458,1,0,0:0:0:0:
202,158,805630,6,0,P|116:176|83:239,1,119.999996337891,4|0,0:3|0:3,0:0:0:0:
171,231,805972,2,0,P|257:213|290:150,1,119.999996337891,4|0,0:3|0:3,0:0:0:0:
395,43,806315,1,4,0:3:0:0:
482,192,806487,1,0,0:0:0:0:
336,188,806658,1,4,0:3:0:0:
481,64,806830,1,0,0:0:0:0:
407,213,807001,6,0,P|358:264|296:251,1,119.999996337891,4|0,0:3|0:0,0:0:0:0:
303,137,807344,2,0,L|345:202,3,59.9999981689454,6|2|2|2,0:3|0:3|0:3|0:3,0:0:0:0:
303,137,807687,2,0,P|223:88|165:89,1,119.999996337891,4|0,0:3|0:0,0:0:0:0:
26,205,808030,1,4,0:3:0:0:
265,209,808201,1,0,0:0:0:0:
26,205,808372,6,0,B|58:269|58:269|186:269|186:269|218:333,1,239.999992675781,4|4,0:3|0:3,0:0:0:0:
362,230,808887,1,0,0:0:0:0:
184,272,809058,1,4,0:3:0:0:
331,162,809230,1,0,0:0:0:0:
204,305,809401,1,4,0:3:0:0:
258,123,809572,1,0,0:0:0:0:
313,303,809744,6,0,P|389:307|443:223,1,179.999994506836
362,230,810087,2,0,P|418:157|521:225,1,225.000008583069
509,96,810430,2,0,P|378:93|291:199,1,269.999991760254
285,223,810772,1,4,0:3:0:0:
285,223,811115,6,0,P|187:216|157:201,1,100,4|0,0:3|0:0,0:0:0:0:
85,115,811458,2,0,P|44:165|43:224,1,100,4|0,0:3|0:0,0:0:0:0:
187,288,811801,2,0,P|263:297|312:285,1,100,4|0,0:3|0:0,0:0:0:0:
426,186,812144,2,0,P|465:232|469:290,1,100,4|0,0:3|0:0,0:0:0:0:
285,293,812487,6,0,P|246:247|242:189,1,100,4|0,0:3|0:0,0:0:0:0:
96,80,812830,1,4,0:3:0:0:
304,80,813001,1,0,0:0:0:0:
312,224,813172,2,0,B|368:192|368:192|456:192|456:192|512:160,1,200,4|4,0:3|0:3,0:0:0:0:
400,120,813687,1,0,0:0:0:0:
400,120,813858,6,0,B|344:120|344:120|272:160,1,100,4|0,0:3|0:0,0:0:0:0:
384,280,814201,2,0,B|345:301|345:301|289:301,1,100,4|0,0:3|0:0,0:0:0:0:
112,120,814544,2,0,B|168:120|168:120|206:141,1,100,4|0,0:3|0:0,0:0:0:0:
128,280,814887,2,0,B|166:301|166:301|222:301,1,100,4|0,0:3|0:0,0:0:0:0:
400,120,815230,6,0,B|400:160|400:160|424:176|424:176|424:224,1,100,4|0,0:3|0:0,0:0:0:0:
222,301,815572,1,4,0:3:0:0:
384,280,815744,1,0,0:0:0:0:
244,229,815915,2,0,P|165:251|174:358,1,200,4|4,0:3|0:3,0:0:0:0:
384,280,816430,1,0,0:0:0:0:
384,280,816601,6,0,P|342:216|360:155,1,100,4|0,0:3|0:0,0:0:0:0:
128,104,816944,2,0,P|170:168|152:229,1,100,4|0,0:3|0:0,0:0:0:0:
156,335,817287,2,0,P|190:266|252:251,1,100,4|0,0:3|0:0,0:0:0:0:
180,25,817630,2,0,P|145:93|83:108,1,100,4|0,0:3|0:0,0:0:0:0:
248,189,817972,6,0,P|324:184|368:230,1,100,4|0,0:3|0:0,0:0:0:0:
476,343,818315,1,4,0:3:0:0:
291,250,818487,1,0,0:0:0:0:
106,343,818658,2,0,L|106:121,1,200,4|4,0:3|0:3,0:0:0:0:
311,63,819172,1,0,0:0:0:0:
311,63,819400,6,0,P|356:102|355:199,1,150,4|0,0:3|0:0,0:0:0:0:
294,143,819900,2,0,P|244:197|266:284,1,150,4|0,0:3|0:0,0:0:0:0:
312,216,820538,2,0,P|348:263|311:343,1,150,4|0,0:3|0:0,0:0:0:0:
276,279,821219,2,0,L|92:279,1,150,4|0,0:3|0:0,0:0:0:0:
256,192,822219,12,0,823969,0:0:0:0:
