osu file format v14

[General]
AudioFilename: audio.mp3
AudioLeadIn: 0
PreviewTime: 75462
Countdown: 1
SampleSet: Soft
StackLeniency: 0.3
Mode: 0
LetterboxInBreaks: 0
WidescreenStoryboard: 0

[Editor]
Bookmarks: 152904,328361
DistanceSpacing: 2
BeatDivisor: 2
GridSize: 4
TimelineZoom: 2.3

[Metadata]
Title:S3RL Presently Presents (Cut Ver.)
TitleUnicode:S3RL Presently Presents (Cut Ver.)
Artist:S3RL
ArtistUnicode:S3RL
Creator:Bass
Version:Insane
Source:
Tags:
BeatmapID:1233183
BeatmapSetID:582692

[Difficulty]
HPDrainRate:6
CircleSize:5
OverallDifficulty:8
ApproachRate:9.3
SliderMultiplier:1.8
SliderTickRate:2

[Events]
//Background and Video events
0,0,"pompujrowerdlaszatana.jpg",0,0
//Break Periods
2,19862,20565
2,29547,31536
2,40518,42508
2,51490,53479
//Storyboard Layer 0 (Background)
//Storyboard Layer 1 (Fail)
//Storyboard Layer 2 (Pass)
//Storyboard Layer 3 (Foreground)
//Storyboard Layer 4 (Overlay)
//Storyboard Sound Samples

[TimingPoints]
10148,342.857142857143,4,2,0,70,1,0
14946,-200,4,1,0,70,0,0
15632,-100,4,1,0,70,0,0
21461,-66.6666666666667,4,1,0,70,0,0
26604,-100,4,1,0,70,0,0
32089,-100,4,1,0,70,0,1
38947,-66.6666666666667,4,1,0,70,0,1
43018,-66.6666666666667,4,1,0,70,0,0
43061,-66.6666666666667,4,1,0,70,0,1
47861,-200,4,1,0,70,0,1
48204,-66.6666666666667,4,1,0,70,0,1
51289,-100,4,1,0,70,0,0
54032,-133.333333333333,4,1,0,70,0,0
64661,-200,4,2,0,70,0,0
66375,-200,4,1,0,70,0,0
70318,-133.333333333333,4,1,0,70,0,0
73232,-200,4,1,0,70,0,0
75632,-66.6666666666667,4,1,0,70,0,0
84204,-100,4,1,0,70,0,0
84889,-200,4,1,0,70,0,0
86947,-100,4,1,0,70,0,1
91061,-200,4,1,0,70,0,1
92432,-66.6666666666667,4,1,0,70,0,1
97232,-133.333333333333,4,1,0,70,0,1
100661,-100,4,1,0,70,0,1
104775,-200,4,1,0,70,0,1
106147,-100,4,1,0,70,0,1
111632,-200,4,1,0,70,0,1
114376,-133.333333333333,4,1,0,70,0,1
122605,-100,4,1,0,70,0,1
125176,-133.333333333333,4,1,0,70,0,1
125348,-100,4,1,0,70,0,1
125690,-66.6666666666667,4,1,0,70,0,1
128090,-100,4,1,0,70,0,1
130662,-200,4,1,0,70,0,1
152839,-100,4,1,0,70,0,0
152841,342.857142857143,4,1,0,100,1,0
328374,342.857142857143,4,2,0,70,1,0
553296,342.857142857143,4,2,0,70,1,0
643804,342.857142857143,4,2,0,70,1,0

[HitObjects]
196,248,10148,6,0,P|160:284|112:292,1,90,0|0,1:0|0:0,0:0:0:0:
104,168,10490,2,0,L|88:80,1,90,0|0,1:0|0:0,0:0:0:0:
208,40,10833,1,0,0:0:0:0:
88,80,11005,1,0,0:0:0:0:
208,40,11176,1,0,0:0:0:0:
88,80,11348,1,0,0:0:0:0:
188,156,11519,5,0,0:0:0:0:
304,108,11690,2,0,L|392:128,2,90
188,156,12205,2,0,L|276:188,1,90
340,352,12548,2,0,L|252:320,1,90
96,232,12890,5,0,0:0:0:0:
96,232,13233,2,0,L|84:140,1,90
196,80,13576,2,0,P|256:136|316:80,1,180
368,196,14090,1,0,0:0:0:0:
336,320,14262,1,0,0:0:0:0:
144,196,14433,1,0,0:0:0:0:
144,196,14948,6,0,L|96:196,1,45
168,132,15290,2,0,L|216:132,1,45
380,60,15633,5,0,0:0:0:0:
432,176,15805,2,0,P|436:224|416:264,1,90
300,304,16148,1,0,0:0:0:0:
256,188,16319,2,0,P|236:148|240:104,1,90
424,8,16662,2,0,P|444:48|440:92,1,90
239,104,17005,6,0,P|292:36|376:56,1,180
328,172,17519,1,0,0:0:0:0:
212,216,17690,1,0,0:0:0:0:
212,216,18033,5,0,0:0:0:0:
88,192,18205,1,0,0:0:0:0:
168,92,18376,5,0,0:0:0:0:
168,92,18548,5,0,0:0:0:0:
168,92,18719,5,0,0:0:0:0:
168,92,18890,5,0,0:0:0:0:
168,92,19062,2,0,L|168:40,3,45
168,92,19405,2,0,L|168:116,6,22.5
208,288,21119,6,0,P|168:284|136:244,1,90
148,60,21462,6,0,L|96:188,1,135.000005149842,2|0,0:0|0:0,0:0:0:0:
364,60,21805,6,0,L|416:188,1,135.000005149842,2|0,0:0|0:0,0:0:0:0:
148,60,22148,6,0,L|96:188,1,135.000005149842,2|0,0:0|0:0,0:0:0:0:
364,60,22490,6,0,L|416:188,2,135.000005149842,2|2|0,0:0|0:0|0:0,0:0:0:0:
364,252,23005,2,0,P|428:276|480:240,1,135.000005149842,2|0,0:0|0:0,0:0:0:0:
320,344,23348,1,2,0:0:0:0:
256,168,23519,2,2,P|164:124|216:212,1,270.000010299683,0|0,0:0|0:0,0:0:0:0:
320,344,24033,5,0,0:0:0:0:
148,264,24205,6,0,P|100:224|84:156,1,135.000005149842
364,120,24548,6,0,P|412:160|428:228,1,135.000005149842
148,264,24890,6,0,P|100:224|84:156,1,135.000005149842
364,120,25233,5,0,0:0:0:0:
432,148,25576,1,0,0:0:0:0:
404,212,25919,1,0,0:0:0:0:
340,184,26262,1,0,0:0:0:0:
112,292,26605,5,0,0:0:0:0:
36,192,26776,2,0,L|68:240,1,45
112,292,26948,2,0,P|156:296|192:272,1,90
256,164,27290,2,0,L|320:184,1,45
380,168,27462,1,0,0:0:0:0:
308,64,27633,1,0,0:0:0:0:
308,320,27805,6,0,L|356:304,1,45
380,168,27976,2,0,B|404:156|404:156|424:184|424:184|452:176|488:188|488:220|460:240|444:232,2,135
372,40,28662,2,0,P|348:72|300:76,1,90
256,120,28919,1,0,0:0:0:0:
208,76,29005,2,0,L|196:56,8,22.5
132,344,32090,6,0,P|92:304|136:256,1,135
200,256,32433,2,0,P|212:208|200:164,1,90
140,60,32776,2,0,P|184:36|232:44,1,90
372,192,33119,2,0,P|328:216|280:208,1,90
364,112,33462,6,0,P|432:108|468:160,1,135
468,224,33805,2,0,B|468:264|468:264|428:296,1,90
128,192,34148,2,0,B|128:152|128:152|168:120,1,90
256,208,34490,2,0,B|256:248|256:248|216:280,1,90
348,84,34833,6,0,P|360:128|348:184,1,90
384,228,35090,2,0,P|440:248|472:192,1,135
332,320,35519,2,0,P|292:272|228:292,2,135
148,192,36205,6,0,L|132:104,1,90
148,192,36548,6,0,L|132:104,1,90
148,192,36890,6,0,L|132:100,1,90
148,192,37148,6,0,L|132:104,1,90
148,192,37405,6,0,L|132:108,1,45
196,116,37576,2,0,L|204:148,6,22.5
256,64,37919,6,0,L|312:68,1,45
316,256,38262,6,0,L|372:260,1,45
256,64,38605,6,0,L|312:68,1,45
316,256,38948,2,0,P|384:276|320:192,1,270.000010299683
196,256,39462,2,0,P|128:276|192:192,1,270.000010299683
316,256,39976,2,0,P|384:276|320:192,1,270.000010299683
344,344,43062,6,0,P|404:332|412:268,1,135.000005149842
344,164,43405,2,0,P|256:248|168:160,2,270.000010299683
256,80,44262,1,0,0:0:0:0:
168,160,44433,2,0,B|108:136|108:136|88:68,1,135.000005149842
260,192,44776,2,0,B|320:216|320:216|340:284,1,135.000005149842
192,240,45119,2,0,P|80:188|132:80,1,270.000010299683
252,60,45633,1,0,0:0:0:0:
408,192,45805,6,0,P|472:176|496:116,2,135.000005149842
372,308,46319,1,0,0:0:0:0:
256,336,46490,1,0,0:0:0:0:
256,216,46662,1,0,0:0:0:0:
140,244,46833,2,0,P|100:192|108:124,1,135.000005149842
212,64,47176,5,0,0:0:0:0:
420,192,47348,1,0,0:0:0:0:
192,276,47519,1,0,0:0:0:0:
192,276,47605,1,0,0:0:0:0:
192,276,47690,1,0,0:0:0:0:
476,168,47862,6,0,P|480:196|476:220,1,45
364,252,48205,5,0,0:0:0:0:
352,192,48290,1,0,0:0:0:0:
364,132,48376,1,0,0:0:0:0:
364,252,48548,2,0,B|336:300|336:300|240:296,1,135.000005149842
140,260,48890,6,0,P|76:192|100:84,1,202.500007724762
52,48,49233,2,0,P|108:88|160:56,1,135.000005149842
468,196,49576,2,0,P|412:156|360:188,1,135.000005149842
158,58,49919,5,0,0:0:0:0:
361,185,50176,1,0,0:0:0:0:
132,260,50433,1,0,0:0:0:0:
256,364,50605,5,0,0:0:0:0:
156,188,50776,1,0,0:0:0:0:
348,124,50948,1,0,0:0:0:0:
158,58,51119,1,0,0:0:0:0:
158,58,51205,1,0,0:0:0:0:
158,58,51290,1,0,0:0:0:0:
56,192,54033,6,0,B|104:188|104:188|120:168|120:168|104:144|104:144|92:100|136:80|136:80|188:96|212:52,1,270.000010299683,4|0,0:0|0:0,0:0:0:0:
256,96,54890,1,0,0:0:0:0:
300,52,55062,1,0,0:0:0:0:
432,192,55405,6,0,L|480:192,4,33.7500012874604
392,248,55919,1,0,0:0:0:0:
352,304,56090,2,0,B|320:336|300:328|272:312|272:312|264:272|236:256|208:256|196:268|184:264|172:268,1,202.500007724762
128,300,56776,2,0,B|52:264|40:224|76:160|76:160|132:176|152:136|140:96|140:96|156:68|200:56|232:96,1,405.000015449525
328,192,58148,5,0,0:0:0:0:
396,192,58319,1,0,0:0:0:0:
396,192,58405,1,0,0:0:0:0:
396,192,58490,1,0,0:0:0:0:
396,192,58576,1,0,0:0:0:0:
396,192,58662,6,0,P|464:288|352:324,1,270.000010299683
292,296,59519,2,0,B|256:268|256:268|280:212|236:156|152:160|128:208|128:208|152:256|120:280|120:280|56:260|56:260|24:192|24:192|56:136,2,540.000020599366
380,192,62605,5,0,0:0:0:0:
320,72,62948,1,0,0:0:0:0:
320,72,63290,1,0,0:0:0:0:
320,72,63633,1,0,0:0:0:0:
320,72,64662,5,2,0:0:0:0:
300,80,64748,1,0,0:0:0:0:
280,88,64833,1,2,0:0:0:0:
260,96,64919,1,2,0:0:0:0:
240,104,65005,1,2,1:2:0:0:
120,136,65176,5,2,0:0:0:0:
120,136,65348,1,2,0:0:0:0:
120,136,65519,1,2,0:0:0:0:
120,136,65690,1,2,0:0:0:0:
120,136,65862,1,2,0:0:0:0:
120,136,66033,1,2,0:0:0:0:
120,136,66205,1,2,0:0:0:0:
120,136,66376,6,0,L|112:184,1,45
172,208,66719,2,0,L|176:256,1,45
236,272,67062,2,0,L|256:312,1,45
316,336,67405,5,0,0:0:0:0:
336,332,67490,1,0,0:0:0:0:
356,328,67576,1,0,0:0:0:0:
376,324,67662,1,0,0:0:0:0:
400,320,67748,1,0,0:0:0:0:
452,208,67919,5,0,0:0:0:0:
452,208,68090,1,0,0:0:0:0:
452,208,68262,1,0,0:0:0:0:
452,208,68433,1,0,0:0:0:0:
452,208,68605,1,0,0:0:0:0:
452,208,68776,1,0,0:0:0:0:
452,208,68948,1,0,0:0:0:0:
452,208,69119,6,0,L|444:160,1,45
376,160,69462,1,0,0:0:0:0:
332,108,69633,2,0,P|280:144|216:120,1,135
124,80,70319,6,0,L|80:116,1,33.7500012874604
48,192,70490,2,0,L|60:260,1,67.5000025749208
124,240,70833,2,0,L|148:304,1,67.5000025749208
208,272,71176,2,0,L|256:320,1,67.5000025749208
324,320,71519,2,0,L|372:272,1,67.5000025749208
424,228,71862,5,0,0:0:0:0:
392,140,72033,1,0,0:0:0:0:
424,228,72205,1,0,0:0:0:0:
392,140,72376,1,0,0:0:0:0:
256,156,72548,5,0,0:0:0:0:
288,68,72719,1,0,0:0:0:0:
256,156,72890,1,0,0:0:0:0:
288,68,73062,1,0,0:0:0:0:
392,140,73233,6,0,L|344:144,1,45
356,208,73576,2,0,L|312:216,1,45
324,280,73919,2,0,L|280:292,1,45
256,348,74262,1,0,0:0:0:0:
216,300,74433,1,0,0:0:0:0:
176,248,74605,1,0,0:0:0:0:
176,248,75633,5,0,0:0:0:0:
160,208,75719,1,0,0:0:0:0:
144,168,75805,1,0,0:0:0:0:
128,124,75890,1,0,0:0:0:0:
116,80,75976,5,0,0:0:0:0:
396,80,76148,1,0,0:0:0:0:
116,80,76319,1,0,0:0:0:0:
396,80,76490,1,0,0:0:0:0:
116,80,76662,6,0,B|140:120|140:120|140:156|140:156|64:128,1,135.000005149842
396,80,77005,2,0,B|372:120|372:120|372:156|372:156|448:128,1,135.000005149842
176,248,77348,1,0,0:0:0:0:
421,137,77519,2,0,P|448:248|320:284,1,270.000010299683
160,260,78033,1,0,0:0:0:0:
256,168,78205,1,0,0:0:0:0:
320,284,78376,5,0,0:0:0:0:
280,280,78462,1,0,0:0:0:0:
240,272,78548,1,0,0:0:0:0:
200,264,78633,1,0,0:0:0:0:
160,260,78719,5,0,0:0:0:0:
396,128,78890,1,0,0:0:0:0:
160,260,79062,1,0,0:0:0:0:
396,128,79233,1,0,0:0:0:0:
160,260,79405,6,0,B|132:224|132:224|92:224|92:224|56:176,1,135.000005149842
396,128,79748,2,0,B|424:164|424:164|464:164|464:164|500:212,1,135.000005149842
256,332,80090,1,0,0:0:0:0:
296,176,80262,1,0,0:0:0:0:
256,332,80433,2,0,P|196:320|168:256,1,135.000005149842
72,124,80776,2,0,B|76:108|76:108|80:124|80:124|84:108|84:108|88:124|88:124|92:108|92:108|96:124|96:124|100:108|100:108|104:124|104:124|108:108|108:108|112:124|112:124|116:108|116:108|120:124|120:124|124:108|124:108|128:124|128:124|176:112,1,270.000010299683
320,68,81290,5,0,0:0:0:0:
320,68,81376,1,0,0:0:0:0:
320,68,81462,1,0,0:0:0:0:
480,84,81633,1,0,0:0:0:0:
460,244,81805,1,0,0:0:0:0:
300,228,81976,1,0,0:0:0:0:
232,132,82148,5,0,0:0:0:0:
392,148,82319,1,0,0:0:0:0:
372,308,82490,1,0,0:0:0:0:
212,292,82662,1,0,0:0:0:0:
392,148,82833,6,0,P|452:152|436:100,1,135.000005149842
180,192,83176,2,0,P|120:188|136:240,1,135.000005149842
392,148,83519,1,0,0:0:0:0:
136,240,83690,1,0,0:0:0:0:
392,148,83862,1,0,0:0:0:0:
136,240,84033,1,0,0:0:0:0:
68,220,84205,5,0,0:0:0:0:
92,152,84376,1,0,0:0:0:0:
160,172,84548,1,0,0:0:0:0:
136,240,84719,1,0,0:0:0:0:
68,220,84890,2,0,P|48:212|28:192,1,45
72,92,85233,2,0,P|96:88|124:100,1,45
200,168,85576,1,0,0:0:0:0:
200,168,86948,6,0,P|288:176|336:108,1,180
452,56,87462,1,0,0:0:0:0:
504,172,87633,1,0,0:0:0:0:
416,264,87805,1,0,0:0:0:0:
324,348,87976,6,0,P|304:288|256:316,1,135
124,268,88319,2,0,P|144:328|192:300,1,135
352,244,88662,2,0,P|280:224|224:252,1,135
100,160,89005,2,0,L|184:224,1,90
256,120,89348,1,0,0:0:0:0:
368,60,89519,1,0,0:0:0:0:
368,60,89690,6,0,L|452:124,1,90
440,264,90033,2,0,L|356:328,1,90
256,376,90376,1,0,0:0:0:0:
248,248,90548,1,0,0:0:0:0:
136,300,90719,6,0,P|88:284|132:240,1,135
164,176,91062,2,0,L|192:140,1,45
172,32,91405,2,0,L|188:80,1,45
244,104,91748,2,0,L|264:104,4,11.25
320,24,92090,2,0,L|312:72,1,45
456,192,92433,6,0,B|452:244|452:244|420:272|420:272|392:240,1,135.000005149842
252,368,92776,2,0,B|256:316|256:316|288:288|288:288|316:320,1,135.000005149842
144,236,93119,2,0,B|216:196|216:196|232:156|232:156|156:140,1,202.500007724762
272,0,93462,6,0,B|200:40|200:40|184:80|184:80|260:96,1,202.500007724762
460,96,93805,2,0,B|396:120|396:120|324:108,1,135.000005149842
330,274,94148,2,0,B|396:264|396:264|460:288,1,135.000005149842
280,348,94490,2,0,P|228:308|240:244,1,135.000005149842
56,192,94833,1,0,0:0:0:0:
56,192,95005,1,0,0:0:0:0:
280,348,95176,6,0,P|228:308|240:244,1,135.000005149842
344,88,95519,2,0,P|396:128|384:192,1,135.000005149842
196,204,95862,2,0,P|260:188|280:296,1,202.500007724762
132,364,96205,6,0,P|156:300|216:288,1,135.000005149842
380,364,96548,2,0,P|356:300|296:288,1,135.000005149842
296,220,96890,1,0,0:0:0:0:
256,164,97062,1,0,0:0:0:0:
220,216,97233,2,0,B|184:188|184:148|204:124|224:108|224:108|244:100|244:100|260:100|260:100|248:64|280:44|312:48|320:76,1,270.000010299683
256,192,98262,12,0,100319,0:0:0:0:
188,240,100490,5,0,0:0:0:0:
188,240,100576,1,0,0:0:0:0:
188,240,100662,1,0,0:0:0:0:
188,312,100833,1,0,0:0:0:0:
260,308,101005,1,0,0:0:0:0:
256,236,101176,1,0,0:0:0:0:
252,164,101348,1,0,0:0:0:0:
324,160,101519,1,0,0:0:0:0:
312,88,101690,1,0,0:0:0:0:
384,84,101862,1,0,0:0:0:0:
456,80,102033,6,0,P|472:120|436:140,1,90
252,164,102376,2,0,P|236:124|272:104,1,90
384,252,102719,1,0,0:0:0:0:
196,264,102890,2,0,P|184:228|140:240,1,90
215,78,103233,2,0,P|227:114|271:102,1,90
336,80,103576,5,0,0:0:0:0:
408,72,103748,1,0,0:0:0:0:
412,144,103919,1,0,0:0:0:0:
408,216,104090,2,0,L|404:312,1,90
284,348,104433,2,0,L|287:258,1,90
408,216,104776,6,0,L|404:312,1,90
104,168,105462,5,0,0:0:0:0:
104,168,105633,1,0,0:0:0:0:
104,168,105805,1,0,0:0:0:0:
104,168,105976,1,0,0:0:0:0:
104,168,106148,6,0,P|92:212|120:248,1,90
288,192,106490,2,0,P|300:148|272:112,1,90
224,288,106833,1,0,0:0:0:0:
348,268,107005,1,0,0:0:0:0:
348,268,107090,1,0,0:0:0:0:
348,268,107176,2,0,P|384:288|432:280,1,90
416,156,107519,5,0,0:0:0:0:
480,144,107690,1,0,0:0:0:0:
496,204,107862,1,0,0:0:0:0:
428,220,108033,1,0,0:0:0:0:
252,64,108205,5,0,0:0:0:0:
316,52,108376,1,0,0:0:0:0:
332,112,108548,1,0,0:0:0:0:
264,128,108719,1,0,0:0:0:0:
108,300,108890,5,0,0:0:0:0:
40,284,109062,1,0,0:0:0:0:
56,224,109233,1,0,0:0:0:0:
120,236,109405,1,0,0:0:0:0:
240,192,109576,6,0,P|280:216|328:208,1,90
336,180,109833,1,0,0:0:0:0:
360,152,109919,1,0,0:0:0:0:
392,136,110005,1,0,0:0:0:0:
428,128,110090,1,0,0:0:0:0:
428,256,110262,5,0,0:0:0:0:
428,256,110433,1,0,0:0:0:0:
428,256,110605,1,0,0:0:0:0:
428,256,110776,1,0,0:0:0:0:
428,256,110948,1,0,0:0:0:0:
428,256,111119,1,0,0:0:0:0:
428,256,111290,1,0,0:0:0:0:
428,256,111462,1,0,0:0:0:0:
316,312,111633,6,0,L|316:264,3,45
192,223,112319,6,0,L|192:268,3,45
184,140,113005,6,0,L|180:96,1,45
256,176,113348,2,0,L|256:132,1,45
328,140,113690,6,0,L|332:96,1,45
400,184,114033,2,0,L|400:140,1,45
464,208,114376,6,0,P|444:236|412:252,1,67.5000025749208
332,296,114719,2,0,L|300:360,1,67.5000025749208
210,356,115062,2,0,L|180:296,1,67.5000025749208
96,251,115405,6,0,P|67:235|48:208,1,67.5000025749208
128,160,115748,1,0,0:0:0:0:
128,160,115919,1,0,0:0:0:0:
112,68,116090,2,0,P|148:72|176:88,1,67.5000025749208
256,140,116433,5,0,0:0:0:0:
271,158,116519,1,0,0:0:0:0:
290,171,116605,1,0,0:0:0:0:
313,177,116690,1,0,0:0:0:0:
336,178,116776,1,0,0:0:0:0:
359,171,116862,1,0,0:0:0:0:
379,159,116948,1,0,0:0:0:0:
394,141,117033,1,0,0:0:0:0:
404,120,117119,5,0,0:0:0:0:
428,116,117205,1,0,0:0:0:0:
450,122,117290,1,0,0:0:0:0:
469,137,117376,1,0,0:0:0:0:
480,157,117462,1,0,0:0:0:0:
483,180,117548,1,0,0:0:0:0:
477,203,117633,1,0,0:0:0:0:
462,221,117719,1,0,0:0:0:0:
441,232,117805,5,0,0:0:0:0:
418,235,117890,1,0,0:0:0:0:
396,232,117976,1,0,0:0:0:0:
388,209,118062,1,0,0:0:0:0:
374,190,118148,1,0,0:0:0:0:
356,175,118233,1,0,0:0:0:0:
334,166,118319,1,0,0:0:0:0:
311,163,118405,1,0,0:0:0:0:
288,166,118490,5,0,0:0:0:0:
266,176,118576,1,0,0:0:0:0:
248,191,118662,1,0,0:0:0:0:
238,213,118748,1,0,0:0:0:0:
224,232,118833,1,0,0:0:0:0:
207,248,118919,1,0,0:0:0:0:
186,259,119005,1,0,0:0:0:0:
163,266,119090,1,0,0:0:0:0:
140,267,119176,5,0,0:0:0:0:
117,264,119262,1,0,0:0:0:0:
95,255,119348,1,0,0:0:0:0:
75,242,119433,1,0,0:0:0:0:
59,225,119519,1,0,0:0:0:0:
47,205,119605,1,0,0:0:0:0:
39,182,119690,1,0,0:0:0:0:
37,159,119776,1,0,0:0:0:0:
44,136,119862,2,0,L|44:120,32,16.8750006437302
172,344,122605,6,0,P|136:324|120:280,1,90
120,152,122948,2,0,P|172:88|256:112,1,180
316,224,123462,1,0,0:0:0:0:
436,188,123633,1,0,0:0:0:0:
436,188,123805,2,0,P|456:272|388:324,1,180
316,224,124319,2,0,P|320:176|344:144,1,90
196,44,124662,1,0,0:0:0:0:
92,192,124833,1,0,0:0:0:0:
244,296,125005,1,0,0:0:0:0:
92,192,125176,2,0,L|136:224,1,33.7500012874604
244,296,125348,6,0,L|336:296,1,90
492,192,125690,6,0,B|456:176|456:176|448:112|448:112|480:120,1,135.000005149842
292,148,126033,6,0,B|328:164|328:164|336:228|336:228|304:220,1,135.000005149842
188,72,126376,6,0,B|152:88|152:88|144:152|144:152|176:144,1,135.000005149842
492,192,126719,6,0,B|456:176|456:176|448:112|448:112|480:120,2,135.000005149842
316,268,127233,2,0,P|256:296|196:268,1,135.000005149842
32,176,127576,1,0,0:0:0:0:
132,336,127748,2,0,P|256:376|384:328,1,270.000010299683
480,252,128262,5,0,0:0:0:0:
492,208,128348,1,0,0:0:0:0:
492,164,128433,1,0,0:0:0:0:
400,76,128605,1,0,0:0:0:0:
224,120,128776,2,0,P|248:168|280:176,1,90
324,188,129033,1,0,0:0:0:0:
360,212,129119,1,0,0:0:0:0:
373,254,129205,1,0,0:0:0:0:
357,296,129290,1,0,0:0:0:0:
319,318,129376,1,0,0:0:0:0:
275,311,129462,5,0,0:0:0:0:
108,244,129633,1,0,0:0:0:0:
72,272,129719,1,0,0:0:0:0:
28,284,129805,1,0,0:0:0:0:
172,176,129976,1,0,0:0:0:0:
204,144,130062,1,0,0:0:0:0:
248,132,130148,5,0,0:0:0:0:
275,311,130319,1,0,0:0:0:0:
108,244,130490,1,0,0:0:0:0:
248,132,130662,2,0,L|256:84,1,45
