osu file format v14

[General]
AudioFilename: audio.mp3
AudioLeadIn: 0
PreviewTime: 123351
Countdown: 0
SampleSet: Soft
StackLeniency: 0.2
Mode: 0
LetterboxInBreaks: 0
WidescreenStoryboard: 0

[Editor]
Bookmarks: 12955,13812,24783,35755,45355,45869,57698,68669,79641,90612,112555,123526,130212,133812,139983,144098,145469,153698,155069,156441,161755,164669,166041,167412,178383,186612,189355,200326,211298,222269,233241,241122,242841,249698
DistanceSpacing: 0.5
BeatDivisor: 4
GridSize: 4
TimelineZoom: 3.199999

[Metadata]
Title:Ravers MashUp
TitleUnicode:Ravers MashUp
Artist:S3RL
ArtistUnicode:S3RL
Creator:Nuvolina
Version:Rave Forever
Source:
Tags:Anto MkGuh IDu5t idust english raver dimension pretty rave girl boy little candy knd kandi forever Emcee M Tamika Crystal Sara serl happy hardcore electronic 2018 mix remix compilation
BeatmapID:1907051
BeatmapSetID:912916

[Difficulty]
HPDrainRate:6
CircleSize:4.5
OverallDifficulty:9
ApproachRate:9.2
SliderMultiplier:1.7
SliderTickRate:1

[Events]
//Background and Video events
0,0,"raversbg.jpg",0,0
//Break Periods
//Storyboard Layer 0 (Background)
//Storyboard Layer 1 (Fail)
//Storyboard Layer 2 (Pass)
//Storyboard Layer 3 (Foreground)
//Storyboard Sound Samples

[TimingPoints]
2837,342.857142857143,4,2,1,50,1,0
12951,-100,4,2,1,60,0,0
13808,-83.3333333333333,4,2,1,70,0,0
23751,-76.9230769230769,4,2,1,70,0,0
24094,-71.4285714285714,4,2,1,70,0,0
24437,-66.6666666666667,4,2,1,70,0,0
24779,-76.9230769230769,4,2,1,80,0,0
33179,-76.9230769230769,4,2,1,65,0,0
35751,-66.6666666666667,4,2,1,95,0,0
45865,-66.6666666666667,4,2,1,60,0,0
46720,-62.5,4,2,1,60,0,0
46722,-62.5,4,2,1,95,0,0
46808,-62.5,4,2,1,95,0,0
56322,-62.5,4,2,1,60,0,0
56665,-71.4285714285714,4,2,1,60,0,0
57008,-83.3333333333333,4,2,1,60,0,0
57694,-83.3333333333333,4,2,1,70,0,0
63179,-71.4285714285714,4,2,1,80,0,0
67294,-71.4285714285714,4,2,1,60,0,0
68151,-71.4285714285714,4,2,1,80,0,0
68665,-62.5,4,2,1,95,0,0
78265,-62.5,4,2,1,60,0,0
79294,-62.5,4,2,1,70,0,0
79637,-71.4285714285714,4,2,1,70,0,0
87865,-71.4285714285714,4,2,1,50,0,0
90608,-71.4285714285714,4,2,1,70,0,0
98837,-100,4,2,1,70,0,0
101579,-71.4285714285714,4,2,1,70,0,0
107065,-100,4,2,1,60,0,0
112551,-66.6666666666667,4,2,1,80,0,0
123522,-62.5,4,2,1,95,0,0
133808,-100,4,2,1,95,0,0
134151,-55.5555555555556,4,2,1,95,0,0
134494,-62.5,4,2,1,95,0,0
139979,-71.4285714285714,4,2,1,80,0,0
144008,-83.3333333333333,4,2,1,80,0,0
144437,-83.3333333333333,4,2,1,60,0,0
145465,-83.3333333333333,4,2,1,70,0,0
155065,-83.3333333333333,4,2,1,60,0,0
156437,-66.6666666666667,4,2,1,80,0,0
161237,-66.6666666666667,4,2,1,70,0,0
161922,-66.6666666666667,4,2,1,80,0,0
166037,-100,4,2,1,70,0,0
166722,-83.3333333333333,4,2,1,70,0,0
167408,-83.3333333333333,4,2,1,80,0,0
168094,-153.846153846154,4,2,1,50,0,0
175637,-117.647058823529,4,2,1,70,0,0
178379,-100,4,2,1,70,0,0
187294,-100,4,2,1,60,0,0
189351,-66.6666666666667,4,2,1,80,0,0
194837,-100,4,2,1,50,0,0
197408,-100,4,2,1,80,0,0
198951,-100,4,2,1,70,0,0
200322,-62.5,4,2,1,95,0,0
209922,-100,4,2,1,75,0,0
211294,-100,4,2,1,75,0,0
211979,-62.5,4,2,1,95,0,0
222265,-62.5,4,2,1,60,0,0
227751,-71.4285714285714,4,2,1,80,0,0
230494,-71.4285714285714,4,2,1,70,0,0
231179,-83.3333333333333,4,2,1,70,0,0
231865,-83.3333333333333,4,2,1,60,0,0
233237,-66.6666666666667,4,2,1,80,0,0
235979,-62.5,4,2,1,80,0,0
238722,-71.4285714285714,4,2,1,60,0,0
241465,-71.4285714285714,4,2,1,70,0,0
249694,-71.4285714285714,4,2,1,30,0,0

[Colours]
Combo1 : 159,64,255
Combo2 : 111,183,255
Combo3 : 255,128,255

[HitObjects]
41,70,2836,5,4,1:2:0:0:
41,70,3179,1,2,0:0:0:0:
86,152,3351,1,0,0:0:0:0:
130,70,3522,2,0,P|174:57|215:70,1,85,2|0,0:0|0:0,0:0:0:0:
261,146,3865,2,0,P|217:159|176:146,1,85,2|0,0:0|0:0,0:0:0:0:
86,152,4208,6,0,L|86:196,1,42.5,2|0,0:0|0:0,0:0:0:0:
37,285,4379,2,0,L|37:243,1,42.5,0|0,0:0|0:0,0:0:0:0:
86,333,4551,1,2,0:0:0:0:
161,277,4722,1,0,0:0:0:0:
248,309,4894,2,0,L|343:309,1,85,2|0,0:0|0:0,0:0:0:0:
333,309,5237,2,0,L|438:308,1,85,2|0,0:0|0:0,0:0:0:0:
485,216,5579,5,2,0:0:0:0:
485,216,5922,1,2,0:0:0:0:
382,216,6094,1,0,0:0:0:0:
437,130,6265,2,0,P|450:86|437:45,1,85,2|0,0:0|0:0,0:0:0:0:
343,15,6608,2,0,P|330:59|343:100,1,85,2|0,0:0|0:0,0:0:0:0:
382,216,6951,6,0,L|385:250,7,21.25,2|0|0|0|0|0|0|0,0:0|0:0|0:0|0:0|0:0|0:0|0:0|0:0,0:0:0:0:
372,275,7294,1,2,0:0:0:0:
284,233,7465,1,0,0:0:0:0:
264,333,7637,2,0,P|238:339|210:330,1,42.5,2|0,0:0|0:0,0:0:0:0:
151,271,7808,2,0,P|172:269|192:274,1,42.5,0|0,0:0|0:0,0:0:0:0:
121,330,7979,2,0,P|74:346|33:323,1,85,2|0,0:0|0:0,0:0:0:0:
1,202,8322,5,2,0:0:0:0:
1,202,8665,1,2,0:0:0:0:
111,202,8837,1,0,0:0:0:0:
56,106,9008,2,0,P|43:62|56:21,1,85,2|0,0:0|0:0,0:0:0:0:
161,2,9351,2,0,P|174:46|161:87,1,85,2|0,0:0|0:0,0:0:0:0:
111,202,9694,6,0,L|170:202,1,42.5,2|0,0:0|0:0,0:0:0:0:
233,144,9865,2,0,L|190:144,1,42.5,0|0,0:0|0:0,0:0:0:0:
274,202,10037,1,2,0:0:0:0:
353,278,10208,1,0,0:0:0:0:
451,227,10380,2,0,L|451:131,1,85,2|0,0:0|0:0,0:0:0:0:
451,142,10723,2,0,L|452:44,1,85,2|0,0:0|0:0,0:0:0:0:
337,25,11065,5,2,0:0:0:0:
337,25,11408,1,2,0:0:0:0:
254,111,11580,1,0,0:0:0:0:
172,25,11751,2,0,P|131:14|91:27,1,85,2|0,0:0|0:0,0:0:0:0:
13,117,12094,2,0,P|53:127|93:114,1,85,2|0,0:0|0:0,0:0:0:0:
93,113,12951,5,2,0:0:0:0:
213,201,13122,1,0,0:0:0:0:
71,194,13294,1,2,0:0:0:0:
197,114,13465,1,0,0:0:0:0:
140,260,13637,1,2,0:0:0:0:
349,156,13808,6,0,B|420:124|420:124|491:156,1,152.999995330811,4|0,1:2|0:0,0:0:0:0:
492,220,14151,2,0,B|421:252|421:252|350:220,1,152.999995330811,8|0,0:0|0:0,0:0:0:0:
264,188,14494,5,8,0:0:0:0:
140,136,14665,1,2,0:0:0:0:
236,40,14837,1,8,0:0:0:0:
356,96,15008,1,2,0:0:0:0:
216,240,15179,2,0,L|136:324,1,101.999996887207,8|0,0:0|0:0,0:0:0:0:
192,364,15437,2,0,P|260:336|328:368,1,152.999995330811,2|0,0:0|0:0,0:0:0:0:
408,260,15865,5,8,0:0:0:0:
508,176,16037,1,2,0:0:0:0:
388,116,16208,1,8,0:0:0:0:
488,28,16380,1,2,0:0:0:0:
356,44,16551,2,0,L|252:56,1,101.999996887207,8|0,0:0|0:0,0:0:0:0:
236,120,16808,2,0,L|164:128,1,50.9999984436036,2|8,0:0|0:0,0:0:0:0:
0,124,17065,5,2,0:0:0:0:
96,28,17237,1,8,0:0:0:0:
128,160,17408,1,2,0:0:0:0:
0,124,17579,1,8,0:0:0:0:
96,28,17751,1,2,0:0:0:0:
128,160,17922,2,0,P|136:212|116:260,1,101.999996887207,8|0,0:0|0:0,0:0:0:0:
80,312,18179,2,0,L|136:360,1,50.9999984436036,2|8,0:0|0:0,0:0:0:0:
376,245,18437,5,2,0:0:0:0:
256,312,18608,1,8,0:0:0:0:
403,326,18779,1,2,0:0:0:0:
290,227,18951,1,8,0:0:0:0:
315,375,19122,1,2,0:0:0:0:
484,220,19294,2,0,L|477:59,1,152.999995330811,8|0,0:0|0:0,0:0:0:0:
420,36,19637,2,0,B|384:60|384:60|400:188,1,152.999995330811,8|0,0:0|0:0,0:0:0:0:
416,256,19979,5,8,0:0:0:0:
292,304,20150,1,2,0:0:0:0:
212,196,20322,1,8,0:0:0:0:
336,152,20493,1,2,0:0:0:0:
284,28,20665,2,0,B|236:12|236:12|188:28,1,101.999996887207,8|0,0:0|0:0,0:0:0:0:
132,64,20922,2,0,B|124:88|124:88|132:112,1,50.9999984436036,2|8,0:0|0:0,0:0:0:0:
168,240,21179,5,2,0:0:0:0:
88,344,21351,1,8,0:0:0:0:
220,364,21522,1,2,0:0:0:0:
168,240,21693,1,8,0:0:0:0:
88,344,21865,1,2,0:0:0:0:
272,308,22036,2,0,L|378:286,1,101.999996887207,8|0,0:0|0:0,0:0:0:0:
412,340,22294,2,0,P|431:317|438:288,1,50.9999984436036,2|8,0:0|0:0,0:0:0:0:
430,181,22551,5,2,0:0:0:0:
383,40,22722,1,8,0:0:0:0:
504,128,22893,1,2,0:0:0:0:
355,127,23065,1,8,0:0:0:0:
476,40,23237,1,2,0:0:0:0:
322,223,23408,6,0,P|281:255|228:257,1,101.999996887207,8|0,0:0|0:0,0:0:0:0:
228,354,23751,2,0,P|172:334|137:270,1,110.499994941712,8|0,0:0|0:0,0:0:0:0:
46,309,24094,2,0,P|50:244|91:204,1,118.999996368408,8|0,0:0|0:0,0:0:0:0:
33,115,24437,2,0,P|100:99|188:181,1,191.250007295609,8|0,0:0|0:0,0:0:0:0:
213,252,24779,6,0,P|268:273|326:249,1,110.499994941712,8|0,1:1|0:0,0:0:0:0:
425,154,25122,2,0,P|372:139|322:160,1,110.499994941712,8|0,0:1|0:0,0:0:0:0:
213,252,25465,2,0,P|268:273|326:249,1,110.499994941712,8|0,0:1|0:0,0:0:0:0:
425,154,25808,1,8,0:1:0:0:
333,27,25979,1,0,0:0:0:0:
333,27,26065,1,0,0:0:0:0:
333,27,26151,2,0,L|216:35,1,110.499994941712,8|0,0:1|0:0,0:0:0:0:
83,148,26494,2,0,L|193:140,1,110.499994941712,8|0,0:1|0:0,0:0:0:0:
315,257,26837,2,0,L|198:265,1,110.499994941712,8|0,0:1|0:0,0:0:0:0:
234,382,27179,5,8,0:1:0:0:
421,308,27351,1,0,0:0:0:0:
421,308,27437,1,0,0:0:0:0:
421,308,27522,2,0,P|440:256|415:190,1,110.499994941712,8|0,0:1|0:0,0:0:0:0:
209,160,27865,2,0,P|190:212|215:278,1,110.499994941712,8|0,0:1|0:0,0:0:0:0:
421,308,28208,2,0,P|440:256|415:190,1,110.499994941712,8|0,0:1|0:0,0:0:0:0:
209,160,28551,1,8,0:1:0:0:
368,43,28722,1,0,0:0:0:0:
368,43,28808,1,0,0:0:0:0:
368,43,28894,6,0,P|313:23|245:42,1,110.499994941712,8|0,0:1|0:0,0:0:0:0:
209,160,29237,2,0,P|176:163|143:158,2,55.2499974708558,8|0|0,0:1|0:0|0:0,0:0:0:0:
268,278,29579,2,0,P|318:295|368:274,1,110.499994941712,8|0,0:1|0:0,0:0:0:0:
486,143,29922,2,0,P|435:125|385:146,1,110.499994941712,8|0,0:1|0:0,0:0:0:0:
268,278,30265,5,8,0:1:0:0:
237,288,30350,1,0,0:0:0:0:
206,289,30436,1,8,0:1:0:0:
175,280,30522,1,0,0:0:0:0:
145,290,30608,1,8,0:1:0:0:
115,280,30693,1,0,0:0:0:0:
84,279,30779,1,8,0:1:0:0:
53,287,30865,1,0,0:0:0:0:
21,293,30951,2,0,P|4:236|30:171,1,110.499994941712,8|0,0:1|0:0,0:0:0:0:
172,148,31294,1,8,0:1:0:0:
172,148,31379,1,0,0:0:0:0:
172,148,31465,2,0,P|185:95|166:33,1,110.499994941712,8|0,0:1|0:0,0:0:0:0:
171,41,31808,1,8,0:1:0:0:
374,28,31979,6,0,P|370:54|382:87,1,55.2499974708558,8|0,0:1|0:0,0:0:0:0:
309,135,32151,2,0,P|316:160|341:185,1,55.2499974708558,8|0,0:1|0:0,0:0:0:0:
276,238,32322,2,0,P|287:261|316:281,1,55.2499974708558,8|0,0:1|0:0,0:0:0:0:
344,342,32494,2,0,P|370:341|400:323,1,55.2499974708558,8|0,0:1|0:0,0:0:0:0:
476,347,32665,2,0,P|475:320|457:290,1,55.2499974708558,8|0,0:1|0:0,0:0:0:0:
466,208,32837,2,0,P|439:208|409:226,1,55.2499974708558,8|0,0:1|0:0,0:0:0:0:
415,222,33179,5,2,0:0:0:0:
415,222,33522,1,2,0:0:0:0:
197,260,33865,1,2,0:0:0:0:
197,260,33951,1,0,0:0:0:0:
197,260,34037,1,0,0:0:0:0:
229,146,34208,1,2,0:0:0:0:
229,146,35065,6,0,L|263:146,3,27.6249987354279,2|0|2|0,0:0|0:0|0:0|0:0,0:0:0:0:
292,146,35237,2,0,L|370:146,1,55.2499974708558,2|0,0:0|0:0,0:0:0:0:
237,45,35408,2,0,L|205:45,3,27.6249987354279,2|0|2|0,0:0|0:0|0:0|0:0,0:0:0:0:
272,46,35579,2,0,L|350:46,1,55.2499974708558,2|0,0:0|0:0,0:0:0:0:
412,48,35751,6,0,B|439:107|439:107|413:164,1,127.500004863739,6|0,1:2|0:0,0:0:0:0:
141,165,36094,2,0,B|115:108|115:108|142:49,1,127.500004863739,2|0,1:2|0:0,0:0:0:0:
279,212,36437,2,0,L|280:360,1,127.500004863739,2|0,1:2|0:0,0:0:0:0:
194,285,36779,1,2,1:2:0:0:
388,178,36951,1,2,0:0:0:0:
388,178,37037,1,2,0:0:0:0:
388,178,37122,1,0,1:2:0:0:
335,24,37294,2,0,L|347:95,1,63.7500024318696,2|0,0:0|0:0,0:0:0:0:
382,171,37465,1,0,1:2:0:0:
463,266,37637,2,0,L|444:345,1,63.7500024318696,2|0,0:0|0:0,0:0:0:0:
354,299,37808,2,0,P|297:275|239:298,1,127.500004863739,2|0,1:2|0:0,0:0:0:0:
60,355,38151,6,0,P|41:293|64:232,1,127.500004863739,2|0,1:2|0:0,0:0:0:0:
35,145,38408,1,2,0:0:0:0:
35,145,38494,2,0,P|54:83|31:22,1,127.500004863739,2|0,1:2|0:0,0:0:0:0:
205,20,38837,2,0,L|366:20,1,127.500004863739,2|0,1:2|0:0,0:0:0:0:
365,194,39179,2,0,L|225:194,1,127.500004863739,2|0,1:2|0:0,0:0:0:0:
205,20,39522,1,2,1:2:0:0:
408,121,39694,2,0,P|439:127|470:121,1,63.7500024318696,2|0,0:0|0:0,0:0:0:0:
439,40,39865,1,0,1:2:0:0:
490,218,40037,2,0,L|511:289,1,63.7500024318696,2|0,0:0|0:0,0:0:0:0:
453,357,40208,1,2,1:2:0:0:
453,357,40294,1,2,0:0:0:0:
453,357,40379,2,0,P|421:364|392:357,1,63.7500024318696,2|0,0:0|0:0,0:0:0:0:
315,303,40551,2,0,P|260:278|203:304,1,127.500004863739,2|0,1:2|0:0,0:0:0:0:
39,304,40894,2,0,L|-10:304,4,31.8750012159348,2|0|0|0|0,1:2|0:0|0:0|0:0|0:0,0:0:0:0:
202,304,41237,6,0,B|223:244|223:244|202:184,1,127.500004863739,2|0,1:2|0:0,0:0:0:0:
34,64,41579,2,0,B|13:124|13:124|34:184,1,127.500004863739,2|0,1:2|0:0,0:0:0:0:
193,64,41923,2,0,P|251:40|307:64,1,127.500004863739,2|0,1:2|0:0,0:0:0:0:
381,302,42265,1,2,1:2:0:0:
381,302,42351,1,2,0:0:0:0:
381,302,42437,2,0,L|449:302,1,63.7500024318696,2|0,0:0|0:0,0:0:0:0:
488,204,42608,2,0,L|423:204,1,63.7500024318696,0|0,1:2|0:0,0:0:0:0:
346,141,42779,2,0,P|337:109|346:81,1,63.7500024318696,2|0,0:0|0:0,0:0:0:0:
424,17,42951,1,0,1:2:0:0:
257,84,43123,2,0,P|226:92|196:83,1,63.7500024318696,2|0,0:0|0:0,0:0:0:0:
119,32,43294,2,0,P|62:11|2:32,1,127.500004863739,2|0,1:2|0:0,0:0:0:0:
59,219,43637,6,0,P|66:251|59:280,1,63.7500024318696,2|0,1:2|0:0,0:0:0:0:
22,369,43808,1,0,0:0:0:0:
215,279,43980,2,0,P|276:259|334:279,1,127.500004863739,2|0,1:2|0:0,0:0:0:0:
215,105,44322,2,0,P|274:125|333:105,1,127.500004863739,2|0,1:2|0:0,0:0:0:0:
512,192,44665,2,0,L|376:192,1,127.500004863739,2|0,1:2|0:0,0:0:0:0:
248,192,45008,1,2,1:2:0:0:
220,344,45179,2,0,P|189:352|160:342,1,63.7500024318696,2|0,0:0|0:0,0:0:0:0:
91,307,45351,1,0,1:2:0:0:
91,307,45865,5,2,0:0:0:0:
128,165,46036,1,2,0:0:0:0:
173,307,46208,1,2,0:0:0:0:
55,220,46379,1,2,0:0:0:0:
208,220,46551,1,2,0:0:0:0:
21,362,46722,6,0,L|12:131,1,204,2|0,1:2|0:0,0:0:0:0:
87,109,47065,2,0,L|93:313,1,204,2|0,1:2|0:0,0:0:0:0:
163,263,47408,5,2,1:2:0:0:
12,70,47579,1,0,0:0:0:0:
241,98,47751,1,2,1:2:0:0:
92,306,47922,2,0,L|92:272,3,34,2|0|2|0,0:0|0:0|0:0|0:0,0:0:0:0:
116,338,48094,2,0,P|179:356|248:336,1,136,2|2,1:2|0:0,0:0:0:0:
349,299,48351,1,0,0:0:0:0:
298,226,48437,2,0,P|280:163|300:94,1,136,2|2,1:2|0:0,0:0:0:0:
512,20,48779,5,2,1:2:0:0:
363,162,48951,1,0,0:0:0:0:
512,304,49122,1,2,1:2:0:0:
299,233,49294,1,2,0:0:0:0:
250,266,49379,1,2,0:0:0:0:
201,233,49465,2,0,P|137:207|61:239,1,136,0|0,1:2|0:0,0:0:0:0:
129,367,49808,1,2,1:2:0:0:
239,170,49979,5,0,0:0:0:0:
461,185,50151,1,2,1:2:0:0:
369,0,50322,1,0,0:0:0:0:
239,170,50493,1,2,1:2:0:0:
461,185,50665,1,2,0:0:0:0:
369,0,50836,2,0,P|287:56|185:37,1,204,0|0,1:2|0:0,0:0:0:0:
156,55,51179,1,2,1:2:0:0:
128,68,51265,1,2,0:0:0:0:
98,83,51351,5,2,0:0:0:0:
252,267,51522,1,2,1:2:0:0:
21,298,51694,1,0,0:0:0:0:
98,83,51865,1,2,1:2:0:0:
252,267,52037,1,0,0:0:0:0:
21,298,52208,2,0,B|79:332|79:332|151:308,1,136,2|0,1:2|0:0,0:0:0:0:
449,262,52551,2,0,B|391:228|391:228|319:252,1,136,2|0,1:2|0:0,0:0:0:0:
201,109,52893,5,2,1:2:0:0:
367,27,53064,1,0,0:0:0:0:
325,215,53237,2,0,L|325:262,2,34,2|0|2,1:2|0:0|0:0,0:0:0:0:
225,254,53408,2,0,L|225:328,1,68,2|0,0:0|0:0,0:0:0:0:
292,380,53579,2,0,L|365:380,1,68,2|0,1:2|0:0,0:0:0:0:
428,323,53751,2,0,L|428:253,1,68,2|0,0:0|0:0,0:0:0:0:
488,182,53922,1,0,1:2:0:0:
394,26,54094,2,0,B|362:16|362:16|329:27,1,68,2|0,0:0|0:0,0:0:0:0:
251,48,54265,5,2,1:2:0:0:
162,148,54437,1,0,0:0:0:0:
251,246,54608,1,2,1:2:0:0:
345,148,54779,1,2,0:0:0:0:
251,246,54951,5,4,3:3:0:0:
210,269,55037,1,4,3:3:0:0:
162,272,55121,1,4,3:3:0:0:
118,252,55207,1,4,3:3:0:0:
99,207,55294,1,4,3:3:0:0:
125,168,55379,1,4,3:3:0:0:
135,121,55465,1,4,3:3:0:0:
110,80,55551,1,4,3:3:0:0:
139,38,55637,1,4,3:3:0:0:
187,20,55722,1,4,3:3:0:0:
238,20,55808,1,4,3:3:0:0:
281,48,55894,1,4,3:3:0:0:
266,100,55979,1,4,3:3:0:0:
241,149,56064,1,4,3:3:0:0:
248,203,56150,1,4,3:3:0:0:
281,247,56236,1,4,3:3:0:0:
281,247,56322,6,0,P|263:311|285:380,1,136,4|0,3:3|0:0,0:0:0:0:
381,310,56665,2,0,P|397:254|377:199,1,118.999996368408,2|0,0:0|0:0,0:0:0:0:
241,149,57008,2,0,P|214:144|179:153,3,50.9999984436036,2|0|0|0,0:0|0:0|0:0|0:0,0:0:0:0:
376,198,57351,1,2,0:0:0:0:
336,19,57522,1,2,0:0:0:0:
336,19,57608,1,0,0:0:0:0:
336,19,57694,6,0,P|384:39|438:16,1,101.999996887207,4|0,1:2|0:0,0:0:0:0:
495,147,58037,2,0,P|475:195|498:249,1,101.999996887207,8|2,0:0|0:0,0:0:0:0:
401,341,58379,2,0,P|345:320|299:343,1,101.999996887207,8|0,0:0|0:0,0:0:0:0:
182,376,58722,1,8,0:0:0:0:
140,248,58894,1,2,0:0:0:0:
266,208,59065,1,8,0:0:0:0:
308,334,59237,1,2,0:0:0:0:
182,376,59408,1,8,0:0:0:0:
140,248,59579,1,2,0:0:0:0:
266,208,59751,2,0,P|341:245|429:225,1,152.999995330811,8|0,0:0|0:0,0:0:0:0:
432,142,60094,2,0,P|356:104|268:124,1,152.999995330811,8|0,0:0|0:0,0:0:0:0:
209,134,60437,5,8,0:0:0:0:
41,55,60608,1,2,0:0:0:0:
209,134,60779,2,0,P|226:206|176:282,1,152.999995330811,8|0,0:0|0:0,0:0:0:0:
99,287,61122,2,0,P|118:356|209:364,1,152.999995330811,8|0,0:0|0:0,0:0:0:0:
250,309,61465,2,0,P|316:279|396:320,1,152.999995330811,8|0,0:0|0:0,0:0:0:0:
448,352,61808,5,8,0:0:0:0:
512,221,61979,1,2,0:0:0:0:
414,108,62151,1,8,0:0:0:0:
335,234,62322,1,2,0:0:0:0:
448,352,62494,2,0,L|338:354,1,101.999996887207,8|2,0:0|0:0,0:0:0:0:
233,232,62837,2,0,L|343:234,1,101.999996887207,8|2,0:0|0:0,0:0:0:0:
512,213,63179,1,8,0:0:0:0:
375,86,63351,5,2,0:0:0:0:
375,86,63437,1,2,0:0:0:0:
375,86,63522,2,0,P|310:101|257:82,1,118.999996368408,8|2,0:0|0:0,0:0:0:0:
17,214,63865,2,0,P|82:199|135:218,1,118.999996368408,8|2,0:0|0:0,0:0:0:0:
321,346,64208,2,0,P|256:361|203:342,1,118.999996368408,8|2,0:0|0:0,0:0:0:0:
389,214,64551,6,0,L|405:94,1,118.999996368408,8|2,0:0|0:0,0:0:0:0:
107,98,64894,2,0,L|130:214,1,118.999996368408,8|2,0:0|0:0,0:0:0:0:
264,316,65237,1,8,0:0:0:0:
291,96,65408,1,2,0:0:0:0:
291,96,65494,1,0,0:0:0:0:
291,96,65579,2,0,P|349:115|413:74,1,118.999996368408,8|2,0:0|0:0,0:0:0:0:
508,182,65922,5,8,0:1:0:0:
378,317,66094,1,8,0:1:0:0:
441,115,66265,1,8,0:1:0:0:
297,254,66437,1,8,0:1:0:0:
487,255,66608,1,8,0:1:0:0:
337,103,66779,1,8,0:1:0:0:
456,334,66951,1,8,0:1:0:0:
283,180,67122,1,8,0:1:0:0:
290,186,68151,5,8,0:1:0:0:
290,186,68237,1,8,0:1:0:0:
290,186,68322,1,8,0:1:0:0:
205,53,68494,1,8,0:1:0:0:
73,36,68665,6,0,B|46:98|46:98|79:171,1,136,4|2,1:2|0:0,0:0:0:0:
175,309,69008,2,0,B|202:247|202:247|169:174,1,136,0|2,1:2|0:0,0:0:0:0:
320,310,69351,1,0,1:2:0:0:
275,128,69522,1,2,0:0:0:0:
331,330,69694,1,0,1:2:0:0:
381,125,69865,2,0,L|419:-15,1,136,2|0,0:0|1:2,0:0:0:0:
220,219,70208,5,2,0:0:0:0:
201,183,70294,1,2,0:0:0:0:
184,146,70379,2,0,B|161:86|161:86|188:14,1,136,0|2,1:2|0:0,0:0:0:0:
48,180,70722,1,0,1:2:0:0:
264,78,70894,1,2,0:0:0:0:
48,19,71065,1,0,1:2:0:0:
282,78,71237,2,0,L|419:79,1,136,2|0,0:0|1:2,0:0:0:0:
395,298,71579,5,2,0:0:0:0:
397,257,71665,1,2,0:0:0:0:
396,216,71751,2,0,B|329:197|329:197|255:227,1,136,0|0,1:2|0:0,0:0:0:0:
99,332,72094,1,0,1:2:0:0:
147,97,72265,1,2,0:0:0:0:
221,325,72437,1,0,1:2:0:0:
147,72,72608,2,0,L|153:209,1,136,2|0,0:0|1:2,0:0:0:0:
308,20,72951,5,2,0:0:0:0:
298,54,73037,1,2,0:0:0:0:
285,92,73122,2,0,B|264:151|264:151|307:224,1,136,0|2,1:2|0:0,0:0:0:0:
464,339,73465,2,0,L|504:338,4,34,0|0|0|0|0,1:2|0:0|0:0|0:0|0:0,0:0:0:0:
174,325,73808,2,0,L|119:325,2,34,0|0|2,1:2|0:0|0:0,0:0:0:0:
263,325,73979,2,0,L|318:325,2,34,2|0|0,0:0|0:0|0:0,0:0:0:0:
461,157,74151,6,0,B|482:93|482:93|454:14,1,136,0|2,1:2|0:0,0:0:0:0:
385,251,74494,2,0,B|364:315|364:315|392:394,1,136,0|0,1:2|0:0,0:0:0:0:
346,83,74837,1,0,1:2:0:0:
512,254,75008,1,2,0:0:0:0:
348,46,75179,1,0,1:2:0:0:
260,245,75351,2,0,L|115:235,1,136,2|0,0:0|1:2,0:0:0:0:
143,45,75694,5,2,0:0:0:0:
177,46,75779,1,2,0:0:0:0:
212,46,75865,2,0,B|354:46,1,136,0|2,1:2|0:0,0:0:0:0:
238,170,76208,1,0,1:2:0:0:
451,37,76379,1,2,0:0:0:0:
213,193,76551,1,0,1:2:0:0:
451,0,76722,2,0,L|450:155,1,136,2|0,0:0|1:2,0:0:0:0:
315,346,77065,5,2,0:0:0:0:
296,310,77151,1,2,0:0:0:0:
279,273,77236,2,0,B|256:213|256:213|283:141,1,136,0|2,1:2|0:0,0:0:0:0:
111,305,77579,1,0,1:2:0:0:
342,221,77751,1,2,0:0:0:0:
111,144,77922,1,0,1:2:0:0:
360,221,78094,2,0,L|497:222,1,136,2|2,0:0|0:0,0:0:0:0:
495,221,79294,5,4,1:2:0:0:
495,221,79637,6,0,P|516:156|488:94,1,118.999996368408,4|0,1:2|0:0,0:0:0:0:
383,28,79979,1,0,1:2:0:0:
500,109,80151,1,2,0:0:0:0:
311,106,80323,2,0,P|295:162|314:226,1,118.999996368408,0|0,1:2|0:0,0:0:0:0:
495,221,80665,2,0,P|516:156|488:94,1,118.999996368408,0|0,1:2|0:0,0:0:0:0:
311,106,81008,1,0,1:2:0:0:
191,65,81180,1,2,0:0:0:0:
311,0,81351,1,0,1:2:0:0:
239,124,81523,1,2,0:0:0:0:
372,47,81694,2,0,P|424:67|498:33,1,118.999996368408,0|0,1:2|0:0,0:0:0:0:
433,178,82037,1,0,1:2:0:0:
433,178,82380,6,0,P|461:232|436:309,1,118.999996368408,0|0,1:2|0:0,0:0:0:0:
333,353,82722,1,0,1:2:0:0:
451,287,82894,1,2,0:0:0:0:
324,221,83066,2,0,P|264:240|193:213,1,118.999996368408,0|0,1:2|0:0,0:0:0:0:
161,102,83408,2,0,P|221:83|292:110,1,118.999996368408,0|0,1:2|0:0,0:0:0:0:
416,243,83751,2,0,P|430:186|411:131,1,118.999996368408,0|0,1:2|0:0,0:0:0:0:
334,44,84094,1,0,1:2:0:0:
244,130,84266,1,2,0:0:0:0:
303,241,84437,2,0,P|243:258|180:236,1,118.999996368408,0|0,1:2|0:0,0:0:0:0:
101,151,84779,1,0,1:2:0:0:
101,151,85123,6,0,P|119:91|85:31,1,118.999996368408,8|0,1:2|0:0,0:0:0:0:
17,117,85465,1,8,1:2:0:0:
188,61,85637,1,2,0:0:0:0:
297,149,85808,2,0,L|419:149,1,118.999996368408,8|0,1:2|0:0,0:0:0:0:
512,51,86151,1,8,1:2:0:0:
416,149,86322,1,2,0:0:0:0:
512,289,86494,2,0,L|391:289,1,118.999996368408,8|0,1:2|0:0,0:0:0:0:
268,374,86837,1,8,1:2:0:0:
393,289,87008,1,2,0:0:0:0:
274,181,87180,2,0,L|150:181,1,118.999996368408,8|0,1:2|0:0,0:0:0:0:
57,311,87522,1,8,1:2:0:0:
57,311,87865,6,0,P|115:329|183:304,1,118.999996368408,0|0,1:2|0:0,0:0:0:0:
274,181,88208,1,0,1:2:0:0:
387,320,88380,1,2,0:0:0:0:
497,212,88551,2,0,P|508:158|488:88,1,118.999996368408,0|0,1:2|0:0,0:0:0:0:
357,21,88894,2,0,P|346:75|366:145,1,118.999996368408,0|0,1:2|0:0,0:0:0:0:
387,320,89237,5,2,0:0:0:0:
270,370,89408,1,2,0:0:0:0:
187,300,89580,1,2,0:0:0:0:
111,353,89751,1,2,0:0:0:0:
55,287,89923,2,0,P|42:226|69:172,1,118.999996368408,2|0,0:0|0:0,0:0:0:0:
218,44,90265,6,0,L|257:43,5,39.6666654561361,2|0|2|0|2|0,0:0|0:0|0:0|0:0|0:0|0:0,0:0:0:0:
267,74,90608,5,4,0:2:0:0:
186,170,90779,1,2,0:0:0:0:
267,261,90951,1,8,0:0:0:0:
346,170,91122,1,2,0:0:0:0:
267,74,91294,2,0,P|326:57|385:78,1,118.999996368408,8|0,0:0|0:0,0:0:0:0:
458,169,91637,2,0,P|399:186|340:165,1,118.999996368408,8|0,0:0|0:0,0:0:0:0:
267,74,91979,1,8,0:0:0:0:
146,187,92151,1,2,0:0:0:0:
172,37,92322,1,8,0:0:0:0:
247,173,92494,1,2,0:0:0:0:
369,35,92665,2,0,P|387:80|363:159,1,118.999996368408,8|0,0:0|0:0,0:0:0:0:
276,262,93008,1,8,0:0:0:0:
276,262,93351,5,8,0:0:0:0:
386,349,93522,1,2,0:0:0:0:
502,267,93694,1,8,0:0:0:0:
390,194,93865,1,2,0:0:0:0:
276,262,94037,2,0,P|260:204|283:133,1,118.999996368408,8|0,0:0|0:0,0:0:0:0:
387,80,94379,2,0,P|403:138|380:209,1,118.999996368408,8|0,0:0|0:0,0:0:0:0:
276,262,94722,1,8,0:0:0:0:
136,202,94894,1,2,0:0:0:0:
260,156,95065,1,8,0:0:0:0:
187,284,95237,1,2,0:0:0:0:
179,142,95408,2,0,P|165:87|194:27,1,118.999996368408,8|0,0:0|0:0,0:0:0:0:
309,11,95751,1,8,0:0:0:0:
309,11,96094,5,8,0:0:0:0:
380,133,96265,1,2,0:0:0:0:
306,249,96437,1,8,0:0:0:0:
228,129,96608,1,2,0:0:0:0:
309,11,96780,2,0,P|367:-5|438:18,1,118.999996368408,8|0,0:0|0:0,0:0:0:0:
493,130,97122,2,0,P|435:146|364:123,1,118.999996368408,8|2,0:0|0:0,0:0:0:0:
309,11,97465,1,8,0:0:0:0:
228,129,97637,1,2,0:0:0:0:
208,29,97808,1,8,0:0:0:0:
314,104,97980,1,2,0:0:0:0:
150,153,98151,2,0,P|136:208|165:268,1,118.999996368408,8|0,0:0|0:0,0:0:0:0:
173,348,98494,1,8,0:0:0:0:
173,348,98837,5,2,0:0:0:0:
13,233,99008,1,0,0:0:0:0:
204,313,99179,1,2,0:0:0:0:
41,206,99351,1,0,0:0:0:0:
167,186,99523,2,0,L|188:103,1,85,2|0,0:0|0:0,0:0:0:0:
334,108,99865,2,0,L|313:191,1,85,2|0,0:0|0:0,0:0:0:0:
215,268,100208,1,2,0:0:0:0:
410,294,100379,1,0,0:0:0:0:
204,313,100550,1,2,0:0:0:0:
398,331,100722,1,0,0:0:0:0:
314,191,100894,2,0,P|394:158|479:197,1,170,2|0,0:0|0:0,0:0:0:0:
469,187,101579,6,0,B|484:127|484:127|461:66,1,118.999996368408,4|2,1:2|0:0,0:0:0:0:
323,7,101922,1,8,0:0:0:0:
182,73,102094,1,2,0:0:0:0:
41,8,102265,2,0,B|59:132|59:132|119:96,1,178.499994552612,8|0,0:0|0:0,0:0:0:0:
182,73,102608,1,8,0:0:0:0:
300,183,102779,2,0,B|421:183|421:183|395:245,1,178.499994552612,2|0,0:0|0:0,0:0:0:0:
334,292,103122,1,2,0:0:0:0:
162,332,103294,2,0,B|99:353|99:353|40:325,1,118.999996368408,8|2,0:0|0:0,0:0:0:0:
22,175,103637,1,8,0:0:0:0:
149,88,103808,1,2,0:0:0:0:
182,238,103979,1,8,0:0:0:0:
56,326,104151,1,2,0:0:0:0:
149,88,104322,6,0,P|205:111|271:80,1,118.999996368408,8|2,0:0|0:0,0:0:0:0:
450,156,104665,2,0,P|394:133|328:164,1,118.999996368408,8|2,0:0|0:0,0:0:0:0:
182,238,105008,2,0,P|238:261|304:230,1,118.999996368408,8|2,0:0|0:0,0:0:0:0:
450,156,105351,1,8,0:0:0:0:
431,372,105522,2,0,B|284:369|284:369|349:297,1,237.999992736817,2|0,0:0|0:0,0:0:0:0:
480,220,106037,2,0,B|497:160|497:160|469:95,1,118.999996368408,8|2,0:0|0:0,0:0:0:0:
352,44,106379,2,0,B|292:61|292:61|227:33,1,118.999996368408,8|0,0:0|0:0,0:0:0:0:
46,20,106722,1,8,0:0:0:0:
89,169,106894,1,2,0:0:0:0:
352,44,107065,6,0,P|365:91|349:134,1,85,4|0,1:2|0:0,0:0:0:0:
236,277,107408,2,0,P|223:230|239:187,1,85,2|0,0:0|0:0,0:0:0:0:
401,192,107751,2,0,P|459:228|389:248,1,170,2|2,0:0|0:0,0:0:0:0:
232,196,108265,6,0,P|186:180|140:203,1,85,2|0,0:0|0:0,0:0:0:0:
58,265,108608,1,2,0:0:0:0:
156,320,108779,1,2,0:0:0:0:
153,191,108951,1,2,0:0:0:0:
60,140,109122,1,2,0:0:0:0:
60,140,109637,5,2,0:0:0:0:
58,265,109808,1,0,0:0:0:0:
162,320,109980,1,2,0:0:0:0:
160,198,110151,1,2,0:0:0:0:
160,198,110237,1,2,0:0:0:0:
160,198,110322,1,2,0:0:0:0:
71,45,110494,2,0,B|115:28|115:28|166:50,1,85,0|2,0:0|0:0,0:0:0:0:
278,128,110837,5,0,0:0:0:0:
421,62,111008,2,0,P|437:111|417:158,1,85,2|0,0:0|0:0,0:0:0:0:
278,128,111351,1,2,0:0:0:0:
204,228,111522,1,0,0:0:0:0:
248,339,111694,1,2,0:0:0:0:
353,239,111865,2,0,P|408:239|344:271,1,170,0|0,0:0|0:0,0:0:0:0:
359,294,112551,6,0,P|291:271|236:293,1,127.500004863739,4|2,1:2|0:0,0:0:0:0:
18,284,112894,2,0,P|86:307|141:285,1,127.500004863739,8|0,0:1|0:0,0:0:0:0:
117,133,113237,1,8,0:1:0:0:
117,133,113322,1,0,0:0:0:0:
117,133,113408,2,0,P|185:110|240:132,1,127.500004863739,2|8,0:0|0:1,0:0:0:0:
446,27,113751,2,0,P|378:50|323:28,1,127.500004863739,2|8,0:0|0:1,0:0:0:0:
234,128,114094,1,2,0:0:0:0:
326,222,114265,1,8,0:1:0:0:
414,126,114437,1,2,0:0:0:0:
328,31,114608,1,8,0:1:0:0:
326,222,114779,5,2,0:0:0:0:
414,126,114951,1,8,0:1:0:0:
512,213,115122,1,2,0:0:0:0:
326,222,115294,2,0,P|266:241|203:217,1,127.500004863739,8|2,0:1|0:0,0:0:0:0:
105,74,115637,1,8,0:1:0:0:
72,226,115808,1,2,0:0:0:0:
196,121,115979,1,8,0:1:0:0:
28,137,116151,1,2,0:0:0:0:
190,216,116322,1,8,0:1:0:0:
105,74,116494,6,0,B|221:20|221:20|340:69,1,255.000009727478,2|2,0:0|0:0,0:0:0:0:
445,207,117008,1,8,0:1:0:0:
338,68,117179,1,2,0:0:0:0:
445,207,117351,2,0,P|381:189|320:207,1,127.500004863739,8|0,0:1|0:0,0:0:0:0:
240,280,117694,5,8,0:1:0:0:
380,331,117865,1,2,0:0:0:0:
445,207,118037,2,0,P|468:145|436:97,1,127.500004863739,8|8,0:1|0:1,0:0:0:0:
267,99,118379,2,0,P|244:161|276:209,1,127.500004863739,8|8,0:1|0:1,0:0:0:0:
330,32,118722,1,8,0:1:0:0:
330,32,118808,1,0,0:0:0:0:
330,32,118894,2,0,P|273:9|201:40,1,127.500004863739,0|8,0:0|0:1,0:0:0:0:
82,174,119237,6,0,P|74:256|102:171,1,255.000009727478,8|8,0:1|0:1,0:0:0:0:
72,65,119751,1,8,0:1:0:0:
215,151,119922,1,8,0:1:0:0:
212,28,120094,2,0,B|274:28|274:28|341:65,1,127.500004863739,8|8,0:1|0:1,0:0:0:0:
461,210,120437,2,0,B|399:210|399:210|332:173,1,127.500004863739,8|8,0:1|0:1,0:0:0:0:
212,28,120779,5,4,3:3:0:0:
172,66,120864,1,4,3:3:0:0:
165,119,120950,1,4,3:3:0:0:
192,166,121036,1,4,3:3:0:0:
225,210,121122,1,4,3:3:0:0:
271,239,121208,1,4,3:3:0:0:
283,293,121294,1,4,3:3:0:0:
254,340,121379,1,4,3:3:0:0:
200,352,121465,1,4,3:3:0:0:
153,322,121551,1,4,3:3:0:0:
141,268,121637,1,4,3:3:0:0:
171,222,121722,1,4,3:3:0:0:
225,210,121808,2,0,P|256:216|290:210,2,63.7500024318696,4|4|4,3:3|3:3|3:3,0:0:0:0:
251,36,122151,5,8,0:1:0:0:
352,159,122322,1,8,0:1:0:0:
352,159,122408,1,8,0:1:0:0:
352,159,122494,1,8,0:1:0:0:
158,155,122665,1,8,0:1:0:0:
257,43,122836,1,8,0:1:0:0:
257,43,122922,1,8,0:1:0:0:
257,43,123008,1,8,0:1:0:0:
347,152,123179,2,0,P|368:220|346:282,1,127.500004863739,8|0,0:1|0:0,0:0:0:0:
64,81,123522,6,0,P|40:150|60:213,1,136,4|0,1:2|0:0,0:0:0:0:
251,333,123865,2,0,P|275:264|255:201,1,136,2|0,1:2|0:0,0:0:0:0:
64,81,124208,2,0,B|98:96|98:96|149:73,1,68,2|0,1:2|0:0,0:0:0:0:
204,40,124379,2,0,B|238:25|238:25|289:48,1,68,2|0,0:0|0:0,0:0:0:0:
340,89,124551,1,0,1:2:0:0:
504,19,124722,2,0,P|433:44|369:17,1,136,2|0,0:0|1:2,0:0:0:0:
285,161,125065,1,2,0:0:0:0:
462,239,125237,2,0,P|482:303|456:374,1,136,2|0,1:2|0:0,0:0:0:0:
283,288,125579,2,0,P|263:225|284:161,1,136,2|0,1:2|0:0,0:0:0:0:
378,24,125922,1,2,1:2:0:0:
385,54,126007,1,2,0:0:0:0:
391,80,126093,1,2,0:0:0:0:
212,52,126265,6,0,L|68:57,1,136,2|0,1:2|0:0,0:0:0:0:
1,202,126608,2,0,L|145:197,1,136,2|0,1:2|0:0,0:0:0:0:
296,281,126951,2,0,L|214:282,1,68,2|0,1:2|0:0,0:0:0:0:
164,339,127122,2,0,L|80:338,1,68,2|0,0:0|0:0,0:0:0:0:
15,307,127294,1,0,1:2:0:0:
282,196,127465,2,0,L|426:201,1,136,2|0,0:0|1:2,0:0:0:0:
375,31,127808,2,0,L|297:29,1,68,2|0,0:0|0:0,0:0:0:0:
244,70,127979,2,0,L|104:68,1,136,2|0,1:2|0:0,0:0:0:0:
4,198,128322,2,0,P|-3:256|29:336,1,136,2|0,1:2|0:0,0:0:0:0:
199,364,128665,2,0,P|213:289|143:172,1,204,2|0,1:2|0:0,0:0:0:0:
84,143,129008,6,0,P|124:105|213:123,1,136,2|0,1:2|0:0,0:0:0:0:
474,54,129351,2,0,P|419:59|360:-10,1,136,2|0,1:2|0:0,0:0:0:0:
299,141,129694,2,0,P|308:175|296:214,1,68,2|0,1:2|0:0,0:0:0:0:
223,248,129865,2,0,P|223:281|253:325,1,68,2|0,0:0|0:0,0:0:0:0:
316,355,130037,1,0,1:2:0:0:
498,257,130208,2,0,P|491:187|436:142,1,136,2|0,0:0|1:2,0:0:0:0:
299,141,130551,2,0,P|263:153|220:138,1,68,2|0,0:0|0:0,0:0:0:0:
187,75,130722,2,0,P|117:55|49:80,1,136,2|0,1:2|0:0,0:0:0:0:
0,275,131065,2,0,P|70:295|138:270,1,136,2|0,1:2|0:0,0:0:0:0:
177,205,131322,2,0,P|210:199|252:214,1,68,2|0,0:0|1:2,0:0:0:0:
355,309,131579,1,2,0:0:0:0:
355,309,131665,1,0,0:0:0:0:
355,309,131751,6,0,B|420:334|420:334|498:303,1,136,2|0,1:2|0:0,0:0:0:0:
504,126,132094,2,0,B|439:101|439:101|361:132,1,136,2|0,1:2|0:0,0:0:0:0:
227,161,132437,1,2,1:2:0:0:
227,161,132522,1,0,0:0:0:0:
227,161,132608,2,0,B|226:235,1,68,2|0,0:0|0:0,0:0:0:0:
223,316,132779,1,0,1:2:0:0:
79,373,132951,2,0,B|54:311|54:311|79:246,1,136,2|0,0:0|1:2,0:0:0:0:
78,246,133808,6,0,L|177:246,1,85,2|0,0:0|0:0,0:0:0:0:
369,126,134151,6,0,L|127:126,1,229.499992996216,2|0,0:0|0:0,0:0:0:0:
50,128,134494,6,0,P|36:183|80:247,1,136,2|0,1:2|0:0,0:0:0:0:
177,54,134837,2,0,L|312:54,1,136,2|0,1:2|0:0,0:0:0:0:
434,153,135179,2,0,P|422:187|433:221,1,68,2|0,1:2|0:0,0:0:0:0:
508,257,135351,2,0,P|513:293|493:336,1,68,2|0,0:0|0:0,0:0:0:0:
423,359,135522,1,0,1:2:0:0:
313,213,135694,2,0,L|165:213,1,136,2|0,0:0|1:2,0:0:0:0:
7,158,136037,2,0,P|-7:193|4:238,1,68,2|0,0:0|0:0,0:0:0:0:
84,241,136208,2,0,P|113:300|76:365,1,136,2|0,1:2|0:0,0:0:0:0:
278,350,136551,2,0,P|234:301|235:224,1,136,2|0,1:2|0:0,0:0:0:0:
121,48,136894,1,2,1:2:0:0:
128,76,136980,1,2,0:0:0:0:
135,102,137065,1,2,0:0:0:0:
275,34,137237,6,0,L|440:31,1,136,2|0,1:2|0:0,0:0:0:0:
512,187,137579,2,0,L|347:190,1,136,2|0,1:2|0:0,0:0:0:0:
208,341,137922,2,0,P|247:350|297:330,1,68,2|0,1:2|0:0,0:0:0:0:
341,286,138094,2,0,L|415:288,1,68,2|0,0:0|0:0,0:0:0:0:
498,293,138265,1,0,1:2:0:0:
122,194,138437,2,0,L|280:192,1,136,2|0,0:0|1:2,0:0:0:0:
428,96,138779,2,0,L|338:96,1,68,2|0,0:0|0:0,0:0:0:0:
277,66,138951,2,0,L|121:66,1,136,2|0,1:2|0:0,0:0:0:0:
350,16,139294,2,0,L|519:20,1,136,2|0,1:2|0:0,0:0:0:0:
497,160,139637,2,0,P|472:236|490:156,1,204,2|0,1:2|0:0,0:0:0:0:
418,90,139979,5,8,0:1:0:0:
284,153,140151,1,8,0:1:0:0:
328,307,140322,2,0,P|265:290|205:312,1,118.999996368408,8|8,0:1|0:1,0:0:0:0:
94,201,140665,1,8,0:1:0:0:
94,201,140837,2,0,P|157:218|217:196,1,118.999996368408,8|8,0:1|0:1,0:0:0:0:
218,66,141179,2,0,L|343:66,1,118.999996368408,8|8,0:1|0:1,0:0:0:0:
426,167,141522,1,8,0:1:0:0:
426,167,141694,2,0,L|285:167,1,118.999996368408,8|8,0:1|0:1,0:0:0:0:
204,256,142036,2,0,L|329:256,1,118.999996368408,8|8,0:1|0:1,0:0:0:0:
446,337,142379,2,0,L|305:337,1,118.999996368408,8|8,0:1|0:1,0:0:0:0:
204,256,142722,5,4,3:3:0:0:
174,220,142807,1,4,3:3:0:0:
165,173,142893,1,4,3:3:0:0:
191,133,142979,1,4,3:3:0:0:
162,91,143065,1,4,3:3:0:0:
114,73,143150,1,4,3:3:0:0:
63,73,143236,1,4,3:3:0:0:
20,101,143322,1,4,3:3:0:0:
35,153,143407,1,4,3:3:0:0:
60,202,143494,1,4,3:3:0:0:
53,256,143578,1,4,3:3:0:0:
20,300,143664,1,4,3:3:0:0:
60,336,143751,1,4,3:3:0:0:
111,351,143837,1,4,3:3:0:0:
163,345,143922,1,4,3:3:0:0:
203,309,144008,1,4,3:3:0:0:
204,256,144094,5,4,3:0:0:0:
204,256,144265,2,0,L|320:255,1,101.999996887207,0|2,0:0|0:0,0:0:0:0:
421,338,144608,2,0,L|311:337,1,101.999996887207,0|2,0:0|0:0,0:0:0:0:
403,196,144951,1,0,0:0:0:0:
403,196,145037,1,0,0:0:0:0:
403,196,145122,1,2,0:0:0:0:
316,103,145294,1,0,1:0:0:0:
316,103,145465,6,0,P|266:117|203:93,1,101.999996887207,4|0,1:2|0:0,0:0:0:0:
83,79,145808,1,2,1:2:0:0:
176,187,145979,1,0,0:0:0:0:
72,229,146151,2,0,P|41:299|83:356,1,152.999995330811,2|0,1:2|0:0,0:0:0:0:
147,343,146494,1,2,1:2:0:0:
265,283,146665,2,0,P|311:299|376:274,1,101.999996887207,2|0,0:0|1:2,0:0:0:0:
340,184,147008,2,0,P|343:135|391:85,1,101.999996887207,2|0,0:0|1:2,0:0:0:0:
493,69,147351,2,0,L|290:48,1,203.999993774414,2|0,0:0|0:0,0:0:0:0:
151,30,147865,1,0,1:2:0:0:
216,162,148037,1,0,0:0:0:0:
78,102,148208,6,0,P|48:149|74:206,1,101.999996887207,2|0,1:2|0:0,0:0:0:0:
216,162,148551,1,2,1:2:0:0:
141,296,148722,1,0,0:0:0:0:
297,253,148894,2,0,P|367:226|447:260,1,152.999995330811,2|0,1:2|0:0,0:0:0:0:
492,297,149237,1,2,1:2:0:0:
500,166,149408,2,0,P|511:115|492:62,1,101.999996887207,2|0,0:0|1:2,0:0:0:0:
378,114,149751,2,0,P|322:125|268:105,1,101.999996887207,2|0,0:0|1:2,0:0:0:0:
244,22,150094,2,0,L|270:240,1,203.999993774414,2|0,0:0|0:0,0:0:0:0:
340,334,150608,1,0,1:2:0:0:
268,224,150779,1,0,0:0:0:0:
206,339,150951,1,0,1:2:0:0:
427,314,151122,5,0,0:0:0:0:
427,314,151208,1,0,0:0:0:0:
427,314,151294,2,0,P|453:260|401:173,1,152.999995330811,2|0,1:2|0:0,0:0:0:0:
361,130,151637,2,0,P|287:157|219:120,1,152.999995330811,2|0,1:2|0:0,0:0:0:0:
173,71,151979,1,2,1:2:0:0:
27,76,152151,2,0,P|9:125|32:182,1,101.999996887207,2|0,0:0|1:2,0:0:0:0:
78,330,152494,2,0,P|96:281|73:224,1,101.999996887207,2|0,0:0|1:2,0:0:0:0:
197,316,152837,2,0,P|283:375|194:297,1,458.999985992432,2|0,0:0|0:0,0:0:0:0:
132,294,153694,5,4,3:3:0:0:
106,291,153779,1,4,3:3:0:0:
83,279,153865,1,4,3:3:0:0:
64,261,153951,1,4,3:3:0:0:
64,235,154037,1,4,3:3:0:0:
73,211,154122,1,4,3:3:0:0:
81,186,154208,1,4,3:3:0:0:
81,160,154294,1,4,3:3:0:0:
74,135,154379,1,4,3:3:0:0:
70,109,154465,1,4,3:3:0:0:
58,86,154551,1,4,3:3:0:0:
48,62,154637,1,4,3:3:0:0:
48,36,154722,1,4,3:3:0:0:
73,35,154808,1,4,3:3:0:0:
98,35,154894,1,4,3:3:0:0:
123,35,154979,1,4,3:3:0:0:
148,36,155065,1,4,3:0:0:0:
148,36,156437,5,8,0:1:0:0:
148,36,156608,1,2,0:0:0:0:
392,122,156779,1,8,0:1:0:0:
211,188,156951,1,2,0:0:0:0:
396,37,157122,5,8,0:1:0:0:
326,234,157293,1,2,0:0:0:0:
417,51,157465,1,8,0:1:0:0:
339,238,157636,1,2,0:0:0:0:
367,51,157807,5,8,0:1:0:0:
305,235,157979,1,2,0:0:0:0:
222,61,158151,1,8,0:1:0:0:
183,241,158321,1,2,0:0:0:0:
31,148,158494,2,0,P|3:228|66:332,1,191.250007295609,8|0,0:1|0:0,0:0:0:0:
125,351,158837,5,8,0:1:0:0:
201,203,159008,1,2,0:0:0:0:
271,373,159179,2,0,P|325:300|275:226,1,191.250007295609,8|0,0:1|0:0,0:0:0:0:
201,203,159522,5,8,0:1:0:0:
70,61,159694,1,2,0:0:0:0:
87,202,159865,1,8,0:1:0:0:
209,103,160037,2,0,B|239:115|239:115|283:95,2,63.7500024318696,2|2|8,0:0|0:0|0:1,0:0:0:0:
70,61,160379,1,2,0:0:0:0:
87,202,160551,2,0,P|149:242|141:308,1,127.500004863739,8|2,0:1|0:0,0:0:0:0:
316,358,160894,2,0,P|254:318|279:208,1,191.250007295609,8|0,0:1|0:0,0:0:0:0:
323,160,161237,1,8,0:1:0:0:
443,284,161408,5,2,0:0:0:0:
443,284,161579,1,2,0:0:0:0:
369,34,161751,5,2,0:0:0:0:
192,99,161922,1,8,0:1:0:0:
367,7,162094,1,8,0:1:0:0:
152,84,162265,2,0,P|133:146|158:220,1,127.500004863739,8|8,0:1|0:1,0:0:0:0:
373,306,162608,5,8,0:1:0:0:
156,217,162779,1,8,0:1:0:0:
366,333,162951,2,0,P|428:352|502:327,1,127.500004863739,8|8,0:1|0:1,0:0:0:0:
423,75,163294,5,8,0:1:0:0:
507,315,163465,1,8,0:1:0:0:
393,72,163637,1,8,0:1:0:0:
512,342,163808,1,8,0:1:0:0:
399,30,163979,1,8,0:1:0:0:
512,342,164151,1,8,0:1:0:0:
399,30,164322,2,0,P|336:53|268:27,1,127.500004863739,8|8,0:1|0:1,0:0:0:0:
128,148,164665,5,4,3:3:0:0:
146,166,164751,1,4,3:3:0:0:
139,190,164837,1,4,3:3:0:0:
113,192,164922,1,4,3:3:0:0:
101,171,165008,1,4,3:3:0:0:
123,139,165093,1,4,3:3:0:0:
160,132,165179,1,4,3:3:0:0:
192,150,165265,1,4,3:3:0:0:
205,183,165351,1,4,3:3:0:0:
183,228,165436,1,4,3:3:0:0:
135,245,165522,1,4,3:3:0:0:
89,223,165608,1,4,3:3:0:0:
72,178,165694,1,4,3:3:0:0:
97,119,165779,1,4,3:3:0:0:
153,93,165865,1,4,3:3:0:0:
212,113,165951,1,4,3:3:0:0:
241,169,166037,6,0,L|331:169,1,85,2|0,0:0|0:0,0:0:0:0:
437,82,166379,2,0,L|347:82,1,85,2|0,0:0|0:0,0:0:0:0:
491,207,166722,1,2,0:0:0:0:
352,82,166894,1,0,0:0:0:0:
450,315,167065,2,0,P|397:334|316:288,1,152.999995330811,2|0,0:0|0:0,0:0:0:0:
301,261,167408,5,4,1:2:0:0:
53,265,168094,1,2,0:0:0:0:
53,265,168437,1,2,0:0:0:0:
132,158,168779,2,0,P|138:95|252:62,1,193.374991147995,2|0,0:0|0:0,0:0:0:0:
272,78,169465,2,0,P|325:134|405:67,1,193.374991147995,2|0,0:0|0:0,0:0:0:0:
411,48,170151,1,0,0:0:0:0:
487,285,170837,5,2,0:0:0:0:
487,285,171180,1,2,0:0:0:0:
367,265,171522,2,0,P|277:223|201:280,1,193.374991147995,2|0,0:0|0:0,0:0:0:0:
204,301,172208,2,0,P|114:343|38:286,1,193.374991147995,2|0,0:0|0:0,0:0:0:0:
35,265,172894,1,0,0:0:0:0:
178,68,173579,5,2,0:0:0:0:
178,68,173923,1,2,0:0:0:0:
252,163,174265,2,0,P|342:199|439:138,1,193.374991147995,2|0,0:0|0:0,0:0:0:0:
451,145,174951,2,0,P|501:193|432:287,1,193.374991147995,2|0,0:0|0:0,0:0:0:0:
415,287,175637,5,8,0:1:0:0:
415,287,175979,1,8,0:1:0:0:
327,363,176151,1,8,0:1:0:0:
247,278,176322,2,0,P|238:236|255:189,1,72.2500013780594,8|0,0:1|0:0,0:0:0:0:
165,106,176665,2,0,P|174:148|157:195,1,72.2500013780594,8|0,0:1|0:0,0:0:0:0:
73,243,177008,1,8,0:1:0:0:
144,333,177179,1,8,0:1:0:0:
247,278,177351,2,0,P|302:270|370:283,1,108.375002067089,8|0,0:1|0:0,0:0:0:0:
393,300,177694,2,0,P|420:214|344:114,1,216.750004134178,8|0,0:1|0:0,0:0:0:0:
205,180,178379,6,0,P|114:215|46:171,1,170,4|0,1:2|0:0,0:0:0:0:
129,57,178894,5,2,0:0:0:0:
205,180,179065,2,0,P|191:223|215:273,1,85,10|0,0:0|0:0,0:0:0:0:
305,358,179408,2,0,P|319:315|295:265,1,85,2|0,0:0|0:0,0:0:0:0:
204,179,179751,2,0,P|281:148|378:183,1,170,2|0,0:0|0:0,0:0:0:0:
467,276,180265,1,0,1:2:0:0:
362,170,180437,2,0,P|331:93|388:12,1,170,10|0,0:0|0:0,0:0:0:0:
487,106,180951,1,0,0:0:0:0:
370,21,181122,2,0,P|325:34|265:15,1,85,0|0,1:2|0:0,0:0:0:0:
130,89,181465,6,0,P|175:76|235:95,1,85,2|0,0:0|0:0,0:0:0:0:
214,225,181808,2,0,P|169:238|109:219,1,85,8|0,0:0|0:0,0:0:0:0:
130,89,182151,2,0,P|175:76|235:95,1,85,2|0,0:0|0:0,0:0:0:0:
214,225,182494,2,0,P|172:289|231:366,1,170,2|0,0:0|0:0,0:0:0:0:
340,291,183008,1,0,1:2:0:0:
214,225,183179,2,0,P|204:179|221:132,1,85,10|0,0:0|0:0,0:0:0:0:
292,44,183522,2,0,P|302:90|285:137,1,85,0|0,1:2|0:0,0:0:0:0:
440,122,183865,2,0,P|378:212|452:331,1,255,0|0,1:2|0:0,0:0:0:0:
303,357,184551,6,0,P|254:371|207:349,1,85,10|0,0:0|0:0,0:0:0:0:
78,300,184894,2,0,P|127:286|174:308,1,85,2|0,0:0|0:0,0:0:0:0:
303,357,185237,2,0,P|326:272|273:210,1,170,2|0,0:0|0:0,0:0:0:0:
158,295,185751,1,0,1:2:0:0:
278,212,185922,2,0,P|322:227|368:206,1,85,10|0,0:0|0:0,0:0:0:0:
497,142,186265,2,0,P|453:127|407:148,1,85,0|0,1:2|0:0,0:0:0:0:
278,212,186608,1,4,0:0:0:0:
278,212,189351,6,0,P|298:156|268:80,1,127.500004863739,4|0,1:2|0:0,0:0:0:0:
91,147,189694,2,0,P|71:203|101:279,1,127.500004863739,8|0,0:1|0:0,0:0:0:0:
278,212,190037,2,0,P|298:156|268:80,1,127.500004863739,8|0,0:1|0:0,0:0:0:0:
91,147,190379,1,8,0:1:0:0:
226,291,190551,1,0,0:0:0:0:
226,291,190637,1,0,0:0:0:0:
226,291,190722,2,0,P|282:311|346:277,1,127.500004863739,8|0,0:1|0:0,0:0:0:0:
226,43,191065,2,0,P|282:23|346:57,1,127.500004863739,8|0,0:1|0:0,0:0:0:0:
464,252,191408,2,0,L|324:287,1,127.500004863739,8|0,0:1|0:0,0:0:0:0:
464,81,191751,2,0,L|324:46,1,127.500004863739,8|0,0:1|0:0,0:0:0:0:
75,167,192094,6,0,L|208:185,1,127.500004863739,8|0,0:1|0:0,0:0:0:0:
367,352,192437,2,0,L|240:334,1,127.500004863739,8|0,0:1|0:0,0:0:0:0:
75,167,192779,2,0,L|208:185,1,127.500004863739,8|0,0:1|0:0,0:0:0:0:
367,352,193122,1,8,0:1:0:0:
472,196,193294,1,0,0:0:0:0:
472,196,193380,1,0,0:0:0:0:
472,196,193465,2,0,P|452:140|486:76,1,127.500004863739,8|0,0:1|0:0,0:0:0:0:
296,38,193808,2,0,P|240:18|176:52,1,127.500004863739,8|0,0:1|0:0,0:0:0:0:
71,179,194151,2,0,P|127:199|191:165,1,127.500004863739,8|0,0:1|0:0,0:0:0:0:
323,313,194494,2,0,P|343:257|309:193,1,127.500004863739,8|0,0:1|0:0,0:0:0:0:
181,45,194837,5,0,1:0:0:0:
181,45,195179,2,0,P|136:59|89:42,1,85,0|0,0:0|0:0,0:0:0:0:
71,179,195522,2,0,P|34:254|71:331,1,170,8|0,0:0|0:0,0:0:0:0:
213,325,196037,2,0,P|250:250|213:173,1,170,0|0,0:0|0:0,0:0:0:0:
181,45,196551,1,0,1:0:0:0:
181,45,196894,1,8,0:0:0:0:
458,119,197237,1,8,0:1:0:0:
349,243,197408,1,4,3:3:0:0:
349,243,197494,1,4,3:3:0:0:
349,243,197579,5,4,3:3:0:0:
320,256,197664,1,4,3:3:0:0:
288,258,197750,1,4,3:3:0:0:
258,249,197836,1,4,3:3:0:0:
233,217,197922,1,4,3:3:0:0:
196,199,198007,1,4,3:3:0:0:
156,200,198093,1,4,3:3:0:0:
121,219,198179,1,4,3:3:0:0:
92,256,198265,1,4,3:3:0:0:
91,302,198350,1,4,3:3:0:0:
111,343,198436,1,4,3:3:0:0:
154,360,198522,1,4,3:3:0:0:
208,350,198608,1,4,3:3:0:0:
244,309,198693,1,4,3:3:0:0:
246,253,198779,1,4,3:3:0:0:
213,207,198865,1,4,3:3:0:0:
156,200,198950,5,2,0:0:0:0:
156,200,200322,6,0,P|136:144|169:63,1,136,2|0,1:2|0:0,0:0:0:0:
410,129,200665,2,0,P|430:185|395:269,1,136,2|0,1:2|0:0,0:0:0:0:
156,200,201008,2,0,P|136:144|170:62,1,136,2|0,1:2|0:0,0:0:0:0:
410,129,201350,1,2,1:2:0:0:
287,330,201522,1,2,0:0:0:0:
343,338,201608,1,0,0:0:0:0:
397,344,201694,1,0,1:2:0:0:
512,235,201865,1,2,0:0:0:0:
287,118,202036,2,0,P|343:98|417:139,1,136,2|0,1:2|0:0,0:0:0:0:
172,265,202379,2,0,P|116:285|45:247,1,136,2|0,1:2|0:0,0:0:0:0:
114,35,202722,2,0,P|170:15|240:52,1,136,2|0,1:2|0:0,0:0:0:0:
314,254,203065,6,0,P|370:274|441:236,1,136,2|0,1:2|0:0,0:0:0:0:
245,343,203408,2,0,P|189:323|118:361,1,136,2|0,1:2|0:0,0:0:0:0:
0,193,203751,2,0,P|56:213|127:175,1,136,2|0,1:2|0:0,0:0:0:0:
235,46,204093,1,2,1:2:0:0:
477,131,204265,1,2,0:0:0:0:
488,184,204351,1,0,0:0:0:0:
501,236,204437,1,0,1:2:0:0:
281,239,204608,1,2,0:0:0:0:
358,36,204779,2,0,P|302:16|230:51,1,136,2|0,1:2|0:0,0:0:0:0:
48,191,205122,2,0,P|104:211|180:175,1,136,2|0,1:2|0:0,0:0:0:0:
348,313,205465,2,0,P|368:257|332:190,1,136,2|0,1:2|0:0,0:0:0:0:
48,191,205808,6,0,P|28:135|64:68,1,136,2|0,1:2|0:0,0:0:0:0:
348,71,206151,2,0,P|368:127|332:194,1,136,2|0,1:2|0:0,0:0:0:0:
48,191,206494,2,0,P|28:135|64:68,1,136,2|0,1:2|0:0,0:0:0:0:
348,71,206836,1,2,1:2:0:0:
137,262,207008,1,2,0:0:0:0:
164,308,207094,1,0,0:0:0:0:
217,312,207179,1,0,1:2:0:0:
389,247,207351,1,2,0:0:0:0:
348,71,207522,2,0,P|404:51|478:92,1,136,2|0,1:2|0:0,0:0:0:0:
443,307,207865,2,0,P|387:327|316:289,1,136,2|0,1:2|0:0,0:0:0:0:
226,59,208208,2,0,P|282:39|352:76,1,136,2|0,1:2|0:0,0:0:0:0:
321,295,208551,6,0,L|154:308,1,136,2|0,1:2|0:0,0:0:0:0:
90,69,208894,2,0,L|225:58,1,136,2|0,1:2|0:0,0:0:0:0:
483,119,209237,2,0,P|512:174|468:255,1,136,2|0,1:2|0:0,0:0:0:0:
297,171,209579,1,2,1:2:0:0:
140,292,209751,1,2,0:0:0:0:
50,174,209922,6,0,P|38:136|53:88,1,85,0|0,1:2|0:0,0:0:0:0:
6,241,210265,2,0,P|44:253|92:238,1,85,0|0,1:2|0:0,0:0:0:0:
265,68,210608,2,0,P|227:56|179:71,1,85,0|0,1:2|0:0,0:0:0:0:
223,212,210951,2,0,P|235:172|224:132,1,85,0|0,1:2|0:0,0:0:0:0:
358,101,211294,2,0,P|440:68|521:105,1,170,0|0,1:2|0:0,0:0:0:0:
512,96,211979,6,0,P|488:151|504:232,1,136,2|0,1:2|0:0,0:0:0:0:
334,345,212322,1,2,1:2:0:0:
150,259,212494,1,2,0:0:0:0:
97,244,212579,1,0,0:0:0:0:
52,255,212665,1,0,1:2:0:0:
94,43,212837,1,2,0:0:0:0:
150,259,213008,2,0,P|206:279|279:251,1,136,2|0,1:2|0:0,0:0:0:0:
219,38,213351,2,0,P|163:18|90:46,1,136,2|0,1:2|0:0,0:0:0:0:
351,31,213693,2,0,P|407:51|481:10,1,136,2|0,1:2|0:0,0:0:0:0:
497,276,214036,6,0,P|466:217|485:154,1,136,2|0,1:2|0:0,0:0:0:0:
172,374,214379,2,0,P|228:354|302:395,1,136,2|0,1:2|0:0,0:0:0:0:
367,131,214722,2,0,P|336:189|355:252,1,136,2|0,1:2|0:0,0:0:0:0:
503,384,215064,1,0,1:2:0:0:
367,131,215236,1,2,0:0:0:0:
313,119,215322,1,0,0:0:0:0:
259,128,215408,1,0,1:2:0:0:
98,338,215579,1,2,0:0:0:0:
0,165,215750,2,0,P|63:148|133:187,1,136,2|0,1:2|0:0,0:0:0:0:
367,131,216093,2,0,P|387:75|349:4,1,136,2|0,1:2|0:0,0:0:0:0:
124,177,216437,2,0,P|104:121|142:50,1,136,2|0,1:2|0:0,0:0:0:0:
367,131,216779,6,0,L|519:141,1,136,2|0,1:2|0:0,0:0:0:0:
364,330,217122,2,0,L|228:321,1,136,2|0,1:2|0:0,0:0:0:0:
0,239,217465,2,0,L|136:248,1,136,2|0,1:2|0:0,0:0:0:0:
367,131,217808,1,2,1:2:0:0:
120,31,217979,1,2,0:0:0:0:
96,80,218065,1,0,0:0:0:0:
121,128,218151,1,0,1:2:0:0:
211,290,218322,1,2,0:0:0:0:
367,131,218494,2,0,P|302:109|231:132,1,136,2|0,1:2|0:0,0:0:0:0:
83,285,218837,2,0,P|148:307|219:284,1,136,2|0,1:2|0:0,0:0:0:0:
450,67,219179,2,0,P|480:128|454:199,1,136,2|0,1:2|0:0,0:0:0:0:
83,285,219522,6,0,P|53:224|79:153,1,136,2|0,1:2|0:0,0:0:0:0:
227,3,219865,2,0,P|257:64|231:135,1,136,2|0,1:2|0:0,0:0:0:0:
291,341,220208,2,0,P|261:280|287:209,1,136,2|0,1:2|0:0,0:0:0:0:
459,81,220551,1,2,1:2:0:0:
279,217,220722,1,2,0:0:0:0:
224,221,220808,1,0,0:0:0:0:
169,224,220894,1,0,1:2:0:0:
38,352,221065,1,2,0:0:0:0:
70,61,221237,2,0,P|118:118|101:192,1,136,2|0,1:2|0:0,0:0:0:0:
300,9,221579,2,0,P|313:82|261:137,1,136,2|0,1:2|0:0,0:0:0:0:
488,173,221922,2,0,P|462:243|390:265,1,136,2|0,1:2|1:2,0:0:0:0:
259,202,222265,5,4,3:3:0:0:
242,192,222350,1,4,3:3:0:0:
223,187,222436,1,4,3:3:0:0:
204,187,222522,1,4,3:3:0:0:
186,191,222607,1,4,3:3:0:0:
169,200,222693,1,4,3:3:0:0:
155,213,222779,1,4,3:3:0:0:
144,229,222865,1,4,3:3:0:0:
136,251,222951,1,4,3:3:0:0:
139,270,223036,1,4,3:3:0:0:
140,297,223122,1,4,3:3:0:0:
119,314,223208,1,4,3:3:0:0:
94,325,223293,1,4,3:3:0:0:
66,322,223379,1,4,3:3:0:0:
45,303,223465,1,4,3:3:0:0:
40,276,223551,1,4,3:3:0:0:
46,249,223637,5,4,3:3:0:0:
66,231,223722,1,4,3:3:0:0:
93,230,223808,1,4,3:3:0:0:
117,241,223894,1,4,3:3:0:0:
143,243,223979,1,4,3:3:0:0:
170,243,224065,1,4,3:3:0:0:
194,231,224151,1,4,3:3:0:0:
211,210,224237,1,4,3:3:0:0:
225,187,224322,1,4,3:3:0:0:
230,160,224407,1,4,3:3:0:0:
219,134,224493,1,4,3:3:0:0:
199,114,224579,1,4,3:3:0:0:
175,100,224664,1,4,3:3:0:0:
147,103,224750,1,4,3:3:0:0:
129,123,224836,1,4,3:3:0:0:
124,149,224922,1,4,3:3:0:0:
158,149,225008,5,4,3:3:0:0:
184,128,225093,1,4,3:3:0:0:
208,103,225179,1,4,3:3:0:0:
224,73,225265,1,4,3:3:0:0:
252,55,225350,1,4,3:3:0:0:
284,45,225436,1,4,3:3:0:0:
316,55,225522,1,4,3:3:0:0:
337,81,225608,1,4,3:3:0:0:
349,112,225694,1,4,3:3:0:0:
338,144,225779,1,4,3:3:0:0:
320,173,225865,1,4,3:3:0:0:
322,207,225951,1,4,3:3:0:0:
331,239,226036,1,4,3:3:0:0:
357,260,226122,1,4,3:3:0:0:
390,267,226208,1,4,3:3:0:0:
421,254,226294,1,4,3:3:0:0:
454,238,226379,5,4,3:3:0:0:
479,215,226465,1,4,3:3:0:0:
503,191,226551,1,4,3:3:0:0:
510,157,226637,1,4,3:3:0:0:
488,122,226722,1,4,3:3:0:0:
448,110,226808,1,4,3:3:0:0:
413,131,226894,1,4,3:3:0:0:
376,148,226979,1,4,3:3:0:0:
335,150,227065,1,4,3:3:0:0:
298,133,227150,1,4,3:3:0:0:
276,98,227236,1,4,3:3:0:0:
273,57,227322,1,4,3:3:0:0:
304,31,227407,1,4,3:3:0:0:
305,71,227493,1,4,3:3:0:0:
276,98,227579,1,4,3:3:0:0:
237,112,227665,1,4,3:3:0:0:
201,115,227751,5,4,1:2:0:0:
40,21,227922,1,8,0:1:0:0:
76,218,228094,1,8,0:1:0:0:
240,193,228265,1,8,0:1:0:0:
335,55,228437,1,8,0:1:0:0:
434,188,228608,1,8,0:1:0:0:
332,320,228780,1,8,0:1:0:0:
240,193,228951,1,8,0:1:0:0:
150,53,229122,5,8,0:1:0:0:
58,192,229294,1,8,0:1:0:0:
146,332,229465,1,8,0:1:0:0:
240,193,229637,1,8,0:1:0:0:
353,279,229808,1,8,0:1:0:0:
470,198,229979,1,8,0:1:0:0:
361,103,230151,1,8,0:1:0:0:
240,193,230322,1,8,0:1:0:0:
353,279,230494,5,8,0:1:0:0:
353,279,230837,1,8,0:1:0:0:
353,279,231179,1,8,0:1:0:0:
353,279,231522,1,8,0:1:0:0:
353,279,233237,6,0,P|411:263|445:201,1,127.500004863739,4|0,1:2|0:0,0:0:0:0:
343,95,233579,2,0,P|327:37|265:3,1,127.500004863739,0|0,1:2|0:0,0:0:0:0:
159,105,233922,2,0,P|101:121|67:183,1,127.500004863739,0|0,1:2|0:0,0:0:0:0:
169,289,234265,2,0,P|185:347|247:381,1,127.500004863739,0|0,1:2|0:0,0:0:0:0:
353,279,234608,6,0,L|397:135,1,127.500004863739,0|0,1:2|0:0,0:0:0:0:
159,105,234951,2,0,L|115:249,1,127.500004863739,0|0,1:2|0:0,0:0:0:0:
344,310,235294,2,0,L|381:188,1,127.500004863739,0|0,1:2|0:0,0:0:0:0:
168,74,235637,2,0,L|130:195,1,127.500004863739,0|0,1:2|0:0,0:0:0:0:
350,64,235979,6,0,B|396:28|396:28|484:28,1,136,0|0,1:2|0:0,0:0:0:0:
422,243,236322,2,0,B|376:279|376:279|288:279,1,136,0|0,1:2|0:0,0:0:0:0:
226,100,236665,2,0,B|272:64|272:64|360:64,1,136,0|0,1:2|0:0,0:0:0:0:
298,279,237008,2,0,B|252:315|252:315|164:315,1,136,0|0,1:2|0:0,0:0:0:0:
134,153,237351,6,0,P|122:83|152:25,1,136,0|0,1:2|0:0,0:0:0:0:
295,70,237694,2,0,P|365:58|423:88,1,136,0|0,1:2|0:0,0:0:0:0:
378,231,238037,2,0,P|390:301|360:359,1,136,0|0,1:2|0:0,0:0:0:0:
217,314,238379,2,0,P|147:326|89:296,1,136,0|0,1:2|0:0,0:0:0:0:
295,70,238722,6,0,L|313:198,1,118.999996368408,0|0,1:2|0:0,0:0:0:0:
217,314,239065,2,0,L|199:186,1,118.999996368408,0|0,1:2|0:0,0:0:0:0:
328,100,239408,2,0,L|346:228,1,118.999996368408,0|0,1:2|0:0,0:0:0:0:
184,284,239751,2,0,L|166:156,1,118.999996368408,0|0,1:2|0:0,0:0:0:0:
328,100,240094,6,0,B|382:72|382:72|432:100,1,118.999996368408,0|0,1:2|0:0,0:0:0:0:
382,224,240437,2,0,B|328:252|328:252|278:224,1,118.999996368408,0|0,1:2|0:0,0:0:0:0:
223,99,240779,2,0,B|277:71|277:71|327:99,1,118.999996368408,0|0,1:2|0:0,0:0:0:0:
277,223,241122,2,0,B|223:251|223:251|173:223,1,118.999996368408,0|0,1:2|0:0,0:0:0:0:
54,153,241465,5,4,3:3:0:0:
34,109,241551,1,4,3:3:0:0:
52,64,241637,1,4,3:3:0:0:
95,46,241722,1,4,3:3:0:0:
141,72,241808,1,4,3:3:0:0:
189,94,241894,1,4,3:3:0:0:
241,89,241979,1,4,3:3:0:0:
288,64,242065,1,4,3:3:0:0:
324,16,242151,1,4,3:3:0:0:
347,70,242237,1,4,3:3:0:0:
347,129,242322,1,4,3:3:0:0:
315,179,242408,1,4,3:3:0:0:
264,220,242494,1,4,3:3:0:0:
238,279,242579,1,4,3:3:0:0:
258,341,242665,1,4,3:3:0:0:
318,366,242751,1,4,3:3:0:0:
385,342,242837,5,4,3:3:0:0:
256,192,243008,12,0,249694,0:0:0:0:
