osu file format v14

[General]
AudioFilename: audio.mp3
AudioLeadIn: 0
PreviewTime: 123351
Countdown: 0
SampleSet: Soft
StackLeniency: 0.3
Mode: 0
LetterboxInBreaks: 0
WidescreenStoryboard: 1

[Editor]
Bookmarks: 2840,13812,24783,35755,46726,57698,68669,79641,90612,101583,112555,123526,134498,145469,156441,167412,178383,189355,200326,211298,222269,233261,242861
DistanceSpacing: 1.3
BeatDivisor: 4
GridSize: 4
TimelineZoom: 1.9

[Metadata]
Title:Ravers MashUp
TitleUnicode:Ravers MashUp
Artist:S3RL
ArtistUnicode:S3RL
Creator:Nuvolina
Version:Hard
Source:
Tags:Anto MkGuh IDu5t idust english raver dimension pretty rave girl boy little candy knd kandi forever Emcee M Tamika Crystal Sara serl happy hardcore electronic 2018 mix remix compilation
BeatmapID:1923911
BeatmapSetID:912916

[Difficulty]
HPDrainRate:4.5
CircleSize:3.9
OverallDifficulty:6.5
ApproachRate:8
SliderMultiplier:1.4
SliderTickRate:1

[Events]
//Background and Video events
0,0,"raversbg.jpg",0,0
//Break Periods
//Storyboard Layer 0 (Background)
//Storyboard Layer 1 (Fail)
//Storyboard Layer 2 (Pass)
//Storyboard Layer 3 (Foreground)
//Storyboard Sound Samples

[TimingPoints]
2837,342.857142857143,4,2,1,50,1,0
5237,-100,4,2,1,50,0,0
5922,-100,4,2,1,50,0,0
6951,-100,4,2,1,50,0,0
8494,-100,4,2,1,50,0,0
8665,-100,4,2,1,50,0,0
9008,-100,4,2,1,50,0,0
11065,-100,4,2,1,50,0,0
11751,-100,4,2,1,50,0,0
12951,-100,4,2,1,60,0,0
13808,-100,4,2,1,70,0,0
23751,-100,4,2,1,70,0,0
24094,-100,4,2,1,70,0,0
24437,-100,4,2,1,70,0,0
24779,-90.9090909090909,4,2,1,80,0,0
30265,-90.9090909090909,4,2,1,80,0,0
33179,-100,4,2,1,65,0,0
34037,-100,4,2,1,65,0,0
34379,-100,4,2,1,65,0,0
34637,-100,4,2,1,65,0,0
34722,-100,4,2,1,65,0,0
34979,-100,4,2,1,65,0,0
35065,-100,4,2,1,65,0,0
35751,-83.3333333333333,4,2,1,95,0,0
36437,-83.3333333333333,4,2,1,95,0,0
38494,-83.3333333333333,4,2,1,95,0,0
39179,-83.3333333333333,4,2,1,95,0,0
41237,-83.3333333333333,4,2,1,95,0,0
41922,-83.3333333333333,4,2,1,95,0,0
43979,-83.3333333333333,4,2,1,95,0,0
44665,-83.3333333333333,4,2,1,95,0,0
45865,-83.3333333333333,4,2,1,60,0,0
46720,-83.3333333333333,4,2,1,60,0,0
46722,-83.3333333333333,4,2,1,95,0,0
56322,-83.3333333333333,4,2,1,60,0,0
57008,-83.3333333333333,4,2,1,60,0,0
57522,-100,4,2,1,60,0,0
57694,-100,4,2,1,70,0,0
63179,-90.9090909090909,4,2,1,80,0,0
67294,-100,4,2,1,60,0,0
68151,-100,4,2,1,80,0,0
68665,-90.9090909090909,4,2,1,95,0,0
73465,-100,4,2,1,95,0,0
74065,-100,4,2,1,95,0,0
74151,-100,4,2,1,95,0,0
74322,-90.9090909090909,4,2,1,95,0,0
78265,-100,4,2,1,60,0,0
78951,-100,4,2,1,60,0,0
79208,-100,4,2,1,60,0,0
79294,-100,4,2,1,70,0,0
79551,-100,4,2,1,70,0,0
79637,-100,4,2,1,70,0,0
87865,-133.333333333333,4,2,1,50,0,0
90608,-100,4,2,1,70,0,0
98837,-133.333333333333,4,2,1,70,0,0
101579,-100,4,2,1,70,0,0
107065,-133.333333333333,4,2,1,60,0,0
112551,-100,4,2,1,80,0,0
123179,-100,4,2,1,80,0,0
123522,-83.3333333333333,4,2,1,95,0,0
133808,-100,4,2,1,95,0,0
134151,-100,4,2,1,95,0,0
134494,-83.3333333333333,4,2,1,95,0,0
139979,-100,4,2,1,80,0,0
144008,-100,4,2,1,80,0,0
144437,-100,4,2,1,60,0,0
145465,-100,4,2,1,85,0,0
153694,-100,4,2,1,70,0,0
155065,-100,4,2,1,60,0,0
156437,-100,4,2,1,80,0,0
161237,-100,4,2,1,70,0,0
161922,-100,4,2,1,80,0,0
166037,-100,4,2,1,70,0,0
166722,-100,4,2,1,70,0,0
167065,-100,4,2,1,70,0,0
167408,-133.333333333333,4,2,1,80,0,0
168094,-133.333333333333,4,2,1,50,0,0
175637,-133.333333333333,4,2,1,70,0,0
178379,-100,4,2,1,70,0,0
187294,-100,4,2,1,60,0,0
189351,-90.9090909090909,4,2,1,80,0,0
194837,-100,4,2,1,50,0,0
197408,-100,4,2,1,80,0,0
198951,-100,4,2,1,70,0,0
200322,-83.3333333333333,4,2,1,95,0,0
209922,-100,4,2,1,75,0,0
211294,-100,4,2,1,75,0,0
211979,-83.3333333333333,4,2,1,95,0,0
227751,-83.3333333333333,4,2,1,80,0,0
229122,-100,4,2,1,80,0,0
230494,-100,4,2,1,70,0,0
231865,-100,4,2,1,60,0,0
233237,-90.9090909090909,4,2,1,80,0,0
238722,-90.9090909090909,4,2,1,60,0,0
241465,-90.9090909090909,4,2,1,70,0,0
249694,-90.9090909090909,4,2,1,30,0,0

[Colours]
Combo1 : 159,64,255
Combo2 : 111,183,255
Combo3 : 255,128,255

[HitObjects]
224,287,2836,6,0,P|156:316|94:280,1,140,4|2,1:2|0:0,0:0:0:0:
19,125,3522,2,0,P|81:93|149:132,1,140,2|2,0:0|0:0,0:0:0:0:
285,236,4208,2,0,P|318:245|365:224,2,70,2|0|2,0:0|0:0|0:0,0:0:0:0:
140,120,4894,2,0,P|206:89|270:127,1,140,2|2,0:0|0:0,0:0:0:0:
436,169,5579,6,0,B|470:108|470:108|428:47,1,140,2|2,0:0|0:0,0:0:0:0:
262,116,6265,2,0,B|229:179|229:179|273:246,1,140,2|2,0:0|0:0,0:0:0:0:
429,320,6951,2,0,L|463:320,4,35,2|0|0|0|2,0:0|0:0|0:0|0:0|0:0,0:0:0:0:
266,236,7637,1,2,0:0:0:0:
199,297,7808,1,0,0:0:0:0:
256,368,7979,1,2,0:0:0:0:
429,320,8322,6,0,L|429:169,1,140,2|2,0:0|0:0,0:0:0:0:
334,23,9008,2,0,L|334:178,1,140,2|2,0:0|0:0,0:0:0:0:
198,285,9694,2,0,P|165:294|112:279,2,70,2|0|2,0:0|0:0|0:0,0:0:0:0:
334,163,10380,2,0,P|402:192|464:156,1,140,2|2,0:0|0:0,0:0:0:0:
312,54,11065,6,0,B|247:16|247:16|182:61,1,140,2|2,0:0|0:0,0:0:0:0:
49,164,11751,2,0,B|111:200|111:200|172:166,1,140,2|2,0:0|0:0,0:0:0:0:
170,166,12951,6,0,P|203:157|243:167,2,70,2|0|2,0:0|0:0|0:0,0:0:0:0:
131,248,13465,2,0,P|97:258|63:250,1,70,0|2,0:0|0:0,0:0:0:0:
62,159,13808,6,0,L|62:81,1,70,4|0,1:2|0:0,0:0:0:0:
155,89,14151,2,0,L|237:90,1,70,8|0,0:0|0:0,0:0:0:0:
282,161,14494,2,0,P|317:172|353:159,2,70,8|2|8,0:0|0:0|0:0,0:0:0:0:
224,89,15008,1,2,0:0:0:0:
299,38,15179,2,0,P|368:13|436:45,1,140,8|8,0:0|0:0,0:0:0:0:
483,210,15865,6,0,L|488:292,2,70,8|2|8,0:0|0:0|0:0,0:0:0:0:
392,203,16379,1,2,0:0:0:0:
358,288,16551,2,0,P|283:317|222:281,1,140,8|8,0:0|0:0,0:0:0:0:
209,205,17065,1,2,0:0:0:0:
148,136,17237,2,0,P|112:125|78:137,2,70,8|2|8,0:0|0:0|0:0,0:0:0:0:
209,205,17751,1,2,0:0:0:0:
148,136,17922,2,0,P|122:67|169:1,1,140,8|8,0:0|0:0,0:0:0:0:
219,80,18437,5,2,0:0:0:0:
295,31,18608,2,0,P|329:25|371:31,2,70,8|2|8,0:0|0:0|0:0,0:0:0:0:
219,80,19122,1,2,0:0:0:0:
277,150,19294,2,0,P|302:219|270:287,1,140,8|8,0:0|0:0,0:0:0:0:
99,316,19979,1,8,0:0:0:0:
48,240,20151,2,0,L|37:151,2,70,2|8|2,0:0|0:0|0:0,0:0:0:0:
99,316,20665,2,0,P|160:289|230:325,1,140,8|8,0:0|0:0,0:0:0:0:
307,351,21179,5,2,0:0:0:0:
389,311,21351,2,0,L|474:313,2,70,8|2|8,0:0|0:0|0:0,0:0:0:0:
307,351,21865,1,2,0:0:0:0:
223,316,22037,2,0,P|236:245|202:178,1,140,8|8,0:0|0:0,0:0:0:0:
95,43,22722,2,0,L|13:43,2,70,8|2|8,0:0|0:0|0:0,0:0:0:0:
183,18,23236,1,2,0:0:0:0:
241,88,23408,6,0,L|331:79,1,70,8|0,0:0|0:0,0:0:0:0:
395,28,23751,6,0,L|482:19,1,70,8|0,0:0|0:0,0:0:0:0:
468,125,24094,6,0,L|398:131,1,70,8|0,0:0|0:0,0:0:0:0:
307,183,24437,6,0,L|207:172,1,70,8|0,0:0|0:0,0:0:0:0:
118,179,24779,6,0,P|107:216|125:266,1,77.0000023498536,8|0,1:1|0:0,0:0:0:0:
191,305,25122,2,0,P|199:274|176:215,1,77.0000023498536,8|0,0:1|0:0,0:0:0:0:
112,177,25465,2,0,P|105:143|125:91,1,77.0000023498536,8|0,0:1|0:0,0:0:0:0:
178,34,25808,1,8,0:1:0:0:
178,34,25979,1,0,0:0:0:0:
257,81,26151,6,0,P|294:92|340:77,1,77.0000023498536,8|0,0:1|0:0,0:0:0:0:
409,34,26494,2,0,P|422:77|414:115,1,77.0000023498536,8|0,0:1|0:0,0:0:0:0:
364,185,26837,2,0,P|353:222|368:268,1,77.0000023498536,8|0,0:1|0:0,0:0:0:0:
392,345,27179,2,0,P|355:356|309:341,1,77.0000023498536,8|0,0:1|0:0,0:0:0:0:
252,283,27522,6,0,P|208:272|169:291,1,77.0000023498536,8|0,0:1|0:0,0:0:0:0:
95,321,27865,2,0,L|79:231,1,77.0000023498536,8|0,0:1|0:0,0:0:0:0:
137,169,28208,2,0,L|156:88,1,77.0000023498536,8|0,0:1|0:0,0:0:0:0:
219,27,28551,1,8,0:1:0:0:
219,27,28722,1,0,0:0:0:0:
288,99,28894,6,0,B|377:99,1,77.0000023498536,8|0,0:1|0:0,0:0:0:0:
448,149,29237,1,8,0:1:0:0:
448,149,29408,1,0,0:0:0:0:
360,197,29579,2,0,B|264:197,1,77.0000023498536,8|0,0:1|0:1,0:0:0:0:
207,263,29922,1,8,0:1:0:0:
207,263,30265,6,0,L|286:291,1,77.0000023498536,8|8,0:1|0:1,0:0:0:0:
380,289,30608,2,0,L|456:273,1,77.0000023498536,8|8,0:1|0:1,0:0:0:0:
490,179,30951,1,8,0:1:0:0:
490,179,31294,1,8,0:1:0:0:
439,93,31465,2,0,P|397:102|355:85,1,77.0000023498536,8|0,0:1|0:0,0:0:0:0:
281,36,31808,6,0,P|239:27|193:42,2,77.0000023498536,8|8|8,0:1|0:1|0:1,0:0:0:0:
283,136,32322,2,0,P|241:146|197:123,1,77.0000023498536,8|8,0:1|0:1,0:0:0:0:
118,93,32665,1,8,0:1:0:0:
98,191,32837,1,8,0:1:0:0:
98,191,35751,6,0,B|122:287,1,83.9999974365235,6|0,1:2|0:0,0:0:0:0:
199,315,36094,2,0,B|219:233,1,83.9999974365235,2|0,1:2|0:0,0:0:0:0:
273,157,36437,2,0,P|344:117|416:166,1,167.999994873047,2|2,1:2|1:2,0:0:0:0:
471,241,36951,1,2,0:0:0:0:
471,241,37122,1,0,1:2:0:0:
409,311,37294,2,0,P|338:351|266:302,1,167.999994873047,2|2,0:0|0:0,0:0:0:0:
219,233,37808,2,0,P|148:193|76:242,1,167.999994873047,2|2,1:2|1:2,0:0:0:0:
29,168,38322,1,0,0:0:0:0:
29,168,38494,6,0,B|27:63,1,83.9999974365235,2|0,1:2|0:0,0:0:0:0:
108,39,38837,2,0,B|106:144,1,83.9999974365235,2|0,1:2|0:0,0:0:0:0:
190,85,39179,2,0,L|363:87,1,167.999994873047,2|2,1:2|1:2,0:0:0:0:
426,23,39694,2,0,P|460:102|413:168,1,167.999994873047,2|2,0:0|0:0,0:0:0:0:
335,193,40208,1,2,1:2:0:0:
335,193,40379,1,2,0:0:0:0:
245,168,40551,2,0,P|230:207|245:250,1,83.9999974365235,2|0,1:2|0:0,0:0:0:0:
303,314,40894,2,0,L|344:314,3,41.9999987182618,2|0|0|0,1:2|0:0|0:0|0:0,0:0:0:0:
378,345,41237,6,0,P|420:359|472:336,1,83.9999974365235,2|0,1:2|0:0,0:0:0:0:
426,260,41580,2,0,P|416:217|439:165,1,83.9999974365235,2|0,1:2|0:0,0:0:0:0:
501,125,41922,2,0,P|511:82|488:30,1,83.9999974365235,2|0,1:2|0:0,0:0:0:0:
414,41,42265,1,2,1:2:0:0:
414,41,42437,2,0,P|324:63|247:42,1,167.999994873047,2|2,0:0|0:0,0:0:0:0:
165,14,42951,1,0,1:2:0:0:
88,65,43122,1,2,0:0:0:0:
163,119,43294,2,0,P|196:199|144:281,1,167.999994873047,2|2,1:2|1:2,0:0:0:0:
88,322,43808,1,0,0:0:0:0:
162,267,43979,6,0,P|201:259|259:274,1,83.9999974365235,2|0,1:2|0:0,0:0:0:0:
308,333,44322,2,0,P|347:341|405:326,1,83.9999974365235,2|0,1:2|0:0,0:0:0:0:
456,268,44665,1,2,1:2:0:0:
456,268,45008,2,0,P|466:226|447:180,2,83.9999974365235,2|2|0,1:2|0:0|1:2,0:0:0:0:
456,268,46722,6,0,P|413:253|366:280,1,83.9999974365235,2|0,1:2|0:0,0:0:0:0:
320,338,47065,2,0,P|277:349|224:328,1,83.9999974365235,2|0,1:2|0:0,0:0:0:0:
175,271,47408,2,0,L|89:271,2,83.9999974365235,2|0|2,1:2|0:0|1:2,0:0:0:0:
251,218,47922,1,2,0:0:0:0:
251,218,48094,2,0,P|278:138|243:55,1,167.999994873047,2|0,1:2|1:2,0:0:0:0:
76,127,48779,6,0,P|62:168|76:218,2,83.9999974365235,2|0|2,1:2|0:0|1:2,0:0:0:0:
131,52,49293,1,2,0:0:0:0:
198,115,49465,2,0,P|281:150|355:99,1,167.999994873047,0|2,1:2|1:2,0:0:0:0:
376,28,49979,1,0,0:0:0:0:
454,77,50151,2,0,P|474:127|446:167,2,83.9999974365235,2|0|2,1:2|0:0|1:2,0:0:0:0:
376,28,50665,1,2,0:0:0:0:
344,115,50837,2,0,P|316:191|363:260,1,167.999994873047,0|2,1:2|1:2,0:0:0:0:
424,325,51351,5,2,0:0:0:0:
334,348,51522,2,0,P|292:362|250:344,2,83.9999974365235,2|0|2,1:2|0:0|1:2,0:0:0:0:
424,325,52036,1,0,0:0:0:0:
360,258,52208,2,0,P|294:223|209:278,1,167.999994873047,2|2,1:2|1:2,0:0:0:0:
33,288,52894,2,0,P|18:324|39:378,2,83.9999974365235,2|0|2,1:2|0:0|1:2,0:0:0:0:
106,232,53407,1,2,0:0:0:0:
34,172,53579,2,0,L|43:-9,1,167.999994873047,0|0,1:2|1:2,0:0:0:0:
134,18,54093,5,2,0:0:0:0:
213,66,54265,2,0,L|304:52,2,83.9999974365235,2|0|2,1:2|0:0|1:2,0:0:0:0:
154,137,54779,1,2,0:0:0:0:
227,193,54951,6,0,L|273:203,3,41.9999987182618,4|4|4|4,3:3|3:3|3:3|3:3,0:0:0:0:
264,248,55294,2,0,L|202:261,3,41.9999987182618,4|4|4|4,3:3|3:3|3:3|3:3,0:0:0:0:
231,302,55637,2,0,L|282:318,3,41.9999987182618,4|4|4|4,3:3|3:3|3:3|3:3,0:0:0:0:
267,360,55979,2,0,L|210:370,3,41.9999987182618,4|4|4|4,3:3|3:3|3:3|3:3,0:0:0:0:
180,358,56322,5,4,3:3:0:0:
184,361,57522,5,2,0:0:0:0:
184,361,57694,1,4,1:2:0:0:
89,205,58037,2,0,L|18:205,2,70,8|2|8,0:0|0:0|0:0,0:0:0:0:
89,205,58722,1,8,0:0:0:0:
160,261,58894,1,2,0:0:0:0:
229,201,59065,2,0,P|232:165|213:119,2,70,8|2|8,0:0|0:0|0:0,0:0:0:0:
287,271,59579,1,2,0:0:0:0:
222,336,59751,2,0,P|279:360|363:327,1,140,8|8,0:0|0:0,0:0:0:0:
351,338,60437,6,0,P|387:332|425:348,1,70,8|2,0:0|0:0,0:0:0:0:
508,353,60779,2,0,L|501:211,1,140,8|8,0:0|0:0,0:0:0:0:
371,84,61465,1,8,0:0:0:0:
371,84,61808,2,0,L|370:8,2,70,8|2|8,0:0|0:0|0:0,0:0:0:0:
375,175,62322,1,2,0:0:0:0:
286,153,62494,2,0,L|209:152,2,70,8|2|8,0:0|0:0|0:0,0:0:0:0:
375,175,63008,1,2,0:0:0:0:
302,267,63179,6,0,L|280:344,1,77.0000023498536,8|2,0:0|0:0,0:0:0:0:
213,273,63522,2,0,L|185:357,1,77.0000023498536,8|2,0:0|0:0,0:0:0:0:
99,322,63865,2,0,L|123:248,1,77.0000023498536,8|2,0:0|0:0,0:0:0:0:
55,184,64208,2,0,L|79:109,1,77.0000023498536,8|2,0:0|0:0,0:0:0:0:
122,29,64551,6,0,P|152:25|209:54,1,77.0000023498536,8|2,0:0|0:0,0:0:0:0:
274,116,64894,2,0,P|238:130|200:127,1,77.0000023498536,8|2,0:0|0:0,0:0:0:0:
283,34,65237,2,0,P|313:30|371:60,1,77.0000023498536,8|2,0:0|0:0,0:0:0:0:
432,111,65580,2,0,P|397:126|359:123,1,77.0000023498536,8|2,0:0|0:0,0:0:0:0:
505,72,65922,6,0,L|514:165,1,77.0000023498536,8|8,0:1|0:1,0:0:0:0:
451,218,66265,2,0,L|441:305,1,77.0000023498536,8|8,0:1|0:1,0:0:0:0:
355,327,66608,2,0,L|344:242,1,77.0000023498536,8|8,0:1|0:1,0:0:0:0:
252,252,66951,2,0,L|260:164,2,77.0000023498536,8|8|2,0:1|0:1|0:0,0:0:0:0:
252,252,68665,5,4,1:2:0:0:
162,274,68837,2,0,P|149:310|164:351,2,77.0000023498536,2|0|2,0:0|1:2|0:0,0:0:0:0:
252,252,69351,2,0,P|263:216|239:157,1,77.0000023498536,0|2,1:2|0:0,0:0:0:0:
166,149,69694,2,0,P|143:93|187:6,1,154.000004699707,0|0,1:2|1:2,0:0:0:0:
271,10,70208,1,2,0:0:0:0:
318,88,70379,1,0,1:2:0:0:
389,31,70551,1,2,0:0:0:0:
478,59,70722,2,0,P|491:98|475:146,1,77.0000023498536,0|2,1:2|0:0,0:0:0:0:
391,142,71065,2,0,P|376:197|422:284,1,154.000004699707,0|0,1:2|1:2,0:0:0:0:
476,352,71579,6,0,P|438:367|386:355,2,77.0000023498536,2|0|2,0:0|1:2|0:0,0:0:0:0:
417,280,72094,2,0,P|382:279|342:302,1,77.0000023498536,0|0,1:2|0:0,0:0:0:0:
269,351,72437,2,0,P|200:369|122:317,1,154.000004699707,0|0,1:2|1:2,0:0:0:0:
122,238,72951,1,2,0:0:0:0:
183,169,73122,1,0,1:2:0:0:
118,98,73294,1,2,0:0:0:0:
61,159,73465,2,0,P|46:164|4:154,2,35,0|0|0,1:2|0:0|0:0,0:0:0:0:
125,106,73808,1,0,1:2:0:0:
125,106,73894,1,2,0:0:0:0:
125,106,73979,2,0,P|124:57|133:31,1,70,2|0,0:0|1:2,0:0:0:0:
222,34,74322,6,0,P|258:21|298:35,2,77.0000023498536,2|0|2,0:0|1:2|0:0,0:0:0:0:
258,119,74836,2,0,P|247:155|273:209,1,77.0000023498536,0|2,1:2|0:0,0:0:0:0:
348,175,75179,2,0,P|361:243|308:310,1,154.000004699707,0|0,1:2|1:2,0:0:0:0:
233,355,75693,1,2,0:0:0:0:
313,307,75864,1,0,1:2:0:0:
388,360,76036,1,2,0:0:0:0:
465,310,76207,2,0,L|483:226,1,77.0000023498536,0|2,1:2|0:0,0:0:0:0:
404,181,76551,2,0,P|389:126|448:41,1,154.000004699707,0|0,1:2|1:2,0:0:0:0:
345,28,77065,6,0,P|307:13|250:27,2,77.0000023498536,2|0|2,0:0|1:2|0:0,0:0:0:0:
297,107,77579,2,0,P|262:106|212:132,1,77.0000023498536,0|2,1:2|0:0,0:0:0:0:
238,213,77922,2,0,P|167:219|88:175,1,154.000004699707,0|2,1:2|0:0,0:0:0:0:
95,182,79637,6,0,P|66:110|108:49,1,140,4|0,1:2|1:2,0:0:0:0:
160,120,80151,1,2,0:0:0:0:
225,57,80322,2,0,P|254:129|212:190,1,140,0|0,1:2|1:2,0:0:0:0:
106,317,81008,1,0,1:2:0:0:
191,350,81179,2,0,P|222:361|265:343,2,70,2|0|2,0:0|1:2|0:0,0:0:0:0:
106,317,81694,2,0,L|106:163,1,140,0|0,1:2|1:2,0:0:0:0:
234,47,82379,6,0,P|307:73|373:42,1,140,0|0,1:2|1:2,0:0:0:0:
451,28,82894,1,2,0:0:0:0:
362,51,83065,2,0,P|342:117|382:182,1,140,0|0,1:2|1:2,0:0:0:0:
456,337,83751,2,0,P|388:363|321:332,1,140,0|0,1:2|1:2,0:0:0:0:
290,255,84266,1,2,0:0:0:0:
249,173,84437,2,0,P|181:147|114:178,1,140,0|0,1:2|1:2,0:0:0:0:
39,333,85122,6,0,P|74:345|115:334,1,70,8|0,1:2|0:0,0:0:0:0:
226,268,85465,2,0,P|193:257|160:265,1,70,8|2,1:2|0:0,0:0:0:0:
252,357,85808,2,0,P|287:368|328:357,1,70,8|0,1:2|0:0,0:0:0:0:
451,302,86151,2,0,P|418:291|385:299,1,70,8|2,1:2|0:0,0:0:0:0:
298,238,86494,6,0,L|285:163,1,70,8|0,1:2|0:0,0:0:0:0:
391,167,86837,2,0,L|361:98,1,70,8|2,1:2|0:0,0:0:0:0:
463,72,87179,2,0,L|399:29,1,70,8|0,1:2|0:0,0:0:0:0:
299,26,87522,2,0,L|220:36,1,70,8|0,1:2|0:0,0:0:0:0:
144,83,87865,6,0,P|166:124|144:196,1,105.000004005432,0|0,1:2|1:2,0:0:0:0:
90,240,88379,1,2,0:0:0:0:
156,179,88551,2,0,P|205:164|257:181,1,105.000004005432,0|0,1:2|1:2,0:0:0:0:
318,347,89237,5,2,0:0:0:0:
399,311,89408,2,0,P|429:304|465:320,2,52.5000020027161,2|2|2,0:0|0:0|0:0,0:0:0:0:
318,347,89922,2,0,P|269:366|207:335,1,105.000004005432,2|0,0:0|0:0,0:0:0:0:
221,349,90608,6,0,P|229:303|206:267,1,70,4|2,0:2|0:0,0:0:0:0:
155,218,90951,1,8,0:0:0:0:
192,135,91122,1,2,0:0:0:0:
280,155,91294,2,0,P|338:180|425:142,2,140,8|8|8,0:0|0:0|0:0,0:0:0:0:
232,77,92151,1,2,0:0:0:0:
143,56,92322,2,0,P|84:28|6:63,2,140,8|8|8,0:0|0:0|0:0,0:0:0:0:
280,155,93351,6,0,P|315:149|355:162,1,70,8|2,0:0|0:0,0:0:0:0:
419,214,93694,1,8,0:0:0:0:
494,162,93865,1,2,0:0:0:0:
422,105,94037,2,0,P|411:69|434:26,1,70,8|0,0:0|0:0,0:0:0:0:
330,31,94379,2,0,P|294:42|251:19,1,70,8|0,0:0|0:0,0:0:0:0:
174,44,94722,1,8,0:0:0:0:
88,74,94894,2,0,L|1:73,2,70,2|8|2,0:0|0:0|0:0,0:0:0:0:
174,44,95408,2,0,P|188:96|136:178,1,140,8|8,0:0|0:0,0:0:0:0:
18,296,96094,6,0,P|51:287|96:306,1,70,8|2,0:0|0:0,0:0:0:0:
159,352,96437,1,8,0:0:0:0:
227,292,96608,1,2,0:0:0:0:
297,350,96780,2,0,P|355:375|442:337,2,140,8|8|8,0:0|0:0|0:0,0:0:0:0:
227,292,97637,1,2,0:0:0:0:
297,234,97808,2,0,P|355:209|442:247,2,140,8|8|8,0:0|0:0|0:0,0:0:0:0:
227,292,98665,1,0,0:0:0:0:
227,291,101579,6,0,P|237:253|215:209,1,70,4|2,1:2|0:0,0:0:0:0:
138,207,101922,2,0,P|127:173|136:140,1,70,8|2,0:0|0:0,0:0:0:0:
201,77,102265,2,0,B|268:100|268:100|344:76,1,140,8|8,0:0|0:0,0:0:0:0:
414,35,102779,2,0,P|422:72|415:116,1,70,2|8,0:0|0:0,0:0:0:0:
363,176,103122,1,2,0:0:0:0:
422,245,103294,2,0,P|452:257|490:243,2,70,8|2|8,0:0|0:0|0:0,0:0:0:0:
363,176,103808,1,2,0:0:0:0:
322,256,103979,2,0,P|311:293|324:334,1,70,8|2,0:0|0:0,0:0:0:0:
228,341,104322,6,0,L|144:337,2,70,8|2|8,0:0|0:0|0:0,0:0:0:0:
252,252,104837,2,0,L|321:255,2,70,2|8|2,0:0|0:0|0:0,0:0:0:0:
177,199,105351,1,8,0:0:0:0:
113,134,105522,2,0,P|73:199|91:256,1,140,2|0,0:0|0:0,0:0:0:0:
186,344,106037,2,0,P|152:353|118:345,1,70,8|2,0:0|0:0,0:0:0:0:
239,280,106379,2,0,P|271:268|303:281,1,70,8|0,0:0|0:0,0:0:0:0:
379,348,106722,1,8,0:0:0:0:
379,348,106894,1,2,0:0:0:0:
343,202,107065,6,0,L|350:129,1,52.5000020027161,4|0,1:2|0:0,0:0:0:0:
265,103,107408,2,0,L|259:50,1,52.5000020027161,2|0,0:0|0:0,0:0:0:0:
167,30,107751,2,0,L|144:142,1,105.000004005432,2|2,0:0|0:0,0:0:0:0:
80,199,108265,2,0,L|103:318,1,105.000004005432,2|2,0:0|0:0,0:0:0:0:
185,261,108779,2,0,L|256:260,2,52.5000020027161,2|2|2,0:0|0:0|0:0,0:0:0:0:
101,302,109294,1,0,0:0:0:0:
101,302,109637,5,2,0:0:0:0:
185,261,109808,2,0,L|197:194,1,52.5000020027161,0|2,0:0|0:0,0:0:0:0:
265,146,110151,2,0,L|279:81,1,52.5000020027161,2|2,0:0|0:0,0:0:0:0:
360,51,110494,2,0,L|473:60,1,105.000004005432,0|2,0:0|0:0,0:0:0:0:
431,148,111008,2,0,P|412:191|430:258,1,105.000004005432,2|2,0:0|0:0,0:0:0:0:
493,308,111522,1,0,0:0:0:0:
420,369,111694,1,2,0:0:0:0:
337,319,111865,2,0,P|279:312|223:346,1,105.000004005432
239,332,112551,6,0,L|239:243,1,70,4|2,1:2|0:0,0:0:0:0:
152,233,112894,2,0,L|152:144,1,70,8|0,0:1|0:0,0:0:0:0:
59,216,113237,2,0,L|57:359,1,140,8|8,0:1|0:1,0:0:0:0:
139,316,113751,2,0,L|213:315,1,70,2|8,0:0|0:1,0:0:0:0:
291,354,114094,1,2,0:0:0:0:
380,338,114265,2,0,L|460:338,2,70,8|2|8,0:1|0:0|0:1,0:0:0:0:
291,354,114779,1,2,0:0:0:0:
322,268,114951,2,0,L|339:201,1,70,8|2,0:1|0:0,0:0:0:0:
380,118,115294,6,0,P|341:113|291:127,1,70,8|2,0:1|0:0,0:0:0:0:
267,198,115637,2,0,P|232:203|198:198,1,70,8|2,0:1|0:0,0:0:0:0:
128,139,115979,2,0,P|89:134|39:148,1,70,8|2,0:1|0:0,0:0:0:0:
21,222,116322,1,8,0:1:0:0:
59,139,116494,2,0,P|32:80|80:19,1,140,2|2,0:0|0:0,0:0:0:0:
158,47,117008,1,8,0:1:0:0:
246,28,117179,1,2,0:0:0:0:
332,58,117351,2,0,L|330:145,1,70,8|0,0:1|0:0,0:0:0:0:
302,214,117694,1,8,0:1:0:0:
302,214,117865,1,2,0:0:0:0:
211,199,118037,6,0,P|218:164|211:129,1,70,8|8,0:1|0:1,0:0:0:0:
134,83,118379,2,0,P|127:116|134:155,1,70,8|8,0:1|0:1,0:0:0:0:
57,203,118722,2,0,P|39:263|89:327,1,140,8|8,0:1|0:1,0:0:0:0:
163,284,119237,2,0,P|198:274|233:287,1,70,8|0,0:1|0:0,0:0:0:0:
299,341,119579,1,8,0:1:0:0:
312,250,119751,1,8,0:1:0:0:
228,284,119922,1,8,0:1:0:0:
299,341,120094,2,0,P|367:363|438:335,1,140,8|8,0:1|0:1,0:0:0:0:
429,341,120779,6,0,P|436:299|422:254,1,70,8|8,0:1|0:1,0:0:0:0:
352,225,121122,2,0,P|346:190|353:156,1,70,8|8,0:1|0:1,0:0:0:0:
435,116,121465,2,0,P|442:74|428:29,1,70,8|8,0:1|0:1,0:0:0:0:
348,22,121808,1,8,0:1:0:0:
274,75,121979,2,0,P|235:86|197:75,1,70,8|8,0:1|0:1,0:0:0:0:
137,37,122322,1,8,0:1:0:0:
137,37,122408,1,8,0:1:0:0:
137,37,122494,1,8,0:1:0:0:
72,100,122665,1,8,0:1:0:0:
118,178,122837,2,0,L|117:235,2,35,8|8|8,0:1|0:1|0:1,0:0:0:0:
72,100,123179,1,8,0:1:0:0:
72,100,123522,6,0,B|164:94,1,83.9999974365235,4|0,1:2|0:0,0:0:0:0:
220,27,123865,2,0,B|314:36,1,83.9999974365235,2|0,1:2|0:0,0:0:0:0:
371,98,124208,1,2,1:2:0:0:
298,154,124379,2,0,P|282:192|307:241,1,83.9999974365235,2|0,0:0|1:2,0:0:0:0:
383,269,124722,2,0,P|396:230|380:192,1,83.9999974365235,2|0,0:0|1:2,0:0:0:0:
298,154,125065,1,2,0:0:0:0:
214,194,125237,2,0,P|122:212|49:170,1,167.999994873047,2|2,1:2|1:2,0:0:0:0:
20,95,125751,1,0,0:0:0:0:
94,41,125922,1,2,1:2:0:0:
94,41,126094,1,2,0:0:0:0:
170,91,126265,6,0,P|211:102|253:92,1,83.9999974365235,2|0,1:2|0:0,0:0:0:0:
340,29,126608,2,0,P|381:18|423:28,1,83.9999974365235,2|0,1:2|0:0,0:0:0:0:
460,113,126951,1,2,1:2:0:0:
378,155,127122,2,0,P|369:194|391:241,1,83.9999974365235,2|0,0:0|1:2,0:0:0:0:
445,304,127465,1,2,0:0:0:0:
385,374,127637,1,0,1:2:0:0:
332,309,127808,1,2,0:0:0:0:
332,309,127979,2,0,L|233:313,1,83.9999974365235,2|0,1:2|0:0,0:0:0:0:
107,245,128322,2,0,L|191:238,1,83.9999974365235,2|0,1:2|0:0,0:0:0:0:
15,231,128665,2,0,L|36:129,1,83.9999974365235,2|0,1:2|0:0,0:0:0:0:
80,70,129008,6,0,P|123:63|175:73,1,83.9999974365235,2|0,1:2|0:0,0:0:0:0:
227,154,129351,2,0,P|184:161|132:151,1,83.9999974365235,2|0,1:2|0:0,0:0:0:0:
80,70,129694,1,2,1:2:0:0:
30,148,129865,2,0,B|12:241,1,83.9999974365235,2|0,0:0|1:2,0:0:0:0:
5,322,130208,1,2,0:0:0:0:
91,353,130379,1,0,1:2:0:0:
91,353,130551,1,2,0:0:0:0:
140,274,130722,2,0,P|182:266|231:282,1,83.9999974365235,2|0,1:2|0:0,0:0:0:0:
309,357,131065,2,0,P|268:367|227:359,1,83.9999974365235,2|0,1:2|0:0,0:0:0:0:
379,286,131408,1,0,1:2:0:0:
312,222,131579,1,2,0:0:0:0:
312,222,131751,5,2,1:2:0:0:
380,160,131922,1,0,0:0:0:0:
335,78,132094,2,0,P|296:88|239:72,1,83.9999974365235,2|0,1:2|0:0,0:0:0:0:
174,31,132437,1,2,1:2:0:0:
90,70,132608,2,0,P|108:170|81:248,1,167.999994873047,2|2,0:0|0:0,0:0:0:0:
24,298,133122,1,0,1:2:0:0:
24,298,134494,6,0,P|65:309|125:288,1,83.9999974365235,2|0,1:2|0:0,0:0:0:0:
223,216,134837,2,0,P|183:205|143:216,1,83.9999974365235,2|0,1:2|0:0,0:0:0:0:
249,305,135180,1,2,1:2:0:0:
311,237,135351,2,0,L|320:150,1,83.9999974365235,2|0,0:0|1:2,0:0:0:0:
412,161,135694,2,0,L|418:78,1,83.9999974365235,2|0,0:0|1:2,0:0:0:0:
491,21,136037,1,2,0:0:0:0:
418,77,136209,2,0,P|374:85|321:68,1,83.9999974365235,2|0,1:2|0:0,0:0:0:0:
260,23,136551,1,2,1:2:0:0:
200,94,136723,1,0,0:0:0:0:
140,38,136894,1,2,1:2:0:0:
140,38,137066,1,2,0:0:0:0:
66,93,137237,6,0,L|77:188,1,83.9999974365235,2|0,1:2|0:0,0:0:0:0:
152,228,137580,2,0,L|117:315,1,83.9999974365235,2|0,1:2|0:0,0:0:0:0:
62,378,137923,1,2,1:2:0:0:
120,305,138094,2,0,P|163:316|202:312,1,83.9999974365235,2|0,0:0|1:2,0:0:0:0:
284,270,138437,1,2,0:0:0:0:
347,337,138609,1,0,1:2:0:0:
347,337,138780,1,2,0:0:0:0:
437,320,138951,2,0,L|435:235,1,83.9999974365235,2|0,1:2|0:0,0:0:0:0:
428,143,139294,2,0,P|382:130|342:145,1,83.9999974365235,2|0,1:2|0:0,0:0:0:0:
269,187,139637,2,0,P|219:208|143:167,1,125.999996154785,2|0,1:2|0:0,0:0:0:0:
129,146,139979,6,0,L|140:57,1,70,8|8,0:1|0:1,0:0:0:0:
66,18,140322,2,0,L|59:87,1,70,8|8,0:1|0:1,0:0:0:0:
54,182,140665,1,8,0:1:0:0:
54,182,140836,2,0,L|47:255,1,70,8|8,0:1|0:1,0:0:0:0:
121,305,141179,2,0,L|119:381,2,70,8|8|8,0:1|0:1|0:1,0:0:0:0:
158,221,141694,2,0,P|191:213|237:225,1,70,8|8,0:1|0:1,0:0:0:0:
314,306,142037,2,0,P|280:316|246:308,1,70,8|8,0:1|0:1,0:0:0:0:
336,216,142379,2,0,P|374:206|406:218,1,70,8|8,0:1|0:1,0:0:0:0:
475,270,142722,5,4,3:3:0:0:
494,240,142808,1,4,3:3:0:0:
499,205,142894,1,4,3:3:0:0:
488,171,142979,1,4,3:3:0:0:
473,139,143065,2,0,L|470:85,3,35,4|4|4|4,3:3|3:3|3:3|3:3,0:0:0:0:
435,105,143408,2,0,L|436:52,3,35,4|4|4|4,3:3|3:3|3:3|3:3,0:0:0:0:
401,77,143751,2,0,L|402:24,3,35,4|4|4|4,3:3|3:3|3:3|3:3,0:0:0:0:
368,31,144094,5,4,3:0:0:0:
368,31,145465,6,0,P|395:98|362:167,1,140,4|2,1:2|1:2,0:0:0:0:
295,292,146151,2,0,P|226:310|148:281,1,140,2|2,1:2|1:2,0:0:0:0:
110,233,146665,2,0,P|87:284|114:362,2,140,2|2|2,0:0|0:0|0:0,0:0:0:0:
110,233,148208,6,0,P|131:159|102:76,1,140,2|2,1:2|1:2,0:0:0:0:
251,23,148894,2,0,L|391:23,1,140,2|2,1:2|1:2,0:0:0:0:
468,27,149408,2,0,P|490:96|464:164,2,140,2|2|2,0:0|0:0|0:0,0:0:0:0:
468,27,150951,6,0,L|395:27,1,70,0|0,1:2|0:0,0:0:0:0:
339,77,151294,2,0,P|330:112|338:149,1,70,2|0,1:2|0:0,0:0:0:0:
280,198,151637,2,0,P|305:258|283:338,1,140,2|2,1:2|1:2,0:0:0:0:
212,315,152151,2,0,B|144:298|144:298|67:313,2,140,2|2|2,0:0|0:0|0:0,0:0:0:0:
212,315,153694,5,4,3:3:0:0:
224,315,153779,1,4,3:3:0:0:
236,315,153865,1,4,3:3:0:0:
248,315,153951,1,4,3:3:0:0:
261,315,154037,2,0,L|308:314,3,35,4|4|4|4,3:3|3:3|3:3|3:3,0:0:0:0:
305,270,154379,2,0,L|346:268,3,35,4|4|4|4,3:3|3:3|3:3|3:3,0:0:0:0:
354,225,154722,2,0,L|402:224,3,35,4|4|4|0,3:3|3:3|3:3|0:0,0:0:0:0:
426,233,155065,6,0,P|447:175|398:98,1,140,2|0,0:0|0:0,0:0:0:0:
295,9,155751,2,0,P|274:74|306:134,1,140,2|0,0:0|0:0,0:0:0:0:
426,233,156437,1,8,0:1:0:0:
377,309,156608,6,0,L|302:309,1,70,2|8,0:0|0:1,0:0:0:0:
219,333,156951,1,2,0:0:0:0:
130,314,157122,2,0,L|120:235,1,70,8|2,0:1|0:0,0:0:0:0:
69,169,157465,1,8,0:1:0:0:
108,86,157637,1,2,0:0:0:0:
186,131,157808,2,0,L|266:122,1,70,8|2,0:1|0:0,0:0:0:0:
309,49,158151,2,0,L|403:63,1,70,8|2,0:1|0:0,0:0:0:0:
397,150,158494,2,0,P|375:208|414:283,1,140,8|8,0:1|0:1,0:0:0:0:
470,339,159008,1,2,0:0:0:0:
405,275,159179,6,0,P|367:270|330:279,1,70,8|0,0:1|0:0,0:0:0:0:
276,345,159522,1,8,0:1:0:0:
184,342,159694,1,2,0:0:0:0:
127,271,159865,2,0,P|117:230|142:187,1,70,8|2,0:1|0:0,0:0:0:0:
144,183,160122,1,2,0:0:0:0:
159,146,160208,2,0,P|169:105|144:62,1,70,8|2,0:1|0:0,0:0:0:0:
93,17,160551,2,0,P|56:26|7:5,1,70,8|2,0:1|0:0,0:0:0:0:
5,107,160894,2,0,B|-10:177|-10:177|11:267,1,140,8|8,0:1|0:1,0:0:0:0:
88,347,161408,5,2,0:0:0:0:
178,353,161579,1,2,0:0:0:0:
88,347,161751,1,2,0:0:0:0:
150,242,161922,6,0,P|185:230|232:256,1,70,8|8,0:1|0:1,0:0:0:0:
348,308,162265,2,0,P|309:318|278:306,1,70,8|8,0:1|0:1,0:0:0:0:
407,232,162608,1,8,0:1:0:0:
407,232,162779,1,8,0:1:0:0:
494,259,162951,2,0,P|499:219|477:180,1,70,8|8,0:1|0:1,0:0:0:0:
340,147,163294,6,0,P|303:158|261:138,1,70,8|8,0:1|0:1,0:0:0:0:
217,76,163637,1,8,0:1:0:0:
217,76,163808,1,8,0:1:0:0:
293,27,163979,2,0,P|333:17|377:32,1,70,8|8,0:1|0:1,0:0:0:0:
472,91,164322,2,0,P|436:100|389:82,1,70,8|8,0:1|0:1,0:0:0:0:
340,147,164665,5,4,3:3:0:0:
322,177,164750,1,4,3:3:0:0:
320,213,164837,1,4,3:3:0:0:
331,246,164922,1,4,3:3:0:0:
352,274,165008,2,0,L|348:321,3,35,4|4|4|4,3:3|3:3|3:3|3:3,0:0:0:0:
347,354,165351,2,0,L|290:364,3,35,4|4|4|4,3:3|3:3|3:3|3:3,0:0:0:0:
270,343,165694,2,0,L|213:353,3,35,4|4|4|0,3:3|3:3|3:3|0:0,0:0:0:0:
189,349,166037,5,2,0:0:0:0:
189,349,166208,1,0,0:0:0:0:
117,293,166379,2,0,L|36:292,1,70,2|0,0:0|0:0,0:0:0:0:
20,204,166722,1,2,0:0:0:0:
20,204,166894,1,0,0:0:0:0:
47,117,167065,2,0,L|121:117,1,70,2|0,0:0|0:0,0:0:0:0:
124,26,167408,5,4,1:2:0:0:
124,26,168094,1,2,0:0:0:0:
257,53,168437,1,2,0:0:0:0:
190,171,168779,2,0,P|288:184|376:118,1,210.000008010865,2|2,0:0|0:0,0:0:0:0:
373,121,170151,5,0,0:0:0:0:
373,121,170837,1,2,0:0:0:0:
462,224,171180,1,2,0:0:0:0:
370,324,171522,2,0,P|278:287|182:333,1,210.000008010865,2|2,0:0|0:0,0:0:0:0:
183,331,172894,5,0,0:0:0:0:
183,331,173580,1,2,0:0:0:0:
92,228,173923,1,2,0:0:0:0:
220,182,174265,2,0,P|210:110|85:73,1,210.000008010865,2|2,0:0|0:0,0:0:0:0:
92,69,175637,5,8,0:1:0:0:
224,39,175979,2,0,L|294:37,2,52.5000020027161,8|8|8,0:1|0:1|0:1,0:0:0:0:
92,69,176665,1,8,0:1:0:0:
183,170,177008,2,0,L|179:231,2,52.5000020027161,8|8|8,0:1|0:1|0:1,0:0:0:0:
92,69,177694,2,0,L|93:182,1,105.000004005432,8|0,0:1|0:0,0:0:0:0:
92,173,178379,6,0,P|179:234|266:167,1,210,4|2,1:2|0:0,0:0:0:0:
211,107,179065,2,0,P|298:46|385:113,1,210,10|0,0:0|0:0,0:0:0:0:
351,181,179751,2,0,P|327:223|380:311,1,140,2|0,0:0|0:0,0:0:0:0:
447,330,180265,1,0,1:2:0:0:
480,244,180437,2,0,P|496:177|469:113,2,140,10|0|0,0:0|0:0|1:2,0:0:0:0:
315,166,181465,6,0,P|253:192|167:163,2,140,2|8|2,0:0|0:0|0:0,0:0:0:0:
197,26,182494,2,0,P|121:28|71:150,1,210,2|0,0:0|1:2,0:0:0:0:
160,150,183179,2,0,P|164:212|116:288,2,140,10|0|0,0:0|1:2|1:2,0:0:0:0:
160,150,184551,6,0,P|232:127|304:165,1,140,8|2,0:0|0:0,0:0:0:0:
238,325,185237,2,0,P|310:372|430:308,1,210,2|0,0:0|1:2,0:0:0:0:
370,251,185922,2,0,P|346:172|430:91,1,210,10|0,0:0|0:0,0:0:0:0:
482,165,186608,5,4,0:0:0:0:
482,165,187294,1,2,0:0:0:0:
385,10,187637,1,2,0:0:0:0:
277,156,187979,2,0,P|318:193|206:332,1,280,2|2,0:0|0:0,0:0:0:0:
213,334,189351,6,0,P|167:349|127:323,1,77.0000023498536,4|0,1:2|0:0,0:0:0:0:
138,250,189694,2,0,P|177:237|215:255,1,77.0000023498536,8|0,0:1|0:0,0:0:0:0:
63,318,190037,2,0,L|54:239,1,77.0000023498536,8|0,0:1|0:0,0:0:0:0:
98,160,190379,2,0,L|86:83,1,77.0000023498536,8|0,0:1|0:0,0:0:0:0:
205,52,190722,6,0,P|240:59|296:32,1,77.0000023498536,8|0,0:1|0:0,0:0:0:0:
356,96,191065,2,0,P|395:91|439:103,1,77.0000023498536,8|0,0:1|0:0,0:0:0:0:
451,189,191408,2,0,P|412:194|368:182,1,77.0000023498536,8|0,0:1|0:0,0:0:0:0:
284,169,191751,2,0,P|249:162|193:189,1,77.0000023498536,8|0,0:1|0:0,0:0:0:0:
108,224,192094,6,0,L|117:309,1,77.0000023498536,8|0,0:1|0:0,0:0:0:0:
204,272,192437,2,0,L|213:357,1,77.0000023498536,8|0,0:1|0:0,0:0:0:0:
303,356,192779,2,0,L|312:271,1,77.0000023498536,8|0,0:1|0:0,0:0:0:0:
398,311,193122,2,0,L|407:226,1,77.0000023498536,8|0,0:1|0:0,0:0:0:0:
475,122,193465,6,0,L|458:36,1,77.0000023498536,8|0,0:1|0:0,0:0:0:0:
360,80,193808,2,0,P|315:91|271:69,1,77.0000023498536,8|0,0:1|0:0,0:0:0:0:
149,29,194151,2,0,P|185:19|223:23,1,77.0000023498536,8|0,0:1|0:0,0:0:0:0:
97,100,194494,2,0,P|108:138|96:182,1,77.0000023498536,8|0,0:1|0:0,0:0:0:0:
39,294,194837,5,0,1:0:0:0:
38,294,195179,2,0,L|116:314,1,70
162,243,195522,2,0,L|323:253,1,140,8|0,0:0|0:0,0:0:0:0:
368,315,196037,2,0,P|390:255|352:176,1,140,0|0,0:0|0:0,0:0:0:0:
307,115,196551,1,0,1:0:0:0:
307,115,196894,1,8,0:0:0:0:
151,19,197237,5,8,0:1:0:0:
79,74,197408,1,4,3:3:0:0:
79,92,197494,1,4,3:3:0:0:
78,109,197579,2,0,L|75:155,3,35,4|4|4|4,3:3|3:3|3:3|3:3,0:0:0:0:
98,169,197922,2,0,L|96:212,3,35,4|4|4|4,3:3|3:3|3:3|3:3,0:0:0:0:
68,229,198265,2,0,L|68:270,3,35,4|4|4|4,3:3|3:3|3:3|3:3,0:0:0:0:
96,279,198608,2,0,L|96:320,3,35,4|4|4|4,3:3|3:3|3:3|3:3,0:0:0:0:
72,353,198951,5,2,0:0:0:0:
72,353,200322,6,0,P|112:340|162:359,1,83.9999974365235,2|0,1:2|0:0,0:0:0:0:
217,286,200665,2,0,P|257:299|307:280,1,83.9999974365235,2|0,1:2|0:0,0:0:0:0:
363,352,201008,2,0,P|403:339|453:358,1,83.9999974365235,2|0,1:2|0:0,0:0:0:0:
494,276,201351,1,2,1:2:0:0:
494,276,201522,2,0,L|492:191,1,83.9999974365235,2|0,0:0|1:2,0:0:0:0:
456,106,201865,1,2,0:0:0:0:
366,82,202037,2,0,L|271:88,1,83.9999974365235,2|0,1:2|0:0,0:0:0:0:
197,124,202379,2,0,P|213:164|198:225,1,83.9999974365235,2|0,1:2|0:0,0:0:0:0:
119,228,202722,2,0,P|103:188|118:127,1,83.9999974365235,2|0,1:2|0:0,0:0:0:0:
41,82,203065,6,0,B|77:57|77:57|126:56,1,83.9999974365235,2|0,1:2|0:0,0:0:0:0:
204,26,203408,2,0,B|242:42|242:42|294:23,1,83.9999974365235,2|0,1:2|0:0,0:0:0:0:
370,56,203751,2,0,B|406:81|406:81|455:82,1,83.9999974365235,2|0,1:2|0:0,0:0:0:0:
508,150,204094,1,2,1:2:0:0:
426,193,204265,2,0,P|413:228|428:273,1,83.9999974365235,2|0,0:0|1:2,0:0:0:0:
481,345,204608,1,2,0:0:0:0:
426,271,204780,2,0,P|382:268|336:292,1,83.9999974365235,2|0,1:2|0:0,0:0:0:0:
216,351,205122,2,0,B|250:360|250:360|296:344,1,83.9999974365235,2|0,1:2|0:0,0:0:0:0:
179,274,205465,2,0,B|144:264|144:264|98:280,1,83.9999974365235,2|0,1:2|0:0,0:0:0:0:
230,187,205808,6,0,L|315:186,1,83.9999974365235,2|0,1:2|0:0,0:0:0:0:
350,100,206151,2,0,L|246:101,1,83.9999974365235,2|0,1:2|0:0,0:0:0:0:
212,25,206494,2,0,L|126:23,1,83.9999974365235,2|0,1:2|0:0,0:0:0:0:
32,33,206837,1,2,1:2:0:0:
32,33,207008,2,0,L|31:125,1,83.9999974365235,2|0,0:0|1:2,0:0:0:0:
19,209,207351,1,2,0:0:0:0:
92,265,207523,2,0,P|130:249|176:263,1,83.9999974365235,2|0,1:2|0:0,0:0:0:0:
295,338,207865,2,0,P|256:352|219:336,1,83.9999974365235,2|0,1:2|0:0,0:0:0:0:
336,256,208208,2,0,P|379:242|420:263,1,83.9999974365235,2|0,1:2|0:0,0:0:0:0:
505,267,208551,6,0,P|512:217|484:174,1,83.9999974365235,2|0,1:2|0:0,0:0:0:0:
422,134,208894,2,0,P|409:93|447:49,1,83.9999974365235,2|0,1:2|0:0,0:0:0:0:
336,43,209237,2,0,L|241:40,1,83.9999974365235,2|0,1:2|0:0,0:0:0:0:
168,78,209579,2,0,L|117:70,2,41.9999987182618,2|0|2,1:2|0:0|0:0,0:0:0:0:
184,153,209922,6,0,P|272:200|359:150,1,210,0|0,1:2|0:0,0:0:0:0:
430,120,210608,2,0,P|478:229|415:305,1,210,0|0,1:2|0:0,0:0:0:0:
355,285,211294,2,0,P|283:266|221:297,1,140,0|0,1:2|0:0,0:0:0:0:
225,292,211979,6,0,P|176:285|132:306,1,83.9999974365235,2|0,1:2|0:0,0:0:0:0:
53,315,212322,1,2,1:2:0:0:
53,315,212494,2,0,L|39:218,1,83.9999974365235,2|0,0:0|1:2,0:0:0:0:
31,139,212837,1,2,0:0:0:0:
109,90,213008,2,0,P|162:106|204:87,1,83.9999974365235,2|0,1:2|0:0,0:0:0:0:
325,30,213351,2,0,P|285:16|245:25,1,83.9999974365235,2|0,1:2|0:0,0:0:0:0:
360,117,213694,2,0,P|400:127|439:114,1,83.9999974365235,2|0,1:2|0:0,0:0:0:0:
281,142,214037,6,0,L|289:235,1,83.9999974365235,2|0,1:2|0:0,0:0:0:0:
387,305,214379,2,0,L|380:222,1,83.9999974365235,2|0,1:2|0:0,0:0:0:0:
463,262,214722,2,0,B|460:157,1,83.9999974365235,2|0,1:2|0:0,0:0:0:0:
472,86,215065,1,2,1:2:0:0:
472,86,215237,2,0,P|422:77|379:89,1,83.9999974365235,2|0,0:0|1:2,0:0:0:0:
322,146,215579,1,2,0:0:0:0:
232,171,215751,2,0,P|220:121|243:75,1,83.9999974365235,2|0,1:2|0:0,0:0:0:0:
169,21,216094,2,0,L|75:18,1,83.9999974365235,2|0,1:2|0:0,0:0:0:0:
39,99,216437,2,0,L|133:96,1,83.9999974365235,2|0,1:2|0:0,0:0:0:0:
232,171,216779,6,0,P|272:157|323:182,1,83.9999974365235,2|0,1:2|0:0,0:0:0:0:
279,256,217122,2,0,P|268:293|290:343,1,83.9999974365235,2|0,1:2|0:0,0:0:0:0:
190,345,217465,2,0,B|145:363|145:363|85:340,1,83.9999974365235,2|0,1:2|0:0,0:0:0:0:
40,291,217808,1,2,1:2:0:0:
40,291,217979,2,0,B|60:250|60:250|37:201,1,83.9999974365235,2|0,0:0|1:2,0:0:0:0:
17,126,218322,1,2,0:0:0:0:
73,52,218494,2,0,L|181:41,1,83.9999974365235,2|0,1:2|0:0,0:0:0:0:
248,57,218837,2,0,P|261:104|244:143,1,83.9999974365235,2|0,1:2|0:0,0:0:0:0:
166,235,219179,2,0,P|153:188|170:149,1,83.9999974365235,2|0,1:2|0:0,0:0:0:0:
254,264,219522,6,0,L|345:264,1,83.9999974365235,2|0,1:2|0:0,0:0:0:0:
414,211,219865,2,0,L|505:211,1,83.9999974365235,2|0,1:2|0:0,0:0:0:0:
501,303,220208,2,0,L|410:303,1,83.9999974365235,2|0,1:2|0:0,0:0:0:0:
342,268,220551,1,2,1:2:0:0:
342,268,220722,2,0,P|325:308|348:354,1,83.9999974365235,2|0,0:0|1:2,0:0:0:0:
243,361,221065,1,2,0:0:0:0:
163,314,221236,2,0,P|117:305|75:325,1,83.9999974365235,2|0,1:2|0:0,0:0:0:0:
25,245,221579,2,0,L|31:160,1,83.9999974365235,2|0,1:2|0:0,0:0:0:0:
95,95,221922,2,0,L|128:172,1,83.9999974365235,2|0,1:2|1:2,0:0:0:0:
218,194,222265,6,0,L|206:83,1,83.9999974365235,2|0,1:2|0:0,0:0:0:0:
267,38,222608,2,0,P|307:51|357:32,1,83.9999974365235,2|2,1:2|0:0,0:0:0:0:
400,115,222951,2,0,P|440:102|490:121,1,83.9999974365235,2|0,1:2|0:0,0:0:0:0:
511,199,223294,1,2,1:2:0:0:
511,199,223465,2,0,P|496:245|505:298,1,83.9999974365235,2|0,0:0|1:2,0:0:0:0:
457,362,223808,1,2,0:0:0:0:
387,300,223980,2,0,L|298:299,1,83.9999974365235,2|0,1:2|0:0,0:0:0:0:
216,329,224322,2,0,P|201:290|204:248,1,83.9999974365235,2|0,1:2|0:0,0:0:0:0:
290,212,224665,2,0,P|292:170|277:131,1,83.9999974365235,2|0,1:2|0:0,0:0:0:0:
193,91,225008,6,0,B|153:104|153:104|103:85,1,83.9999974365235,2|0,1:2|0:0,0:0:0:0:
39,144,225351,2,0,B|22:188|22:188|39:236,1,83.9999974365235,2|0,1:2|0:0,0:0:0:0:
126,209,225694,2,0,B|139:249|139:249|120:299,1,83.9999974365235,2|0,1:2|0:0,0:0:0:0:
179,357,226037,1,2,1:2:0:0:
179,357,226208,2,0,P|224:361|270:345,1,83.9999974365235,2|0,0:0|1:2,0:0:0:0:
340,302,226551,1,2,0:0:0:0:
265,246,226723,2,0,L|270:154,1,83.9999974365235,2|0,1:2|0:0,0:0:0:0:
349,116,227065,2,0,P|388:130|436:106,1,83.9999974365235,2|0,1:2|0:0,0:0:0:0:
469,33,227408,2,0,P|430:19|382:43,1,83.9999974365235,2|0,1:2|0:0,0:0:0:0:
299,40,227751,6,0,P|213:63|142:28,1,167.999994873047,4|8,1:2|0:1,0:0:0:0:
58,65,228265,1,8,0:1:0:0:
58,65,228437,1,8,0:1:0:0:
112,139,228608,1,8,0:1:0:0:
112,139,228779,1,8,0:1:0:0:
35,191,228951,1,8,0:1:0:0:
35,191,229122,6,0,P|27:237|42:274,1,70,8|8,0:1|0:1,0:0:0:0:
123,243,229465,2,0,P|131:289|116:326,1,70,8|8,0:1|0:1,0:0:0:0:
211,339,229808,2,0,L|302:346,1,70,8|8,0:1|0:1,0:0:0:0:
293,253,230151,2,0,L|377:254,1,70,8|8,0:1|0:1,0:0:0:0:
444,294,230494,1,8,0:1:0:0:
444,294,230837,1,8,0:1:0:0:
444,294,231179,1,8,0:1:0:0:
444,294,231522,1,8,0:1:0:0:
444,294,233237,6,0,L|458:206,1,77.0000023498536,4|0,1:2|0:0,0:0:0:0:
382,162,233579,2,0,L|405:71,1,77.0000023498536,0|0,1:2|0:0,0:0:0:0:
317,47,233922,2,0,P|273:52|224:27,1,77.0000023498536,0|0,1:2|0:0,0:0:0:0:
174,103,234265,2,0,P|130:98|93:111,1,77.0000023498536,0|0,1:2|0:0,0:0:0:0:
37,176,234608,6,0,B|48:218|48:218|27:265,1,77.0000023498536,0|0,1:2|0:0,0:0:0:0:
124,267,234951,2,0,B|113:309|113:309|134:356,1,77.0000023498536,0|0,1:2|0:0,0:0:0:0:
214,309,235294,2,0,P|250:299|304:325,1,77.0000023498536,0|0,1:2|0:0,0:0:0:0:
365,359,235637,2,0,P|401:369|455:343,1,77.0000023498536,0|0,1:2|0:0,0:0:0:0:
480,276,235979,6,0,L|448:207,1,77.0000023498536,0|0,1:2|0:0,0:0:0:0:
360,237,236322,2,0,L|332:149,1,77.0000023498536,0|0,1:2|0:0,0:0:0:0:
255,208,236665,2,0,L|244:117,1,77.0000023498536,0|0,1:2|0:0,0:0:0:0:
158,161,237007,2,0,L|164:74,1,77.0000023498536,0|0,1:2|0:0,0:0:0:0:
241,33,237351,6,0,P|279:25|332:47,1,77.0000023498536,0|0,1:2|0:0,0:0:0:0:
377,103,237694,2,0,P|413:109|461:84,1,77.0000023498536,0|0,1:2|0:0,0:0:0:0:
462,185,238036,2,0,B|464:224|464:224|435:263,1,77.0000023498536,0|0,1:2|0:0,0:0:0:0:
351,278,238379,2,0,B|349:317|349:317|378:356,1,77.0000023498536,0|0,1:2|0:0,0:0:0:0:
278,346,238722,6,0,B|187:341,1,77.0000023498536,0|0,1:2|0:0,0:0:0:0:
179,251,239065,2,0,B|99:264,1,77.0000023498536,0|0,1:2|0:0,0:0:0:0:
58,181,239408,2,0,B|147:166,1,77.0000023498536,0|0,1:2|0:0,0:0:0:0:
154,77,239751,2,0,B|233:83,1,77.0000023498536,0|0,1:2|0:0,0:0:0:0:
303,139,240094,6,0,P|314:179|289:227,1,77.0000023498536,0|0,1:2|0:0,0:0:0:0:
213,234,240437,2,0,P|202:274|227:322,1,77.0000023498536,0|0,1:2|0:0,0:0:0:0:
296,344,240779,2,0,P|336:355|384:330,1,77.0000023498536,0|0,1:2|0:0,0:0:0:0:
389,253,241122,2,0,P|425:242|461:253,1,77.0000023498536,0|0,1:2|0:0,0:0:0:0:
496,167,241465,5,4,3:3:0:0:
494,147,241551,1,4,3:3:0:0:
491,127,241637,1,4,3:3:0:0:
488,108,241722,1,4,3:3:0:0:
483,89,241808,2,0,L|439:88,3,38.5000011749268,4|4|4|4,3:3|3:3|3:3|3:3,0:0:0:0:
420,63,242151,2,0,L|376:62,3,38.5000011749268,4|4|4|4,3:3|3:3|3:3|3:3,0:0:0:0:
363,92,242494,2,0,L|315:90,3,38.5000011749268,4|4|4|4,3:3|3:3|3:3|3:3,0:0:0:0:
291,63,242837,5,4,3:3:0:0:
256,192,243008,12,0,249694,0:0:0:0:
