osu file format v14

[General]
AudioFilename: audio.mp3
AudioLeadIn: 0
PreviewTime: 70283
Countdown: 0
SampleSet: Soft
StackLeniency: 0.5
Mode: 0
LetterboxInBreaks: 0
WidescreenStoryboard: 1

[Editor]
Bookmarks: 5847,16819,27790,38762,49733,50504,50676,50933,60704,71676,92247,93619,114190,121047,126533,137504,148476,159447,170419,181390,192362,203333,214304,234876,236247,256819
DistanceSpacing: 1
BeatDivisor: 4
GridSize: 4
TimelineZoom: 0.9999994

[Metadata]
Title:MTC (Radio Edit)
TitleUnicode:MTC (Radio Edit)
Artist:S3RL
ArtistUnicode:S3RL
Creator:Okoratu
Version:pishi's Normal
Source:
Tags:anime featured artist emfa music Delis pishifat Okorin cartoons
BeatmapID:1524388
BeatmapSetID:716630

[Difficulty]
HPDrainRate:4
CircleSize:3.5
OverallDifficulty:4.5
ApproachRate:6
SliderMultiplier:1
SliderTickRate:1

[Events]
//Background and Video events
0,0,"MTC.jpg",0,0
//Break Periods
2,27983,37562
2,114383,119847
2,170412,180190
//Storyboard Layer 0 (Background)
//Storyboard Layer 1 (Fail)
//Storyboard Layer 2 (Pass)
//Storyboard Layer 3 (Foreground)
//Storyboard Sound Samples

[TimingPoints]
355,342.857142857143,4,2,1,100,1,0
4126,-100,4,2,1,30,0,0
4469,-100,4,2,1,20,0,0
4812,-100,4,2,1,20,0,0
5155,-100,4,2,1,30,0,0
5497,-100,4,2,1,30,0,0
5840,-100,4,2,1,40,0,0
19897,-100,4,2,1,40,0,0
20155,-100,4,2,1,40,0,0
20240,-100,4,2,1,40,0,0
21269,-100,4,2,1,40,0,0
21526,-100,4,2,1,40,0,0
21612,-100,4,2,1,40,0,0
21869,-100,4,2,1,40,0,0
21955,-100,4,2,1,40,0,0
22297,-100,4,2,1,40,0,0
26069,-100,4,2,1,40,0,0
26412,-100,4,2,1,40,0,0
26755,-100,4,2,1,40,0,0
27097,-100,4,2,1,40,0,0
27440,-100,4,2,1,40,0,0
27783,-100,4,2,1,40,0,0
38412,-100,4,2,1,50,0,0
38755,-100,4,2,1,50,0,0
49726,-125,4,2,1,30,0,0
60697,-100,4,2,2,45,0,0
65840,-100,4,2,2,45,0,0
66097,-100,4,2,2,45,0,0
66183,-100,4,2,2,40,0,0
68926,-100,4,2,2,40,0,0
69612,-100,4,2,2,40,0,0
71326,-100,4,2,1,40,0,0
71669,-100,4,2,2,70,0,1
82640,-100,4,2,4,70,0,1
82897,-100,4,2,2,70,0,1
92240,-100,4,2,2,50,0,0
93612,-100,4,2,2,75,0,1
98412,-100,4,2,2,75,0,1
99097,-100,4,2,2,75,0,1
104583,-100,4,2,4,75,0,1
104840,-100,4,2,2,75,0,1
110069,-100,4,2,2,50,0,1
110412,-100,4,2,2,50,0,1
110755,-100,4,2,2,50,0,1
111097,-100,4,2,2,50,0,1
111440,-100,4,2,2,50,0,1
111783,-100,4,2,2,50,0,1
112126,-100,4,2,2,50,0,1
112469,-100,4,2,2,50,0,1
112812,-100,4,2,2,50,0,1
113497,-100,4,2,2,50,0,1
114183,-100,4,2,1,50,0,0
120697,-100,4,2,1,40,0,0
121040,-100,4,2,1,40,0,0
123440,-100,4,2,1,40,0,0
123783,-100,4,2,1,40,0,0
126183,-100,4,2,2,65,0,0
126526,-100,4,2,2,65,0,0
128926,-100,4,2,2,65,0,0
129269,-100,4,2,2,65,0,0
131669,-100,4,2,2,65,0,0
132012,-100,4,2,2,65,0,0
134412,-100,4,2,2,65,0,0
134755,-100,4,2,2,65,0,0
137497,-100,4,2,2,40,0,0
137755,-100,4,2,2,65,0,0
137840,-100,4,2,2,65,0,0
138183,-100,4,2,2,65,0,0
139897,-100,4,2,2,65,0,0
140240,-100,4,2,2,65,0,0
142640,-100,4,2,2,65,0,0
142983,-100,4,2,2,65,0,0
145383,-100,4,2,2,65,0,0
145726,-100,4,2,2,65,0,0
147097,-100,4,2,1,65,0,0
147440,-100,4,2,2,60,0,0
148469,-100,4,2,2,50,0,0
148940,-100,4,2,2,60,0,0
159440,-100,4,2,2,65,0,0
164926,-100,4,2,1,50,0,0
181383,-100,4,2,3,60,0,0
192355,-125,4,2,4,30,0,0
203240,-100,4,2,4,30,0,0
203326,-100,4,2,4,60,0,0
208812,-100,4,2,2,40,0,0
213955,-100,4,2,1,50,0,0
214297,-100,4,2,2,75,0,1
225269,-100,4,2,4,75,0,1
225526,-100,4,2,2,75,0,1
234869,-100,4,2,1,50,0,0
236240,-100,4,2,2,80,0,1
241040,-100,4,2,2,80,0,1
241726,-100,4,2,2,80,0,1
247212,-100,4,2,4,80,0,1
247555,-100,4,2,2,80,0,1
252697,-100,4,2,2,55,0,1
256812,-100,4,2,2,50,0,0

[Colours]
Combo1 : 100,230,122
Combo2 : 30,223,234
Combo3 : 241,206,67
Combo4 : 231,86,86

[HitObjects]
260,384,4469,6,0,L|377:370,1,100,0|0,0:0|0:0,0:0:0:0:
325,277,5155,2,0,L|275:282,2,50,2|0|2,0:0|0:0|0:0,0:0:0:0:
292,182,5840,1,4,1:0:0:0:
152,326,6526,6,0,P|102:319|52:284,1,100,2|0,0:0|0:0,0:0:0:0:
11,205,7212,1,2,0:0:0:0:
206,247,7897,2,0,P|255:240|297:214,2,100,2|0|2,0:0|0:0|0:0,0:0:0:0:
126,185,8926,1,0,0:0:0:0:
219,148,9269,2,0,P|252:111|267:64,1,100,2|0,0:0|0:0,0:0:0:0:
183,10,9955,1,2,0:0:0:0:
382,25,10640,6,0,P|424:57|446:108,1,100,2|0,0:0|0:0,0:0:0:0:
455,198,11326,1,2,0:0:0:0:
296,75,12012,2,0,P|250:55|200:58,2,100,2|0|2,0:0|0:0|0:0,0:0:0:0:
110,151,13383,2,0,P|62:165|26:199,1,100,2|0,0:0|0:0,0:0:0:0:
5,297,14069,1,2,0:0:0:0:
186,212,14755,2,0,P|158:253|153:302,2,100,2|0|2,0:0|0:0|0:0,0:0:0:0:
325,344,16126,6,0,P|380:377|427:379,1,100,2|0,0:0|0:0,0:0:0:0:
512,357,16812,1,2,0:0:0:0:
342,251,17497,2,0,P|309:213|296:165,2,100,2|0|2,0:0|0:0|0:0,0:0:0:0:
221,102,18869,2,0,P|220:52|241:7,2,100,2|0|2,0:0|0:0|0:0,0:0:0:0:
296,165,19897,1,2,0:0:0:0:
202,200,20240,2,0,P|156:179|124:141,2,100,2|0|2,0:0|0:0|0:0,0:0:0:0:
296,165,21269,1,2,0:0:0:0:
390,131,21612,1,0,0:0:0:0:
469,191,21955,5,2,0:0:0:0:
375,226,22297,2,0,P|387:297|446:361,2,150,2|2|2,0:0|0:0|0:0,0:0:0:0:
296,165,23669,2,0,P|259:227|263:314,2,150,2|2|2,0:0|0:0|0:0,0:0:0:0:
268,68,25040,2,0,P|200:92|125:215,1,200,2|0,0:0|0:0,0:0:0:0:
30,214,26069,6,0,P|31:257|54:312,1,100,0|0,0:0|0:0,0:0:0:0:
142,353,26755,2,0,P|196:355|242:377,1,100,2|0,0:0|0:0,0:0:0:0:
334,351,27440,1,2,0:0:0:0:
432,331,27783,1,10,0:0:0:0:
68,82,38755,6,0,L|179:93,1,100,6|0,0:2|3:2,0:0:0:0:
217,99,39269,1,2,0:0:0:0:
356,43,39783,1,2,3:2:0:0:
428,111,40126,2,0,P|426:167|392:222,1,100,2|0,3:2|3:2,0:0:0:0:
373,243,40640,1,2,0:2:0:0:
224,264,41155,1,2,3:2:0:0:
146,201,41497,6,0,L|30:187,1,100,2|0,3:2|0:0,0:0:0:0:
4,217,42012,2,0,P|20:318|30:331,1,100,2|0,0:2|0:0,0:0:0:0:
59,340,42526,1,2,3:2:0:0:
154,309,42869,2,0,P|205:291|218:295,1,50,2|2,3:2|0:2,0:0:0:0:
241,265,43212,2,0,P|265:267|287:279,1,50,2|2,3:2|0:2,0:0:0:0:
321,315,43555,2,0,P|372:311|424:275,1,100,2|2,3:2|3:2,0:0:0:0:
453,194,44240,6,0,L|465:87,1,100,2|0,3:2|3:0,0:0:0:0:
471,44,44755,1,2,0:0:0:0:
342,120,45269,1,2,3:2:0:0:
259,63,45612,2,0,P|195:90|167:123,1,100,2|0,3:2|3:0,0:0:0:0:
156,158,46126,1,2,0:0:0:0:
124,304,46640,1,2,3:2:0:0:
27,331,46983,6,0,B|10:271|10:271|23:196|23:196|2:118,1,200,2|2,3:2|3:2,0:0:0:0:
53,47,48012,1,2,3:2:0:0:
149,74,48355,1,4,0:1:0:0:
456,87,49726,6,0,B|409:155|314:137|352:105|253:99|213:176,1,280,2|2,0:0|0:0,0:0:0:0:
200,226,51097,2,0,B|221:273|221:273|191:326|191:326|210:376,1,160,2|2,0:0|0:0,0:0:0:0:
366,365,52469,6,0,B|326:287|226:294|265:326|169:343|123:275,1,280,2|2,0:0|0:0,0:0:0:0:
97,230,53840,2,0,B|80:185|80:185|110:132|110:132|89:85,1,160,2|2,0:0|0:0,0:0:0:0:
300,93,55212,6,0,P|190:67|240:167,1,280,2|2,0:0|0:0,0:0:0:0:
287,145,56583,2,0,B|336:128|336:128|388:144|388:144|446:128,1,160,2|2,0:0|0:0,0:0:0:0:
400,297,57955,6,0,P|291:324|337:222,1,280,2|2,0:0|0:0,0:0:0:0:
372,182,59326,2,0,B|323:165|323:165|271:181|271:181|213:165,1,160,2|2,0:0|0:0,0:0:0:0:
23,195,60697,6,0,L|14:83,3,100,14|8|10|8,0:2|0:2|0:2|0:2,0:0:0:0:
106,137,62069,2,0,L|136:29,3,100,10|8|10|8,0:0|0:0|0:0|0:0,0:0:0:0:
207,108,63440,2,0,L|269:23,3,100,10|8|10|8,0:0|0:0|0:0|0:0,0:0:0:0:
312,116,64812,2,0,L|399:58,3,100,10|8|10|8,0:0|0:0|0:0|0:0,0:0:0:0:
256,192,66183,12,8,70297,0:0:0:0:
86,118,71669,5,10,0:0:0:0:
179,83,72012,2,0,L|243:97,1,50,8|2,0:0|0:0,0:0:0:0:
269,122,72355,2,0,P|310:118|345:102,2,75,10|2|2,0:0|0:0|0:0,0:0:0:0:
223,142,73040,2,0,P|196:181|199:301,1,150,10|2,0:0|0:0,0:0:0:0:
212,326,73726,1,10,0:0:0:0:
307,294,74069,1,8,0:0:0:0:
387,352,74412,6,0,L|400:246,1,100,10|10,0:0|0:0,0:0:0:0:
424,209,74926,1,2,0:0:0:0:
452,168,75097,2,0,P|484:180|534:174,2,75,10|2|2,0:0|0:0|0:0,0:0:0:0:
419,130,75783,2,0,P|330:82|279:91,1,150,10|2,0:0|0:0,0:0:0:0:
244,117,76469,1,10,0:0:0:0:
159,63,76812,1,8,0:0:0:0:
97,142,77155,5,10,0:0:0:0:
181,194,77497,2,0,P|177:223|157:260,1,50,10|2,0:0|0:0,0:0:0:0:
142,284,77840,2,0,L|63:296,2,75,10|2|2,0:0|0:0|0:0,0:0:0:0:
170,325,78526,2,0,P|232:370|321:360,1,150,10|2,0:0|0:0,0:0:0:0:
349,350,79212,1,10,0:0:0:0:
326,252,79555,1,8,0:0:0:0:
422,277,79897,6,0,L|436:158,1,100,10|10,0:0|0:0,0:0:0:0:
414,131,80412,1,0,0:0:0:0:
393,85,80583,2,0,P|336:97|302:139,1,100,10|8,0:0|0:0,0:0:0:0:
249,207,81269,2,0,L|83:230,1,150,10|2,0:0|0:0,0:0:0:0:
50,234,81955,1,10,0:0:0:0:
4,145,82297,1,8,0:0:0:0:
71,71,82640,5,10,0:2:0:0:
160,116,82983,2,0,P|191:110|222:89,1,50,14|2,1:2|0:0,0:0:0:0:
245,69,83326,2,0,L|253:-11,2,75,10|2|2,0:0|0:0|0:0,0:0:0:0:
288,94,84012,2,0,P|354:53|442:68,1,150,10|2,0:0|0:0,0:0:0:0:
466,84,84697,1,10,0:0:0:0:
446,182,85040,1,12,0:0:0:0:
430,280,85383,6,0,L|330:290,1,100,10|14,0:0|0:0,0:0:0:0:
295,254,85897,1,2,0:0:0:0:
267,212,86069,2,0,L|179:200,2,75,10|2|2,0:0|0:0|0:0,0:0:0:0:
308,183,86755,2,0,P|303:119|248:51,1,150,10|2,0:0|0:0,0:0:0:0:
205,33,87440,1,10,0:0:0:0:
130,99,87783,1,12,0:0:0:0:
37,59,88126,5,10,0:0:0:0:
51,158,88469,2,0,L|60:224,1,50,14|2,0:0|0:0,0:0:0:0:
65,257,88812,2,0,P|-2:278|-16:295,2,75,10|2|2,0:0|0:0|0:0,0:0:0:0:
95,296,89497,2,0,P|158:343|240:332,1,150,10|2,0:0|0:0,0:0:0:0:
267,310,90183,1,10,0:0:0:0:
354,357,90526,1,12,0:0:0:0:
439,305,90869,6,0,P|460:258|452:205,1,100,10|14,0:0|0:0,0:0:0:0:
430,166,91383,1,2,0:0:0:0:
381,151,91555,2,0,P|329:156|287:189,1,100,10|14,0:0|0:0,0:0:0:0:
275,231,92069,1,2,0:0:0:0:
287,279,92240,1,4,0:1:0:0:
138,25,93612,6,0,L|70:30,2,50,4|0|4,0:1|0:0|0:1,0:0:0:0:
225,74,94297,2,0,P|220:136|190:180,1,100,10|14,0:0|0:0,0:0:0:0:
166,203,94812,1,2,0:0:0:0:
125,232,94983,2,0,L|41:219,2,75,10|2|2,0:0|0:0|0:0,0:0:0:0:
152,274,95669,1,10,0:0:0:0:
250,256,96012,1,14,0:0:0:0:
322,324,96355,6,0,L|315:377,2,50,10|0|14,0:0|0:0|0:0,0:0:0:0:
357,288,96869,1,2,0:0:0:0:
392,253,97040,1,10,0:0:0:0:
366,156,97383,1,12,0:0:0:0:
448,99,97726,2,0,P|414:70|347:60,1,100,10|14,0:0|0:0,0:0:0:0:
313,73,98240,1,2,0:0:0:0:
271,44,98412,1,8,0:0:0:0:
73,72,99097,6,0,L|79:135,2,50,10|0|14,0:0|0:0|0:0,0:0:0:0:
171,91,99783,2,0,L|159:196,1,100,10|12,0:0|0:0,0:0:0:0:
182,235,100297,1,2,0:0:0:0:
210,276,100469,2,0,P|245:256|293:255,2,75,10|2|2,0:0|0:0|0:0,0:0:0:0:
187,320,101155,2,0,P|140:345|86:344,1,100,10|14,0:0|0:0,0:0:0:0:
48,257,101840,6,0,L|-6:245,2,50,10|0|14,0:0|0:0|0:0,0:0:0:0:
133,204,102526,1,10,0:0:0:0:
56,144,102869,1,12,0:0:0:0:
98,53,103212,2,0,P|145:28|199:29,1,100,10|12,0:2|0:0,0:0:0:0:
237,45,103726,1,2,0:0:0:0:
283,63,103897,1,10,0:0:0:0:
376,28,104240,1,12,0:0:0:0:
459,83,104583,6,0,L|465:148,1,50,8|8,3:2|3:2,0:0:0:0:
445,179,104926,2,0,L|451:244,1,50,4|2,0:1|0:0,0:0:0:0:
433,276,105269,2,0,P|384:301|332:295,1,100,10|14,0:0|0:0,0:0:0:0:
276,220,105955,2,0,L|286:134,2,75,10|2|2,0:0|0:0|0:0,0:0:0:0:
253,264,106640,1,10,0:0:0:0:
161,222,106983,1,14,0:0:0:0:
66,255,107326,6,0,L|60:199,1,50,10|0,0:0|0:0,0:0:0:0:
37,160,107669,2,0,L|31:104,1,50,14|2,0:0|0:0,0:0:0:0:
5,67,108012,1,10,0:0:0:0:
92,17,108355,1,12,0:0:0:0:
149,98,108697,1,10,0:0:0:0:
198,90,108869,1,2,0:0:0:0:
247,83,109040,1,14,0:0:0:0:
337,40,109383,2,0,P|401:63|423:97,1,100,10|2,0:0|0:0,0:0:0:0:
436,134,109897,1,8,0:0:0:0:
454,180,110069,5,10,0:0:0:0:
256,192,110240,12,8,114183,0:0:0:0:
134,93,121040,5,2,0:0:0:0:
378,146,121897,6,0,L|372:201,2,50,2|2|0,0:0|0:0|0:0,0:0:0:0:
411,108,122412,1,2,0:0:0:0:
134,223,123440,6,0,L|141:291,1,50,2|0,0:0|0:0,0:0:0:0:
110,313,123783,1,2,0:0:0:0:
480,161,125155,6,0,L|474:216,2,50,2|2|2,0:0|0:0|0:0,0:0:0:0:
380,147,125840,2,0,L|374:202,2,50,2|0|0,0:0|0:0|0:0,0:0:0:0:
352,50,126526,6,0,P|289:20|252:27,1,100,4|4,1:1|1:1,0:0:0:0:
186,90,127212,1,8,1:2:0:0:
91,58,127555,1,6,1:2:0:0:
23,131,127897,2,0,L|12:242,1,100,10|6,1:2|1:2,0:0:0:0:
77,307,128583,1,8,1:2:0:0:
155,244,128926,2,0,P|199:261|210:276,1,50,6|2,1:2|0:0,0:0:0:0:
234,298,129269,6,0,L|334:317,1,100,10|6,1:2|1:2,0:0:0:0:
422,361,129955,1,8,1:2:0:0:
490,288,130297,1,6,1:2:0:0:
401,241,130640,2,0,P|403:176|431:135,1,100,10|6,1:2|1:2,0:0:0:0:
408,47,131326,2,0,P|358:44|313:65,1,100,8|6,1:2|1:2,0:0:0:0:
288,109,131840,1,0,0:0:0:0:
268,155,132012,6,0,L|282:261,1,100,10|6,1:2|1:2,0:0:0:0:
227,338,132697,1,8,1:2:0:0:
134,299,133040,1,6,1:2:0:0:
51,354,133383,2,0,P|11:306|5:249,1,100,10|6,1:2|1:2,0:0:0:0:
35,175,134069,1,8,1:2:0:0:
68,80,134412,2,0,L|127:92,1,50,6|2,1:2|0:0,0:0:0:0:
153,124,134755,6,0,P|208:115|246:84,1,100,10|6,1:2|1:2,0:0:0:0:
324,31,135440,2,0,P|379:40|417:71,1,100,8|6,1:2|1:2,0:0:0:0:
439,109,135955,1,2,0:0:0:0:
455,156,136126,2,0,L|441:263,2,100,2|2|2,1:2|1:2|1:2,0:0:0:0:
360,190,137155,2,0,B|325:177|325:177|306:154|306:154|265:142,1,100,2|8,0:0|1:0,0:0:0:0:
203,215,137840,6,0,P|152:211|95:175,1,100,4|8,1:0|1:2,0:0:0:0:
73,153,138355,1,2,0:0:0:0:
53,106,138526,1,6,1:2:0:0:
110,23,138869,2,0,L|217:10,1,100,8|4,1:2|1:2,0:0:0:0:
300,51,139555,1,8,1:2:0:0:
397,28,139897,2,0,P|436:39|455:59,1,50,6|2,1:2|0:0,0:0:0:0:
469,87,140240,6,0,L|478:188,1,100,8|6,1:2|1:2,0:0:0:0:
384,224,140926,2,0,L|375:289,1,50,8|2,1:2|0:0,0:0:0:0:
370,323,141269,1,6,1:2:0:0:
280,368,141612,2,0,P|228:361|176:316,1,100,10|6,1:2|1:2,0:0:0:0:
210,236,142297,2,0,P|204:184|157:135,1,100,8|4,1:2|1:2,0:0:0:0:
126,135,142812,1,0,0:0:0:0:
87,166,142983,5,10,1:2:0:0:
8,227,143326,2,0,L|-4:117,1,100,6|8,1:2|1:2,0:0:0:0:
16,81,143840,1,2,0:0:0:0:
35,34,144012,1,6,1:2:0:0:
130,5,144355,2,0,P|198:23|225:52,1,100,10|6,1:2|1:2,0:0:0:0:
272,126,145040,1,8,1:2:0:0:
358,75,145383,2,0,L|430:66,1,50,6|0,1:2|0:0,0:0:0:0:
457,65,145726,6,0,P|489:124|483:177,1,100,10|6,1:2|1:2,0:0:0:0:
428,235,146412,2,0,L|357:227,1,50,8|2,1:2|0:0,0:0:0:0:
328,226,146755,1,6,1:2:0:0:
340,325,147097,1,6,0:0:0:0:
64,34,148469,5,4,3:1:0:0:
32,129,148812,1,4,3:1:0:0:
130,109,149155,2,0,L|185:100,2,50,8|0|10,3:2|3:2|3:2,0:0:0:0:
99,204,149840,2,0,P|104:253|134:305,1,100,10|10,3:2|3:2,0:0:0:0:
210,353,150526,1,10,3:2:0:0:
305,324,150869,1,10,3:2:0:0:
393,370,151212,6,0,L|405:263,1,100,10|8,3:2|3:2,0:0:0:0:
445,179,151897,2,0,L|499:171,2,50,10|0|10,3:2|3:2|3:2,0:0:0:0:
377,104,152583,2,0,P|321:75|274:77,1,100,10|8,3:2|3:2,0:0:0:0:
196,121,153269,1,10,3:2:0:0:
103,81,153612,1,10,3:2:0:0:
51,166,153955,6,0,L|59:271,1,100,10|8,3:2|3:2,0:0:0:0:
65,365,154640,2,0,P|11:353|2:346,2,50,10|0|10,3:2|3:2|3:2,0:0:0:0:
151,313,155326,2,0,P|195:290|244:290,1,100,10|8,3:2|3:2,0:0:0:0:
318,359,156012,1,10,3:2:0:0:
410,319,156355,1,10,3:2:0:0:
341,246,156697,6,0,L|328:135,1,100,10|8,3:2|3:2,0:0:0:0:
265,68,157383,2,0,L|210:56,2,50,10|0|10,3:2|3:2|3:2,0:0:0:0:
363,50,158069,2,0,L|470:33,1,100,10|8,3:2|3:2,0:0:0:0:
512,123,158755,1,10,3:2:0:0:
451,202,159097,1,10,3:2:0:0:
494,291,159440,6,0,P|438:322|388:318,1,100,8|4,1:2|1:2,0:0:0:0:
314,275,160126,2,0,L|307:204,2,50,8|0|4,1:2|3:2|1:2,0:0:0:0:
244,347,160812,2,0,L|121:333,1,100,8|4,1:2|1:2,0:0:0:0:
71,266,161497,2,0,P|43:311|41:362,2,100,8|4|8,1:2|1:2|1:2,0:0:0:0:
167,238,162526,6,0,L|175:181,1,50,6|0,1:2|3:2,0:0:0:0:
180,138,162869,2,0,P|130:96|92:88,2,100,8|4|8,1:2|1:2|1:2,0:0:0:0:
249,210,163897,1,6,1:2:0:0:
341,173,164240,1,10,1:2:0:0:
398,254,164583,1,4,1:2:0:0:
308,297,164926,6,0,P|263:310|218:360,1,100,4|0,1:2|1:0,0:0:0:0:
175,346,165440,2,0,P|141:281|164:211,1,150,0|0,0:0|1:0,0:0:0:0:
220,128,166297,2,0,P|215:78|188:36,1,100,0|0,1:0|1:0,0:0:0:0:
137,24,166812,2,0,P|110:93|53:141,1,150,0|0,1:0|1:0,0:0:0:0:
18,234,167669,6,0,L|125:218,2,100,0|0|0,1:0|0:0|0:0,0:0:0:0:
78,313,168697,1,2,1:2:0:0:
6,383,169040,1,0,0:0:0:0:
21,68,181383,6,0,L|134:80,1,100,8|0,3:2|3:2,0:0:0:0:
169,89,181897,2,0,L|219:83,1,50,2|0,0:0|3:2,0:0:0:0:
312,69,182412,1,2,3:2:0:0:
399,118,182755,2,0,P|420:169|411:226,1,100,2|0,3:2|3:2,0:0:0:0:
400,260,183269,2,0,L|333:275,1,50,2|2,0:0|3:2,0:0:0:0:
272,209,183783,1,2,3:2:0:0:
223,292,184126,6,0,L|111:308,1,100,2|0,3:2|3:2,0:0:0:0:
74,314,184640,2,0,L|19:320,1,50,2|0,0:0|3:2,0:0:0:0:
16,219,185155,1,2,3:2:0:0:
115,207,185497,2,0,P|134:169|136:150,1,50,2|2,3:2|0:0,0:0:0:0:
166,122,185840,2,0,P|159:98|145:77,1,50,2|2,3:2|0:0,0:0:0:0:
106,44,186183,2,0,P|156:21|210:29,1,100,2|2,3:2|3:2,0:0:0:0:
276,89,186869,6,0,L|380:99,1,100,2|0,3:2|3:2,0:0:0:0:
425,103,187383,2,0,L|486:107,1,50,2|0,0:0|3:2,0:0:0:0:
509,200,187897,1,2,3:2:0:0:
471,291,188240,2,0,L|366:307,1,100,2|0,3:2|3:2,0:0:0:0:
322,317,188755,2,0,L|267:323,1,50,2|0,0:0|3:2,0:0:0:0:
200,253,189269,1,2,3:2:0:0:
154,341,189612,6,0,P|104:341|46:305,2,100,2|2|2,3:2|3:2|3:2,0:0:0:0:
200,253,190640,1,2,3:2:0:0:
182,154,190983,1,2,0:0:0:0:
472,58,192355,6,0,B|418:97|433:177|475:146|478:237|413:269,1,240,10|8,0:0|0:0,0:0:0:0:
326,230,193726,2,0,L|312:134,1,80,10|8,0:0|0:0,0:0:0:0:
229,196,194412,2,0,L|217:116,1,80,10|8,0:0|0:0,0:0:0:0:
291,55,195097,6,0,B|259:118|169:115|200:73|120:58|80:112,1,240,10|8,0:0|0:0,0:0:0:0:
32,195,196469,2,0,L|122:208,1,80,10|8,0:0|0:0,0:0:0:0:
64,290,197155,2,0,L|154:303,1,80,10|8,0:0|0:0,0:0:0:0:
221,357,197840,6,0,P|326:352|268:265,1,240,10|8,0:0|0:0,0:0:0:0:
196,219,199212,2,0,P|205:145|216:132,1,80,10|8,0:0|0:0,0:0:0:0:
140,73,199897,2,0,P|171:49|211:44,1,80,10|8,0:0|0:0,0:0:0:0:
293,93,200583,6,0,P|398:98|340:185,1,240,10|8,0:0|0:0,0:0:0:0:
272,235,201955,2,0,P|285:295|308:318,1,80,10|0,0:0|0:0,0:0:0:0:
382,350,202640,2,0,P|421:350|457:334,1,80,2|0,0:0|0:0,0:0:0:0:
501,243,203326,5,8,1:2:0:0:
436,166,203669,1,8,0:0:0:0:
344,202,204012,2,0,L|362:100,1,100,8|8,0:0|0:0,0:0:0:0:
268,130,204697,2,0,L|250:28,3,100,10|8|10|8,0:0|0:0|0:0|0:0,0:0:0:0:
172,89,206069,2,0,L|120:0,3,100,10|8|10|8,0:0|0:0|0:0|0:0,0:0:0:0:
67,85,207440,2,0,L|-11:18,2,100,10|10|10,0:0|0:0|0:0,0:0:0:0:
256,192,208812,12,14,212926,0:0:0:0:
159,283,214297,5,10,0:0:0:0:
89,210,214640,2,0,L|82:161,1,50,10|2,0:0|0:0,0:0:0:0:
77,110,214983,2,0,P|36:106|1:90,2,75,10|2|2,0:0|0:0|0:0,0:0:0:0:
114,76,215669,2,0,P|178:40|252:43,1,150,10|2,0:0|0:0,0:0:0:0:
284,82,216355,1,10,0:0:0:0:
380,57,216697,1,8,0:0:0:0:
461,114,217040,6,0,L|473:213,1,100,10|10,0:0|0:0,0:0:0:0:
431,242,217555,1,2,0:0:0:0:
390,270,217726,2,0,L|378:352,2,75,10|2|2,0:0|0:0|0:0,0:0:0:0:
347,243,218412,2,0,P|273:241|213:284,1,150,10|2,0:0|0:0,0:0:0:0:
190,328,219097,1,10,0:0:0:0:
92,348,219440,1,8,0:0:0:0:
24,273,219783,5,10,0:0:0:0:
121,249,220126,2,0,P|129:225|132:200,1,50,10|2,0:0|0:0,0:0:0:0:
122,151,220469,2,0,P|90:148|46:122,2,75,10|2|2,0:0|0:0|0:0,0:0:0:0:
158,116,221155,2,0,P|220:71|309:81,1,150,10|2,0:0|0:0,0:0:0:0:
328,104,221840,1,10,0:0:0:0:
247,162,222183,1,8,0:0:0:0:
340,198,222526,6,0,L|351:297,1,100,10|10,0:0|0:0,0:0:0:0:
381,337,223040,1,2,0:0:0:0:
417,371,223212,2,0,P|474:359|508:317,1,100,10|8,0:0|0:0,0:0:0:0:
453,242,223897,2,0,L|430:76,1,150,10|2,0:0|0:0,0:0:0:0:
393,61,224583,1,10,0:0:0:0:
305,108,224926,1,8,0:0:0:0:
219,56,225269,5,8,0:0:0:0:
123,87,225612,2,0,P|112:109|108:134,1,50,14|2,0:0|0:0,0:0:0:0:
95,182,225955,2,0,L|20:189,2,75,10|2|2,0:0|0:0|0:0,0:0:0:0:
132,215,226640,2,0,P|198:256|286:241,1,150,10|2,0:0|0:0,0:0:0:0:
306,218,227326,1,10,0:0:0:0:
393,170,227669,1,12,0:0:0:0:
476,225,228012,6,0,L|466:325,1,100,10|14,0:0|0:0,0:0:0:0:
419,343,228526,1,2,0:0:0:0:
373,322,228697,2,0,L|365:240,2,75,10|2|2,0:0|0:0|0:0,0:0:0:0:
335,355,229383,2,0,P|271:350|203:295,1,150,10|2,0:0|0:0,0:0:0:0:
175,258,230069,1,10,0:0:0:0:
84,299,230412,1,12,0:0:0:0:
19,222,230755,5,10,0:0:0:0:
73,138,231097,2,0,L|122:131,1,50,14|2,0:0|0:0,0:0:0:0:
171,120,231440,2,0,P|190:88|193:51,2,75,10|2|2,0:0|0:0|0:0,0:0:0:0:
189,166,232126,2,0,P|252:213|334:202,1,150,10|2,0:0|0:0,0:0:0:0:
360,179,232812,1,10,0:0:0:0:
278,121,233155,1,12,0:0:0:0:
369,80,233497,6,0,L|469:90,1,100,10|14,0:0|0:0,0:0:0:0:
501,128,234012,1,2,0:0:0:0:
477,171,234183,2,0,P|446:209|436:258,1,100,10|12,0:0|0:0,0:0:0:0:
455,304,234697,1,0,0:0:0:0:
475,349,234869,1,4,0:1:0:0:
59,338,236240,6,0,L|-9:343,2,50,4|0|4,0:1|0:0|0:1,0:0:0:0:
153,305,236926,2,0,P|175:260|176:211,1,100,10|12,0:0|0:0,0:0:0:0:
145,171,237440,1,2,0:0:0:0:
107,138,237612,2,0,L|23:125,2,75,10|2|2,0:0|0:0|0:0,0:0:0:0:
133,95,238297,1,10,0:0:0:0:
217,41,238640,1,14,0:0:0:0:
300,96,238983,6,0,L|353:89,2,50,10|0|14,0:0|0:0|0:0,0:0:0:0:
267,133,239497,1,2,0:0:0:0:
230,167,239669,1,10,0:0:0:0:
200,262,240012,1,12,0:0:0:0:
272,330,240355,2,0,P|320:320|359:289,1,100,10|14,0:0|0:0,0:0:0:0:
373,241,240869,1,2,0:0:0:0:
382,192,241040,1,8,0:0:0:0:
161,45,241726,6,0,L|98:39,2,50,10|0|14,0:0|0:0|0:0,0:0:0:0:
231,115,242412,2,0,L|336:103,1,100,10|12,0:0|0:0,0:0:0:0:
378,117,242926,1,2,0:0:0:0:
425,131,243097,2,0,L|437:48,2,75,10|2|2,0:0|0:0|0:0,0:0:0:0:
447,175,243783,2,0,P|445:224|421:267,1,100,10|14,0:0|0:0,0:0:0:0:
340,327,244469,6,0,L|345:377,2,50,10|0|14,0:0|0:0|0:0,0:0:0:0:
262,263,245155,1,10,0:0:0:0:
168,298,245497,1,12,0:0:0:0:
93,230,245840,2,0,P|94:180|118:137,1,100,10|12,0:0|0:0,0:0:0:0:
167,122,246355,1,2,0:0:0:0:
212,141,246526,1,10,0:0:0:0:
301,95,246869,1,14,0:0:0:0:
222,33,247212,6,0,L|172:28,1,50,10|8,0:0|0:0,0:0:0:0:
125,46,247555,2,0,L|75:41,1,50,4|2,0:1|0:0,0:0:0:0:
29,60,247897,2,0,P|4:109|10:161,1,100,10|14,0:0|0:0,0:0:0:0:
61,236,248583,2,0,L|52:310,2,75,10|2|2,0:0|0:0|0:0,0:0:0:0:
103,209,249269,1,10,0:0:0:0:
189,259,249612,1,12,0:0:0:0:
276,306,249955,6,0,L|332:300,1,50,10|0,0:0|0:0,0:0:0:0:
371,277,250297,2,0,L|427:271,1,50,14|2,0:0|0:0,0:0:0:0:
467,253,250640,1,10,0:0:0:0:
403,175,250983,1,12,0:0:0:0:
335,100,251326,1,10,0:0:0:0:
286,93,251498,1,2,0:0:0:0:
237,85,251669,1,14,0:0:0:0:
154,141,252012,2,0,P|120:200|126:240,1,100,8|12,0:0|0:0,0:0:0:0:
141,277,252526,1,8,0:0:0:0:
158,324,252697,5,10,0:0:0:0:
256,192,252869,12,8,256812,0:0:0:0:
