osu file format v14

[General]
AudioFilename: audio.mp3
AudioLeadIn: 0
PreviewTime: 70283
Countdown: 0
SampleSet: Soft
StackLeniency: 0.5
Mode: 0
LetterboxInBreaks: 0
WidescreenStoryboard: 1

[Editor]
Bookmarks: 5847,16819,27790,38762,49733,50504,50676,50933,60704,71676,92247,93619,114190,121047,126533,137504,148476,159447,170419,181390,192362,203333,214304,234876,236247,256819
DistanceSpacing: 0.65
BeatDivisor: 4
GridSize: 4
TimelineZoom: 0.9999994

[Metadata]
Title:MTC (Radio Edit)
TitleUnicode:MTC (Radio Edit)
Artist:S3RL
ArtistUnicode:S3RL
Creator:Okoratu
Version:pishi's Insane
Source:
Tags:anime featured artist emfa music Delis pishifat Okorin cartoons
BeatmapID:1514712
BeatmapSetID:716630

[Difficulty]
HPDrainRate:6.5
CircleSize:4.5
OverallDifficulty:7.5
ApproachRate:9
SliderMultiplier:1.5
SliderTickRate:1

[Events]
//Background and Video events
0,0,"MTC.jpg",0,0
//Break Periods
2,27983,35412
2,114383,120355
2,170412,180697
//Storyboard Layer 0 (Background)
//Storyboard Layer 1 (Fail)
//Storyboard Layer 2 (Pass)
//Storyboard Layer 3 (Foreground)
//Storyboard Sound Samples

[TimingPoints]
355,342.857142857143,4,2,1,100,1,0
4126,-100,4,2,1,30,0,0
4469,-133.333333333333,4,2,1,20,0,0
4812,-117.647058823529,4,2,1,20,0,0
5155,-125,4,2,1,30,0,0
5497,-111.111111111111,4,2,1,30,0,0
5840,-166.666666666667,4,2,1,40,0,0
19897,-100,4,2,1,40,0,0
20155,-100,4,2,1,5,0,0
20240,-166.666666666667,4,2,1,40,0,0
21269,-125,4,2,1,40,0,0
21526,-125,4,2,1,5,0,0
21612,-125,4,2,1,40,0,0
21869,-125,4,2,1,5,0,0
21955,-100,4,2,1,40,0,0
22297,-83.3333333333333,4,2,1,40,0,0
26069,-100,4,2,1,40,0,0
26412,-117.647058823529,4,2,1,40,0,0
26755,-142.857142857143,4,2,1,40,0,0
27097,-181.818181818182,4,2,1,40,0,0
27440,-100,4,2,1,40,0,0
27697,-100,4,2,1,5,0,0
27783,-285.714285714286,4,2,1,40,0,0
38412,-100,4,2,1,50,0,0
38755,-133.333333333333,4,2,1,50,0,0
49726,-285.714285714286,4,2,1,30,0,0
60697,-200,4,2,2,45,0,0
65840,-166.666666666667,4,2,2,45,0,0
66097,-166.666666666667,4,2,2,45,0,0
66183,-125,4,2,2,40,0,0
68926,-100,4,2,2,40,0,0
69612,-100,4,2,2,40,0,0
71326,-100,4,2,1,40,0,0
71669,-66.6666666666667,4,2,2,70,0,1
82640,-66.6666666666667,4,2,4,70,0,1
82897,-66.6666666666667,4,2,2,70,0,1
92240,-100,4,2,2,50,0,0
93612,-66.6666666666667,4,2,2,75,0,1
98412,-133.333333333333,4,2,2,75,0,1
99097,-66.6666666666667,4,2,2,75,0,1
104583,-66.6666666666667,4,2,4,75,0,1
104840,-66.6666666666667,4,2,2,75,0,1
110069,-100,4,2,2,50,0,1
110412,-90.9090909090909,4,2,2,50,0,1
110755,-83.3333333333333,4,2,2,50,0,1
111097,-76.9230769230769,4,2,2,50,0,1
111440,-71.4285714285714,4,2,2,50,0,1
111783,-66.6666666666667,4,2,2,50,0,1
112126,-62.5,4,2,2,50,0,1
112469,-58.8235294117647,4,2,2,50,0,1
112812,-55.5555555555556,4,2,2,50,0,1
113497,-33.3333333333333,4,2,2,50,0,1
114183,-100,4,2,1,50,0,0
120697,-100,4,2,1,40,0,0
121040,-133.333333333333,4,2,1,40,0,0
123440,-100,4,2,1,40,0,0
123783,-133.333333333333,4,2,1,40,0,0
126183,-133.333333333333,4,2,2,65,0,0
126526,-117.647058823529,4,2,2,65,0,0
128926,-86.9565217391304,4,2,2,65,0,0
129269,-117.647058823529,4,2,2,65,0,0
131669,-86.9565217391302,4,2,2,65,0,0
132012,-117.647058823529,4,2,2,65,0,0
134412,-86.9565217391302,4,2,2,65,0,0
134755,-117.647058823529,4,2,2,65,0,0
137497,-117.647058823529,4,2,2,40,0,0
137755,-117.647058823529,4,2,2,65,0,0
137840,-79.9999999999998,4,2,2,65,0,0
138183,-105.263157894737,4,2,2,65,0,0
139897,-79.9999999999998,4,2,2,65,0,0
140240,-105.263157894737,4,2,2,65,0,0
142640,-66.6666666666667,4,2,2,65,0,0
142983,-105.263157894737,4,2,2,65,0,0
145383,-80.0000000000001,4,2,2,65,0,0
145726,-105.263157894737,4,2,2,65,0,0
147097,-105.263157894737,4,2,1,65,0,0
147440,-105.263157894737,4,2,2,60,0,0
148469,-100,4,2,2,50,0,0
148940,-100,4,2,2,60,0,0
159440,-100,4,2,2,65,0,0
164155,-100,4,2,2,5,0,0
164240,-100,4,2,2,65,0,0
164497,-100,4,2,2,5,0,0
164583,-100,4,2,2,65,0,0
164926,-100,4,2,1,50,0,0
181383,-114.942528735632,4,2,3,60,0,0
192355,-200,4,2,4,30,0,0
203240,-166.666666666667,4,2,4,30,0,0
203326,-166.666666666667,4,2,4,60,0,0
208812,-166.666666666667,4,2,2,40,0,0
213955,-166.666666666667,4,2,1,50,0,0
214297,-66.6666666666667,4,2,2,75,0,1
225269,-66.6666666666667,4,2,4,75,0,1
225526,-66.6666666666667,4,2,2,75,0,1
234869,-66.6666666666667,4,2,1,50,0,0
236240,-66.6666666666667,4,2,2,80,0,1
241040,-133.333333333333,4,2,2,80,0,1
241726,-66.6666666666667,4,2,2,80,0,1
247212,-66.6666666666667,4,2,4,80,0,1
247555,-66.6666666666667,4,2,2,80,0,1
252697,-66.6666666666667,4,2,2,55,0,1
256812,-66.6666666666667,4,2,2,50,0,0

[Colours]
Combo1 : 100,230,122
Combo2 : 30,223,234
Combo3 : 241,206,67
Combo4 : 231,86,86

[HitObjects]
445,237,4469,5,0,0:0:0:0:
386,153,4812,1,0,0:0:0:0:
445,237,5155,5,2,0:0:0:0:
457,166,5326,1,0,0:0:0:0:
386,153,5497,1,2,0:0:0:0:
374,224,5669,1,0,0:0:0:0:
415,195,5840,5,4,1:0:0:0:
47,282,6526,2,0,L|52:326,1,44.999998626709,2|0,0:0|0:0,0:0:0:0:
121,287,6869,2,0,L|115:242,1,44.999998626709
190,256,7212,1,2,0:0:0:0:
78,47,7897,6,0,L|134:53,1,44.999998626709,2|0,0:0|0:0,0:0:0:0:
189,20,8240,2,0,L|233:24,1,44.999998626709,0|0,0:0|0:0,0:0:0:0:
305,6,8583,1,2,0:0:0:0:
265,229,9097,5,0,0:0:0:0:
236,164,9269,1,2,0:0:0:0:
163,170,9440,1,0,0:0:0:0:
149,241,9612,1,0,0:0:0:0:
210,277,9783,1,0,0:0:0:0:
265,229,9955,1,2,0:0:0:0:
486,358,10469,5,0,0:0:0:0:
486,358,10640,2,0,L|432:365,1,44.999998626709,2|0,0:0|0:0,0:0:0:0:
408,293,10983,2,0,L|452:287,1,44.999998626709,0|0,0:0|0:0,0:0:0:0:
417,218,11326,1,2,0:0:0:0:
105,149,12012,6,0,L|97:207,1,44.999998626709,2|0,0:0|0:0,0:0:0:0:
147,249,12355,2,0,L|139:307,1,44.999998626709,0|0,0:0|0:0,0:0:0:0:
177,357,12697,1,2,0:0:0:0:
52,21,13383,5,2,0:0:0:0:
122,39,13554,1,0,0:0:0:0:
124,111,13726,1,0,0:0:0:0:
57,136,13897,1,0,0:0:0:0:
12,79,14069,1,2,0:0:0:0:
460,363,14583,5,0,0:0:0:0:
390,345,14755,1,2,0:0:0:0:
388,273,14926,1,0,0:0:0:0:
455,248,15097,1,0,0:0:0:0:
500,305,15269,1,0,0:0:0:0:
460,363,15440,1,2,0:0:0:0:
66,167,15955,5,0,0:0:0:0:
66,167,16126,2,0,L|122:172,1,44.999998626709,2|0,0:0|0:0,0:0:0:0:
143,99,16469,2,0,L|98:94,1,44.999998626709,0|0,0:0|0:0,0:0:0:0:
135,25,16812,1,2,0:0:0:0:
383,147,17497,6,0,L|390:213,1,44.999998626709,2|0,0:0|0:0,0:0:0:0:
348,254,17840,2,0,L|355:320,1,44.999998626709,0|0,0:0|0:0,0:0:0:0:
321,363,18183,1,2,0:0:0:0:
4,264,18697,5,0,0:0:0:0:
4,264,18869,2,0,L|65:256,1,44.999998626709,2|0,0:0|0:0,0:0:0:0:
93,324,19212,2,0,L|154:316,1,44.999998626709,0|0,0:0|0:0,0:0:0:0:
200,376,19555,1,2,0:0:0:0:
200,376,19897,6,0,P|238:339|288:358,1,112.5,2|0,0:0|0:0,0:0:0:0:
288,358,20240,6,0,L|296:299,1,44.999998626709,2|0,0:0|0:0,0:0:0:0:
301,239,20583,1,0,0:0:0:0:
370,211,20755,1,0,0:0:0:0:
439,186,20926,1,2,0:0:0:0:
147,133,21269,6,0,P|112:113|134:80,1,90,2|0,0:0|0:0,0:0:0:0:
134,79,21612,2,0,P|168:96|147:133,1,90
147,133,21955,2,0,L|159:223,1,75,2|0,0:0|0:0,0:0:0:0:
79,345,22297,6,2,B|148:337|148:337|171:358|171:358|250:349,1,179.999994506836,2|0,0:0|0:0,0:3:0:0:
329,211,22812,2,2,B|249:219|249:219|227:199|227:199|157:206,1,179.999994506836,2|0,0:0|0:0,0:3:0:0:
199,279,23326,1,2,0:0:0:0:
500,234,23669,6,2,B|450:308|450:308|360:294,1,179.999994506836,2|0,0:0|0:0,0:3:0:0:
329,211,24183,2,2,B|379:136|379:136|468:150,1,179.999994506836,2|0,0:0|0:0,0:3:0:0:
416,223,24697,1,2,0:0:0:0:
108,78,25040,6,2,B|206:67|206:67|218:77|218:77|311:66|311:66|324:72|324:72|334:64|334:64|403:55|403:55|417:63|417:63|489:53,1,359.999989013672,2|0,0:0|0:0,0:3:0:0:
52,183,26069,6,0,L|40:276,1,75,0|0,0:0|0:0,0:0:0:0:
118,268,26412,2,0,L|127:195,1,63.7500012159348,0|0,0:0|0:0,0:0:0:0:
199,223,26755,2,0,L|190:287,1,52.4999983978272,2|0,0:0|0:0,0:0:0:0:
269,281,27097,2,0,L|275:228,1,41.2500012588501,0|0,0:0|0:0,0:0:0:0:
421,224,27440,6,0,P|398:272|345:272,1,112.5,2|0,0:0|0:0,0:0:0:0:
344,271,27783,1,10,0:0:0:0:
256,192,36012,12,2,38412,3:2:0:0:
73,51,38755,6,0,P|42:83|64:160,1,112.500004291535,6|0,0:2|3:2,0:0:0:0:
19,215,39269,2,0,P|59:178|113:186,1,112.500004291535,2|0,0:0|0:0,0:0:0:0:
175,235,39783,2,0,P|202:238|239:219,1,56.2500021457673,2|0,3:2|0:0,0:0:0:0:
212,119,40126,6,0,P|244:149|321:127,1,112.500004291535,2|0,3:2|3:2,0:0:0:0:
378,117,40640,2,0,P|341:157|349:211,1,112.500004291535,2|0,0:2|0:0,0:0:0:0:
418,245,41155,2,0,P|444:234|471:237,1,56.2500021457673,2|0,3:2|0:0,0:0:0:0:
449,379,41497,6,0,P|397:362|377:311,1,112.500004291535,2|0,3:2|0:0,0:0:0:0:
308,278,42012,2,0,P|257:297|240:349,1,112.500004291535,2|0,0:2|0:0,0:0:0:0:
170,384,42526,2,0,P|141:352|136:321,1,56.2500021457673,2|0,3:2|0:0,0:0:0:0:
59,229,42869,6,0,P|86:231|111:245,1,56.2500021457673,2|2,3:2|0:2,0:0:0:0:
115,254,43126,1,2,0:2:0:0:
120,263,43212,2,0,P|130:237|151:218,1,56.2500021457673,2|2,3:2|0:2,0:0:0:0:
162,215,43469,1,2,0:2:0:0:
172,211,43555,2,0,P|150:192|139:167,1,56.2500021457673,2|0,3:2|0:0,0:0:0:0:
161,93,43897,1,2,3:2:0:0:
161,93,44240,6,0,P|231:86|255:52,1,112.500004291535,2|0,3:2|3:0,0:0:0:0:
318,11,44755,2,0,P|388:18|412:52,1,112.500004291535,2|0,0:0|0:0,0:0:0:0:
458,109,45269,2,0,P|438:142|445:180,1,56.2500021457673,2|0,3:2|0:0,0:0:0:0:
498,206,45612,6,0,P|446:194|396:240,1,112.500004291535,2|0,3:2|3:0,0:0:0:0:
364,299,46126,2,0,P|310:310|267:277,1,112.500004291535,2|0,0:0|0:0,0:0:0:0:
214,199,46640,2,0,P|195:240|169:256,1,56.2500021457673,2|2,3:2|0:2,0:0:0:0:
104,246,46983,6,0,P|66:193|86:136,1,112.500004291535,2|2,3:2|3:2,0:0:0:0:
84,143,47412,1,2,0:2:0:0:
94,138,47497,1,2,0:2:0:0:
105,136,47583,1,2,0:2:0:0:
116,137,47669,2,0,P|164:128|182:108,1,56.2500021457673,2|0,3:2|0:0,0:0:0:0:
135,32,48012,2,0,P|159:44|187:44,1,56.2500021457673,2|0,3:2|0:0,0:0:0:0:
256,8,48355,5,4,0:1:0:0:
256,8,49726,6,0,P|229:9|206:21,1,52.4999983978272,2|0,0:0|0:0,0:0:0:0:
122,123,50412,2,0,L|82:118,2,39.3749987983704,2|2|2,0:0|0:0|0:0,0:0:0:0:
69,192,51097,2,0,L|32:207,2,39.3749987983704,2|2|2,0:0|0:0|0:0,0:0:0:0:
64,277,51783,2,0,L|34:316,2,39.3749987983704,2|2|2,0:0|0:0|0:0,0:0:0:0:
134,309,52469,6,0,P|159:324|191:328,1,52.4999983978272,2|0,0:0|0:0,0:0:0:0:
188,213,53155,2,0,L|184:253,2,39.3749987983704,2|2|2,0:0|0:0|0:0,0:0:0:0:
258,264,53840,2,0,L|275:300,2,39.3749987983704,2|2|2,0:0|0:0|0:0,0:0:0:0:
344,273,54526,2,0,L|376:297,2,39.3749987983704,2|2|2,0:0|0:0|0:0,0:0:0:0:
337,360,55212,6,0,P|360:371|386:371,1,52.4999983978272,2|0,0:0|0:0,0:0:0:0:
452,234,55897,2,0,L|413:230,2,39.3749987983704,2|2|2,0:0|0:0|0:0,0:0:0:0:
484,138,56583,2,0,L|448:154,1,39.3749987983704,2|2,0:0|0:0,0:0:0:0:
464,42,57097,1,2,0:0:0:0:
464,42,57269,2,0,L|440:73,1,39.3749987983704,2|2,0:0|0:0,0:0:0:0:
327,8,57783,1,2,0:0:0:0:
327,8,57955,6,0,P|352:9|384:28,1,52.4999983978272,2|0,0:0|0:0,0:0:0:0:
364,138,58640,2,0,L|368:98,2,39.3749987983704,2|2|2,0:0|0:0|0:0,0:0:0:0:
287,152,59326,2,0,L|270:116,1,39.3749987983704,2|2,0:0|0:0,0:0:0:0:
231,205,59840,1,2,0:0:0:0:
231,205,60012,2,0,L|199:181,1,39.3749987983704,2|2,0:0|0:0,0:0:0:0:
288,320,60526,1,2,0:0:0:0:
288,320,60697,6,0,P|321:336|357:329,1,75,14|8,0:2|0:2,0:0:0:0:
382,203,61383,2,0,P|407:176|412:139,1,75,10|8,0:2|0:2,0:0:0:0:
300,76,62069,2,0,P|282:43|249:27,1,75,10|8,0:0|0:0,0:0:0:0:
155,115,62755,2,0,P|118:121|93:147,1,75,10|8,0:0|0:0,0:0:0:0:
147,266,63440,6,0,P|141:302|159:335,1,75,10|8,0:0|0:0,0:0:0:0:
159,335,64126,1,10,0:0:0:0:
159,335,64469,1,8,0:0:0:0:
365,118,64812,2,0,P|370:81|352:48,1,75,10|8,0:0|0:0,0:0:0:0:
353,49,65498,1,10,0:0:0:0:
353,49,65840,1,8,0:0:0:0:
256,192,66183,12,8,70297,0:0:0:0:
65,68,71669,6,0,B|131:57|131:57|161:79|161:79|243:64,1,168.750006437302,10|0,0:0|0:0,0:0:0:0:
308,98,72012,2,0,P|285:114|273:139,1,56.2500021457673,8|2,0:0|0:0,0:0:0:0:
302,222,72183,1,2,0:0:0:0:
302,222,72269,1,2,0:0:0:0:
302,222,72355,6,0,L|159:198,1,112.500004291535,10|0,0:0|0:0,0:0:0:0:
151,274,72612,1,2,0:0:0:0:
151,274,72697,2,0,L|261:292,1,112.500004291535,8|2,0:0|0:0,0:0:0:0:
465,146,73040,6,0,L|446:35,1,112.500004291535,10|0,0:0|0:0,0:0:0:0:
372,13,73297,2,0,P|343:72|357:99,1,56.2500021457673,2|8,0:0|0:0,0:0:0:0:
342,57,73555,1,2,0:0:0:0:
512,231,73726,6,0,L|401:212,1,112.500004291535,10|0,0:0|0:0,0:0:0:0:
346,268,73983,2,0,P|361:291|385:305,1,56.2500021457673,2|8,0:0|0:0,0:0:0:0:
385,305,74240,1,2,0:0:0:0:
147,359,74412,6,0,B|135:295|135:295|157:265|157:265|146:199,1,168.750006437302,10|0,0:0|0:0,0:0:0:0:
134,124,74755,1,10,0:0:0:0:
134,124,74840,1,2,0:0:0:0:
134,124,74926,1,2,0:0:0:0:
134,124,75012,1,2,0:0:0:0:
134,124,75097,6,0,L|245:143,1,112.500004291535,10|0,0:0|0:0,0:0:0:0:
308,93,75355,1,2,0:0:0:0:
308,93,75440,2,0,L|419:112,1,112.500004291535,8|2,0:0|0:0,0:0:0:0:
303,307,75783,6,0,P|314:380|385:359,1,168.750006437302,10|2,0:0|0:0,0:0:0:0:
372,287,76126,2,0,L|353:176,1,112.500004291535,8|2,0:0|0:0,0:0:0:0:
438,42,76469,6,0,P|511:53|490:124,1,168.750006437302,10|2,0:0|0:0,0:0:0:0:
418,111,76812,2,0,L|307:92,1,112.500004291535,8|2,0:0|0:0,0:0:0:0:
22,46,77155,6,0,B|60:70|60:70|139:58|139:58|173:15,1,168.750006437302,10|2,0:0|0:0,0:0:0:0:
261,32,77497,2,0,P|240:50|232:79,1,56.2500021457673,10|2,0:0|0:0,0:0:0:0:
256,156,77669,1,2,0:0:0:0:
256,156,77755,1,2,0:0:0:0:
256,156,77840,6,0,L|274:267,1,112.500004291535,10|0,0:0|0:0,0:0:0:0:
204,311,78097,1,2,0:0:0:0:
204,311,78183,2,0,L|185:200,1,112.500004291535,8|2,0:0|0:0,0:0:0:0:
1,379,78526,6,0,B|55:386|55:386|96:344,1,112.500004291535,10|0,0:0|0:0,0:0:0:0:
120,268,78783,2,0,P|64:238|60:218,1,56.2500021457673,2|8,0:0|0:0,0:0:0:0:
70,248,79040,1,2,0:0:0:0:
273,56,79212,6,0,B|239:99|239:99|255:155,1,112.500004291535,10|0,0:0|0:0,0:0:0:0:
313,205,79469,2,0,P|335:188|362:186,1,56.2500021457673,2|8,0:0|0:0,0:0:0:0:
362,186,79726,1,2,0:0:0:0:
460,336,79897,6,0,B|394:325|394:325|364:347|364:347|300:335,1,168.750006437302,10|2,0:0|0:0,0:0:0:0:
264,266,80240,1,10,0:0:0:0:
264,266,80326,1,2,0:0:0:0:
263,266,80412,2,0,P|240:282|213:286,1,56.2500021457673,0|2,0:0|0:0,0:0:0:0:
150,245,80583,6,0,L|131:134,1,112.500004291535,10|0,0:0|0:0,0:0:0:0:
51,127,80840,1,2,0:0:0:0:
51,127,80926,2,0,L|70:238,1,112.500004291535,8|2,0:0|0:0,0:0:0:0:
187,25,81269,6,0,P|239:15|282:67,1,112.500004291535,10|0,0:0|0:0,0:0:0:0:
353,83,81526,1,2,0:0:0:0:
353,83,81612,2,0,P|330:142|315:147,1,56.2500021457673,8|0,0:0|0:0,0:0:0:0:
274,175,81783,1,2,0:0:0:0:
512,172,81955,6,0,P|460:161|417:213,1,112.500004291535,10|0,0:0|0:0,0:0:0:0:
351,232,82212,1,2,0:0:0:0:
351,232,82298,2,0,P|374:291|389:296,1,56.2500021457673,8|0,0:0|0:0,0:0:0:0:
436,306,82469,1,2,0:0:0:0:
267,357,82640,6,0,B|223:323|223:323|167:336,1,112.500004291535,10|10,0:2|0:2,0:0:0:0:
95,361,82897,1,0,0:0:0:0:
95,361,82983,2,0,P|51:352|33:315,1,56.2500021457673,14|2,1:2|0:0,0:0:0:0:
28,271,83155,1,2,0:0:0:0:
28,271,83240,1,2,0:0:0:0:
28,271,83326,6,0,L|47:160,1,112.500004291535,10|0,0:0|0:0,0:0:0:0:
112,83,83583,1,2,0:0:0:0:
112,83,83669,2,0,L|131:194,1,112.500004291535,12|2,0:0|0:0,0:0:0:0:
471,70,84012,6,0,L|360:51,1,112.500004291535,10|0,0:0|0:0,0:0:0:0:
294,9,84269,1,2,0:0:0:0:
294,9,84355,1,12,0:0:0:0:
411,138,84526,1,2,0:0:0:0:
232,200,84697,6,0,L|343:181,1,112.500004291535,10|0,0:0|0:0,0:0:0:0:
418,218,84955,1,2,0:0:0:0:
418,218,85040,1,12,0:0:0:0:
273,117,85211,1,2,0:0:0:0:
447,300,85383,6,0,B|381:289|381:289|351:311|351:311|287:299,1,168.750006437302,10|0,0:0|0:0,0:0:0:0:
229,349,85726,1,14,0:0:0:0:
229,349,85812,1,2,0:0:0:0:
229,349,85897,1,2,0:0:0:0:
229,349,85983,1,2,0:0:0:0:
229,349,86069,6,0,L|118:368,1,112.500004291535,10|0,0:0|0:0,0:0:0:0:
55,320,86326,1,2,0:0:0:0:
55,320,86412,2,0,L|74:209,1,112.500004291535,12|2,0:0|0:0,0:0:0:0:
65,51,86755,6,0,P|62:116|143:82,1,168.750006437302,10|2,0:0|0:0,0:0:0:0:
173,31,87097,2,0,P|194:13|221:10,1,56.2500021457673,12|0,0:0|0:0,0:0:0:0:
298,25,87269,1,2,0:0:0:0:
148,208,87440,6,0,P|217:232|223:159,1,168.750006437302,10|2,0:0|0:0,0:0:0:0:
226,84,87783,2,0,P|253:87|274:104,1,56.2500021457673,12|0,0:0|0:0,0:0:0:0:
312,171,87954,1,2,0:0:0:0:
445,15,88126,6,0,B|411:59|411:59|424:115,1,112.500004291535,10|0,0:0|0:0,0:0:0:0:
483,166,88383,1,0,0:0:0:0:
483,166,88469,2,0,P|448:234|434:237,1,56.2500021457673,14|2,0:0|0:0,0:0:0:0:
406,258,88640,1,2,0:0:0:0:
406,258,88726,1,2,0:0:0:0:
406,258,88812,6,0,L|425:369,1,112.500004291535,10|0,0:0|0:0,0:0:0:0:
346,358,89069,1,2,0:0:0:0:
346,358,89155,2,0,L|327:247,1,112.500004291535,12|2,0:0|0:0,0:0:0:0:
12,166,89497,6,0,L|123:185,1,112.500004291535,10|0,0:0|0:0,0:0:0:0:
195,159,89755,1,2,0:0:0:0:
195,159,89840,1,12,0:0:0:0:
53,251,90012,1,2,0:0:0:0:
171,83,90183,6,0,L|282:64,1,112.500004291535,10|0,0:0|0:0,0:0:0:0:
353,102,90440,1,2,0:0:0:0:
353,102,90526,1,12,0:0:0:0:
214,0,90697,1,2,0:0:0:0:
406,218,90869,6,0,B|378:183|378:183|299:171|299:171|261:195,1,168.750006437302,10|0,0:0|0:0,0:0:0:0:
341,267,91212,1,14,0:0:0:0:
341,267,91297,1,2,0:0:0:0:
341,267,91383,1,2,0:0:0:0:
341,267,91469,1,2,0:0:0:0:
341,267,91555,6,0,L|322:378,1,112.500004291535,10|0,0:0|0:0,0:0:0:0:
253,309,91812,1,2,0:0:0:0:
253,309,91897,2,0,L|173:325,1,56.2500021457673,12|0,0:0|0:0,0:0:0:0:
133,363,92069,2,0,L|53:379,1,56.2500021457673,2|0,0:0|0:0,0:0:0:0:
0,384,92240,5,4,0:1:0:0:
36,50,93612,6,0,P|114:34|148:105,1,168.750006437302,4|2,0:1|0:0,0:0:0:0:
119,174,93955,1,4,0:1:0:0:
312,212,94126,1,2,0:0:0:0:
312,212,94212,1,2,0:0:0:0:
312,212,94297,2,0,P|257:201|232:251,1,112.500004291535,10|0,0:0|0:0,0:0:0:0:
256,323,94555,1,2,0:0:0:0:
256,323,94640,2,0,L|367:342,1,112.500004291535,14|2,0:0|0:0,0:0:0:0:
484,105,94983,6,0,P|449:175|372:160,1,168.750006437302,10|2,0:0|0:0,0:0:0:0:
354,85,95326,2,0,P|325:40|273:52,1,112.500004291535,12|2,0:0|0:0,0:0:0:0:
238,118,95583,1,0,0:0:0:0:
237,118,95669,2,0,P|210:135|170:126,1,56.2500021457673,10|2,0:0|0:0,0:0:0:0:
122,93,95840,1,0,0:0:0:0:
6,324,96012,2,0,L|25:213,1,112.500004291535,14|2,0:0|0:0,0:0:0:0:
10,29,96355,6,0,P|-5:106|65:140,1,168.750006437302,10|0,0:0|0:0,0:0:0:0:
122,93,96697,1,14,0:0:0:0:
165,310,96869,1,2,0:0:0:0:
165,310,96955,1,2,0:0:0:0:
165,310,97040,2,0,P|154:255|204:230,1,112.500004291535,10|0,0:0|0:0,0:0:0:0:
272,248,97297,1,2,0:0:0:0:
272,248,97383,2,0,L|291:137,1,112.500004291535,12|2,0:0|0:0,0:0:0:0:
502,341,97726,6,0,P|517:264|447:230,1,168.750006437302,10|0,0:0|0:0,0:0:0:0:
332,295,98069,2,0,P|382:272|390:252,1,56.2500021457673,14|2,0:0|0:0,0:0:0:0:
376,196,98240,1,2,0:0:0:0:
376,196,98326,1,2,0:0:0:0:
376,196,98412,6,0,P|356:138|365:73,1,112.500004291535,8|2,0:0|0:0,0:0:0:0:
360,87,99097,6,0,P|326:157|249:142,1,168.750006437302,10|2,0:0|0:0,0:0:0:0:
212,78,99440,1,14,0:0:0:0:
66,209,99612,1,2,0:0:0:0:
66,209,99698,1,2,0:0:0:0:
66,209,99783,2,0,P|95:252|146:240,1,112.500004291535,10|0,0:0|0:0,0:0:0:0:
181,176,100040,1,2,0:0:0:0:
181,176,100126,2,0,L|200:287,1,112.500004291535,12|2,0:0|0:0,0:0:0:0:
476,301,100469,6,0,P|442:231|365:246,1,168.750006437302,10|2,0:0|0:0,0:0:0:0:
335,316,100812,2,0,P|306:359|255:347,1,112.500004291535,12|2,0:0|0:0,0:0:0:0:
203,290,101069,1,0,0:0:0:0:
203,290,101155,2,0,P|138:318|137:336,1,56.2500021457673,10|0,0:0|0:0,0:0:0:0:
104,359,101326,1,0,0:0:0:0:
16,182,101497,2,0,L|27:106,2,56.2500021457673,14|2|2,0:0|0:0|0:0,0:0:0:0:
276,272,101840,6,0,P|291:195|221:160,1,168.750006437302,10|0,0:0|0:0,0:0:0:0:
148,186,102183,2,0,P|114:135|123:109,1,56.2500021457673,14|2,0:0|0:0,0:0:0:0:
132,66,102355,1,2,0:0:0:0:
132,66,102440,1,2,0:0:0:0:
132,66,102526,2,0,L|243:85,1,112.500004291535,10|0,0:0|0:0,0:0:0:0:
491,12,102869,2,0,L|380:31,1,112.500004291535,12|2,0:0|0:0,0:0:0:0:
405,245,103212,6,0,P|475:210|459:133,1,168.750006437302,10|2,0:2|0:0,0:0:0:0:
390,107,103555,1,12,0:0:0:0:
263,210,103726,1,2,0:0:0:0:
263,210,103812,1,0,0:0:0:0:
263,210,103897,2,0,P|314:217|342:165,1,112.500004291535,10|0,0:0|0:0,0:0:0:0:
313,98,104155,1,2,0:0:0:0:
313,98,104240,2,0,L|202:79,1,112.500004291535,12|2,0:0|0:0,0:0:0:0:
21,46,104583,5,8,3:2:0:0:
73,98,104755,1,8,3:2:0:0:
39,164,104926,1,4,0:1:0:0:
84,231,105097,1,2,0:0:0:0:
84,231,105183,1,2,0:0:0:0:
84,231,105269,2,0,P|49:240|23:288,2,56.2500021457673,10|2|0,0:0|0:0|0:0,0:0:0:0:
199,352,105612,2,0,L|310:371,1,112.500004291535,14|0,0:0|0:0,0:0:0:0:
454,187,105955,5,10,0:0:0:0:
383,200,106126,1,0,0:0:0:0:
395,271,106297,1,12,0:0:0:0:
466,258,106469,1,2,0:0:0:0:
383,200,106640,2,0,P|351:197|321:171,2,56.2500021457673,10|2|0,0:0|0:0|0:0,0:0:0:0:
512,41,106983,2,0,L|401:60,1,112.500004291535,14|2,0:0|0:0,0:0:0:0:
84,85,107326,5,10,0:0:0:0:
154,62,107497,1,0,0:0:0:0:
226,72,107669,1,14,0:0:0:0:
292,120,107840,1,2,0:0:0:0:
292,120,107926,1,2,0:0:0:0:
292,120,108012,2,0,P|266:146|264:198,1,56.2500021457673,10|0,0:0|0:0,0:0:0:0:
277,239,108183,1,0,0:0:0:0:
413,381,108355,2,0,L|394:270,1,112.500004291535,12|2,0:0|0:0,0:0:0:0:
57,274,108697,6,0,P|119:307|170:285,1,112.500004291535,10|2,0:0|0:0,0:0:0:0:
225,326,108955,1,2,0:0:0:0:
225,326,109040,2,0,P|275:277|270:221,1,112.500004291535,14|2,0:0|0:0,0:0:0:0:
326,182,109297,1,2,0:0:0:0:
326,182,109383,2,0,P|295:118|241:106,1,112.500004291535,10|0,0:0|0:0,0:0:0:0:
260,105,109897,6,0,L|140:131,1,112.500004291535,8|10,0:0|0:0,0:0:0:0:
256,192,110155,12,0,114183,0:0:0:0:
270,82,121040,5,2,0:0:0:0:
270,82,121383,2,0,L|356:66,2,84.3750032186509,2|2|2,0:0|0:0|0:0,0:0:0:0:
333,153,122069,1,2,0:0:0:0:
333,153,122240,1,0,0:0:0:0:
242,167,122412,5,2,0:0:0:0:
242,167,122755,2,0,L|156:151,2,84.3750032186509,2|2|2,0:0|0:0|0:0,0:0:0:0:
179,238,123440,2,0,P|147:273|159:329,1,75,2|0,0:0|0:0,0:0:0:0:
273,257,123783,5,2,0:0:0:0:
273,257,124126,2,0,L|288:339,2,84.3750032186509,2|2|2,0:0|0:0|0:0,0:0:0:0:
357,283,124812,1,2,0:0:0:0:
357,283,124983,1,2,0:0:0:0:
409,218,125155,5,2,0:0:0:0:
409,218,125498,2,0,L|424:135,2,84.3750032186509,2|2|2,0:0|0:0|0:0,0:0:0:0:
495,192,126183,1,0,0:0:0:0:
138,291,126526,6,0,P|180:300|205:331,1,63.7500012159348,4|0,1:1|0:0,0:0:0:0:
277,356,126869,2,0,L|264:261,1,95.6250018239022,4|2,1:1|0:0,0:0:0:0:
264,261,127212,2,0,P|306:252|330:220,1,63.7500012159348,8|2,1:2|0:0,0:0:0:0:
336,163,127555,1,6,1:2:0:0:
336,163,127726,1,2,0:0:0:0:
185,101,127897,6,0,P|163:123|156:155,1,63.7500012159348,10|0,1:2|0:0,0:0:0:0:
245,31,128240,2,0,L|150:18,1,95.6250018239022,6|2,1:2|0:0,0:0:0:0:
150,18,128583,2,0,P|127:39|94:48,1,63.7500012159348,8|2,1:2|0:0,0:0:0:0:
13,56,128926,6,0,B|42:107|42:107|28:187,1,129.375002467632,6|0,1:2|0:0,0:0:0:0:
29,176,129269,6,0,P|77:206|107:199,1,63.7500012159348,10|0,1:2|0:0,0:0:0:0:
153,149,129612,2,0,L|166:244,1,95.6250018239022,6|2,1:2|0:0,0:0:0:0:
166,243,129955,2,0,P|196:250|218:272,1,63.7500012159348,8|2,1:2|0:0,0:0:0:0:
255,344,130297,1,6,1:2:0:0:
326,319,130469,1,2,0:0:0:0:
431,369,130640,6,0,P|460:321|453:291,1,63.7500012159348,10|0,1:2|0:0,0:0:0:0:
312,240,130983,2,0,L|407:253,1,95.6250018239022,6|0,1:2|0:0,0:0:0:0:
406,252,131326,2,0,P|376:204|383:174,1,63.7500012159348,8|2,1:2|0:0,0:0:0:0:
512,91,131669,6,0,B|469:100|469:100|437:86|437:86|379:97,1,129.375002467632,6|0,1:2|0:0,0:0:0:0:
387,95,132012,6,0,P|339:124|309:117,1,63.7500012159348,10|0,1:2|0:0,0:0:0:0:
265,59,132355,2,0,L|252:154,1,95.6250018239022,6|2,1:2|0:0,0:0:0:0:
252,153,132697,2,0,P|229:130|198:124,1,63.7500012159348,8|2,1:2|0:0,0:0:0:0:
123,140,133040,1,6,1:2:0:0:
123,140,133212,1,2,0:0:0:0:
223,256,133383,6,0,P|216:225|194:202,1,63.7500012159348,10|0,1:2|0:0,0:0:0:0:
191,337,133726,2,0,L|286:324,1,95.6250018239022,6|2,1:2|0:0,0:0:0:0:
285,324,134069,2,0,P|311:346|348:351,1,63.7500012159348,8|2,1:2|0:0,0:0:0:0:
371,169,134412,6,0,B|324:210|324:210|355:302,1,129.375002467632,6|0,1:2|0:0,0:0:0:0:
345,273,134755,6,0,P|371:251|408:246,1,63.7500012159348,10|0,1:2|0:0,0:0:0:0:
469,308,135097,2,0,L|482:213,1,95.6250018239022,6|0,1:2|0:0,0:0:0:0:
482,214,135440,2,0,P|475:183|454:159,1,63.7500012159348,8|2,1:2|0:0,0:0:0:0:
404,100,135783,1,6,1:2:0:0:
455,45,135955,1,2,0:0:0:0:
328,18,136126,5,2,1:2:0:0:
297,33,136469,1,2,1:2:0:0:
174,166,136812,5,2,1:2:0:0:
205,181,137155,1,2,0:0:0:0:
221,349,137497,5,8,1:0:0:0:
221,349,137840,6,0,P|135:316|117:327,1,93.75,4|0,1:0|0:0,0:0:0:0:
142,313,138097,1,2,0:0:0:0:
142,313,138183,1,8,1:2:0:0:
71,339,138355,1,2,0:0:0:0:
18,201,138526,1,6,1:2:0:0:
89,224,138698,1,0,0:0:0:0:
174,163,138869,6,0,P|158:107|125:86,1,71.2499980974198,8|2,1:2|0:0,0:0:0:0:
253,15,139212,2,0,P|237:46|236:82,1,71.2499980974198,4|2,1:2|0:0,0:0:0:0:
236,82,139469,1,2,0:0:0:0:
236,82,139555,1,8,1:2:0:0:
316,114,139726,1,0,0:0:0:0:
495,155,139897,6,0,L|432:173,1,46.875,6|0,1:2|0:0,0:0:0:0:
377,188,140069,1,2,0:0:0:0:
307,342,140240,6,0,P|343:293|338:260,1,71.2499980974198,8|2,1:2|0:0,0:0:0:0:
139,347,140583,2,0,P|114:322|106:287,1,71.2499980974198,6|2,1:2|0:0,0:0:0:0:
106,287,140840,1,2,0:0:0:0:
106,287,140926,1,8,1:2:0:0:
125,218,141097,1,2,0:0:0:0:
261,162,141269,1,6,1:2:0:0:
241,90,141440,1,2,0:0:0:0:
77,119,141612,6,0,P|129:143|168:133,1,71.2499980974198,10|2,1:2|0:0,0:0:0:0:
247,261,141955,2,0,P|306:235|328:239,1,71.2499980974198,6|2,1:2|0:0,0:0:0:0:
310,235,142212,1,2,0:0:0:0:
310,235,142297,1,8,1:2:0:0:
388,263,142469,1,2,0:0:0:0:
436,125,142640,6,0,B|409:139|409:139|377:67|439:14,1,168.750006437302,4|0,1:2|0:0,0:0:0:0:
438,15,142983,6,0,P|397:15|359:50,1,71.2499980974198,10|0,1:2|0:0,0:0:0:0:
184,88,143326,2,0,P|218:95|243:119,1,71.2499980974198,6|0,1:2|0:0,0:0:0:0:
243,119,143583,1,2,0:0:0:0:
243,119,143669,1,8,1:2:0:0:
232,202,143840,1,2,0:0:0:0:
379,287,144012,1,6,1:2:0:0:
367,212,144183,1,2,0:0:0:0:
178,257,144355,6,0,P|221:278|256:273,1,71.2499980974198,10|0,1:2|0:0,0:0:0:0:
67,347,144697,2,0,P|95:326|130:324,1,71.2499980974198,6|0,1:2|0:0,0:0:0:0:
130,324,144955,1,2,0:0:0:0:
130,324,145040,1,8,1:2:0:0:
205,366,145212,1,2,0:0:0:0:
363,237,145383,6,0,L|310:253,1,46.875,6|0,1:2|0:0,0:0:0:0:
243,276,145555,1,0,0:0:0:0:
468,329,145726,6,0,P|503:270|496:243,1,71.2499980974198,10|0,1:2|0:0,0:0:0:0:
419,107,146069,2,0,P|406:83|410:36,1,71.2499980974198,6|0,1:2|0:0,0:0:0:0:
409,39,146326,1,2,0:0:0:0:
408,39,146411,1,8,1:2:0:0:
343,10,146583,1,2,0:0:0:0:
279,2,146754,1,6,1:2:0:0:
243,5,146926,1,2,0:0:0:0:
222,12,147097,5,6,0:0:0:0:
72,92,148469,5,4,3:1:0:0:
274,299,148812,1,4,3:1:0:0:
353,21,149155,1,8,3:2:0:0:
281,41,149326,1,0,3:2:0:0:
301,113,149497,1,10,3:2:0:0:
373,94,149669,1,0,3:2:0:0:
391,169,149840,6,0,L|364:316,1,150,10|10,3:2|3:2,0:0:0:0:
97,213,150526,2,0,L|172:198,1,75,10|0,3:2|3:2,0:0:0:0:
146,282,150869,2,0,L|72:296,1,75,10|0,3:2|3:2,0:0:0:0:
52,378,151212,6,0,L|201:351,1,150,10|8,3:2|3:2,0:0:0:0:
261,307,151726,1,0,3:2:0:0:
322,262,151898,1,10,3:2:0:0:
390,294,152069,1,0,3:2:0:0:
440,238,152241,1,10,3:2:0:0:
403,172,152412,1,0,3:2:0:0:
327,186,152583,6,0,L|178:159,1,150,10|8,3:2|3:2,0:0:0:0:
118,115,153097,1,0,3:2:0:0:
64,167,153269,1,10,3:2:0:0:
108,106,153440,1,0,3:2:0:0:
76,174,153612,1,10,3:2:0:0:
96,102,153783,1,0,3:2:0:0:
87,176,153955,6,0,L|113:323,1,150,10|8,3:2|3:2,0:0:0:0:
454,28,154640,2,0,L|440:102,1,75,10|0,3:2|3:2,0:0:0:0:
372,135,154983,2,0,L|358:209,1,75,10|0,3:2|3:2,0:0:0:0:
304,261,155326,6,0,L|451:235,1,150,10|8,3:2|3:2,0:0:0:0:
123,27,156012,1,10,3:2:0:0:
48,20,156183,1,0,3:2:0:0:
20,89,156355,1,10,3:2:0:0:
77,139,156526,1,0,3:2:0:0:
142,100,156697,6,0,L|168:247,1,150,10|8,3:2|3:2,0:0:0:0:
318,384,157212,1,0,3:2:0:0:
389,357,157383,1,10,3:2:0:0:
464,364,157554,1,0,3:2:0:0:
492,295,157726,1,10,3:2:0:0:
435,245,157897,1,0,3:2:0:0:
370,284,158069,6,0,L|344:137,1,150,10|8,3:2|3:2,0:0:0:0:
374,65,158583,1,0,3:2:0:0:
299,74,158755,2,0,L|225:60,1,75,10|0,3:2|3:2,0:0:0:0:
166,105,159097,2,0,L|92:91,1,75,10|0,3:2|3:2,0:0:0:0:
1,139,159440,6,0,L|25:265,1,112.5,8|0,1:2|0:0,0:0:0:0:
22,249,159783,1,4,1:2:0:0:
436,324,160126,1,8,1:2:0:0:
365,297,160297,1,0,3:2:0:0:
313,351,160469,2,0,L|239:365,1,75,4|0,1:2|3:2,0:0:0:0:
108,384,160812,6,0,L|132:258,1,112.5,8|0,1:2|0:0,0:0:0:0:
129,274,161155,1,4,1:2:0:0:
199,245,161326,1,0,3:2:0:0:
138,200,161497,2,0,L|124:126,1,75,8|0,1:2|3:2,0:0:0:0:
207,140,161840,2,0,L|193:66,1,75,4|0,1:2|3:2,0:0:0:0:
280,90,162183,6,0,L|406:114,1,112.5,8|0,1:2|0:0,0:0:0:0:
390,111,162526,2,0,P|428:105|445:88,1,37.5,6|0,1:2|0:0,0:0:0:0:
470,293,162869,1,8,1:2:0:0:
407,252,163040,1,0,3:2:0:0:
335,227,163212,1,4,1:2:0:0:
260,222,163383,1,0,3:2:0:0:
186,238,163555,6,0,L|106:221,1,75,8|0,1:2|3:2,0:0:0:0:
129,63,163897,6,0,P|101:105|60:76,1,112.5,6|0,1:2|0:0,0:0:0:0:
60,76,164240,2,0,P|88:33|129:64,1,112.5,10|0,1:2|0:0,0:0:0:0:
129,63,164583,2,0,L|224:50,1,75,4|0,1:2|0:0,0:0:0:0:
339,31,164926,5,4,1:2:0:0:
324,60,165269,1,0,1:0:0:0:
129,63,165612,5,0,1:0:0:0:
152,86,165955,1,0,1:0:0:0:
94,272,166297,5,0,1:0:0:0:
123,258,166640,1,0,1:0:0:0:
282,371,166983,5,0,1:0:0:0:
277,338,167326,1,0,1:0:0:0:
434,221,167669,5,0,1:0:0:0:
402,216,168012,1,0,0:0:0:0:
369,210,168355,1,0,0:0:0:0:
256,192,168697,5,2,1:2:0:0:
256,192,169040,1,0,0:0:0:0:
34,292,181383,6,0,P|85:339|152:313,1,130.5000010952,8|0,3:2|3:2,0:0:0:0:
187,253,181897,1,2,0:0:0:0:
187,253,182069,2,0,P|226:294|256:294,1,65.2500005475998,0|2,3:2|0:0,0:0:0:0:
284,355,182412,2,0,P|316:356|343:340,1,65.2500005475998,2|0,3:2|0:0,0:0:0:0:
421,320,182755,6,0,P|409:258|455:214,1,130.5000010952,2|0,3:2|3:2,0:0:0:0:
510,137,183269,1,2,0:0:0:0:
510,137,183440,2,0,P|477:138|450:122,1,65.2500005475998,2|2,3:2|0:0,0:0:0:0:
425,43,183783,2,0,P|397:59|365:57,1,65.2500005475998,2|0,3:2|0:0,0:0:0:0:
281,7,184126,6,0,L|298:156,1,130.5000010952,2|0,3:2|3:2,0:0:0:0:
266,223,184640,1,2,0:0:0:0:
266,223,184812,2,0,P|216:187|191:190,1,65.2500005475998,0|0,3:2|0:0,0:0:0:0:
163,130,185155,2,0,P|130:129|103:146,1,65.2500005475998,2|0,3:2|0:0,0:0:0:0:
43,241,185497,6,0,L|52:318,1,65.2500005475998,2|2,3:2|0:0,0:0:0:0:
59,315,185755,1,2,0:0:0:0:
67,324,185840,2,0,L|74:259,1,65.2500005475998,2|2,3:2|0:0,0:0:0:0:
86,253,186097,1,2,0:0:0:0:
96,245,186183,2,0,L|103:309,1,65.2500005475998,2|0,3:2|0:0,0:0:0:0:
155,371,186526,2,0,P|187:368|214:351,1,65.2500005475998,2|0,3:2|0:0,0:0:0:0:
301,316,186869,6,0,P|261:280|272:200,1,130.5000010952,2|0,3:2|3:2,0:0:0:0:
326,155,187383,1,2,0:0:0:0:
326,155,187555,2,0,P|313:104|281:84,1,65.2500005475998,0|0,3:2|0:0,0:0:0:0:
294,21,187897,2,0,P|246:-1|210:9,1,65.2500005475998,2|0,3:2|0:0,0:0:0:0:
181,59,188240,6,0,P|149:103|69:90,1,130.5000010952,2|0,3:2|3:2,0:0:0:0:
14,150,188755,1,2,0:0:0:0:
14,150,188926,2,0,P|40:193|30:228,1,65.2500005475998,0|0,3:2|0:0,0:0:0:0:
50,299,189269,2,0,P|73:277|105:272,1,65.2500005475998,2|2,3:2|0:0,0:0:0:0:
168,326,189612,6,0,L|306:346,1,130.5000010952,2|2,3:2|3:2,0:0:0:0:
309,341,190040,1,2,0:0:0:0:
321,337,190126,1,2,0:0:0:0:
333,333,190212,1,2,0:0:0:0:
345,329,190297,2,0,P|381:287|386:258,1,65.2500005475998,2|0,3:2|0:0,0:0:0:0:
468,249,190640,2,0,P|432:207|427:178,1,65.2500005475998,2|0,3:2|0:0,0:0:0:0:
447,124,190983,5,2,0:0:0:0:
256,0,192355,5,10,0:0:0:0:
232,72,192698,1,8,0:0:0:0:
182,15,193041,1,10,0:0:0:0:
188,90,193383,1,8,0:0:0:0:
120,56,193726,1,10,0:0:0:0:
154,124,194069,1,8,0:0:0:0:
79,118,194412,1,10,0:0:0:0:
136,168,194755,1,8,0:0:0:0:
64,191,195098,5,10,0:0:0:0:
136,215,195441,1,8,0:0:0:0:
79,265,195783,1,10,0:0:0:0:
154,259,196126,1,8,0:0:0:0:
120,327,196469,1,10,0:0:0:0:
188,293,196812,1,8,0:0:0:0:
182,368,197155,1,10,0:0:0:0:
232,311,197498,1,8,0:0:0:0:
256,383,197841,5,10,0:0:0:0:
279,311,198183,1,8,0:0:0:0:
329,368,198526,1,10,0:0:0:0:
323,293,198869,1,8,0:0:0:0:
391,327,199212,1,10,0:0:0:0:
357,259,199555,1,8,0:0:0:0:
432,265,199898,1,10,0:0:0:0:
375,215,200241,1,8,0:0:0:0:
447,191,200583,5,10,0:0:0:0:
375,168,200926,1,8,0:0:0:0:
432,118,201269,1,10,0:0:0:0:
357,124,201612,1,8,0:0:0:0:
391,56,201955,1,10,0:0:0:0:
323,90,202298,1,0,0:0:0:0:
329,15,202641,1,2,0:0:0:0:
279,72,202983,1,0,0:0:0:0:
256,192,203326,6,0,L|210:186,1,44.999998626709,8|0,1:2|0:0,0:0:0:0:
211,186,203669,1,8,0:0:0:0:
352,255,204012,2,0,L|306:249,1,44.999998626709,8|0,0:0|0:0,0:0:0:0:
307,249,204355,1,8,0:0:0:0:
65,191,204697,5,10,0:0:0:0:
82,264,205040,1,8,0:0:0:0:
65,191,205383,1,10,0:0:0:0:
82,264,205726,1,8,0:0:0:0:
383,95,206069,6,0,L|377:49,1,44.999998626709,10|0,0:0|0:0,0:0:0:0:
377,50,206412,1,8,0:0:0:0:
446,191,206755,2,0,L|440:145,1,44.999998626709,10|0,0:0|0:0,0:0:0:0:
440,146,207098,1,8,0:0:0:0:
152,109,207440,5,10,0:0:0:0:
169,36,207783,1,10,0:0:0:0:
152,109,208126,1,10,0:0:0:0:
256,192,208812,12,14,212926,0:0:0:0:
137,15,214297,6,0,B|125:78|125:78|147:108|147:108|136:174,1,168.750006437302,10|0,0:0|0:0,0:0:0:0:
28,174,214640,2,0,P|42:149|65:134,1,56.2500021457673,10|2,0:0|0:0,0:0:0:0:
214,167,214812,2,0,P|227:191|229:219,1,56.2500021457673,2|2,0:0|0:0,0:0:0:0:
189,308,214983,6,0,L|300:289,1,112.500004291535,10|0,0:0|0:0,0:0:0:0:
266,375,215240,1,2,0:0:0:0:
266,375,215326,2,0,L|377:356,1,112.500004291535,8|2,0:0|0:0,0:0:0:0:
469,117,215669,6,0,L|450:228,1,112.500004291535,10|0,0:0|0:0,0:0:0:0:
467,300,215926,2,0,P|511:274|519:252,2,56.2500021457673,2|8|0,0:0|0:0|0:0,0:0:0:0:
397,282,216183,1,2,0:0:0:0:
196,130,216355,6,0,L|307:149,1,112.500004291535,10|0,0:0|0:0,0:0:0:0:
379,123,216612,2,0,P|350:82|300:75,2,56.2500021457673,2|8|0,0:0|0:0|0:0,0:0:0:0:
367,199,216869,1,2,0:0:0:0:
161,329,217040,6,0,B|126:301|126:301|114:222|114:222|138:184,1,168.750006437302,10|2,0:0|0:0,0:0:0:0:
245,226,217383,1,10,0:0:0:0:
245,226,217469,1,2,0:0:0:0:
245,226,217555,2,0,P|186:247|165:234,1,56.2500021457673,2|2,0:0|0:0,0:0:0:0:
63,118,217726,6,0,L|174:99,1,112.500004291535,10|0,0:0|0:0,0:0:0:0:
106,30,217983,1,2,0:0:0:0:
106,30,218069,2,0,L|217:11,1,112.500004291535,8|2,0:0|0:0,0:0:0:0:
470,81,218412,6,0,P|423:158|402:107,1,168.750006437302,10|2,0:0|0:0,0:0:0:0:
398,61,218755,2,0,L|287:42,1,112.500004291535,8|2,0:0|0:0,0:0:0:0:
350,274,219097,6,0,P|279:291|283:218,1,168.750006437302,10|2,0:0|0:0,0:0:0:0:
356,197,219440,2,0,L|467:178,1,112.500004291535,8|2,0:0|0:0,0:0:0:0:
466,346,219783,6,0,B|400:335|400:335|370:357|370:357|307:345,1,168.750006437302,10|0,0:0|0:0,0:0:0:0:
237,380,220126,2,0,P|211:372|193:351,1,56.2500021457673,10|2,0:0|0:0,0:0:0:0:
103,202,220297,2,0,P|78:214|64:238,1,56.2500021457673,2|2,0:0|0:0,0:0:0:0:
114,380,220469,6,0,L|133:269,1,112.500004291535,10|0,0:0|0:0,0:0:0:0:
181,210,220726,1,2,0:0:0:0:
181,210,220812,2,0,L|200:99,1,112.500004291535,8|2,0:0|0:0,0:0:0:0:
502,113,221155,6,0,L|391:132,1,112.500004291535,10|0,0:0|0:0,0:0:0:0:
294,165,221412,2,0,P|312:119|343:108,2,56.2500021457673,2|8|0,0:0|0:0|0:0,0:0:0:0:
314,240,221669,1,2,0:0:0:0:
478,317,221840,6,0,L|367:298,1,112.500004291535,10|0,0:0|0:0,0:0:0:0:
292,314,222097,2,0,P|271:332|244:337,2,56.2500021457673,2|8|0,0:0|0:0|0:0,0:0:0:0:
314,240,222355,1,2,0:0:0:0:
65,62,222526,6,0,B|76:128|76:128|54:158|54:158|66:221,1,168.750006437302,10|2,0:0|0:0,0:0:0:0:
61,335,222869,1,10,0:0:0:0:
61,335,222955,1,2,0:0:0:0:
61,335,223040,2,0,P|117:289|142:295,1,56.2500021457673,2|2,0:0|0:0,0:0:0:0:
187,238,223212,6,0,L|206:127,1,112.500004291535,10|0,0:0|0:0,0:0:0:0:
274,194,223469,1,2,0:0:0:0:
274,194,223555,2,0,L|293:83,1,112.500004291535,8|2,0:0|0:0,0:0:0:0:
490,281,223897,6,0,P|430:326|375:297,1,112.500004291535,10|0,0:0|0:0,0:0:0:0:
330,348,224155,1,2,0:0:0:0:
330,348,224240,2,0,P|304:293|314:265,1,56.2500021457673,8|0,0:0|0:0,0:0:0:0:
340,233,224412,1,2,0:0:0:0:
76,363,224583,6,0,P|149:345|162:285,1,112.500004291535,10|0,0:0|0:0,0:0:0:0:
230,283,224841,1,2,0:0:0:0:
230,283,224926,2,0,P|204:227|176:217,1,56.2500021457673,8|0,0:0|0:0,0:0:0:0:
136,214,225098,1,2,0:0:0:0:
439,211,225269,6,0,B|395:245|395:245|339:232,1,112.500004291535,8|8,0:0|0:0,0:0:0:0:
274,188,225526,1,0,0:0:0:0:
274,188,225612,2,0,P|290:127|314:116,1,56.2500021457673,14|2,0:0|0:0,0:0:0:0:
394,62,225783,2,0,P|333:78|311:63,1,56.2500021457673,2|2,0:0|0:0,0:0:0:0:
268,57,225955,6,0,L|157:38,1,112.500004291535,10|0,0:0|0:0,0:0:0:0:
191,124,226212,1,2,0:0:0:0:
191,124,226297,2,0,L|80:143,1,112.500004291535,12|2,0:0|0:0,0:0:0:0:
301,372,226640,6,0,L|320:261,1,112.500004291535,10|0,0:0|0:0,0:0:0:0:
298,188,226897,1,2,0:0:0:0:
298,188,226983,2,0,P|252:220|254:248,1,56.2500021457673,12|0,0:0|0:0,0:0:0:0:
235,293,227155,1,2,0:0:0:0:
447,256,227326,6,0,L|428:145,1,112.500004291535,10|0,0:0|0:0,0:0:0:0:
444,72,227583,1,2,0:0:0:0:
444,71,227669,2,0,P|470:78|488:99,1,56.2500021457673,12|0,0:0|0:0,0:0:0:0:
507,174,227840,1,2,0:0:0:0:
319,261,228012,6,0,B|255:244|255:244|238:212|238:212|173:194,1,168.750006437302,10|0,0:0|0:0,0:0:0:0:
123,139,228355,2,0,P|100:204|116:224,1,56.2500021457673,14|2,0:0|0:0,0:0:0:0:
234,130,228526,2,0,P|226:103|206:84,1,56.2500021457673,2|2,0:0|0:0,0:0:0:0:
134,18,228697,6,0,L|245:-1,1,112.500004291535,10|0,0:0|0:0,0:0:0:0:
298,66,228955,1,2,0:0:0:0:
298,66,229040,2,0,L|409:85,1,112.500004291535,12|2,0:0|0:0,0:0:0:0:
308,232,229383,6,0,P|305:167|386:201,1,168.750006437302,10|2,0:0|0:0,0:0:0:0:
381,260,229726,2,0,P|436:275|457:266,1,56.2500021457673,12|0,0:0|0:0,0:0:0:0:
500,240,229897,1,2,0:0:0:0:
216,265,230069,6,0,P|285:240|291:313,1,168.750006437302,10|2,0:0|0:0,0:0:0:0:
219,342,230412,2,0,P|188:337|165:322,1,56.2500021457673,12|0,0:0|0:0,0:0:0:0:
140,251,230583,1,2,0:0:0:0:
10,384,230755,6,0,B|44:340|44:340|31:284,1,112.500004291535,10|0,0:0|0:0,0:0:0:0:
14,209,231011,1,0,0:0:0:0:
14,209,231097,2,0,P|36:150|49:143,1,56.2500021457673,14|2,0:0|0:0,0:0:0:0:
23,78,231269,2,0,P|85:69|97:77,1,56.2500021457673,2|2,0:0|0:0,0:0:0:0:
163,124,231440,6,0,L|274:143,1,112.500004291535,10|0,0:0|0:0,0:0:0:0:
234,54,231697,1,2,0:0:0:0:
234,54,231783,2,0,L|345:35,1,112.500004291535,12|2,0:0|0:0,0:0:0:0:
312,350,232126,6,0,L|293:239,1,112.500004291535,10|0,0:0|0:0,0:0:0:0:
274,143,232383,2,0,P|237:186|244:220,2,56.2500021457673,2|12|0,0:0|0:0|0:0,0:0:0:0:
350,121,232640,1,2,0:0:0:0:
160,347,232812,6,0,L|179:236,1,112.500004291535,10|0,0:0|0:0,0:0:0:0:
67,175,233069,2,0,P|81:198|106:211,2,56.2500021457673,2|12|0,0:0|0:0|0:0,0:0:0:0:
53,99,233326,1,2,0:0:0:0:
237,182,233497,6,0,B|275:206|275:206|354:194|354:194|382:159,1,168.750006437302,10|0,0:0|0:0,0:0:0:0:
482,150,233840,1,14,0:0:0:0:
482,150,233926,1,2,0:0:0:0:
482,150,234012,2,0,P|455:219|472:244,1,56.2500021457673,2|2,0:0|0:0,0:0:0:0:
510,282,234183,6,0,L|399:263,1,112.500004291535,10|0,0:0|0:0,0:0:0:0:
329,288,234440,1,2,0:0:0:0:
329,288,234526,2,0,L|245:308,1,56.2500021457673,12|0,0:0|0:0,0:0:0:0:
169,226,234697,2,0,L|223:239,1,56.2500021457673,0|0,0:0|0:0,0:0:0:0:
256,376,234869,5,4,0:1:0:0:
134,306,236240,6,0,P|117:228|188:194,1,168.750006437302,4|2,0:1|0:0,0:0:0:0:
260,219,236583,1,4,0:1:0:0:
287,20,236755,1,2,0:0:0:0:
287,20,236840,1,2,0:0:0:0:
287,20,236926,2,0,P|329:51|315:102,1,112.500004291535,10|0,0:0|0:0,0:0:0:0:
249,142,237183,1,2,0:0:0:0:
249,142,237269,2,0,L|138:123,1,112.500004291535,12|2,0:0|0:0,0:0:0:0:
338,382,237612,6,0,P|355:305|286:269,1,168.750006437302,10|2,0:0|0:0,0:0:0:0:
221,224,237955,2,0,P|205:173|248:141,1,112.500004291535,12|2,0:0|0:0,0:0:0:0:
314,102,238212,1,0,0:0:0:0:
314,102,238297,2,0,P|293:41|269:35,1,56.2500021457673,10|2,0:0|0:0,0:0:0:0:
239,11,238469,1,0,0:0:0:0:
377,151,238640,2,0,L|488:132,1,112.500004291535,14|2,0:0|0:0,0:0:0:0:
165,160,238983,6,0,P|241:142|277:211,1,168.750006437302,10|0,0:0|0:0,0:0:0:0:
258,290,239326,1,14,0:0:0:0:
478,323,239497,1,2,0:0:0:0:
478,323,239583,1,2,0:0:0:0:
478,323,239669,2,0,P|427:338|395:295,1,112.500004291535,10|0,0:0|0:0,0:0:0:0:
357,233,239926,1,2,0:0:0:0:
357,233,240012,2,0,L|338:344,1,112.500004291535,12|2,0:0|0:0,0:0:0:0:
53,211,240355,6,0,P|88:141|164:159,1,168.750006437302,10|0,0:0|0:0,0:0:0:0:
273,227,240697,2,0,P|245:229|220:216,1,56.2500021457673,14|2,0:0|0:0,0:0:0:0:
265,153,240869,1,2,0:0:0:0:
265,153,240955,1,2,0:0:0:0:
265,153,241040,6,0,P|352:133|393:105,1,112.500004291535,8|2,0:0|0:0,0:0:0:0:
371,121,241726,6,0,P|353:197|422:232,1,168.750006437302,10|0,0:0|0:0,0:0:0:0:
491,200,242069,1,14,0:0:0:0:
419,354,242240,1,2,0:0:0:0:
419,354,242326,1,2,0:0:0:0:
419,354,242412,2,0,P|386:311|336:327,1,112.500004291535,10|0,0:0|0:0,0:0:0:0:
275,375,242669,1,2,0:0:0:0:
275,375,242755,2,0,L|164:356,1,112.500004291535,12|2,0:0|0:0,0:0:0:0:
23,356,243097,6,0,P|92:320|74:244,1,168.750006437302,10|2,0:0|0:0,0:0:0:0:
27,180,243440,2,0,P|-15:147|0:97,1,112.500004291535,12|2,0:0|0:0,0:0:0:0:
62,53,243697,1,0,0:0:0:0:
62,53,243783,2,0,P|114:78|148:66,1,56.2500021457673,10|0,0:0|0:0,0:0:0:0:
180,43,243955,1,0,0:0:0:0:
138,152,244126,2,0,L|153:237,2,56.2500021457673,14|2|2,0:0|0:0|0:0,0:0:0:0:
353,150,244469,6,0,P|276:167|241:98,1,168.750006437302,10|0,0:0|0:0,0:0:0:0:
315,75,244812,2,0,P|350:77|371:67,1,56.2500021457673,14|2,0:0|0:0,0:0:0:0:
434,1,244983,1,2,0:0:0:0:
434,1,245069,1,2,0:0:0:0:
434,1,245155,2,0,L|453:112,1,112.500004291535,10|0,0:0|0:0,0:0:0:0:
494,376,245497,2,0,L|513:265,1,112.500004291535,12|2,0:0|0:0,0:0:0:0:
306,270,245840,6,0,P|382:287|417:217,1,168.750006437302,10|2,0:0|0:0,0:0:0:0:
383,147,246183,1,12,0:0:0:0:
236,321,246355,1,2,0:0:0:0:
236,321,246440,1,0,0:0:0:0:
236,321,246526,2,0,P|185:336|152:294,1,112.500004291535,10|0,0:0|0:0,0:0:0:0:
122,225,246783,1,2,0:0:0:0:
122,225,246869,2,0,L|141:114,1,112.500004291535,14|0,0:0|0:0,0:0:0:0:
476,40,247212,5,10,0:0:0:0:
414,79,247383,1,8,0:0:0:0:
344,54,247555,1,4,0:1:0:0:
283,94,247726,1,2,0:0:0:0:
283,94,247812,1,2,0:0:0:0:
283,94,247897,2,0,P|232:60|221:30,2,56.2500021457673,10|2|0,0:0|0:0|0:0,0:0:0:0:
484,143,248240,2,0,L|373:162,1,112.500004291535,14|0,0:0|0:0,0:0:0:0:
194,246,248583,5,10,0:0:0:0:
253,289,248755,1,0,0:0:0:0:
300,233,248926,1,12,0:0:0:0:
241,189,249097,1,2,0:0:0:0:
252,289,249269,2,0,P|242:323|213:351,2,56.2500021457673,10|2|0,0:0|0:0|0:0,0:0:0:0:
159,95,249612,2,0,L|48:76,1,112.500004291535,12|2,0:0|0:0,0:0:0:0:
62,307,249955,5,10,0:0:0:0:
111,253,250126,1,0,0:0:0:0:
174,216,250297,1,14,0:0:0:0:
249,196,250469,1,2,0:0:0:0:
249,196,250555,1,2,0:0:0:0:
249,196,250640,2,0,P|306:215|334:203,1,56.2500021457673,10|0,0:0|0:0,0:0:0:0:
373,191,250812,1,0,0:0:0:0:
408,33,250983,2,0,L|297:52,1,112.500004291535,12|2,0:0|0:0,0:0:0:0:
115,28,251326,5,10,0:0:0:0:
187,116,251497,1,2,0:0:0:0:
187,116,251583,1,2,0:0:0:0:
187,116,251669,1,14,0:0:0:0:
82,135,251840,1,2,0:0:0:0:
82,135,251926,1,2,0:0:0:0:
82,135,252012,2,0,P|48:215|77:268,1,112.500004291535,8|0,0:0|0:0,0:0:0:0:
53,235,252526,6,0,L|172:261,1,112.500004291535,8|10,0:0|0:0,0:0:0:0:
256,192,252783,12,0,256812,0:0:0:0:
