osu file format v14

[General]
AudioFilename: audio.mp3
AudioLeadIn: 0
PreviewTime: 70283
Countdown: 0
SampleSet: Soft
StackLeniency: 0.7
Mode: 0
LetterboxInBreaks: 0
WidescreenStoryboard: 1

[Editor]
Bookmarks: 5847,16819,27790,38762,49733,50504,50676,50933,60704,71676,92247,93619,109390,114190,121047,126533,137504,148476,159447,163219,169390,170419,181390,192362,203333,214304,234876,236247,252704,256819
DistanceSpacing: 1.2
BeatDivisor: 4
GridSize: 4
TimelineZoom: 2.899999

[Metadata]
Title:MTC (Radio Edit)
TitleUnicode:MTC (Radio Edit)
Artist:S3RL
ArtistUnicode:S3RL
Creator:Okoratu
Version:Hard
Source:
Tags:anime featured artist emfa music Delis pishifat Okorin cartoons
BeatmapID:1525209
BeatmapSetID:716630

[Difficulty]
HPDrainRate:6
CircleSize:4
OverallDifficulty:7
ApproachRate:8.2
SliderMultiplier:1.4
SliderTickRate:1

[Events]
//Background and Video events
0,0,"MTC.jpg",0,0
//Break Periods
2,27983,37692
2,115555,119977
2,170612,180320
//Storyboard Layer 0 (Background)
//Storyboard Layer 1 (Fail)
//Storyboard Layer 2 (Pass)
//Storyboard Layer 3 (Foreground)
//Storyboard Sound Samples

[TimingPoints]
355,342.857142857143,4,2,1,30,1,0
3955,-100,4,2,1,30,0,0
4469,-166.666666666667,4,2,1,20,0,0
4812,-142.857142857143,4,2,1,20,0,0
5155,-125,4,2,1,30,0,0
5497,-111.111111111111,4,2,1,30,0,0
5840,-100,4,2,1,40,0,0
38412,-166.666666666667,4,2,1,50,0,0
38755,-100,4,2,1,50,0,0
49726,-142.857142857143,4,2,1,30,0,0
51097,-100,4,2,1,30,0,0
52469,-142.857142857143,4,2,1,30,0,0
53840,-100,4,2,1,30,0,0
55212,-142.857142857143,4,2,1,30,0,0
56583,-100,4,2,1,30,0,0
57955,-142.857142857143,4,2,1,30,0,0
59326,-100,4,2,1,30,0,0
60697,-100,4,2,2,45,0,0
66183,-100,4,2,2,40,0,0
68926,-50,4,2,2,40,0,0
69612,-25,4,2,2,40,0,0
71326,-100,4,2,1,40,0,0
71669,-83.3333333333334,4,2,2,70,0,1
82640,-83.3333333333334,4,2,4,70,0,1
82897,-83.3333333333334,4,2,2,70,0,1
92240,-142.857142857143,4,2,2,50,0,0
93612,-76.923076923077,4,2,2,75,0,1
98583,-111.111111111111,4,2,2,75,0,1
99097,-76.923076923077,4,2,2,75,0,1
104583,-76.923076923077,4,2,4,75,0,1
104840,-76.923076923077,4,2,2,75,0,1
110069,-76.923076923077,4,2,2,50,0,1
112812,-38.4615384615385,4,2,2,50,0,1
113497,-25,4,2,2,50,0,1
114183,-142.857142857143,4,2,1,50,0,0
120697,-66.6666666666667,4,2,1,40,0,0
121040,-100,4,2,1,40,0,0
123440,-66.6666666666667,4,2,1,40,0,0
123783,-100,4,2,1,40,0,0
126183,-66.6666666666667,4,2,2,65,0,0
126526,-90.9090909090909,4,2,2,65,0,0
128926,-66.6666666666667,4,2,2,65,0,0
129269,-90.9090909090909,4,2,2,65,0,0
131669,-66.6666666666667,4,2,2,65,0,0
132012,-90.9090909090909,4,2,2,65,0,0
134412,-66.6666666666667,4,2,2,65,0,0
134755,-90.9090909090909,4,2,2,65,0,0
137155,-66.6666666666667,4,2,2,65,0,0
137497,-66.6666666666667,4,2,2,40,0,0
137755,-66.6666666666667,4,2,2,65,0,0
138183,-90.9090909090909,4,2,2,65,0,0
139897,-66.6666666666667,4,2,2,65,0,0
140240,-90.9090909090909,4,2,2,65,0,0
142640,-66.6666666666667,4,2,2,65,0,0
142983,-90.9090909090909,4,2,2,65,0,0
145383,-66.6666666666667,4,2,2,65,0,0
145726,-90.9090909090909,4,2,2,65,0,0
147097,-166.666666666667,4,2,1,65,0,0
147440,-142.857142857143,4,2,2,60,0,0
147783,-125,4,2,2,60,0,0
148126,-111.111111111111,4,2,2,60,0,0
148469,-100,4,2,2,50,0,0
148940,-100,4,2,2,60,0,0
159440,-83.3333333333333,4,2,2,65,0,0
159783,-66.6666666666667,4,2,2,65,0,0
160126,-83.3333333333333,4,2,2,65,0,0
160469,-66.6666666666667,4,2,2,65,0,0
160812,-83.3333333333333,4,2,2,65,0,0
161155,-66.6666666666667,4,2,2,65,0,0
161497,-83.3333333333333,4,2,2,65,0,0
161840,-66.6666666666667,4,2,2,65,0,0
162183,-83.3333333333333,4,2,2,65,0,0
162526,-66.6666666666667,4,2,2,65,0,0
162869,-83.3333333333333,4,2,2,65,0,0
163212,-66.6666666666667,4,2,2,65,0,0
163555,-83.3333333333333,4,2,2,65,0,0
163897,-66.6666666666667,4,2,2,65,0,0
164240,-83.3333333333333,4,2,2,65,0,0
164583,-66.6666666666667,4,2,2,65,0,0
164926,-125,4,2,1,50,0,0
167669,-100,4,2,1,50,0,0
181383,-100,4,2,3,60,0,0
192355,-100,4,2,4,30,0,0
203326,-76.9230769230769,4,2,4,60,0,0
208812,-76.9230769230769,4,2,2,40,0,0
211554,-38.4615384615385,4,2,2,40,0,0
212239,-25,4,2,2,40,0,0
213955,-100,4,2,1,50,0,0
214297,-76.923076923077,4,2,2,75,0,1
225269,-76.923076923077,4,2,4,75,0,1
225526,-76.923076923077,4,2,2,75,0,1
234869,-142.857142857143,4,2,1,50,0,0
236240,-71.4285714285714,4,2,2,80,0,1
241383,-125,4,2,2,80,0,1
241726,-71.4285714285714,4,2,2,80,0,1
244812,-71.4285714285714,4,2,2,80,0,1
247212,-71.4285714285714,4,2,4,80,0,1
247555,-71.4285714285714,4,2,2,80,0,1
252697,-71.4285714285714,4,2,2,55,0,1
255440,-38.4615384615385,4,2,2,55,0,1
256126,-25,4,2,2,55,0,1
256812,-142.857142857143,4,2,2,50,0,0

[Colours]
Combo1 : 100,230,122
Combo2 : 30,223,234
Combo3 : 241,206,67
Combo4 : 231,86,86

[HitObjects]
256,192,12,12,0,3955,0:0:0:0:
200,244,4469,6,0,L|184:192,1,41.9999987182618,0|0,0:0|0:0,0:0:0:0:
260,176,4812,2,0,L|272:108,1,48.9999985046387,0|0,0:0|0:0,0:0:0:0:
176,56,5155,2,0,L|188:120,1,56,2|0,0:0|0:0,0:0:0:0:
96,192,5497,2,0,L|88:276,1,62.9999980773926,2|0,0:0|0:0,0:0:0:0:
160,348,5840,6,0,P|184:304|284:316,1,140,4|2,1:0|0:0,0:0:0:0:
266,299,6526,2,0,L|276:369,1,70
352,300,6869,2,0,L|340:212,1,70
392,160,7212,6,0,P|338:180|238:173,1,140,0|2,0:0|0:0,0:0:0:0:
124,336,7897,1,0,0:0:0:0:
122,137,8240,1,0,0:0:0:0:
124,336,8583,6,0,P|152:288|96:200,1,140,0|2,0:0|0:0,0:0:0:0:
40,200,9097,1,0,0:0:0:0:
40,200,9269,2,0,L|52:112,1,70,0|0,0:0|0:0,0:0:0:0:
116,68,9612,2,0,L|124:160,1,70,0|0,0:0|0:0,0:0:0:0:
196,92,9955,6,0,P|228:64|344:80,1,140,0|2,0:0|0:0,0:0:0:0:
280,136,10469,1,0,0:0:0:0:
280,136,10640,2,0,L|296:232,1,70,0|0,0:0|0:0,0:0:0:0:
384,212,10983,2,0,L|372:296,1,70,0|0,0:0|0:0,0:0:0:0:
336,348,11326,6,0,P|308:288|228:288,1,140,0|2,0:0|0:0,0:0:0:0:
56,364,12012,2,0,L|64:280,1,70,0|0,0:0|0:0,0:0:0:0:
132,204,12355,2,0,L|140:288,1,70,0|0,0:0|0:0,0:0:0:0:
40,204,12697,6,0,L|68:56,1,140,0|2,0:0|0:0,0:0:0:0:
66,66,13383,2,0,L|162:58,1,70,0|0,0:0|0:0,0:0:0:0:
200,128,13726,2,0,L|296:120,1,70,0|0,0:0|0:0,0:0:0:0:
344,108,14069,6,0,P|296:144|316:236,1,140,0|2,0:0|0:0,0:0:0:0:
368,272,14583,1,0,0:0:0:0:
368,272,14755,2,0,L|452:252,1,70,0|0,0:0|0:0,0:0:0:0:
296,308,15097,2,0,L|296:388,1,70,0|0,0:0|0:0,0:0:0:0:
244,244,15440,6,0,B|176:268|176:208|96:244,1,140,0|2,0:0|0:0,0:0:0:0:
36,184,15955,1,0,0:0:0:0:
36,184,16126,2,0,L|56:96,1,70,0|0,0:0|0:0,0:0:0:0:
120,40,16469,2,0,L|136:116,1,70,0|0,0:0|0:0,0:0:0:0:
212,160,16812,6,0,L|232:8,1,140,0|2,0:0|0:0,0:0:0:0:
168,224,17497,2,0,L|176:308,1,70
259,331,17840,2,0,L|270:262,1,70
244,184,18183,6,0,L|388:192,1,140,0|2,0:0|0:0,0:0:0:0:
432,112,18697,1,0,0:0:0:0:
432,112,18869,2,0,L|336:108,1,70
272,40,19212,2,0,L|282:109,1,70
268,232,19555,6,0,P|224:252|144:240,1,105,0|0,0:0|0:0,0:0:0:0:
168,250,19897,2,0,L|176:168,1,70,2|0,0:0|0:0,0:0:0:0:
108,108,20240,2,0,L|24:112,1,70,0|0,0:0|0:0,0:0:0:0:
72,212,20583,1,0,0:0:0:0:
72,212,20755,1,0,0:0:0:0:
72,212,20926,5,0,0:0:0:0:
184,80,21269,1,2,0:0:0:0:
224,256,21612,1,0,0:0:0:0:
336,136,21955,6,2,P|376:120|444:152,1,105,2|0,0:0|0:0,0:3:0:0:
432,138,22297,6,0,L|444:308,1,140,2|0,0:0|0:0,0:3:0:0:
368,352,22812,2,2,L|356:182,1,140,2|0,0:0|0:0,0:3:0:0:
336,136,23326,1,2,0:0:0:0:
216,280,23669,6,2,P|160:308|72:288,1,140,2|0,0:0|0:0,0:3:0:0:
144,216,24183,2,2,P|156:136|124:64,1,140,2|0,0:0|0:0,0:3:0:0:
52,152,24697,1,2,0:0:0:0:
52,152,25040,6,2,B|123:138|123:138|129:134|129:134|136:136|136:136|154:132|154:132|163:135|163:135|171:128|171:128|245:112|245:112|223:163|223:163|232:182|232:182|221:203|221:203|239:233|221:274,1,350,2|0,0:0|0:0,0:3:0:0:
213,330,26069,5,0,0:0:0:0:
108,235,26412,1,0,0:0:0:0:
310,142,26755,1,2,0:0:0:0:
205,237,27098,1,0,0:0:0:0:
205,237,27440,2,0,L|216:147,1,70,2|0,0:0|0:0,0:0:0:0:
256,71,27783,5,10,0:0:0:0:
256,71,38412,5,2,3:2:0:0:
256,71,38755,6,0,L|267:232,1,140,6|0,0:2|3:2,0:0:0:0:
273,294,39269,1,2,0:0:0:0:
273,294,39440,2,0,L|277:350,2,35,2|2|0,3:2|0:0|0:0,0:0:0:0:
192,248,39783,2,0,P|140:236|96:256,1,70,2|0,3:2|0:0,0:0:0:0:
44,192,40126,6,0,L|52:344,1,140,2|0,3:2|3:2,0:0:0:0:
128,244,40640,1,2,0:2:0:0:
128,244,40812,2,0,L|124:196,2,35,2|2|0,3:2|0:2|0:0,0:0:0:0:
192,308,41155,2,0,P|236:328|276:324,1,70,2|0,3:2|0:0,0:0:0:0:
280,208,41497,6,2,P|312:268|400:316,1,140,2|0,3:2|0:0,0:3:0:0:
424,224,42012,2,2,P|424:288|460:372,1,140,2|0,0:2|0:0,0:3:0:0:
504,252,42526,2,2,P|508:216|496:168,1,70,2|0,3:2|0:0,0:3:0:0:
448,100,42869,5,2,3:2:0:0:
356,160,43040,2,0,L|348:204,2,35,2|2|2,0:2|0:2|3:2,0:0:0:0:
280,60,43383,2,0,L|272:16,2,35,2|2|2,0:2|0:2|3:2,0:0:0:0:
192,284,43897,2,2,P|148:296|68:288,1,105,2|0,3:2|0:0,0:3:0:0:
89,293,44240,6,2,L|100:140,1,140,2|0,3:2|3:0,0:3:0:0:
176,56,44755,2,2,L|184:196,1,140,2|0,0:0|0:0,0:3:0:0:
256,116,45269,2,2,L|340:108,1,70,2|0,3:2|0:0,0:3:0:0:
384,160,45612,6,2,P|332:136|296:200,1,140,2|0,3:2|3:0,0:3:0:0:
352,256,46126,2,2,P|404:280|440:216,1,140,2|0,0:0|0:0,0:3:0:0:
464,132,46640,1,2,3:2:0:0:
464,132,46812,1,2,0:2:0:0:
384,160,46983,5,2,3:2:0:0:
168,80,47326,2,0,L|128:72,2,35,2|2|2,3:2|0:2|0:2,0:0:0:0:
248,48,47669,1,2,3:2:0:0:
204,284,48012,1,2,3:2:0:0:
248,48,48355,5,4,0:1:0:0:
248,48,49726,6,0,L|256:152,1,97.9999970092774,2|0,0:0|0:0,0:0:0:0:
192,296,50412,2,0,L|184:204,2,73.4999977569581,2|2|2,0:0|0:0|0:0,0:0:0:0:
256,356,51097,6,0,P|268:320|352:308,2,105,2|2|2,0:0|0:0|0:0,0:0:0:0:
180,368,51783,2,0,P|168:332|84:320,2,105,2|2|2,0:0|0:0|0:0,0:0:0:0:
52,360,52469,5,2,0:0:0:0:
84,184,52812,2,0,L|184:168,1,97.9999970092774,0|2,0:0|0:0,0:0:0:0:
304,124,53412,1,2,0:0:0:0:
304,124,53497,2,0,L|296:196,1,48.9999985046387,0|2,0:0|0:0,0:0:0:0:
308,248,53840,6,0,P|340:296|336:372,2,105,2|2|2,0:0|0:0|0:0,0:0:0:0:
212,248,54526,2,0,P|191:301|126:342,2,105,2|2|2,0:0|0:0|0:0,0:0:0:0:
168,160,55212,6,0,L|48:176,1,97.9999970092774,2|0,0:0|0:0,0:0:0:0:
184,64,55897,2,0,L|276:56,2,73.4999977569581,2|2|2,0:0|0:0|0:0,0:0:0:0:
228,144,56583,6,0,L|212:264,2,105,2|2|2,0:0|0:0|0:0,0:0:0:0:
332,100,57269,2,0,L|316:220,2,105,2|2|2,0:0|0:0|0:0,0:0:0:0:
424,56,57955,5,2,0:0:0:0:
464,212,58297,2,0,P|472:260|456:320,1,97.9999970092774,0|2,0:0|0:0,0:0:0:0:
352,248,58897,1,2,0:0:0:0:
352,248,58983,2,0,L|296:252,1,48.9999985046387,0|2,0:0|0:0,0:0:0:0:
226,194,59326,6,0,P|243:242|228:292,2,105,2|2|2,0:0|0:0|0:0,0:0:0:0:
132,199,60012,2,0,P|115:248|133:297,2,105,2|2|2,0:0|0:0|0:0,0:0:0:0:
180,128,60697,5,14,0:2:0:0:
316,228,61040,1,8,0:2:0:0:
316,228,61383,2,0,P|360:248|428:240,1,105,10|2,0:2|0:0,0:0:0:0:
415,244,61726,2,0,L|404:156,1,70,8|2,0:2|0:0,0:0:0:0:
396,76,62069,6,0,L|272:96,1,105,10|2,0:0|0:0,0:0:0:0:
292,92,62412,2,0,L|296:12,1,70,8|2,0:0|0:0,0:0:0:0:
196,28,62755,2,0,L|212:160,1,105,10|2,0:0|0:0,0:0:0:0:
208,132,63097,2,0,L|128:116,1,70,8|2,0:0|0:0,0:0:0:0:
48,92,63440,5,10,0:0:0:0:
176,232,63783,1,8,0:0:0:0:
176,232,64126,2,0,P|184:268|164:344,1,105,10|2,0:0|0:0,0:0:0:0:
170,333,64469,2,0,L|84:312,1,70,8|2,0:0|0:0,0:0:0:0:
260,280,64812,6,0,L|392:296,1,105,10|2,0:0|0:0,0:0:0:0:
364,292,65155,2,0,L|356:208,1,70,8|2,0:0|0:0,0:0:0:0:
240,184,65497,2,0,P|188:196|124:176,1,105,10|2,0:0|0:0,0:0:0:0:
138,184,65840,2,0,L|155:107,1,70,8|0,0:0|0:0,0:0:0:0:
256,192,66183,12,8,70297,0:0:0:0:
144,88,71669,6,0,P|208:40|316:72,1,167.999994873047,10|8,0:0|0:0,0:0:0:0:
344,172,72183,1,2,0:0:0:0:
344,172,72269,1,2,0:0:0:0:
344,172,72355,2,0,L|328:316,1,125.999996154785,10|2,0:0|0:0,0:0:0:0:
330,297,72697,2,0,L|415:275,1,83.9999974365235,8|2,0:0|0:0,0:0:0:0:
240,228,73040,6,0,P|216:268|224:368,2,125.999996154785,10|2|2,0:0|0:0|0:0,0:0:0:0:
104,128,73726,2,0,P|128:168|120:268,2,125.999996154785,10|2|2,0:0|0:0|0:0,0:0:0:0:
16,88,74412,6,0,L|28:196,1,83.9999974365235,10|0,0:0|0:0,0:0:0:0:
128,48,74755,2,0,L|140:8,2,41.9999987182618,10|2|2,0:0|0:0|0:0,0:0:0:0:
212,132,75097,2,0,P|280:152|312:144,1,83.9999974365235,10|0,0:0|0:0,0:0:0:0:
291,150,75355,2,0,L|280:76,1,41.9999987182618,2|8,0:0|0:0,0:0:0:0:
392,32,75612,1,2,0:0:0:0:
384,132,75783,6,0,L|360:264,1,125.999996154785,10|2,0:0|0:0,0:0:0:0:
361,255,76126,2,0,L|455:219,1,83.9999974365235,8|2,0:0|0:0,0:0:0:0:
268,184,76469,2,0,L|112:228,1,125.999996154785,10|2,0:0|0:0,0:0:0:0:
146,218,76812,2,0,P|176:264|176:316,1,83.9999974365235,8|2,0:0|0:0,0:0:0:0:
48,296,77155,6,0,L|64:112,1,167.999994873047,10|10,0:0|0:0,0:0:0:0:
12,20,77669,1,2,0:0:0:0:
12,20,77755,1,2,0:0:0:0:
12,20,77840,2,0,L|140:32,1,125.999996154785,10|2,0:0|0:0,0:0:0:0:
176,24,78183,2,0,L|160:140,1,83.9999974365235,8|2,0:0|0:0,0:0:0:0:
280,72,78526,6,0,P|344:56|416:108,2,125.999996154785,10|2|2,0:0|0:0|0:0,0:0:0:0:
256,192,79212,2,0,P|300:216|312:312,2,125.999996154785,10|2|2,0:0|0:0|0:0,0:0:0:0:
144,128,79897,6,0,L|156:244,1,83.9999974365235,10|0,0:0|0:0,0:0:0:0:
92,356,80240,2,0,L|80:268,1,83.9999974365235,10|0,0:0|0:0,0:0:0:0:
80,272,80497,1,2,0:0:0:0:
80,272,80583,2,0,L|227:259,1,125.999996154785,10|2,0:0|0:0,0:0:0:0:
224,228,80926,2,0,L|332:240,1,83.9999974365235,8|2,0:0|0:0,0:0:0:0:
384,304,81269,6,0,P|356:236|384:160,1,125.999996154785,10|2,0:0|0:0,0:0:0:0:
366,186,81612,2,0,L|464:204,1,83.9999974365235,8|2,0:0|0:0,0:0:0:0:
264,68,81955,2,0,P|292:136|264:212,1,125.999996154785,10|2,0:0|0:0,0:0:0:0:
281,185,82298,2,0,L|183:202,1,83.9999974365235,8|2,0:0|0:0,0:0:0:0:
88,192,82640,5,10,0:2:0:0:
80,72,82812,1,10,0:2:0:0:
88,192,82983,2,0,L|95:288,1,83.9999974365235,14|2,1:2|0:0,0:0:0:0:
168,136,83326,2,0,P|233:124|269:148,1,83.9999974365235,10|0,0:0|0:0,0:0:0:0:
247,130,83583,1,2,0:0:0:0:
247,130,83669,2,0,P|291:131|331:107,1,83.9999974365235,12|2,0:0|0:0,0:0:0:0:
424,20,84012,6,0,L|448:176,1,125.999996154785,10|2,0:0|0:0,0:0:0:0:
420,180,84355,2,0,L|412:296,1,83.9999974365235,12|2,0:0|0:0,0:0:0:0:
325,112,84697,2,0,P|273:72|197:88,1,125.999996154785,10|2,0:0|0:0,0:0:0:0:
176,72,85040,2,0,L|192:176,1,83.9999974365235,12|2,0:0|0:0,0:0:0:0:
196,328,85383,6,0,L|92:312,1,83.9999974365235,10|0,0:0|0:0,0:0:0:0:
224,248,85726,2,0,L|320:260,1,83.9999974365235,14|2,0:0|0:0,0:0:0:0:
307,258,85983,1,2,0:0:0:0:
307,258,86069,2,0,P|295:311|303:355,1,83.9999974365235,10|0,0:0|0:0,0:0:0:0:
412,344,86412,2,0,L|400:232,1,83.9999974365235,12|2,0:0|0:0,0:0:0:0:
420,88,86755,6,0,P|368:116|324:108,1,83.9999974365235,10|0,0:0|0:0,0:0:0:0:
344,114,87012,1,2,0:0:0:0:
344,114,87097,2,0,P|292:88|240:104,1,83.9999974365235,12|2,0:0|0:0,0:0:0:0:
128,36,87440,2,0,P|152:88|144:132,1,83.9999974365235,10|0,0:0|0:0,0:0:0:0:
150,113,87697,1,2,0:0:0:0:
150,113,87783,2,0,P|131:159|139:199,1,83.9999974365235,12|2,0:0|0:0,0:0:0:0:
96,304,88126,6,0,L|179:291,1,83.9999974365235,10|0,0:0|0:0,0:0:0:0:
275,220,88469,1,14,0:0:0:0:
328,332,88640,1,2,0:0:0:0:
328,332,88726,1,2,0:0:0:0:
328,332,88812,2,0,P|396:352|460:336,1,125.999996154785,10|2,0:0|0:0,0:0:0:0:
448,341,89155,2,0,L|440:240,1,83.9999974365235,12|2,0:0|0:0,0:0:0:0:
368,112,89497,6,0,L|356:252,1,125.999996154785,10|2,0:0|0:0,0:0:0:0:
357,237,89840,2,0,L|256:216,1,83.9999974365235,12|2,0:0|0:0,0:0:0:0:
164,144,90183,2,0,P|224:116|224:36,1,125.999996154785,10|2,0:0|0:0,0:0:0:0:
235,61,90526,2,0,L|112:48,1,83.9999974365235,12|2,0:0|0:0,0:0:0:0:
56,144,90869,6,0,L|68:236,1,83.9999974365235,10|0,0:0|0:0,0:0:0:0:
156,336,91212,2,0,L|168:240,1,83.9999974365235,14|2,0:0|0:0,0:0:0:0:
166,252,91469,1,2,0:0:0:0:
166,252,91555,2,0,L|280:248,1,83.9999974365235,10|0,0:0|0:0,0:0:0:0:
392,248,91897,1,12,0:0:0:0:
304,336,92069,1,2,0:0:0:0:
328,160,92240,5,4,0:1:0:0:
340,172,93269,2,0,L|348:240,1,48.9999985046387,0|0,0:0|0:0,0:0:0:0:
248,308,93612,6,0,L|256:196,1,90.9999958343508,4|0,0:1|0:0,0:0:0:0:
212,112,93955,1,4,0:1:0:0:
140,204,94126,1,2,0:0:0:0:
212,112,94297,2,0,P|268:96|324:112,1,90.9999958343508,10|0,0:0|0:0,0:0:0:0:
300,101,94555,1,2,0:0:0:0:
300,101,94640,2,0,P|284:57|284:9,1,90.9999958343508,14|2,0:0|0:0,0:0:0:0:
408,120,94983,6,0,L|400:272,1,136.499993751526,10|2,0:0|0:0,0:0:0:0:
400,256,95326,2,0,L|500:232,1,90.9999958343508,12|2,0:0|0:0,0:0:0:0:
288,212,95669,1,10,0:0:0:0:
288,212,95755,2,0,L|180:240,1,90.9999958343508,2|2,0:0|0:0,0:0:0:0:
199,234,96012,2,0,L|204:332,1,90.9999958343508,14|2,0:0|0:0,0:0:0:0:
200,140,96355,6,0,L|88:160,1,90.9999958343508,10|0,0:0|0:0,0:0:0:0:
4,204,96697,1,14,0:0:0:0:
36,88,96869,1,2,0:0:0:0:
36,88,96955,1,2,0:0:0:0:
36,88,97040,2,0,L|192:64,1,136.499993751526,10|2,0:0|0:0,0:0:0:0:
210,49,97383,2,0,L|198:157,1,90.9999958343508,12|2,0:0|0:0,0:0:0:0:
320,288,97726,6,0,L|292:68,1,181.999991668702,10|14,0:0|0:0,0:0:0:0:
288,16,98240,1,2,0:0:0:0:
288,16,98326,1,2,0:0:0:0:
288,16,98412,2,0,P|300:72|396:64,1,136.499993751526,8|0,0:0|0:0,0:0:0:0:
369,87,98755,2,0,L|378:155,1,62.9999980773926,2|0,0:0|0:0,0:0:0:0:
388,336,99097,6,0,P|332:296|272:312,1,90.9999958343508,10|0,0:0|0:0,0:0:0:0:
236,188,99440,1,14,0:0:0:0:
208,316,99612,1,2,0:0:0:0:
208,316,99697,1,2,0:0:0:0:
208,316,99783,2,0,P|152:340|80:320,1,136.499993751526,10|2,0:0|0:0,0:0:0:0:
81,321,100126,2,0,L|92:200,1,90.9999958343508,12|2,0:0|0:0,0:0:0:0:
40,64,100469,6,0,P|36:128|60:168,1,90.9999958343508,10|0,0:0|0:0,0:0:0:0:
46,151,100726,1,2,0:0:0:0:
46,151,100812,2,0,L|144:136,1,90.9999958343508,12|2,0:0|0:0,0:0:0:0:
252,32,101155,2,0,L|256:148,1,90.9999958343508,10|0,0:0|0:0,0:0:0:0:
288,256,101497,1,14,0:0:0:0:
288,256,101583,1,2,0:0:0:0:
288,256,101669,1,2,0:0:0:0:
336,144,101840,6,2,B|364:156|388:184|380:232|380:232|436:212|500:284|460:356|384:384|336:312,1,363.999983337403,10|10,0:0|0:0,0:3:0:0:
300,228,102697,1,0,0:0:0:0:
300,228,102783,1,2,0:0:0:0:
300,228,102869,2,0,L|192:236,1,90.9999958343508,12|2,0:0|0:0,0:0:0:0:
136,144,103212,6,0,P|160:204|140:296,1,136.499993751526,10|2,0:2|0:0,0:0:0:0:
144,284,103555,2,0,L|36:268,1,90.9999958343508,12|2,0:0|0:0,0:0:0:0:
240,152,103897,2,0,L|384:164,1,136.499993751526,10|2,0:0|0:0,0:0:0:0:
380,184,104240,2,0,L|364:280,1,90.9999958343508,12|2,0:0|0:0,0:0:0:0:
264,344,104583,5,8,3:2:0:0:
288,232,104755,1,8,3:2:0:0:
264,344,104926,2,0,P|216:348|164:328,1,90.9999958343508,4|2,0:1|0:0,0:0:0:0:
108,240,105269,1,10,0:0:0:0:
108,240,105355,2,0,L|120:136,1,90.9999958343508,2|2,0:0|0:0,0:0:0:0:
124,120,105612,2,0,L|20:132,1,90.9999958343508,14|0,0:0|0:0,0:0:0:0:
180,28,105955,6,0,P|224:68|220:152,1,136.499993751526,10|2,0:0|0:0,0:0:0:0:
225,141,106297,2,0,P|208:200|232:240,1,90.9999958343508,12|2,0:0|0:0,0:0:0:0:
371,202,106640,1,10,0:0:0:0:
371,202,106726,2,0,P|307:186|267:202,1,90.9999958343508,2|2,0:0|0:0,0:0:0:0:
285,193,106983,2,0,P|307:247|295:295,1,90.9999958343508,14|2,0:0|0:0,0:0:0:0:
192,112,107326,6,0,L|316:100,1,90.9999958343508,10|0,0:0|0:0,0:0:0:0:
432,92,107669,1,14,0:0:0:0:
372,196,107840,1,2,0:0:0:0:
372,196,107926,1,2,0:0:0:0:
372,196,108012,2,0,P|348:248|368:308,1,90.9999958343508,10|0,0:0|0:0,0:0:0:0:
464,348,108355,2,0,L|444:196,1,136.499993751526,12|0,0:0|0:0,0:0:0:0:
460,180,108697,5,10,0:0:0:0:
352,96,108869,1,2,0:0:0:0:
352,96,108955,1,2,0:0:0:0:
352,96,109040,1,14,0:0:0:0:
304,224,109212,1,2,0:0:0:0:
304,224,109297,1,2,0:0:0:0:
304,224,109383,1,10,0:0:0:0:
176,8,109726,2,0,L|188:132,1,90.9999958343508,2|8,0:0|0:0,0:0:0:0:
256,192,110069,12,10,114183,0:0:0:0:
156,312,120697,6,2,B|192:340|251:312|251:312|276:335|316:336,1,157.500006008148,0|0,0:0|0:0,0:3:0:0:
346,348,121040,5,2,0:0:0:0:
352,112,121383,2,0,B|336:156|336:156|348:240,2,105,2|2|2,0:0|0:0|0:0,0:0:0:0:
360,120,121983,1,0,0:0:0:0:
360,120,122069,2,0,L|460:124,1,70,2|0,0:0|0:0,0:0:0:0:
248,48,122412,5,2,0:0:0:0:
248,48,122755,2,0,L|256:156,2,105,2|2|2,0:0|0:0|0:0,0:0:0:0:
340,180,123440,2,2,L|140:204,1,157.500006008148,2|0,0:0|0:0,0:3:0:0:
152,232,123783,5,2,0:0:0:0:
72,52,124126,2,0,B|100:88|100:88|88:172,2,105,2|2|2,0:0|0:0|0:0,0:0:0:0:
28,184,124812,2,0,P|68:216|108:208,1,70,2|2,0:0|0:0,0:0:0:0:
184,172,125155,5,2,0:0:0:0:
164,248,125326,1,2,0:0:0:0:
184,172,125497,1,2,0:0:0:0:
332,320,125840,1,2,0:0:0:0:
332,320,126012,1,2,0:0:0:0:
332,320,126183,6,2,P|388:344|436:272,1,157.500006008148,0|0,0:0|0:0,0:3:0:0:
436,275,126526,6,0,L|416:184,1,77.0000023498536,4|0,1:1|0:0,0:0:0:0:
348,96,126869,2,0,L|336:204,1,77.0000023498536,4|0,1:1|0:0,0:0:0:0:
244,208,127212,2,0,L|256:112,1,77.0000023498536,8|2,1:2|0:0,0:0:0:0:
240,84,127469,1,0,0:0:0:0:
240,84,127555,2,0,L|132:92,1,77.0000023498536,6|2,1:2|0:0,0:0:0:0:
52,36,127897,6,0,P|80:80|72:128,1,77.0000023498536,10|0,1:2|0:0,0:0:0:0:
108,232,128240,2,0,P|136:188|128:140,1,77.0000023498536,6|0,1:2|0:0,0:0:0:0:
4,136,128583,2,0,L|20:232,1,77.0000023498536,8|2,1:2|0:0,0:0:0:0:
14,329,128926,2,2,B|203:322,1,157.500006008148,6|0,1:2|0:0,0:3:0:0:
171,323,129269,6,0,L|150:234,1,77.0000023498536,10|0,1:2|0:0,0:0:0:0:
228,168,129612,2,0,L|248:248,1,77.0000023498536,6|0,1:2|0:0,0:0:0:0:
324,164,129955,2,0,L|305:89,1,77.0000023498536,8|2,1:2|0:0,0:0:0:0:
428,40,130297,1,6,1:2:0:0:
428,40,130469,1,2,0:0:0:0:
412,160,130640,6,0,P|420:208|452:252,1,77.0000023498536,10|0,1:2|0:0,0:0:0:0:
316,164,130983,2,0,P|264:184|176:160,1,115.50000352478,6|0,1:2|0:0,0:0:0:0:
205,176,131326,2,0,L|216:80,1,77.0000023498536,8|2,1:2|0:0,0:0:0:0:
120,24,131669,2,2,B|156:104|76:104|120:204,1,157.500006008148,6|0,1:2|0:0,0:3:0:0:
110,175,132012,6,0,L|12:160,1,77.0000023498536,10|0,1:2|0:0,0:0:0:0:
116,284,132355,2,0,L|214:299,1,77.0000023498536,6|0,1:2|0:0,0:0:0:0:
288,244,132697,2,0,L|292:348,1,77.0000023498536,8|2,1:2|0:0,0:0:0:0:
320,344,132955,1,0,0:0:0:0:
320,344,133040,1,6,1:2:0:0:
384,264,133212,1,2,0:0:0:0:
384,264,133383,6,0,P|380:208|348:180,1,77.0000023498536,10|0,1:2|0:0,0:0:0:0:
332,100,133726,2,0,P|300:128|256:128,1,77.0000023498536,6|0,1:2|0:0,0:0:0:0:
168,104,134069,2,0,P|188:156|184:196,1,77.0000023498536,8|2,1:2|0:0,0:0:0:0:
80,196,134412,2,2,L|88:20,1,157.500006008148,6|0,1:2|0:0,0:3:0:0:
112,20,134755,6,0,L|200:12,1,77.0000023498536,10|0,1:2|0:0,0:0:0:0:
319,35,135097,2,0,L|307:131,1,77.0000023498536,6|0,1:2|0:0,0:0:0:0:
243,184,135440,2,0,L|223:76,1,77.0000023498536,8|2,1:2|0:0,0:0:0:0:
320,240,135783,1,6,1:2:0:0:
320,240,135955,1,2,0:0:0:0:
280,324,136126,5,2,1:2:0:0:
229,109,136469,1,2,1:2:0:0:
280,324,136812,1,2,1:2:0:0:
236,116,137155,2,2,B|168:144|156:72|72:120,1,157.500006008148,2|0,0:0|0:0,0:3:0:0:
84,113,137497,6,0,L|88:184,2,52.5000020027161,8|8|8,1:0|1:0|1:0,0:0:0:0:
218,26,137840,1,4,1:0:0:0:
218,26,138183,2,0,P|267:51|300:47,1,77.0000023498536,8|2,1:2|0:0,0:0:0:0:
329,35,138440,1,0,0:0:0:0:
329,35,138526,2,0,P|312:72|328:128,1,77.0000023498536,6|0,1:2|0:0,0:0:0:0:
380,232,138869,6,0,P|340:200|284:217,1,77.0000023498536,8|2,1:2|0:0,0:0:0:0:
200,316,139212,2,0,P|240:272|228:228,1,77.0000023498536,4|2,1:2|0:0,0:0:0:0:
216,216,139469,1,2,0:0:0:0:
216,216,139555,2,0,L|116:228,1,77.0000023498536,8|0,1:2|0:0,0:0:0:0:
52,132,139897,2,2,L|64:296,1,157.500006008148,6|0,1:2|0:0,0:3:0:0:
63,289,140240,6,0,L|164:312,1,77.0000023498536,8|2,1:2|0:0,0:0:0:0:
208,144,140583,2,0,L|216:248,1,77.0000023498536,6|2,1:2|0:0,0:0:0:0:
236,264,140840,1,2,0:0:0:0:
236,264,140926,2,0,L|328:256,1,77.0000023498536,8|2,1:2|0:0,0:0:0:0:
336,128,141269,2,0,L|320:28,1,77.0000023498536,6|2,1:2|0:0,0:0:0:0:
452,84,141612,6,0,L|444:256,1,154.000004699707,10|6,1:2|1:2,0:0:0:0:
376,340,142126,1,2,0:0:0:0:
376,340,142212,1,2,0:0:0:0:
376,340,142297,2,0,P|360:292|312:272,1,77.0000023498536,8|2,1:2|0:0,0:0:0:0:
264,160,142640,2,2,B|288:236|224:224|252:316,1,157.500006008148,4|0,1:2|0:0,0:3:0:0:
250,311,142983,6,0,L|164:296,1,77.0000023498536,10|0,1:2|0:0,0:0:0:0:
60,192,143326,2,0,L|160:208,1,77.0000023498536,6|0,1:2|0:0,0:0:0:0:
244,100,143669,2,0,L|157:115,1,77.0000023498536,8|2,1:2|0:0,0:0:0:0:
136,96,143926,1,0,0:0:0:0:
136,96,144012,2,0,L|156:12,1,77.0000023498536,6|2,1:2|0:0,0:0:0:0:
256,16,144355,6,0,L|340:24,1,77.0000023498536,10|0,1:2|0:0,0:0:0:0:
448,20,144697,2,0,P|412:56|412:148,1,115.50000352478,6|2,1:2|0:0,0:0:0:0:
440,144,145040,2,0,L|432:236,1,77.0000023498536,8|2,1:2|0:0,0:0:0:0:
320,320,145383,2,2,L|336:148,1,157.500006008148,6|0,1:2|0:0,0:3:0:0:
334,163,145726,6,0,L|252:176,1,77.0000023498536,10|0,1:2|0:0,0:0:0:0:
172,156,146069,2,0,P|184:204|176:248,1,77.0000023498536,6|0,1:2|0:0,0:0:0:0:
96,200,146412,2,0,L|104:88,1,77.0000023498536,8|2,1:2|0:0,0:0:0:0:
108,40,146755,2,0,L|212:48,1,77.0000023498536,6|2,1:2|0:0,0:0:0:0:
264,92,147097,6,0,L|256:140,1,41.9999987182618,6|0,0:0|0:0,0:0:0:0:
292,72,147440,2,0,L|300:20,1,48.9999985046387,0|0,0:0|0:0,0:0:0:0:
336,136,147783,2,0,L|328:196,1,56,2|0,0:0|0:0,0:0:0:0:
408,88,148126,2,0,L|420:16,1,62.9999980773926,2|0,0:0|0:0,0:0:0:0:
420,176,148469,5,4,3:1:0:0:
200,72,148812,1,4,3:1:0:0:
184,248,149155,2,0,P|148:280|104:280,1,70,8|0,3:2|3:2,0:0:0:0:
116,196,149497,2,0,L|120:116,1,70,10|0,3:2|3:2,0:0:0:0:
40,64,149840,6,0,L|32:232,1,140,10|10,3:2|3:2,0:0:0:0:
32,204,150526,2,0,L|104:188,1,70,10|0,3:2|3:2,0:0:0:0:
172,244,150869,2,0,L|168:316,1,70,10|0,3:2|3:2,0:0:0:0:
256,264,151212,6,0,P|256:200|180:160,1,140,10|8,3:2|3:2,0:0:0:0:
108,168,151726,1,0,3:2:0:0:
108,168,151897,2,0,L|120:76,1,70,10|0,3:2|3:2,0:0:0:0:
200,36,152240,2,0,L|292:44,1,70,10|0,3:2|3:2,0:0:0:0:
352,108,152583,6,0,B|340:168|376:176|356:264,1,140,10|8,3:2|3:2,0:0:0:0:
296,312,153097,1,0,3:2:0:0:
236,228,153269,1,10,3:2:0:0:
236,228,153440,1,0,3:2:0:0:
188,320,153612,2,0,P|144:344|96:340,1,70,10|0,3:2|3:2,0:0:0:0:
128,248,153955,6,0,L|140:96,1,140,10|8,3:2|3:2,0:0:0:0:
139,108,154640,2,0,L|47:120,1,70,10|0,3:2|3:2,0:0:0:0:
200,32,154983,2,0,L|292:20,1,70,10|0,3:2|3:2,0:0:0:0:
248,124,155326,6,0,L|240:272,1,140,10|8,3:2|3:2,0:0:0:0:
240,264,156012,2,0,L|320:252,1,70,10|0,3:2|3:2,0:0:0:0:
408,312,156355,1,10,3:2:0:0:
408,312,156526,1,0,3:2:0:0:
444,200,156697,6,0,P|456:144|388:72,1,140,10|8,3:2|3:2,0:0:0:0:
300,68,157212,1,0,3:2:0:0:
300,68,157383,2,0,P|328:120|328:152,1,70,10|0,3:2|3:2,0:0:0:0:
216,20,157726,2,0,P|160:12|120:28,1,70,10|0,3:2|3:2,0:0:0:0:
92,108,158069,6,0,L|108:256,1,140,10|8,3:2|3:2,0:0:0:0:
120,352,158583,1,0,3:2:0:0:
120,352,158755,2,0,L|192:316,1,70,10|0,3:2|3:2,0:0:0:0:
232,208,159097,2,0,L|256:296,1,70,10|0,3:2|3:2,0:0:0:0:
280,364,159440,5,8,1:2:0:0:
336,100,159783,2,0,L|316:252,1,105.000004005432,4|0,1:2|3:2,0:0:0:0:
376,312,160126,5,8,1:2:0:0:
432,48,160469,2,0,L|412:200,1,105.000004005432,4|0,1:2|3:2,0:0:0:0:
264,44,160812,5,8,1:2:0:0:
264,272,161155,2,0,P|312:291|363:281,1,105.000004005432,4|0,1:2|3:2,0:0:0:0:
418,152,161497,5,8,1:2:0:0:
181,227,161840,2,0,P|171:278|191:325,1,105.000004005432,4|0,1:2|3:2,0:0:0:0:
264,272,162183,6,0,L|252:128,1,125.999996154785,8|0,1:2|0:0,0:0:0:0:
264,112,162526,2,0,L|154:121,1,105.000004005432,6|0,1:2|3:2,0:0:0:0:
156,16,162869,5,8,1:2:0:0:
276,200,163212,2,0,L|385:209,1,105.000004005432,4|0,1:2|3:2,0:0:0:0:
464,140,163555,5,8,1:2:0:0:
268,95,163897,2,0,L|275:199,1,105.000004005432,6|0,1:2|3:2,0:0:0:0:
184,106,164240,2,0,L|272:94,1,83.9999974365235,10|0,1:2|3:2,0:0:0:0:
120,48,164583,2,2,P|160:96|136:204,1,157.500006008148,4|0,1:2|3:2,0:3:0:0:
120,208,164926,5,4,1:2:0:0:
32,72,165269,1,0,1:0:0:0:
220,180,165612,1,0,1:0:0:0:
192,8,165955,1,0,1:0:0:0:
292,180,166297,5,0,1:0:0:0:
320,8,166640,1,0,1:0:0:0:
392,208,166983,1,0,1:0:0:0:
480,72,167326,1,0,1:0:0:0:
254,101,167669,6,2,B|190:107|190:107|179:105|179:105|169:109|169:109|90:117|90:117|100:161|100:161|99:169|99:169|103:174|103:174|108:179|108:179|106:185|106:185|112:212|112:212|131:207|160:204|160:204|184:208|184:208|200:232|200:232,1,350,0|0,1:0|0:0,0:3:0:0:
197,309,168697,5,2,1:2:0:0:
360,208,169040,1,0,0:0:0:0:
176,92,169383,1,2,0:0:0:0:
277,255,169726,1,0,0:0:0:0:
277,255,170069,2,0,L|268:172,1,70,2|0,0:0|0:0,0:0:0:0:
256,56,170412,5,4,0:1:0:0:
256,56,181040,5,2,0:0:0:0:
256,56,181383,5,8,3:2:0:0:
344,248,181726,1,0,3:2:0:0:
364,36,182069,1,0,3:2:0:0:
364,36,182155,1,2,0:0:0:0:
364,36,182240,1,2,0:0:0:0:
324,136,182412,2,0,P|288:152|240:148,1,70,2|0,3:2|0:0,0:0:0:0:
176,96,182755,6,0,L|164:12,1,70,2|0,3:2|0:0,0:0:0:0:
136,184,183097,2,0,L|48:204,1,70,0|2,3:2|0:0,0:0:0:0:
208,240,183440,2,0,L|216:288,2,35,2|2|2,3:2|0:0|0:0,0:0:0:0:
257,152,183783,2,0,L|345:132,1,70,2|0,3:2|0:0,0:0:0:0:
392,60,184126,6,2,P|368:112|380:212,1,140,2|0,3:2|3:2,0:3:0:0:
239,44,184640,2,2,P|251:92|335:136,1,140,2|0,0:0|0:0,0:3:0:0:
472,104,185155,2,2,P|448:144|448:192,1,70,2|0,3:2|0:0,0:3:0:0:
456,288,185497,5,2,3:2:0:0:
364,232,185669,2,0,L|316:212,2,35,2|2|2,0:0|0:0|3:2,0:0:0:0:
368,336,186012,2,0,L|348:368,2,35,2|2|2,0:0|0:0|3:2,0:0:0:0:
305,128,186526,2,2,P|269:82|204:77,1,105,2|0,3:2|0:2,0:3:0:0:
226,73,186869,6,2,L|229:158,2,70,2|0|0,3:2|0:0|3:2,0:3:0:0:
136,136,187383,2,2,P|184:168|188:264,1,140,2|0,0:0|0:0,0:3:0:0:
110,288,187897,2,2,L|126:188,1,70,2|0,3:2|0:0,0:3:0:0:
36,128,188240,6,2,L|40:212,2,70,2|0|0,3:2|0:0|3:2,0:3:0:0:
120,40,188755,2,2,P|188:80|264:56,1,140,2|0,0:0|0:0,0:3:0:0:
320,24,189269,1,2,3:2:0:0:
320,24,189440,1,2,0:0:0:0:
316,116,189612,5,2,3:2:0:0:
72,48,189955,2,0,L|76:0,2,35,2|2|2,3:2|0:0|0:0,0:0:0:0:
60,152,190297,1,2,3:2:0:0:
316,116,190640,1,2,3:2:0:0:
208,284,190983,5,2,0:0:0:0:
208,284,192355,6,0,L|188:192,1,70,10|0,0:0|0:0,0:0:0:0:
139,164,192697,2,0,L|88:212,1,70,8|2,0:0|0:0,0:0:0:0:
96,72,193040,2,0,L|185:100,1,70,10|0,0:0|0:0,0:0:0:0:
238,84,193383,2,0,L|224:16,1,70,8|2,0:0|0:0,0:0:0:0:
320,56,193726,6,0,L|308:188,1,105,10|2,0:0|0:0,0:0:0:0:
310,160,194069,2,0,L|387:143,1,70,8|2,0:0|0:0,0:0:0:0:
460,220,194412,2,0,L|336:248,1,105,10|2,0:0|0:0,0:0:0:0:
357,243,194755,2,0,L|368:324,1,70,8|2,0:0|0:0,0:0:0:0:
276,280,195097,6,0,L|192:288,1,70,10|0,0:0|0:0,0:0:0:0:
216,140,195440,2,0,L|234:207,1,70,8|2,0:0|0:0,0:0:0:0:
380,200,195783,2,0,L|296:208,1,70,10|0,0:0|0:0,0:0:0:0:
320,60,196126,2,0,L|338:127,1,70,8|2,0:0|0:0,0:0:0:0:
232,52,196469,6,0,P|176:28|116:60,1,105,10|2,0:0|0:0,0:0:0:0:
124,52,196812,2,0,L|136:128,1,70,8|2,0:0|0:0,0:0:0:0:
84,248,197155,2,0,P|116:204|192:216,1,105,10|2,0:0|0:0,0:0:0:0:
176,208,197497,2,0,L|172:288,1,70,8|2,0:0|0:0,0:0:0:0:
288,192,197840,6,0,L|376:184,1,70,10|0,0:0|0:0,0:0:0:0:
244,264,198183,2,0,L|252:352,1,70,8|2,0:0|0:0,0:0:0:0:
176,208,198526,2,0,L|88:216,1,70,10|0,0:0|0:0,0:0:0:0:
220,136,198869,2,0,L|212:48,1,70,8|2,0:0|0:0,0:0:0:0:
316,100,199212,6,0,P|300:176|316:232,1,105,10|2,0:0|0:0,0:0:0:0:
304,201,199555,2,0,L|400:192,1,70,8|2,0:0|0:0,0:0:0:0:
456,308,199897,2,0,P|416:280|352:284,1,105,10|2,0:0|0:0,0:0:0:0:
361,280,200240,2,0,P|325:304|281:304,1,70,8|2,0:0|0:0,0:0:0:0:
200,288,200583,6,0,L|216:192,1,70,10|0,0:0|0:0,0:0:0:0:
132,172,200926,2,0,L|116:268,1,70,8|2,0:0|0:0,0:0:0:0:
212,132,201269,2,0,L|228:36,1,70,10|0,0:0|0:0,0:0:0:0:
144,16,201612,2,0,L|128:112,1,70,8|2,0:0|0:0,0:0:0:0:
223,62,201955,6,0,P|295:46|335:62,2,105,10|2|2,0:0|0:0|0:0,0:0:0:0:
140,180,202640,2,0,P|68:196|28:180,2,105,2|2|2,0:0|0:0|0:0,0:0:0:0:
80,88,203326,5,8,1:2:0:0:
140,292,203669,1,8,0:0:0:0:
236,24,204012,1,8,0:0:0:0:
296,228,204355,1,8,0:0:0:0:
64,220,204697,5,10,0:0:0:0:
316,104,205040,1,8,0:0:0:0:
64,84,205383,1,10,0:0:0:0:
296,228,205726,1,8,0:0:0:0:
216,12,206069,5,10,0:0:0:0:
172,236,206412,1,8,0:0:0:0:
384,112,206755,1,10,0:0:0:0:
340,336,207098,1,8,0:0:0:0:
120,136,207440,5,10,0:0:0:0:
276,280,207783,1,10,0:0:0:0:
323,66,208126,1,10,0:0:0:0:
323,66,208297,2,0,P|371:130|331:242,1,181.999991668702
272,156,208812,1,14,0:0:0:0:
256,192,208897,12,4,212926,0:0:0:0:
312,112,214297,6,0,P|280:56|152:72,1,181.999991668702,10|10,0:0|0:0,0:0:0:0:
100,136,214812,1,2,0:0:0:0:
100,136,214897,1,2,0:0:0:0:
100,136,214983,2,0,L|116:304,1,136.499993751526,10|2,0:0|0:0,0:0:0:0:
112,271,215326,2,0,L|16:248,1,90.9999958343508,8|2,0:0|0:0,0:0:0:0:
200,212,215669,6,0,P|224:264|176:364,2,136.499993751526,10|2|2,0:0|0:0|0:0,0:0:0:0:
344,184,216355,2,0,P|343:250|300:302,2,136.499993751526,10|2|2,0:0|0:0|0:0,0:0:0:0:
264,92,217040,6,0,L|268:188,1,90.9999958343508,10|0,0:0|0:0,0:0:0:0:
348,88,217383,2,0,L|360:40,2,45.4999979171754,10|2|2,0:0|0:0|0:0,0:0:0:0:
404,184,217726,2,0,P|444:216|500:212,1,90.9999958343508,10|0,0:0|0:0,0:0:0:0:
482,218,217983,2,0,L|476:152,1,45.4999979171754,2|8,0:0|0:0,0:0:0:0:
464,44,218240,1,2,0:0:0:0:
348,88,218412,6,0,P|268:108|192:104,1,136.499993751526,10|2,0:0|0:0,0:0:0:0:
188,106,218755,2,0,P|200:158|200:214,1,90.9999958343508,8|2,0:0|0:0,0:0:0:0:
260,360,219097,2,0,L|276:204,1,136.499993751526,10|2,0:0|0:0,0:0:0:0:
304,232,219440,2,0,P|336:248|408:224,1,90.9999958343508,8|2,0:0|0:0,0:0:0:0:
472,172,219783,6,0,L|484:292,1,90.9999958343508,10|0,0:0|0:0,0:0:0:0:
416,76,220126,2,0,P|372:52|308:64,1,90.9999958343508,10|2,0:0|0:0,0:0:0:0:
332,53,220383,1,2,0:0:0:0:
332,53,220469,2,0,B|276:88|276:88|184:56,1,136.499993751526,10|2,0:0|0:0,0:0:0:0:
209,64,220812,2,0,L|220:160,1,90.9999958343508,8|2,0:0|0:0,0:0:0:0:
180,304,221155,6,0,P|184:224|128:200,2,136.499993751526,10|2|2,0:0|0:0|0:0,0:0:0:0:
108,128,221840,2,0,L|96:272,2,136.499993751526,10|2|2,0:0|0:0|0:0,0:0:0:0:
208,56,222526,6,0,L|328:72,1,90.9999958343508,10|0,0:0|0:0,0:0:0:0:
392,152,222869,2,0,L|276:164,1,90.9999958343508,10|2,0:0|0:0,0:0:0:0:
301,161,223126,1,2,0:0:0:0:
301,161,223212,2,0,P|320:220|304:312,1,136.499993751526,10|2,0:0|0:0,0:0:0:0:
311,293,223555,2,0,P|352:268|420:288,1,90.9999958343508,8|2,0:0|0:0,0:0:0:0:
220,192,223897,6,0,L|68:212,1,136.499993751526,10|2,0:0|0:0,0:0:0:0:
85,210,224240,2,0,L|96:100,1,90.9999958343508,8|2,0:0|0:0,0:0:0:0:
252,128,224583,2,0,L|232:280,1,136.499993751526,10|2,0:0|0:0,0:0:0:0:
234,263,224926,2,0,L|344:252,1,90.9999958343508,8|2,0:0|0:0,0:0:0:0:
420,236,225269,5,8,0:0:0:0:
376,328,225440,1,8,0:0:0:0:
420,236,225612,2,0,P|424:176|400:136,1,90.9999958343508,14|2,0:0|0:0,0:0:0:0:
348,56,225955,2,0,L|244:72,1,90.9999958343508,10|0,0:0|0:0,0:0:0:0:
258,69,226212,1,2,0:0:0:0:
258,69,226297,2,0,L|272:176,1,90.9999958343508,12|2,0:0|0:0,0:0:0:0:
232,256,226640,6,0,P|184:196|112:224,1,136.499993751526,10|2,0:0|0:0,0:0:0:0:
131,204,226983,2,0,L|144:320,1,90.9999958343508,12|2,0:0|0:0,0:0:0:0:
129,116,227326,2,0,P|109:172|29:192,1,136.499993751526,10|2,0:0|0:0,0:0:0:0:
41,195,227669,2,0,L|44:80,1,90.9999958343508,12|2,0:0|0:0,0:0:0:0:
144,24,228012,6,0,L|252:32,1,90.9999958343508,10|0,0:0|0:0,0:0:0:0:
208,140,228355,2,0,L|204:264,1,90.9999958343508,14|2,0:0|0:0,0:0:0:0:
205,230,228612,1,2,0:0:0:0:
205,230,228697,2,0,P|256:208|316:240,1,90.9999958343508,10|0,0:0|0:0,0:0:0:0:
312,352,229040,2,0,P|268:320|260:280,1,90.9999958343508,12|2,0:0|0:0,0:0:0:0:
364,280,229383,6,0,L|464:272,1,90.9999958343508,10|0,0:0|0:0,0:0:0:0:
454,272,229640,1,2,0:0:0:0:
454,272,229726,2,0,P|434:208|442:172,1,90.9999958343508,12|2,0:0|0:0,0:0:0:0:
448,64,230069,2,0,L|352:72,1,90.9999958343508,10|0,0:0|0:0,0:0:0:0:
357,71,230326,1,2,0:0:0:0:
357,71,230412,2,0,P|368:128|344:176,1,90.9999958343508,12|2,0:0|0:0,0:0:0:0:
260,44,230755,6,0,L|148:40,1,90.9999958343508,10|0,0:0|0:0,0:0:0:0:
56,91,231097,1,14,0:0:0:0:
160,184,231269,1,2,0:0:0:0:
160,184,231355,1,2,0:0:0:0:
160,184,231440,2,0,P|180:228|176:336,1,136.499993751526,10|2,0:0|0:0,0:0:0:0:
182,315,231783,2,0,L|92:296,1,90.9999958343508,12|2,0:0|0:0,0:0:0:0:
280,252,232126,6,0,P|288:312|364:336,1,136.499993751526,10|2,0:0|0:0,0:0:0:0:
372,320,232469,2,0,L|364:204,1,90.9999958343508,12|2,0:0|0:0,0:0:0:0:
312,120,232812,2,0,L|160:136,1,136.499993751526,10|2,0:0|0:0,0:0:0:0:
176,134,233155,2,0,P|192:76|172:36,1,90.9999958343508,12|2,0:0|0:0,0:0:0:0:
68,108,233497,6,0,L|80:240,1,90.9999958343508,10|0,0:0|0:0,0:0:0:0:
144,336,233840,2,0,L|156:232,1,90.9999958343508,14|2,0:0|0:0,0:0:0:0:
154,245,234097,1,2,0:0:0:0:
154,245,234183,2,0,L|272:232,1,90.9999958343508,10|0,0:0|0:0,0:0:0:0:
384,216,234526,1,12,0:0:0:0:
304,312,234697,1,0,0:0:0:0:
316,160,234869,5,4,0:1:0:0:
328,172,235897,2,0,L|316:108,1,48.9999985046387,0|0,0:0|0:0,0:0:0:0:
204,72,236240,6,0,L|184:192,1,97.9999970092774,4|0,0:1|0:0,0:0:0:0:
152,296,236583,1,4,0:1:0:0:
96,172,236755,1,2,0:0:0:0:
152,296,236926,2,0,P|208:308|252:288,1,97.9999970092774,10|0,0:0|0:0,0:0:0:0:
244,293,237183,1,2,0:0:0:0:
244,293,237269,2,0,L|264:180,1,97.9999970092774,12|2,0:0|0:0,0:0:0:0:
344,96,237612,6,0,P|344:188|400:256,1,146.999995513916,10|2,0:0|0:0,0:0:0:0:
371,232,237955,2,0,P|408:196|472:200,1,97.9999970092774,12|2,0:0|0:0,0:0:0:0:
368,332,238297,1,10,0:0:0:0:
368,332,238383,2,0,L|256:320,1,97.9999970092774,2|2,0:0|0:0,0:0:0:0:
236,312,238640,2,0,P|248:260|224:200,1,97.9999970092774,14|2,0:0|0:0,0:0:0:0:
168,132,238983,6,0,L|36:152,1,97.9999970092774,10|0,0:0|0:0,0:0:0:0:
112,16,239326,1,14,0:0:0:0:
240,68,239497,1,2,0:0:0:0:
240,68,239583,1,2,0:0:0:0:
240,68,239669,2,0,P|292:84|384:56,1,146.999995513916,10|2,0:0|0:0,0:0:0:0:
392,40,240012,2,0,L|388:152,1,97.9999970092774,12|2,0:0|0:0,0:0:0:0:
416,280,240355,6,0,P|372:224|244:248,1,195.999994018555,10|14,0:0|0:0,0:0:0:0:
176,304,240869,1,2,0:0:0:0:
176,304,240955,1,2,0:0:0:0:
176,304,241040,2,0,L|192:132,1,146.999995513916,8|0,0:0|0:0,0:0:0:0:
189,157,241383,2,0,L|116:172,1,56,2|0,0:0|0:0,0:0:0:0:
24,116,241726,6,0,L|40:232,1,97.9999970092774,10|0,0:0|0:0,0:0:0:0:
56,344,242069,1,14,0:0:0:0:
176,304,242240,1,2,0:0:0:0:
176,304,242326,1,2,0:0:0:0:
176,304,242412,2,0,P|228:280|328:304,1,146.999995513916,10|2,0:0|0:0,0:0:0:0:
336,328,242755,2,0,P|396:336|440:304,1,97.9999970092774,12|2,0:0|0:0,0:0:0:0:
392,124,243097,6,0,P|368:164|380:256,1,97.9999970092774,10|0,0:0|0:0,0:0:0:0:
363,214,243355,1,2,0:0:0:0:
363,214,243440,2,0,L|468:204,1,97.9999970092774,12|2,0:0|0:0,0:0:0:0:
256,116,243783,2,0,L|144:124,1,97.9999970092774,10|0,0:0|0:0,0:0:0:0:
32,140,244126,1,14,0:0:0:0:
32,140,244212,1,2,0:0:0:0:
32,140,244297,1,2,0:0:0:0:
92,252,244469,6,2,B|80:304|24:304|-12:276|-20:224|8:184|64:164|64:164|100:184|100:184|140:172|140:172|172:212|228:184,1,391.99998803711,10|10,0:0|0:0,0:3:0:0:
304,144,245326,1,0,0:0:0:0:
304,144,245412,1,2,0:0:0:0:
304,144,245497,2,0,L|316:264,1,97.9999970092774,12|2,0:0|0:0,0:0:0:0:
404,312,245840,6,0,L|416:136,1,146.999995513916,10|2,0:0|0:0,0:0:0:0:
444,140,246183,2,0,L|424:28,1,97.9999970092774,12|2,0:0|0:0,0:0:0:0:
304,144,246526,2,0,P|252:184|152:152,1,146.999995513916,10|2,0:0|0:0,0:0:0:0:
132,148,246869,2,0,L|148:264,1,97.9999970092774,14|0,0:0|0:0,0:0:0:0:
68,356,247212,5,10,0:0:0:0:
40,236,247383,1,8,0:0:0:0:
68,356,247555,2,0,P|128:372|180:340,1,97.9999970092774,4|2,0:1|0:0,0:0:0:0:
264,280,247897,1,10,0:0:0:0:
264,280,247983,2,0,P|328:260|380:284,1,97.9999970092774,2|2,0:0|0:0,0:0:0:0:
355,267,248240,2,0,L|336:144,1,97.9999970092774,14|0,0:0|0:0,0:0:0:0:
312,52,248583,6,0,P|296:144|236:140,1,146.999995513916,10|2,0:0|0:0,0:0:0:0:
258,149,248926,2,0,P|224:108|152:112,1,97.9999970092774,12|2,0:0|0:0,0:0:0:0:
88,208,249269,1,10,0:0:0:0:
88,208,249355,2,0,L|184:192,1,97.9999970092774,2|2,0:0|0:0,0:0:0:0:
184,191,249612,2,0,L|183:299,1,97.9999970092774,12|2,0:0|0:0,0:0:0:0:
272,368,249955,6,0,P|268:320|312:252,1,97.9999970092774,10|0,0:0|0:0,0:0:0:0:
384,180,250297,1,14,0:0:0:0:
260,148,250469,1,2,0:0:0:0:
260,148,250555,1,2,0:0:0:0:
260,148,250640,2,0,L|136:160,1,97.9999970092774,10|0,0:0|0:0,0:0:0:0:
56,112,250983,2,0,L|64:228,1,97.9999970092774,12|2,0:0|0:0,0:0:0:0:
64,344,251326,5,10,0:0:0:0:
176,256,251497,1,2,0:0:0:0:
176,256,251583,1,2,0:0:0:0:
176,256,251669,1,14,0:0:0:0:
264,372,251840,1,2,0:0:0:0:
264,372,251926,1,2,0:0:0:0:
264,372,252012,1,8,0:0:0:0:
303,74,252355,1,12,0:0:0:0:
253,190,252526,1,8,0:0:0:0:
256,192,252697,12,10,256812,0:0:0:0:
