osu file format v14

[General]
AudioFilename: audio.mp3
AudioLeadIn: 0
PreviewTime: 70283
Countdown: 0
SampleSet: Soft
StackLeniency: 0.7
Mode: 0
LetterboxInBreaks: 0
WidescreenStoryboard: 1

[Editor]
Bookmarks: 5847,16819,27790,38762,49733,50504,50676,50933,60704,71676,92247,93619,114190,121047,126533,137504,148476,159447,170419,181390,192362,203333,214304,234876,236247,256819
DistanceSpacing: 1
BeatDivisor: 4
GridSize: 4
TimelineZoom: 0.6999989

[Metadata]
Title:MTC (Radio Edit)
TitleUnicode:MTC (Radio Edit)
Artist:S3RL
ArtistUnicode:S3RL
Creator:Okoratu
Version:Delis' Easy
Source:
Tags:anime featured artist emfa music Delis pishifat Okorin cartoons
BeatmapID:1514865
BeatmapSetID:716630

[Difficulty]
HPDrainRate:3
CircleSize:3
OverallDifficulty:3
ApproachRate:4
SliderMultiplier:0.9
SliderTickRate:1

[Events]
//Background and Video events
0,0,"MTC.jpg",0,0
//Break Periods
2,49726,59377
2,115555,119720
2,170612,180063
2,192355,202006
//Storyboard Layer 0 (Background)
//Storyboard Layer 1 (Fail)
//Storyboard Layer 2 (Pass)
//Storyboard Layer 3 (Foreground)
//Storyboard Sound Samples

[TimingPoints]
355,342.857142857143,4,2,1,100,1,0
4126,-100,4,2,1,30,0,0
4469,-100,4,2,1,20,0,0
5155,-100,4,2,1,30,0,0
5840,-100,4,2,1,40,0,0
38412,-100,4,2,1,50,0,0
49726,-100,4,2,1,30,0,0
60697,-100,4,2,2,45,0,0
66183,-100,4,2,2,40,0,0
71326,-100,4,2,1,40,0,0
71669,-100,4,2,2,70,0,1
82640,-100,4,2,4,70,0,1
82897,-100,4,2,2,70,0,1
92240,-100,4,2,2,50,0,0
93612,-100,4,2,2,75,0,1
104583,-100,4,2,4,75,0,1
104840,-100,4,2,2,75,0,1
110069,-100,4,2,2,50,0,1
114183,-100,4,2,1,50,0,0
120697,-100,4,2,1,40,0,0
126183,-100,4,2,2,65,0,0
137497,-100,4,2,2,40,0,0
137755,-100,4,2,2,65,0,0
147097,-100,4,2,1,65,0,0
147440,-100,4,2,2,60,0,0
148469,-100,4,2,2,50,0,0
148940,-100,4,2,2,60,0,0
159440,-100,4,2,2,65,0,0
164926,-100,4,2,1,50,0,0
181383,-100,4,2,3,60,0,0
192355,-100,4,2,4,30,0,0
203326,-100,4,2,4,60,0,0
208812,-100,4,2,2,40,0,0
213955,-100,4,2,1,50,0,0
214297,-100,4,2,2,75,0,1
225269,-100,4,2,4,75,0,1
225526,-100,4,2,2,75,0,1
234869,-100,4,2,1,50,0,0
236240,-100,4,2,2,80,0,1
247212,-100,4,2,4,80,0,1
247555,-100,4,2,2,80,0,1
252697,-100,4,2,2,55,0,1
256812,-100,4,2,2,50,0,0

[Colours]
Combo1 : 100,230,122
Combo2 : 30,223,234
Combo3 : 241,206,67
Combo4 : 231,86,86

[HitObjects]
292,284,5840,5,4,1:0:0:0:
335,109,6526,2,0,P|424:84|512:116,2,180
328,200,8240,1,0,0:0:0:0:
244,228,8583,6,0,P|196:225|138:224,1,90,0|2,0:0|0:0,0:0:0:0:
64,244,9269,2,0,P|61:196|60:138,1,90
86,66,9955,2,0,B|192:50|153:117|268:95,2,180,0|0|0,0:0|0:0|0:0,0:0:0:0:
14,231,12012,6,0,P|8:281|13:354,1,90,0|0,0:0|0:0,0:0:0:0:
92,288,12697,2,0,P|166:236|260:263,1,180,0|0,0:0|0:0,0:0:0:0:
284,336,13726,1,0,0:0:0:0:
340,264,14069,5,0,0:0:0:0:
444,120,14755,2,0,L|426:9,1,90
344,60,15440,2,0,L|376:247,1,180
212,312,16812,6,0,P|203:266|216:211,2,90,0|2|0,0:0|0:0|0:0,0:0:0:0:
282,371,17840,1,0,0:0:0:0:
362,331,18183,2,0,L|469:341,1,90,0|2,0:0|0:0,0:0:0:0:
502,265,18869,2,0,P|525:180|466:101,1,180,0|0,0:0|0:0,0:0:0:0:
393,75,19897,5,2,0:0:0:0:
306,98,20240,2,0,B|211:122|211:122|181:86|112:89,1,180,0|0,0:0|0:0,0:0:0:0:
51,113,21269,1,2,0:0:0:0:
112,178,21612,1,0,0:0:0:0:
29,213,21955,2,0,P|63:258|123:268,1,90,2|2,0:0|0:0,0:0:0:0:
179,244,22640,5,0,0:0:0:0:
350,299,23326,1,2,0:0:0:0:
428,254,23669,2,0,L|409:157,1,90,2|0,0:0|0:0,0:0:0:0:
253,77,24697,1,2,0:0:0:0:
168,52,25040,6,0,P|168:172|240:208,1,180,2|0,0:0|0:0,0:0:0:0:
292,172,26069,1,0,0:0:0:0:
384,172,26412,2,0,P|388:224|388:272,1,90,0|2,0:0|0:0,0:0:0:0:
380,352,27097,1,0,0:0:0:0:
292,340,27440,1,2,0:0:0:0:
228,277,27783,6,0,P|156:284|83:283,2,135,10|2|2,0:0|0:0|3:2,0:0:0:0:
301,224,29155,2,0,P|373:217|446:218,2,135,2|2|2,3:2|0:0|3:2,0:0:0:0:
220,182,30526,6,0,L|197:24,2,135,2|2|2,3:2|0:2|3:2,0:0:0:0:
239,269,31897,2,0,B|254:358|254:358|347:323|347:323|377:331|377:331|438:310,1,270,2|2,3:2|3:2,0:0:0:0:
476,241,33269,6,0,P|489:170|457:104,2,135,2|2|2,3:2|0:2|3:2,0:0:0:0:
395,200,34640,2,0,L|239:237,2,135,2|2|2,3:2|0:2|3:2,0:0:0:0:
452,130,36012,5,2,3:2:0:0:
382,73,36355,2,0,P|339:121|225:121,1,180,0|2,0:0|3:2,0:0:0:0:
206,210,37383,2,0,L|232:349,1,135,2|2,3:2|0:0,0:0:0:0:
364,360,38412,1,2,3:2:0:0:
430,299,38755,6,0,P|440:233|411:152,2,135,6|2|2,0:2|0:0|3:2,0:0:0:0:
340,280,40126,2,0,L|190:250,1,135,2|2,3:2|0:2,0:0:0:0:
100,172,41155,1,2,3:2:0:0:
62,93,41497,6,0,P|123:71|205:74,2,135,2|2|2,3:2|0:2|3:2,0:0:0:0:
17,171,42869,2,0,P|69:270|214:227,1,270,2|2,3:2|3:2,0:0:0:0:
272,300,44240,6,0,L|438:275,2,135,2|2|2,3:2|0:0|3:2,0:0:0:0:
206,242,45612,2,0,P|130:248|75:204,2,135,2|2|2,3:2|0:0|3:2,0:0:0:0:
257,168,46983,6,0,L|236:49,2,90,2|2|2,3:2|3:2|3:2,0:0:0:0:
340,202,48012,1,2,3:2:0:0:
385,124,48355,2,0,P|425:228|296:280,1,270,4|0,0:1|0:0,0:0:0:0:
255,191,60697,5,14,0:2:0:0:
193,125,61040,2,0,P|80:122|28:191,1,180,8|8,0:2|0:2,0:0:0:0:
60,252,62069,2,0,P|74:312|83:355,1,90,10|8,0:0|0:0,0:0:0:0:
167,317,62755,2,0,P|155:267|144:206,1,90,10|8,0:0|0:0,0:0:0:0:
237,238,63440,6,0,B|305:253|305:253|362:246|362:246|431:258,1,180,10|10,0:0|0:0,0:0:0:0:
479,192,64469,1,8,0:0:0:0:
396,155,64812,2,0,P|390:109|396:43,1,90,10|8,0:0|0:0,0:0:0:0:
302,61,65497,2,0,P|309:108|302:173,1,90,10|8,0:0|0:0,0:0:0:0:
256,192,66183,12,8,70297,0:0:0:0:
154,288,71669,6,0,P|219:282|266:281,1,90,10|8,0:0|0:0,0:0:0:0:
330,305,72355,2,0,L|358:120,1,180,10|10,0:0|0:0,0:0:0:0:
298,58,73383,1,8,0:0:0:0:
207,55,73726,2,0,P|155:60|100:79,1,90,10|8,0:0|0:0,0:0:0:0:
61,140,74412,6,0,P|106:211|215:179,1,180,10|10,0:0|0:0,0:0:0:0:
255,138,75440,1,8,0:0:0:0:
280,224,75783,2,0,L|264:324,1,90,10|8,0:0|0:0,0:0:0:0:
177,292,76469,2,0,L|197:176,1,90,10|8,0:0|0:0,0:0:0:0:
172,114,77155,5,10,0:0:0:0:
88,148,77497,2,0,P|52:232|96:316,1,180,10|8,0:0|0:0,0:0:0:0:
177,292,78526,2,0,L|285:308,1,90,10|8,0:0|0:0,0:0:0:0:
348,264,79212,2,0,P|412:279|458:270,1,90,10|8,0:0|0:0,0:0:0:0:
488,204,79897,5,10,0:0:0:0:
420,144,80240,2,0,P|405:102|410:46,2,90,10|10|8,0:0|0:0|0:0,0:0:0:0:
350,202,81269,2,0,P|369:265|361:315,1,90,10|8,0:0|0:0,0:0:0:0:
296,343,81955,2,0,L|187:333,1,90,10|8,0:0|0:0,0:0:0:0:
117,320,82640,5,10,0:2:0:0:
177,253,82983,2,0,P|196:184|106:84,1,180,14|12,1:2|0:0,0:0:0:0:
224,60,84012,2,0,L|326:28,1,90,10|12,0:0|0:0,0:0:0:0:
310,123,84697,2,0,L|415:145,1,90,10|12,0:0|0:0,0:0:0:0:
475,94,85383,5,10,0:0:0:0:
495,181,85726,2,0,P|440:248|351:236,1,180,14|12,0:0|0:0,0:0:0:0:
272,200,86755,2,0,P|220:196|160:199,1,90,10|12,0:0|0:0,0:0:0:0:
139,276,87440,2,0,P|191:280|251:277,1,90,10|12,0:0|0:0,0:0:0:0:
312,312,88126,5,10,0:0:0:0:
395,277,88469,2,0,P|391:187|395:83,1,180,14|12,0:0|0:0,0:0:0:0:
304,110,89497,2,0,P|252:113|193:113,1,90,10|12,0:0|0:0,0:0:0:0:
127,87,90183,2,0,P|125:143|128:200,1,90,10|12,0:0|0:0,0:0:0:0:
132,267,90869,5,10,0:0:0:0:
222,265,91212,2,0,P|281:262|324:263,2,90,14|10|12,0:0|0:0|0:0,0:0:0:0:
223,355,92240,1,4,0:1:0:0:
490,320,93269,1,0,0:0:0:0:
490,229,93612,6,0,L|463:117,1,90,4|4,0:1|0:1,0:0:0:0:
390,96,94297,2,0,P|355:196|393:265,1,180,10|10,0:0|0:0,0:0:0:0:
314,313,95326,1,12,0:0:0:0:
225,326,95669,2,0,P|175:336|128:341,1,90,10|14,0:0|0:0,0:0:0:0:
50,311,96355,6,0,L|12:122,1,180,10|10,0:0|0:0,0:0:0:0:
85,79,97383,1,12,0:0:0:0:
147,143,97726,2,0,P|233:84|319:103,1,180,10|8,0:0|0:0,0:0:0:0:
472,160,99097,6,0,P|477:227|471:268,1,90,10|14,0:0|0:0,0:0:0:0:
388,224,99783,2,0,P|385:284|389:334,1,90,10|12,0:0|0:0,0:0:0:0:
296,328,100469,2,0,P|201:328|111:333,1,180,10|10,0:0|0:0,0:0:0:0:
42,280,101497,1,14,0:0:0:0:
114,225,101840,6,0,P|96:147|114:45,1,180,10|10,0:0|0:0,0:0:0:0:
196,80,102869,1,12,0:0:0:0:
286,78,103212,2,0,L|489:34,1,180,10|10,0:2|0:0,0:0:0:0:
456,129,104240,1,12,0:0:0:0:
493,210,104583,6,0,P|501:268|483:324,1,90,8|4,3:2|0:1,0:0:0:0:
409,328,105269,2,0,L|304:348,1,90,10|14,0:0|0:0,0:0:0:0:
235,313,105955,2,0,P|177:280|103:293,2,135,10|2|14,0:0|0:0|0:0,0:0:0:0:
279,234,107326,6,0,L|257:136,1,90,10|14,0:0|0:0,0:0:0:0:
337,100,108012,2,0,L|359:198,1,90,10|12,0:0|0:0,0:0:0:0:
432,237,108697,1,10,0:0:0:0:
361,292,109040,2,0,L|343:389,1,90,14|10,0:0|0:0,0:0:0:0:
175,316,110069,6,0,P|205:228|142:144,1,180,10|10,0:0|0:0,0:0:0:0:
83,117,111097,1,0,0:0:0:0:
161,73,111440,2,0,P|213:72|269:60,1,90,10|12,0:0|0:0,0:0:0:0:
325,114,112126,2,0,P|371:99|426:107,1,90,10|12,0:0|0:0,0:0:0:0:
494,138,112812,6,0,L|467:328,1,180,10|10,0:0|0:0,0:0:0:0:
383,344,113840,2,0,P|335:356|268:376,1,90,12|12,0:0|0:2,0:0:0:0:
164,351,121040,6,0,B|104:233|104:233|180:92,1,270,2|2,0:0|0:0,0:0:0:0:
230,45,122412,2,0,B|260:131|260:131|212:227,1,180,2|0,0:0|0:0,0:0:0:0:
135,240,123440,1,2,0:0:0:0:
201,301,123783,6,0,B|278:289|278:289|302:296|302:296|365:286|365:286|387:296|387:296|470:281,1,270,2|2,0:0|0:0,0:0:0:0:
501,199,125155,2,0,P|522:114|469:30,2,180,2|2|4,0:0|0:0|1:1,0:0:0:0:
424,246,126869,5,4,1:1:0:0:
336,266,127212,2,0,P|267:262|221:254,1,90,8|6,1:2|1:2,0:0:0:0:
159,234,127897,2,0,P|182:142|99:76,1,180,10|8,1:2|1:2,0:0:0:0:
55,134,128926,1,6,1:2:0:0:
71,222,129269,6,0,L|38:325,1,90,10|6,1:2|1:2,0:0:0:0:
131,319,129955,2,0,L|164:216,1,90,8|6,1:2|1:2,0:0:0:0:
242,199,130640,2,0,B|324:180|324:180|401:211|401:211|364:160|406:93,1,270,10|6,1:2|1:2,0:0:0:0:
466,53,132012,5,10,1:2:0:0:
379,29,132355,2,0,L|183:59,1,180,6|6,1:2|1:2,0:0:0:0:
113,35,133383,1,10,1:2:0:0:
135,122,133726,2,0,L|98:299,1,180,6|6,1:2|1:2,0:0:0:0:
154,368,134755,6,0,P|196:351|247:354,1,90,10|6,1:2|1:2,0:0:0:0:
330,352,135440,1,8,1:2:0:0:
284,274,135783,1,6,1:2:0:0:
363,232,136126,2,0,P|367:187|358:131,2,90,2|2|2,1:2|1:2|1:2,0:0:0:0:
423,298,137155,1,2,0:0:0:0:
502,255,137497,6,0,P|488:209|499:156,1,90,8|4,1:0|1:0,0:0:0:0:
431,103,138183,1,8,1:2:0:0:
346,71,138526,2,0,L|242:93,1,90,6|8,1:2|1:2,0:0:0:0:
176,50,139212,1,4,1:2:0:0:
126,124,139555,2,0,P|117:186|117:228,1,90,8|6,1:2|1:2,0:0:0:0:
162,290,140240,5,8,1:2:0:0:
235,238,140583,2,0,B|275:190|342:194|342:194|386:262,1,180,6|6,1:2|1:2,0:0:0:0:
421,320,141612,1,10,1:2:0:0:
500,277,141955,2,0,P|501:232|497:173,2,90,6|8|4,1:2|1:2|1:2,0:0:0:0:
499,367,142983,5,10,1:2:0:0:
421,320,143326,2,0,B|321:277|343:366|224:309,1,180,6|6,1:2|1:2,0:0:0:0:
177,261,144355,1,10,1:2:0:0:
258,222,144697,1,6,1:2:0:0:
182,173,145040,2,0,L|167:67,1,90,8|6,1:2|1:2,0:0:0:0:
256,192,145726,12,10,147097,1:2:0:0:
232,52,148469,5,4,3:1:0:0:
272,132,148812,1,4,3:1:0:0:
192,172,149155,2,0,P|132:185|84:181,1,90,8|10,3:2|3:2,0:0:0:0:
38,121,149840,1,10,3:2:0:0:
102,289,150526,2,0,P|162:302|210:298,1,90,10|10,3:2|3:2,0:0:0:0:
267,254,151212,6,0,P|344:227|435:279,1,180,10|10,3:2|3:2,0:0:0:0:
498,213,152240,1,10,3:2:0:0:
430,153,152583,2,0,L|419:39,1,90,10|8,3:2|3:2,0:0:0:0:
341,105,153269,2,0,L|236:92,1,90,10|10,3:2|3:2,0:0:0:0:
172,49,153955,6,0,B|145:121|194:162|194:162|157:237,1,180,10|10,3:2|3:2,0:0:0:0:
125,291,154983,1,10,3:2:0:0:
202,337,155326,2,0,B|254:341|291:310|291:310|389:333,1,180,10|10,3:2|3:2,0:0:0:0:
459,302,156355,1,10,3:2:0:0:
393,240,156697,6,0,L|372:56,2,180,10|10|10,3:2|3:2|3:2,0:0:0:0:
409,328,158412,1,8,3:2:0:0:
325,295,158755,2,0,P|282:274|232:271,1,90,10|10,3:2|3:2,0:0:0:0:
167,322,159440,6,0,P|153:276|166:215,2,90,8|4|8,1:2|1:2|1:2,0:0:0:0:
249,359,160469,1,4,1:2:0:0:
333,327,160812,2,0,L|440:312,1,90,8|4,1:2|1:2,0:0:0:0:
504,351,161497,2,0,L|510:247,1,90,8|4,1:2|1:2,0:0:0:0:
463,183,162183,5,8,1:2:0:0:
478,94,162526,2,0,L|360:110,1,90,6|8,1:2|1:2,0:0:0:0:
302,80,163212,1,4,1:2:0:0:
244,149,163555,2,0,P|194:154|138:127,1,90,8|6,1:2|1:2,0:0:0:0:
68,127,164240,2,0,L|92:226,1,90,10|4,1:2|1:2,0:0:0:0:
124,297,164926,6,0,P|240:316|398:286,1,270,4|0,1:2|1:0,0:0:0:0:
390,199,166297,2,0,P|274:180|116:210,1,270,0|0,1:0|1:0,0:0:0:0:
50,257,167669,6,0,B|4:227|16:149|65:125|65:125|48:79|48:79|104:19,1,270,0|2,1:0|1:2,0:0:0:0:
174,66,169040,1,0,0:0:0:0:
387,248,170412,1,4,0:1:0:0:
114,232,181383,5,8,3:2:0:0:
95,320,181726,2,0,P|157:309|191:189,1,180,0|2,3:2|3:2,0:0:0:0:
135,145,182755,2,0,P|128:94|182:29,2,135,2|2|2,3:2|0:0|3:2,0:0:0:0:
223,130,184126,6,0,L|373:150,1,135,2|2,3:2|0:0,0:0:0:0:
489,173,185155,1,2,3:2:0:0:
430,241,185497,2,0,P|445:285|442:333,1,90,2|2,3:2|3:2,0:0:0:0:
353,319,186183,2,0,L|254:330,1,90,2|2,3:2|3:2,0:0:0:0:
174,346,186869,6,0,B|185:274|166:205,2,135,2|2|2,3:2|0:0|3:2,0:0:0:0:
85,360,188240,2,0,L|68:272,1,90,2|0,3:2|3:2,0:0:0:0:
76,180,188926,2,0,P|84:132|69:73,1,90,0|2,3:2|3:2,0:0:0:0:
168,100,189612,5,2,0:0:0:0:
244,48,189955,2,0,B|268:68|288:47|288:47|313:54|313:54|387:36|433:133|387:182,1,270,2|2,3:2|0:2,0:0:0:0:
352,36,203326,5,8,1:2:0:0:
399,112,203669,1,8,0:0:0:0:
354,190,204012,2,0,L|339:312,1,90,8|8,0:0|0:0,0:0:0:0:
311,363,204697,2,0,B|262:357|249:308|249:308|209:340|147:331,2,180,10|10|10,0:0|0:0|0:0,0:0:0:0:
395,331,206412,5,8,0:0:0:0:
438,251,206755,2,0,L|415:128,1,90,10|8,0:0|0:0,0:0:0:0:
359,97,207440,2,0,P|313:168|345:253,1,180,10|10,0:0|0:0,0:0:0:0:
256,192,208812,12,14,212926,0:0:0:0:
256,45,214297,6,0,L|256:158,1,90,10|10,0:0|0:0,0:0:0:0:
254,225,214983,2,0,B|201:276|140:251|140:251|119:273|76:288,1,180,10|10,0:0|0:0,0:0:0:0:
20,228,216012,1,8,0:0:0:0:
84,164,216355,2,0,P|88:117|83:58,1,90,10|8,0:0|0:0,0:0:0:0:
169,40,217040,6,0,P|210:98|321:86,1,180,10|10,0:0|0:0,0:0:0:0:
385,44,218069,1,8,0:0:0:0:
401,132,218412,2,0,P|364:157|312:195,1,90,10|8,0:0|0:0,0:0:0:0:
352,269,219097,2,0,P|394:244|432:212,2,90,10|8|10,0:0|0:0|0:0,0:0:0:0:
261,268,220126,6,0,P|211:202|264:103,1,180,10|8,0:0|0:0,0:0:0:0:
325,83,221155,2,0,P|368:95|428:103,1,90,10|8,0:0|0:0,0:0:0:0:
427,190,221840,2,0,P|383:196|324:210,1,90,10|8,0:0|0:0,0:0:0:0:
260,161,222526,6,0,P|240:254|303:328,1,180,10|10,0:0|0:0,0:0:0:0:
374,336,223555,1,8,0:0:0:0:
458,306,223897,2,0,B|475:266|475:266|461:207,1,90,10|8,0:0|0:0,0:0:0:0:
424,139,224583,2,0,B|407:99|407:99|421:40,2,90,10|8|8,0:0|0:0|0:0,0:0:0:0:
373,214,225612,6,0,L|190:245,1,180,14|12,0:0|0:0,0:0:0:0:
107,261,226640,2,0,P|106:213|99:151,1,90,10|12,0:0|0:0,0:0:0:0:
17,201,227326,2,0,P|18:249|25:311,1,90,10|12,0:0|0:0,0:0:0:0:
94,344,228012,5,10,0:0:0:0:
181,321,228355,2,0,P|277:313|360:323,1,180,14|12,0:0|0:0,0:0:0:0:
448,338,229383,2,0,L|470:232,1,90,10|12,0:0|0:0,0:0:0:0:
377,234,230069,2,0,L|347:46,1,180,10|10,0:0|0:0,0:0:0:0:
261,78,231097,5,14,0:0:0:0:
174,51,231440,2,0,P|57:72|30:124,1,180,10|10,0:0|0:0,0:0:0:0:
96,179,232469,1,12,0:0:0:0:
26,235,232812,2,0,L|49:336,1,90,10|12,0:0|0:0,0:0:0:0:
129,356,233497,6,0,B|189:304|256:318|256:318|227:248|250:175,1,270,10|12,0:0|0:0,0:0:0:0:
312,127,234869,1,4,0:1:0:0:
482,336,235897,6,0,L|385:350,1,90,0|4,0:0|0:1,0:0:0:0:
304,365,236583,2,0,P|255:365|204:330,2,90,4|10|12,0:1|0:0|0:0,0:0:0:0:
320,276,237612,2,0,B|313:183|313:183|371:197|407:149,1,180,10|10,0:0|0:0,0:0:0:0:
423,79,238640,1,14,0:0:0:0:
340,43,238983,6,0,L|147:68,1,180,10|10,0:0|0:0,0:0:0:0:
120,148,240012,1,12,0:0:0:0:
40,188,240355,2,0,B|80:268|80:268|176:276,1,180,10|2,0:0|0:0,0:0:0:0:
349,254,241726,6,0,P|346:212|347:165,2,90,10|14|10,0:0|0:0|0:0,0:0:0:0:
356,343,242755,1,12,0:0:0:0:
445,342,243097,2,0,P|449:255|442:159,1,180,10|10,0:0|0:0,0:0:0:0:
352,171,244126,1,14,0:0:0:0:
263,188,244469,6,0,P|220:117|261:26,1,180,10|10,0:0|0:0,0:0:0:0:
328,80,245497,1,12,0:0:0:0:
410,42,245840,2,0,P|464:62|513:55,2,90,10|12|10,0:0|0:0|0:0,0:0:0:0:
328,80,246869,1,14,0:0:0:0:
391,143,247212,6,0,L|351:321,1,180,10|10,0:0|0:0,0:0:0:0:
263,298,248240,1,14,0:0:0:0:
175,319,248583,2,0,L|135:141,1,180,10|10,0:0|0:0,0:0:0:0:
111,56,249612,1,12,0:0:0:0:
23,33,249955,6,0,P|15:86|27:129,1,90,10|14,0:0|0:0,0:0:0:0:
70,197,250640,2,0,P|78:250|66:293,1,90,10|12,0:0|0:0,0:0:0:0:
51,373,251326,2,0,B|98:386|144:359|159:312|159:312|176:336|219:353,1,180,10|12,0:0|0:0,0:0:0:0:
372,336,252697,6,0,L|509:308,2,135,10|8|0,0:0|0:0|0:0,0:0:0:0:
326,256,254069,2,0,L|405:124,2,135,10|0|12,0:0|0:0|0:0,0:0:0:0:
267,324,255440,6,0,B|217:345|179:333|179:333|152:345|131:315|131:315|84:374|-10:345,1,270,10|12,0:0|0:0,0:0:0:0:
54,268,256812,1,0,0:0:0:0:
