osu file format v14

[General]
AudioFilename: audio.mp3
AudioLeadIn: 0
PreviewTime: 70283
Countdown: 0
SampleSet: Soft
StackLeniency: 0.7
Mode: 0
LetterboxInBreaks: 0
WidescreenStoryboard: 1

[Editor]
Bookmarks: 5847,16819,27790,38762,49733,50504,50676,50933,60704,71676,92247,93619,109390,114190,121047,126533,137504,148476,159447,170419,181390,192362,203333,214304,234876,236247,252704,256819
DistanceSpacing: 1.2
BeatDivisor: 16
GridSize: 4
TimelineZoom: 2.899999

[Metadata]
Title:MTC (Radio Edit)
TitleUnicode:MTC (Radio Edit)
Artist:S3RL
ArtistUnicode:S3RL
Creator:Okoratu
Version:Expert
Source:
Tags:anime featured artist emfa music Delis pishifat Okorin cartoons
BeatmapID:1514253
BeatmapSetID:716630

[Difficulty]
HPDrainRate:8
CircleSize:4
OverallDifficulty:8
ApproachRate:9
SliderMultiplier:1.7
SliderTickRate:1

[Events]
//Background and Video events
0,0,"MTC.jpg",0,0
//Break Periods
2,115555,120097
2,170612,180440
//Storyboard Layer 0 (Background)
//Storyboard Layer 1 (Fail)
//Storyboard Layer 2 (Pass)
//Storyboard Layer 3 (Foreground)
//Storyboard Sound Samples

[TimingPoints]
355,342.857142857143,4,2,1,30,1,0
3955,-100,4,2,1,30,0,0
4469,-166.666666666667,4,2,1,20,0,0
4812,-142.857142857143,4,2,1,20,0,0
5155,-125,4,2,1,30,0,0
5497,-111.111111111111,4,2,1,30,0,0
5840,-100,4,2,1,40,0,0
17305,-100,4,2,3,40,0,0
17497,-100,4,2,1,40,0,0
38412,-166.666666666667,4,2,1,50,0,0
38755,-100,4,2,1,50,0,0
49726,-142.857142857143,4,2,1,30,0,0
51097,-100,4,2,1,30,0,0
52469,-142.857142857143,4,2,1,30,0,0
53840,-100,4,2,1,30,0,0
55212,-142.857142857143,4,2,1,30,0,0
56583,-100,4,2,1,30,0,0
57955,-142.857142857143,4,2,1,30,0,0
59326,-100,4,2,1,30,0,0
60697,-100,4,2,2,45,0,0
66183,-100,4,2,2,40,0,0
68926,-50,4,2,2,40,0,0
69612,-25,4,2,2,40,0,0
71326,-100,4,2,1,40,0,0
71669,-83.3333333333334,4,2,2,70,0,1
82640,-83.3333333333334,4,2,4,70,0,1
82897,-83.3333333333334,4,2,2,70,0,1
92240,-142.857142857143,4,2,2,50,0,0
93612,-76.923076923077,4,2,2,75,0,1
98583,-111.111111111111,4,2,2,75,0,1
99097,-76.923076923077,4,2,2,75,0,1
104583,-76.923076923077,4,2,4,75,0,1
104840,-76.923076923077,4,2,2,75,0,1
110069,-76.923076923077,4,2,2,50,0,1
112812,-38.4615384615385,4,2,2,50,0,1
113497,-25,4,2,2,50,0,1
114183,-142.857142857143,4,2,1,50,0,0
120697,-50,4,2,1,40,0,0
121040,-100,4,2,1,40,0,0
123440,-50,4,2,1,40,0,0
123783,-100,4,2,1,40,0,0
126183,-50,4,2,2,65,0,0
126526,-90.9090909090909,4,2,2,65,0,0
128926,-50,4,2,2,65,0,0
129269,-90.9090909090909,4,2,2,65,0,0
131669,-50,4,2,2,65,0,0
132012,-90.9090909090909,4,2,2,65,0,0
134412,-50,4,2,2,65,0,0
134755,-90.9090909090909,4,2,2,65,0,0
137155,-50,4,2,2,65,0,0
137497,-50,4,2,2,40,0,0
137755,-50,4,2,2,65,0,0
138183,-90.9090909090909,4,2,2,65,0,0
139897,-50,4,2,2,65,0,0
140240,-90.9090909090909,4,2,2,65,0,0
142640,-50,4,2,2,65,0,0
142983,-90.9090909090909,4,2,2,65,0,0
145383,-50,4,2,2,65,0,0
145726,-90.9090909090909,4,2,2,65,0,0
147097,-90.9090909090909,4,2,1,65,0,0
147440,-71.4285714285714,4,2,2,60,0,0
147783,-50,4,2,2,60,0,0
148126,-32.7868852459016,4,2,2,60,0,0
148469,-100,4,2,2,50,0,0
148940,-100,4,2,2,60,0,0
159440,-83.3333333333333,4,2,2,65,0,0
159783,-55.5555555555556,4,2,2,65,0,0
160126,-83.3333333333333,4,2,2,65,0,0
160469,-55.5555555555556,4,2,2,65,0,0
160812,-83.3333333333333,4,2,2,65,0,0
161155,-55.5555555555556,4,2,2,65,0,0
161497,-83.3333333333333,4,2,2,65,0,0
161840,-55.5555555555556,4,2,2,65,0,0
162183,-83.3333333333333,4,2,2,65,0,0
162526,-55.5555555555556,4,2,2,65,0,0
162869,-83.3333333333333,4,2,2,65,0,0
163212,-55.5555555555556,4,2,2,65,0,0
163555,-83.3333333333333,4,2,2,65,0,0
163897,-55.5555555555556,4,2,2,65,0,0
164240,-83.3333333333333,4,2,2,65,0,0
164583,-50,4,2,2,65,0,0
164926,-125,4,2,1,50,0,0
167669,-100,4,2,1,50,0,0
181383,-100,4,2,3,60,0,0
192355,-100,4,2,4,30,0,0
203326,-76.9230769230769,4,2,4,60,0,0
208812,-76.9230769230769,4,2,2,40,0,0
211554,-38.4615384615385,4,2,2,40,0,0
212239,-25,4,2,2,40,0,0
213955,-100,4,2,1,50,0,0
214297,-76.923076923077,4,2,2,75,0,1
225269,-76.923076923077,4,2,4,75,0,1
225526,-76.923076923077,4,2,2,75,0,1
234869,-142.857142857143,4,2,1,50,0,0
236240,-71.4285714285714,4,2,2,80,0,1
241383,-125,4,2,2,80,0,1
241726,-71.4285714285714,4,2,2,80,0,1
244469,-52.6315789473684,4,2,2,80,0,1
244812,-71.4285714285714,4,2,2,80,0,1
247212,-71.4285714285714,4,2,4,80,0,1
247555,-71.4285714285714,4,2,2,80,0,1
252697,-71.4285714285714,4,2,2,55,0,1
255440,-38.4615384615385,4,2,2,55,0,1
256126,-25,4,2,2,55,0,1
256812,-142.857142857143,4,2,2,50,0,0

[Colours]
Combo1 : 100,230,122
Combo2 : 30,223,234
Combo3 : 241,206,67
Combo4 : 231,86,86

[HitObjects]
256,192,12,12,0,3955,0:0:0:0:
96,120,4469,6,0,P|108:160|112:192,1,50.9999984436036
180,284,4812,2,0,P|184:248|196:212,1,59.4999981842042
348,104,5155,2,0,L|424:112,1,68,2|0,0:0|0:0,0:0:0:0:
240,72,5497,2,0,L|252:172,1,76.4999976654053,2|0,0:0|0:0,0:0:0:0:
336,348,5840,6,0,P|336:284|324:168,1,170,4|2,1:0|0:0,0:0:0:0:
325,178,6526,1,0,0:0:0:0:
252,248,6697,1,0,0:0:0:0:
188,168,6869,2,0,P|132:176|72:176,1,85
12,264,7212,2,0,P|68:256|128:256,1,85
24,108,7555,1,2,0:0:0:0:
24,108,7897,6,0,L|112:100,1,85
224,44,8240,2,0,P|220:92|224:140,1,85
408,188,8583,6,0,P|384:116|292:120,1,170,0|2,0:0|0:0,0:0:0:0:
304,260,9097,1,0,0:0:0:0:
340,172,9269,1,0,0:0:0:0:
304,260,9440,1,0,0:0:0:0:
212,208,9612,1,0,0:0:0:0:
164,300,9783,1,0,0:0:0:0:
152,124,9955,6,0,P|180:184|92:232,1,170,0|2,0:0|0:0,0:0:0:0:
64,144,10469,1,0,0:0:0:0:
64,144,10640,1,0,0:0:0:0:
124,40,10812,1,0,0:0:0:0:
64,144,10983,1,0,0:0:0:0:
124,40,11155,1,0,0:0:0:0:
236,88,11326,6,0,P|276:100|428:76,1,170,0|2,0:0|0:0,0:0:0:0:
401,88,12012,1,0,0:0:0:0:
372,200,12183,1,0,0:0:0:0:
408,296,12355,1,0,0:0:0:0:
272,232,12526,1,0,0:0:0:0:
312,332,12697,6,0,P|260:324|208:328,1,85
76,360,13040,1,2,0:0:0:0:
76,360,13383,1,0,0:0:0:0:
112,264,13555,1,0,0:0:0:0:
104,64,13726,1,0,0:0:0:0:
68,160,13898,1,0,0:0:0:0:
104,64,14069,6,0,P|152:68|280:64,1,170,0|2,0:0|0:0,0:0:0:0:
412,32,14583,1,0,0:0:0:0:
364,132,14755,1,0,0:0:0:0:
452,216,14926,1,0,0:0:0:0:
496,112,15097,1,0,0:0:0:0:
452,216,15269,1,0,0:0:0:0:
368,136,15440,6,0,P|316:144|324:264,1,170,0|2,0:0|0:0,0:0:0:0:
360,352,15955,1,0,0:0:0:0:
408,260,16126,1,0,0:0:0:0:
208,264,16297,1,0,0:0:0:0:
256,352,16469,1,0,0:0:0:0:
292,248,16640,1,0,0:0:0:0:
176,348,16812,6,0,P|128:356|72:264,1,170,0|2,0:0|0:0,0:0:0:0:
128,176,17326,1,0,0:0:0:0:
128,176,17412,1,0,3:0:0:0:
128,176,17497,2,0,P|196:184|240:184,1,85
304,88,17840,2,0,P|308:156|312:208,1,85
208,56,18183,6,0,P|128:56|24:72,1,170,0|2,0:0|0:0,0:0:0:0:
24,184,18697,1,0,0:0:0:0:
24,184,18869,1,0,0:0:0:0:
140,152,19040,1,0,0:0:0:0:
80,260,19212,1,0,0:0:0:0:
140,152,19383,1,0,0:0:0:0:
176,336,19555,6,0,P|220:336|272:252,1,127.5
284,200,19897,2,2,L|292:296,1,85,2|0,0:0|0:0,0:0:0:0:
396,336,20240,1,0,0:0:0:0:
376,216,20412,1,0,0:0:0:0:
360,104,20583,1,0,0:0:0:0:
456,188,20755,1,0,0:0:0:0:
360,104,20926,6,0,P|308:88|236:108,1,127.5
238,106,21269,2,0,P|262:162|262:218,1,85,2|0,0:0|0:0,0:0:0:0:
150,309,21612,2,0,P|160:268|150:203,1,85
68,36,21955,2,2,L|80:172,1,127.5,2|0,0:0|0:0,0:3:0:0:
158,226,22297,6,2,L|169:57,1,170,2|0,0:0|0:0,0:3:0:0:
385,161,22812,2,2,L|345:357,1,170,2|0,0:0|0:0,0:3:0:0:
264,92,23326,2,2,L|281:200,1,85,2|0,0:0|0:0,0:3:0:0:
352,328,23669,6,2,P|408:296|416:192,1,170,2|0,0:0|0:0,0:3:0:0:
264,92,24183,2,2,P|327:146|340:228,1,170,2|0,0:0|0:0,0:3:0:0:
215,298,24697,2,2,P|243:242|243:182,1,85,2|0,0:0|0:0,0:3:0:0:
136,84,25040,6,2,B|44:56|-4:148|16:224|80:244|136:232|136:232|152:236|152:236|164:228|164:228|176:232|176:232|188:221|188:221|200:225|200:225|208:216|208:216|228:224|266:220,1,425,2|0,0:0|0:0,0:3:0:0:
228,296,26069,5,0,0:0:0:0:
296,68,26412,1,0,0:0:0:0:
392,256,26755,1,2,0:0:0:0:
164,164,27098,1,0,0:0:0:0:
304,164,27440,5,2,0:0:0:0:
304,164,27783,6,0,P|308:244|320:352,1,170,10|0,0:0|3:0,0:0:0:0:
208,120,28297,1,2,0:0:0:0:
312,72,28469,1,0,3:0:0:0:
312,72,28555,1,2,0:0:0:0:
312,72,28640,1,2,0:0:0:0:
208,120,28812,2,0,P|160:128|100:116,1,85,2|0,3:2|0:0,0:0:0:0:
48,36,29155,6,0,P|72:92|68:216,1,170,2|0,3:2|3:0,0:0:0:0:
192,44,29669,1,2,0:0:0:0:
164,216,29840,1,0,3:0:0:0:
164,216,29926,1,2,0:0:0:0:
164,216,30012,1,0,0:0:0:0:
272,132,30183,2,0,P|320:128|392:140,1,85,2|0,3:2|0:0,0:0:0:0:
276,304,30526,6,0,P|208:316|72:292,1,170,2|0,3:2|3:0,0:0:0:0:
316,224,31040,2,0,P|384:212|520:236,1,170,2|0,0:2|0:0,0:0:0:0:
208,92,31555,2,0,L|220:196,1,85,2|0,3:2|0:0,0:0:0:0:
301,350,31897,6,0,L|317:210,1,127.5,2|0,3:2|0:0,0:0:0:0:
360,156,32240,2,0,L|352:84,1,42.5,2|0,3:2|0:0,0:0:0:0:
305,57,32412,1,2,0:0:0:0:
305,57,32497,2,0,L|321:249,1,170,2|0,0:0|0:0,0:0:0:0:
319,226,32926,2,0,L|203:211,1,85,2|0,3:2|0:0,0:0:0:0:
388,104,33269,6,0,P|424:104|456:216,1,170,2|0,3:2|3:3,0:0:0:0:
400,336,33783,2,0,L|392:244,2,85,2|0|0,0:2|3:0|0:0,0:0:0:0:
264,124,34297,2,0,P|212:108|152:120,1,85,2|0,3:2|0:0,0:0:0:0:
152,288,34640,6,0,P|164:340|168:384,2,85,2|0|0,3:2|0:0|3:0,0:0:0:0:
264,124,35155,2,0,P|260:176|228:228,2,85,2|0|0,0:2|3:0|0:0,0:0:0:0:
88,152,35669,1,2,3:2:0:0:
92,168,35755,1,2,0:0:0:0:
96,184,35840,1,0,0:0:0:0:
220,60,36012,6,2,B|248:36|308:24|365:81|344:152|332:164|332:164|344:172|344:172|336:184|336:184|348:196|348:196|340:208|340:208|352:224|352:224|280:285|320:364|353:364,1,425,2|0,3:2|0:0,0:3:0:0:
256,204,37040,5,2,3:2:0:0:
256,204,37383,2,0,L|268:112,1,85,2|0,3:2|0:0,0:0:0:0:
104,64,37726,1,2,3:2:0:0:
168,184,37897,2,0,B|192:272|120:256|148:360,1,170,2|0,0:0|0:0,0:0:0:0:
108,68,38412,6,2,P|156:76|192:72,1,76.4999976654053,2|0,3:2|0:0,0:3:0:0:
288,44,38755,6,0,L|296:144,1,85,6|0,0:2|0:0,0:0:0:0:
388,260,39097,1,0,3:2:0:0:
376,28,39269,1,2,0:0:0:0:
384,148,39440,1,2,3:2:0:0:
384,148,39526,1,2,0:0:0:0:
384,148,39612,1,0,0:0:0:0:
192,48,39783,2,0,L|80:56,1,85,2|0,3:2|0:0,0:0:0:0:
220,224,40126,6,0,L|332:216,1,85,2|0,3:2|0:0,0:0:0:0:
132,128,40469,1,0,3:2:0:0:
224,312,40640,1,2,0:2:0:0:
49,234,40812,1,2,3:2:0:0:
49,234,40897,1,2,0:2:0:0:
49,234,40983,1,0,0:0:0:0:
95,310,41155,2,0,P|43:322|-1:310,1,85,2|0,3:2|0:0,0:0:0:0:
66,65,41497,6,0,L|46:269,1,170,2|0,3:2|0:0,0:0:0:0:
152,48,42012,2,0,L|356:40,1,170,2|0,0:2|0:0,0:0:0:0:
404,144,42526,2,2,L|252:152,1,127.5,2|0,3:2|0:0,0:3:0:0:
248,180,42869,5,2,3:2:0:0:
436,0,43040,1,2,0:2:0:0:
448,44,43126,1,2,0:2:0:0:
416,76,43212,1,2,3:2:0:0:
248,180,43383,1,2,0:2:0:0:
260,228,43469,1,2,0:2:0:0:
304,248,43555,1,2,3:2:0:0:
172,20,43897,2,2,L|4:28,1,127.5,2|0,3:2|0:0,0:3:0:0:
44,26,44240,6,0,L|52:138,1,85,2|0,3:2|0:0,0:0:0:0:
304,40,44583,1,0,3:0:0:0:
148,124,44755,2,0,P|196:116|256:124,1,85,2|0,0:0|3:0,0:0:0:0:
248,320,45097,1,0,0:0:0:0:
248,320,45183,1,0,0:0:0:0:
248,320,45269,2,0,L|240:208,1,85,2|0,3:2|0:0,0:0:0:0:
408,44,45612,6,0,L|416:148,1,85,2|0,3:2|0:0,0:0:0:0:
420,316,45955,1,0,3:0:0:0:
288,96,46126,2,0,P|236:104|180:96,1,85,2|0,0:0|3:0,0:0:0:0:
152,308,46469,1,0,0:0:0:0:
96,136,46640,1,2,3:2:0:0:
104,124,46726,1,2,0:2:0:0:
112,112,46812,1,2,0:2:0:0:
88,360,46983,5,2,3:2:0:0:
144,228,47326,1,2,3:2:0:0:
148,252,47412,1,2,0:2:0:0:
120,296,47497,1,2,0:2:0:0:
124,320,47583,1,2,0:2:0:0:
88,360,47669,6,0,L|72:248,1,85,2|0,3:2|0:0,0:0:0:0:
288,76,48012,2,0,L|272:188,1,85,2|0,3:2|0:0,0:0:0:0:
260,368,48355,5,4,0:1:0:0:
260,368,48697,1,0,0:0:0:0:
260,368,48869,6,0,P|252:296|388:336,1,255
256,72,49726,5,2,0:0:0:0:
176,144,49897,1,0,0:0:0:0:
152,140,49983,1,2,0:0:0:0:
136,156,50069,1,0,0:0:0:0:
112,156,50155,1,2,0:0:0:0:
96,176,50240,1,2,0:0:0:0:
76,188,50326,1,2,0:0:0:0:
64,208,50412,2,0,L|76:280,1,59.4999981842042,2|0,0:0|0:0,0:0:0:0:
116,344,50669,2,0,L|180:328,1,59.4999981842042,2|0,0:0|0:0,0:0:0:0:
220,248,50926,2,0,L|168:260,1,29.7499990921021,2|0,0:0|0:0,0:0:0:0:
296,248,51097,6,0,L|316:364,1,85,2|0,0:0|0:0,0:0:0:0:
388,312,51355,2,0,L|368:204,1,85,2|0,0:0|0:0,0:0:0:0:
388,144,51612,1,2,0:0:0:0:
388,144,51783,6,0,L|408:28,1,85,2|0,0:0|0:0,0:0:0:0:
480,80,52041,2,0,L|460:188,1,85,2|0,0:0|0:0,0:0:0:0:
372,228,52298,1,2,0:0:0:0:
260,120,52469,5,2,0:0:0:0:
152,40,52640,1,0,0:0:0:0:
140,60,52726,1,2,0:0:0:0:
144,84,52812,1,0,0:0:0:0:
160,100,52897,1,2,0:0:0:0:
164,124,52983,1,2,0:0:0:0:
156,148,53069,1,2,0:0:0:0:
136,164,53155,2,0,L|140:232,1,59.4999981842042,2|0,0:0|0:0,0:0:0:0:
72,272,53412,2,0,P|80:300|88:340,1,59.4999981842042,2|0,0:0|0:0,0:0:0:0:
168,344,53669,2,0,L|184:292,1,29.7499990921021,2|0,0:0|0:0,0:0:0:0:
276,340,53840,6,0,P|316:356|372:348,1,85,2|0,0:0|0:0,0:0:0:0:
328,272,54097,2,0,P|316:216|320:176,1,85,2|0,0:0|0:0,0:0:0:0:
356,100,54355,1,2,0:0:0:0:
356,100,54526,6,0,P|396:84|452:92,1,85,2|0,0:0|0:0,0:0:0:0:
408,168,54783,2,0,P|406:225|418:263,1,85,2|0,0:0|0:0,0:0:0:0:
436,340,55041,1,2,0:0:0:0:
480,192,55212,5,2,0:0:0:0:
308,232,55383,1,0,0:0:0:0:
300,256,55469,1,2,0:0:0:0:
308,280,55555,1,0,0:0:0:0:
324,296,55640,1,2,0:0:0:0:
320,320,55726,1,2,0:0:0:0:
304,340,55812,1,2,0:0:0:0:
280,344,55897,2,0,L|216:332,1,59.4999981842042,2|0,0:0|0:0,0:0:0:0:
228,256,56155,2,0,L|240:180,1,59.4999981842042,2|0,0:0|0:0,0:0:0:0:
196,108,56412,2,0,L|196:160,1,29.7499990921021,2|0,0:0|0:0,0:0:0:0:
136,240,56583,6,0,L|120:124,1,85,2|0,0:0|0:0,0:0:0:0:
56,96,56840,2,0,L|44:200,1,85,2|0,0:0|0:0,0:0:0:0:
32,264,57097,1,2,0:0:0:0:
225,180,57269,6,0,L|209:296,1,85,2|0,0:0|0:0,0:0:0:0:
145,324,57526,2,0,L|133:220,1,85,2|0,0:0|0:0,0:0:0:0:
124,156,57783,1,2,0:0:0:0:
213,264,57955,5,2,0:0:0:0:
308,240,58126,1,0,0:0:0:0:
332,232,58212,1,2,0:0:0:0:
352,244,58297,1,0,0:0:0:0:
364,264,58383,1,2,0:0:0:0:
388,272,58469,1,2,0:0:0:0:
412,264,58555,1,2,0:0:0:0:
424,244,58640,2,0,L|412:176,1,59.4999981842042,2|0,0:0|0:0,0:0:0:0:
356,120,58897,2,0,L|288:128,1,59.4999981842042,2|0,0:0|0:0,0:0:0:0:
257,215,59155,2,0,L|250:175,1,29.7499990921021,2|0,0:0|0:0,0:0:0:0:
208,52,59326,6,0,P|204:108|192:168,1,85,2|0,0:0|0:0,0:0:0:0:
120,164,59583,2,0,L|16:152,1,85,2|0,0:0|0:0,0:0:0:0:
96,76,59840,1,2,0:0:0:0:
184,216,60012,6,0,P|180:272|168:332,1,85,2|0,0:0|0:0,0:0:0:0:
96,328,60269,2,0,L|-8:316,1,85,2|0,0:0|0:0,0:0:0:0:
72,240,60526,1,2,0:0:0:0:
248,348,60697,6,0,L|340:340,1,85,14|0,0:2|0:0,0:0:0:0:
368,120,61040,1,8,0:2:0:0:
404,145,61126,1,2,0:0:0:0:
420,185,61212,1,2,0:0:0:0:
416,225,61297,1,2,0:0:0:0:
384,257,61383,2,0,P|332:261|288:265,1,85,10|0,0:2|0:0,0:0:0:0:
256,252,61640,1,2,0:0:0:0:
256,252,61726,2,0,L|260:144,1,85,8|2,0:2|0:0,0:0:0:0:
140,280,62069,6,0,P|92:288|48:284,1,85,10|0,0:0|0:0,0:0:0:0:
28,212,62326,2,0,L|36:144,1,42.5,2|8,0:0|0:0,0:0:0:0:
20,368,62583,1,2,0:0:0:0:
236,184,62755,6,0,P|284:176|328:180,1,85,10|0,0:0|0:0,0:0:0:0:
360,252,63012,2,0,L|352:320,1,42.5,2|8,0:0|0:0,0:0:0:0:
384,104,63269,1,2,0:0:0:0:
272,264,63440,5,10,0:0:0:0:
184,160,63612,1,0,0:0:0:0:
144,144,63697,1,2,0:0:0:0:
104,160,63783,1,8,0:0:0:0:
88,200,63869,1,2,0:0:0:0:
96,240,63955,1,2,0:0:0:0:
132,264,64040,1,2,0:0:0:0:
176,268,64126,2,0,L|164:364,1,85,10|0,0:0|0:0,0:0:0:0:
136,372,64383,1,2,0:0:0:0:
136,372,64469,2,0,L|40:364,1,85,8|2,0:0|0:0,0:0:0:0:
295,193,64812,6,0,P|337:188|380:184,1,85,10|0,0:0|0:0,0:0:0:0:
400,260,65069,2,0,L|408:320,1,42.5,2|8,0:0|0:0,0:0:0:0:
372,88,65326,1,2,0:0:0:0:
160,156,65497,6,0,P|112:152|72:156,1,85,10|0,0:0|0:0,0:0:0:0:
24,84,65755,1,2,0:0:0:0:
24,84,65840,2,2,B|24:92|24:92|32:96|32:96|24:104|24:104|29:108|29:108|25:113|25:113|28:116|28:116|36:160|24:236,1,127.5,8|0,0:0|0:0,0:3:0:0:
28,300,66183,5,8,0:0:0:0:
28,300,66355,1,8,0:0:0:0:
156,344,66526,1,8,0:0:0:0:
156,344,66697,1,8,0:0:0:0:
248,240,66869,6,8,P|288:232|328:232,1,74.375,10|8,0:0|0:0,0:0:0:0:
264,72,67126,2,8,L|276:152,1,74.375,10|8,0:0|0:0,0:0:0:0:
396,284,67383,2,8,L|404:340,1,53.125,10|8,0:0|0:0,0:0:0:0:
460,224,67555,6,8,L|452:164,1,42.5,10|8,0:0|0:0,0:0:0:0:
320,312,67726,2,8,L|328:368,1,42.5,8|10,0:0|0:0,0:0:0:0:
368,180,67897,2,8,L|364:144,4,31.875
252,240,68240,2,8,L|256:272,5,28.3333333333333,10|8|8|8|8|8,0:0|0:0|0:0|0:0|0:0|0:0,0:0:0:0:
280,144,68583,2,8,L|276:115,5,28.3333333333333,10|8|8|8|8|8,0:0|0:0|0:0|0:0|0:0|0:0,0:0:0:0:
177,149,68926,6,8,L|184:192,14,42.5,10|8|8|8|8|8|10|8|10|8|10|8|10|8|10,0:0|0:0|0:0|0:0|0:0|0:0|0:0|0:0|0:0|0:0|0:0|0:0|0:0|0:0|0:0,0:0:0:0:
264,220,69612,2,8,L|276:316,14,85,10|8|8|8|8|8|10|8|8|8|8|8|10|8|8,0:0|0:0|0:0|0:0|0:0|0:0|0:0|0:0|0:0|0:0|0:0|0:0|0:0|0:0|0:0,0:0:0:0:
284,116,70297,5,10,0:0:0:0:
360,192,70469,1,2,0:0:0:0:
284,116,70640,1,2,0:0:0:0:
172,344,70983,1,2,0:0:0:0:
172,344,71155,1,2,0:0:0:0:
172,344,71326,2,0,L|168:244,1,85
176,48,71669,6,0,P|128:56|52:56,1,101.999996887207,10|0,0:0|0:0,0:0:0:0:
336,16,72012,1,8,0:0:0:0:
320,64,72097,1,2,0:0:0:0:
328,116,72183,1,2,0:0:0:0:
356,160,72269,1,2,0:0:0:0:
368,208,72355,2,0,L|360:328,1,101.999996887207,10|0,0:0|0:0,0:0:0:0:
280,200,72612,2,0,L|276:280,2,50.9999984436036,2|8|0,0:0|0:0|0:0,0:0:0:0:
220,116,72869,1,2,0:0:0:0:
252,336,73040,5,10,0:0:0:0:
80,132,73297,1,2,0:0:0:0:
80,132,73383,1,8,0:0:0:0:
100,348,73555,1,2,0:0:0:0:
220,116,73726,5,10,0:0:0:0:
392,320,73983,1,2,0:0:0:0:
392,320,74069,1,8,0:0:0:0:
372,104,74241,1,2,0:0:0:0:
288,308,74412,6,0,P|232:320|164:316,1,101.999996887207,10|0,0:0|0:0,0:0:0:0:
104,93,74755,1,10,0:0:0:0:
156,89,74840,1,2,0:0:0:0:
196,121,74926,1,2,0:0:0:0:
208,173,75012,1,2,0:0:0:0:
184,217,75097,2,0,L|188:337,1,101.999996887207,10|0,0:0|0:0,0:0:0:0:
276,200,75355,2,0,L|280:268,2,50.9999984436036,2|8|0,0:0|0:0|0:0,0:0:0:0:
272,116,75612,1,2,0:0:0:0:
92,100,75783,5,10,0:0:0:0:
353,96,76040,1,2,0:0:0:0:
353,96,76126,1,8,0:0:0:0:
240,212,76297,1,2,0:0:0:0:
248,16,76469,5,10,0:0:0:0:
149,229,76726,1,2,0:0:0:0:
149,229,76812,1,8,0:0:0:0:
318,169,76983,1,2,0:0:0:0:
148,128,77155,6,0,P|152:200|144:260,1,101.999996887207,10|0,0:0|0:0,0:0:0:0:
156,276,77412,1,2,0:0:0:0:
156,276,77497,2,0,L|96:288,1,50.9999984436036,10|2,0:0|0:0,0:0:0:0:
268,160,77669,2,0,L|332:172,1,50.9999984436036,2|2,0:0|0:0,0:0:0:0:
344,280,77840,2,0,L|220:292,1,101.999996887207,10|0,0:0|0:0,0:0:0:0:
224,318,78097,1,2,0:0:0:0:
224,318,78183,2,0,L|230:397,1,50.9999984436036,8|0,0:0|0:0,0:0:0:0:
156,276,78355,1,2,0:0:0:0:
268,160,78526,5,10,0:0:0:0:
120,40,78783,1,2,0:0:0:0:
120,40,78869,1,8,0:0:0:0:
332,92,79040,1,2,0:0:0:0:
272,232,79212,5,10,0:0:0:0:
192,16,79469,1,2,0:0:0:0:
192,16,79555,1,8,0:0:0:0:
164,196,79726,1,2,0:0:0:0:
324,124,79897,6,0,L|440:120,1,101.999996887207,10|0,0:0|0:0,0:0:0:0:
460,156,80155,1,2,0:0:0:0:
460,156,80240,2,0,L|452:220,1,50.9999984436036,10|2,0:0|0:0,0:0:0:0:
392,324,80412,2,0,L|400:388,1,50.9999984436036,0|2,0:0|0:0,0:0:0:0:
356,224,80583,2,0,L|232:232,1,101.999996887207,10|0,0:0|0:0,0:0:0:0:
216,196,80840,1,2,0:0:0:0:
216,196,80926,2,0,L|224:132,1,50.9999984436036,8|0,0:0|0:0,0:0:0:0:
112,116,81097,1,2,0:0:0:0:
200,292,81269,5,10,0:0:0:0:
28,72,81526,1,2,0:0:0:0:
28,72,81612,1,8,0:0:0:0:
68,208,81783,1,2,0:0:0:0:
248,16,81955,5,10,0:0:0:0:
420,236,82212,1,2,0:0:0:0:
420,236,82298,1,8,0:0:0:0:
380,100,82469,1,2,0:0:0:0:
252,320,82640,5,10,0:2:0:0:
252,320,82812,1,10,0:2:0:0:
288,164,82983,1,14,1:2:0:0:
332,192,83069,1,2,0:0:0:0:
352,240,83155,1,2,0:0:0:0:
356,292,83240,1,2,0:0:0:0:
336,340,83326,1,10,0:0:0:0:
208,192,83497,1,0,0:0:0:0:
208,192,83583,2,0,L|216:264,2,50.9999984436036,2|12|0,0:0|0:0|0:0,0:0:0:0:
200,88,83840,1,2,0:0:0:0:
68,192,84012,5,10,0:0:0:0:
336,200,84269,1,2,0:0:0:0:
336,200,84355,1,12,0:0:0:0:
172,300,84526,1,2,0:0:0:0:
200,88,84697,5,10,0:0:0:0:
280,320,84954,1,2,0:0:0:0:
280,320,85040,1,12,0:0:0:0:
264,136,85211,1,2,0:0:0:0:
368,292,85383,6,0,P|432:300|496:288,1,101.999996887207,10|0,0:0|0:0,0:0:0:0:
232,112,85726,1,14,0:0:0:0:
276,140,85812,1,2,0:0:0:0:
320,116,85897,1,2,0:0:0:0:
324,64,85983,1,2,0:0:0:0:
288,28,86069,2,0,L|160:36,1,101.999996887207,10|0,0:0|0:0,0:0:0:0:
124,112,86326,2,0,L|136:184,2,50.9999984436036,2|12|0,0:0|0:0|0:0,0:0:0:0:
104,12,86583,1,2,0:0:0:0:
204,248,86755,6,0,P|268:264|344:260,1,101.999996887207,10|0,0:0|0:0,0:0:0:0:
303,265,87012,1,2,0:0:0:0:
303,265,87097,1,12,0:0:0:0:
204,136,87269,1,2,0:0:0:0:
404,48,87440,6,0,L|396:168,1,101.999996887207,10|0,0:0|0:0,0:0:0:0:
397,149,87697,1,2,0:0:0:0:
397,149,87783,1,12,0:0:0:0:
264,64,87955,1,2,0:0:0:0:
324,256,88126,6,0,P|276:272|204:260,1,101.999996887207,10|0,0:0|0:0,0:0:0:0:
60,140,88469,1,14,0:0:0:0:
108,160,88555,1,2,0:0:0:0:
136,200,88640,1,2,0:0:0:0:
144,252,88726,1,2,0:0:0:0:
124,300,88812,1,10,0:0:0:0:
224,136,88983,1,0,0:0:0:0:
224,136,89069,2,0,L|220:196,2,50.9999984436036,2|12|0,0:0|0:0|0:0,0:0:0:0:
232,40,89326,1,2,0:0:0:0:
308,184,89497,5,10,0:0:0:0:
92,40,89755,1,2,0:0:0:0:
92,40,89840,1,12,0:0:0:0:
92,196,90012,1,2,0:0:0:0:
232,40,90183,5,10,0:0:0:0:
268,260,90440,1,2,0:0:0:0:
268,260,90526,1,12,0:0:0:0:
304,92,90697,1,2,0:0:0:0:
132,272,90869,6,0,P|72:280|12:256,1,101.999996887207,10|0,0:0|0:0,0:0:0:0:
304,92,91212,1,14,0:0:0:0:
288,140,91297,1,2,0:0:0:0:
292,192,91383,1,2,0:0:0:0:
308,240,91469,1,2,0:0:0:0:
300,292,91555,1,10,0:0:0:0:
84,48,91812,1,2,0:0:0:0:
84,48,91897,2,0,L|200:40,1,101.999996887207,12|2,0:0|0:0,0:0:0:0:
404,224,92240,5,4,0:1:0:0:
404,224,93269,2,0,L|416:164,1,59.4999981842042
104,64,93612,6,0,P|152:100|168:160,1,110.499994941712,4|0,0:1|0:0,0:0:0:0:
112,212,93869,1,2,0:0:0:0:
112,212,93955,2,0,L|28:192,1,55.2499974708558,4|2,0:1|0:0,0:0:0:0:
256,152,94126,2,0,L|244:236,1,55.2499974708558,2|2,0:0|0:0,0:0:0:0:
184,288,94297,1,10,0:0:0:0:
184,288,94383,1,0,0:0:0:0:
228,80,94555,1,2,0:0:0:0:
228,80,94640,1,14,0:0:0:0:
312,272,94812,1,2,0:0:0:0:
380,68,94983,6,0,P|440:44|504:64,1,110.499994941712,10|0,0:0|0:0,0:0:0:0:
432,148,95240,2,0,L|424:220,2,55.2499974708558,2|12|0,0:0|0:0|0:0,0:0:0:0:
308,120,95497,1,2,0:0:0:0:
392,328,95669,1,10,0:0:0:0:
392,328,95755,1,2,0:0:0:0:
192,184,95926,1,2,0:0:0:0:
192,184,96012,1,14,0:0:0:0:
280,284,96183,1,2,0:0:0:0:
140,324,96355,6,0,P|84:284|24:300,1,110.499994941712,10|0,0:0|0:0,0:0:0:0:
88,40,96697,1,14,0:0:0:0:
140,64,96783,1,2,0:0:0:0:
160,116,96869,1,2,0:0:0:0:
152,172,96955,1,2,0:0:0:0:
112,212,97040,2,0,L|120:80,1,110.499994941712,10|0,0:0|0:0,0:0:0:0:
28,152,97297,2,0,L|36:240,2,55.2499974708558,2|12|0,0:0|0:0|0:0,0:0:0:0:
16,48,97555,1,2,0:0:0:0:
152,288,97726,6,0,P|220:300|292:208,1,165.749992412568,10|0,0:0|0:0,0:0:0:0:
176,148,98069,1,14,0:0:0:0:
192,140,98155,1,2,0:0:0:0:
200,152,98240,1,2,0:0:0:0:
208,152,98326,2,0,L|200:224,1,55.2499974708558,2|8,0:0|0:0,0:0:0:0:
328,24,98669,1,0,0:0:0:0:
328,24,98755,6,0,P|356:36|424:36,1,76.4999976654053,2|0,0:0|0:0,0:0:0:0:
160,36,99097,6,0,P|92:16|8:48,1,110.499994941712,10|0,0:0|0:0,0:0:0:0:
104,128,99355,1,2,0:0:0:0:
104,128,99440,2,0,L|172:116,1,55.2499974708558,14|2,0:0|0:0,0:0:0:0:
72,256,99612,2,0,L|68:336,1,55.2499974708558,2|2,0:0|0:0,0:0:0:0:
176,208,99783,2,0,P|240:192|288:212,1,110.499994941712,10|0,0:0|0:0,0:0:0:0:
280,206,100040,1,2,0:0:0:0:
280,206,100126,1,12,0:0:0:0:
152,324,100297,1,2,0:0:0:0:
232,108,100469,6,0,P|296:88|364:112,1,110.499994941712,10|0,0:0|0:0,0:0:0:0:
400,168,100726,2,0,L|392:236,2,55.2499974708558,2|12|0,0:0|0:0|0:0,0:0:0:0:
412,64,100983,1,2,0:0:0:0:
280,272,101155,2,0,P|228:300|144:288,1,110.499994941712,10|0,0:0|0:0,0:0:0:0:
56,48,101497,1,14,0:0:0:0:
84,96,101583,1,2,0:0:0:0:
72,152,101669,1,2,0:0:0:0:
296,20,101840,6,0,P|344:76|280:172,1,165.749992412568,10|0,0:0|0:0,0:0:0:0:
212,208,102183,2,0,L|232:116,1,55.2499974708558,14|2,0:0|0:0,0:0:0:0:
136,92,102355,2,0,L|152:176,1,55.2499974708558,2|2,0:0|0:0,0:0:0:0:
60,232,102526,2,0,L|32:76,1,110.499994941712,10|0,0:0|0:0,0:0:0:0:
57,84,102783,1,2,0:0:0:0:
57,84,102869,1,12,0:0:0:0:
168,272,103040,1,2,0:0:0:0:
288,72,103212,6,0,P|356:48|412:84,1,110.499994941712,10|0,0:2|0:0,0:0:0:0:
468,148,103469,2,0,L|464:216,1,55.2499974708558,2|12,0:0|0:0,0:0:0:0:
216,8,103726,1,2,0:0:0:0:
344,248,103897,6,0,L|352:104,1,110.499994941712,10|0,0:0|0:0,0:0:0:0:
292,312,104155,1,2,0:0:0:0:
292,312,104240,6,0,P|352:328|424:279,1,110.499994941712,12|2,0:0|0:0,0:0:0:0:
128,64,104583,5,8,3:2:0:0:
208,256,104755,1,8,3:2:0:0:
268,36,104926,1,4,0:1:0:0:
320,20,105012,1,2,0:0:0:0:
364,52,105097,1,2,0:0:0:0:
376,108,105183,1,2,0:0:0:0:
340,148,105269,1,10,0:0:0:0:
324,140,105355,2,0,L|232:132,1,55.2499974708558,2|0,0:0|0:0,0:0:0:0:
176,72,105526,1,2,0:0:0:0:
164,79,105612,2,0,L|160:207,1,110.499994941712,14|0,0:0|0:0,0:0:0:0:
20,352,105955,6,0,L|24:224,1,110.499994941712,10|0,0:0|0:0,0:0:0:0:
108,320,106212,2,0,L|112:392,2,55.2499974708558,2|12|0,0:0|0:0|0:0,0:0:0:0:
96,224,106469,1,2,0:0:0:0:
304,280,106640,5,10,0:0:0:0:
328,320,106726,2,0,P|328:360|320:396,1,55.2499974708558,2|0,0:0|0:0,0:0:0:0:
408,192,106897,1,2,0:0:0:0:
408,192,106983,2,0,L|320:200,1,55.2499974708558,14|0,0:0|0:0,0:0:0:0:
264,68,107155,2,0,L|320:73,1,55.2499974708558,2|0,0:0|0:0,0:0:0:0:
244,180,107326,6,0,L|256:320,1,110.499994941712,10|0,0:0|0:0,0:0:0:0:
160,56,107669,1,14,0:0:0:0:
108,36,107755,1,2,0:0:0:0:
60,64,107840,1,2,0:0:0:0:
52,120,107926,1,2,0:0:0:0:
80,168,108012,2,0,P|96:224|64:304,1,110.499994941712,10|0,0:0|0:0,0:0:0:0:
12,352,108269,1,2,0:0:0:0:
12,352,108355,2,0,L|16:288,1,55.2499974708558,12|0,0:0|0:0,0:0:0:0:
168,320,108526,2,0,L|154:374,1,55.2499974708558,2|0,0:0|0:0,0:0:0:0:
190,234,108697,5,10,0:0:0:0:
296,328,108869,1,2,0:0:0:0:
352,340,108955,1,2,0:0:0:0:
400,316,109040,1,14,0:0:0:0:
332,56,109212,1,2,0:0:0:0:
373,113,109297,1,2,0:0:0:0:
344,180,109383,6,0,B|312:152|252:164|280:192|204:200|160:164,1,165.749992412568,10|0,0:0|0:0,0:0:0:0:
184,180,109726,2,0,L|192:248,1,55.2499974708558,2|0,0:0|0:0,0:0:0:0:
88,100,109897,1,8,0:0:0:0:
88,100,109983,1,8,0:0:0:0:
88,100,110069,5,10,0:0:0:0:
76,204,110240,1,8,0:0:0:0:
208,48,110412,1,8,0:0:0:0:
192,236,110583,1,10,0:0:0:0:
352,96,110755,6,8,P|403:85|455:85,1,96.6874955739977,10|8,0:0|0:0,0:0:0:0:
260,164,111012,2,8,L|156:152,1,96.6874955739977,10|8,0:0|0:0,0:0:0:0:
352,188,111269,2,8,L|360:264,1,69.0624968385698,10|8,0:0|0:0,0:0:0:0:
272,72,111440,6,8,L|262:-6,1,55.2499974708558,10|8,0:0|0:0,0:0:0:0:
276,280,111611,2,8,L|287:353,1,55.2499974708558,8|10,0:0|0:0,0:0:0:0:
164,152,111783,2,8,L|160:104,4,41.4374981031419,12|8|8|8|8,0:0|0:0|0:0|0:0|0:0,0:0:0:0:
144,256,112126,2,8,L|148:292,5,36.8333316472372,10|8|8|8|8|8,0:0|0:0|0:0|0:0|0:0|0:0,0:0:0:0:
224,200,112469,2,8,L|228:236,5,36.8333316472372,10|8|8|10|8|8,0:0|0:0|0:0|0:0|0:0|0:0,0:0:0:0:
100,196,112812,6,8,L|92:120,14,55.2499974708558,10|8|8|8|8|8|8|8|14|8|10|8|10|8|10,0:0|0:0|0:0|0:0|0:0|0:0|0:0|0:0|0:0|0:0|0:0|0:0|0:0|0:0|0:0,0:0:0:0:
144,256,113497,2,8,L|156:348,14,85,10|8|8|8|8|8|10|8|12|8|8|8|10|8|8,0:0|0:0|0:0|0:0|0:0|0:0|0:0|0:0|0:0|0:0|0:0|0:0|0:0|0:0|0:0,0:0:0:0:
224,216,114183,5,12,0:2:0:0:
96,80,114526,1,0,0:0:0:0:
96,80,114697,1,0,0:0:0:0:
88,120,120697,6,2,B|128:100|144:64|144:64|152:100|168:120|168:120|192:112|212:96|212:96|216:112|228:120|228:120|256:104|280:104,1,255,0|0,0:0|0:0,0:3:0:0:
344,104,121040,5,2,0:0:0:0:
175,199,121383,1,2,0:0:0:0:
205,278,121640,1,2,0:0:0:0:
294,312,121897,1,2,0:0:0:0:
294,312,121983,1,0,0:0:0:0:
294,312,122069,1,2,0:0:0:0:
365,264,122240,1,0,0:0:0:0:
344,104,122412,5,2,0:0:0:0:
492,180,122755,1,2,0:0:0:0:
462,259,123012,1,2,0:0:0:0:
381,285,123269,1,2,0:0:0:0:
310,237,123440,6,2,L|537:247,1,170,2|0,0:0|0:0,0:3:0:0:
180,176,123783,5,2,0:0:0:0:
200,260,124126,1,2,0:0:0:0:
220,340,124383,1,2,0:0:0:0:
180,176,124640,1,2,0:0:0:0:
200,260,124812,1,2,0:0:0:0:
220,340,124983,1,2,0:0:0:0:
239,84,125155,5,2,0:0:0:0:
315,160,125327,1,2,0:0:0:0:
239,84,125498,1,2,0:0:0:0:
127,312,125841,1,2,0:0:0:0:
127,312,126013,1,2,0:0:0:0:
127,312,126184,6,2,B|128:220|280:216|204:332|344:288,1,255,0|0,0:0|0:0,0:3:0:0:
380,236,126526,6,0,P|388:300|408:348,1,93.5000028533936,4|0,1:1|0:0,0:0:0:0:
436,116,126869,2,0,L|328:124,1,93.5000028533936,4|0,1:1|0:0,0:0:0:0:
342,122,127126,1,2,0:0:0:0:
342,122,127212,1,8,1:2:0:0:
212,44,127383,1,2,0:0:0:0:
212,44,127469,1,0,0:0:0:0:
212,44,127555,1,6,1:2:0:0:
240,156,127726,1,2,0:0:0:0:
120,56,127897,6,0,L|24:68,1,93.5000028533936,10|0,1:2|0:0,0:0:0:0:
240,156,128240,2,0,L|336:144,1,93.5000028533936,6|0,1:2|0:0,0:0:0:0:
332,144,128497,1,2,0:0:0:0:
332,144,128583,1,8,1:2:0:0:
260,256,128755,1,2,0:0:0:0:
70,141,128926,6,2,L|272:158,1,170,6|2,1:2|0:0,0:3:0:0:
408,248,129269,6,0,L|400:360,1,93.5000028533936,10|0,1:2|0:0,0:0:0:0:
352,140,129612,2,0,L|360:32,1,93.5000028533936,6|0,1:2|0:0,0:0:0:0:
358,46,129869,1,2,0:0:0:0:
358,46,129955,2,0,L|468:40,1,93.5000028533936,8|2,1:2|0:0,0:0:0:0:
345,132,130297,2,0,L|293:128,1,46.7500014266968,6|0,1:2|0:0,0:0:0:0:
145,225,130469,2,0,L|93:221,1,46.7500014266968,2|0,0:0|0:0,0:0:0:0:
284,220,130640,6,0,P|304:280|292:348,1,93.5000028533936,10|0,1:2|0:0,0:0:0:0:
98,138,130983,2,0,L|234:146,1,93.5000028533936,6|0,1:2|0:0,0:0:0:0:
196,316,131326,1,8,1:2:0:0:
196,316,131412,1,0,0:0:0:0:
196,316,131497,1,2,0:0:0:0:
196,316,131583,1,0,0:0:0:0:
196,316,131669,6,2,B|236:296|252:260|252:260|260:296|276:316|276:316|300:308|320:292|320:292|324:308|336:316|336:316|364:300|388:300,1,255,6|0,1:2|0:0,0:3:0:0:
362,209,132012,6,0,L|366:329,1,93.5000028533936,10|0,1:2|0:0,0:0:0:0:
432,76,132355,2,0,P|368:88|320:80,1,93.5000028533936,6|0,1:2|0:0,0:0:0:0:
340,85,132612,1,2,0:0:0:0:
340,85,132697,1,8,1:2:0:0:
180,48,132869,1,2,0:0:0:0:
180,48,132955,1,0,0:0:0:0:
180,48,133040,1,6,1:2:0:0:
244,156,133212,1,2,0:0:0:0:
100,112,133383,6,0,L|-16:84,1,93.5000028533936,10|0,1:2|0:0,0:0:0:0:
284,232,133726,2,0,L|400:260,1,93.5000028533936,6|0,1:2|0:0,0:0:0:0:
374,253,133983,1,2,0:0:0:0:
374,253,134069,1,8,1:2:0:0:
168,204,134240,1,2,0:0:0:0:
252,132,134412,6,2,L|268:344,1,170,6|2,1:2|0:0,0:3:0:0:
452,44,134755,6,8,L|344:60,1,93.5000028533936,10|0,1:2|0:0,0:0:0:0:
159,145,135097,2,0,L|267:129,1,93.5000028533936,6|0,1:2|0:0,0:0:0:0:
176,36,135440,2,0,P|132:52|72:44,1,93.5000028533936,8|2,1:2|0:0,0:0:0:0:
86,48,135697,1,0,0:0:0:0:
86,48,135783,1,6,1:2:0:0:
228,220,135955,1,2,0:0:0:0:
140,368,136126,5,2,1:2:0:0:
52,264,136297,1,0,3:0:0:0:
81,282,136383,1,0,3:2:0:0:
96,280,136469,1,2,1:2:0:0:
128,296,136555,1,0,3:2:0:0:
143,294,136641,1,0,3:2:0:0:
168,312,136726,1,0,3:2:0:0:
183,310,136812,1,2,1:2:0:0:
208,324,136897,1,0,3:2:0:0:
223,322,136983,1,0,3:2:0:0:
240,332,137069,1,0,3:2:0:0:
255,330,137155,6,2,B|216:252|297:256|328:204|304:140|200:140|216:208,1,255,2|0,0:0|0:0,0:3:0:0:
259,334,137497,6,8,L|311:324,4,42.5,8|8|8|8|8,1:0|1:0|1:0|1:0|1:0,1:0:0:0:
88,64,137840,1,4,1:0:0:0:
88,64,138097,1,2,0:0:0:0:
88,64,138183,2,0,L|100:172,1,93.5000028533936,8|2,1:2|0:0,0:0:0:0:
120,328,138526,2,0,L|176:312,1,46.7500014266968,6|0,1:2|0:0,0:0:0:0:
256,212,138697,2,0,L|264:268,1,46.7500014266968
196,140,138869,5,8,1:2:0:0:
220,28,139040,1,2,0:0:0:0:
348,216,139212,1,4,1:2:0:0:
327,106,139383,1,2,0:0:0:0:
327,106,139469,1,2,0:0:0:0:
327,106,139555,1,8,1:2:0:0:
256,212,139726,1,0,0:0:0:0:
419,77,139897,6,2,L|239:97,1,170,6|2,1:2|0:0,0:3:0:0:
40,116,140240,5,8,1:2:0:0:
140,52,140412,1,2,0:0:0:0:
96,244,140583,1,6,1:2:0:0:
144,140,140755,1,2,0:0:0:0:
144,140,140840,1,2,0:0:0:0:
144,140,140926,1,8,1:2:0:0:
196,244,141097,1,2,0:0:0:0:
40,116,141269,1,6,1:2:0:0:
96,244,141440,1,2,0:0:0:0:
240,56,141612,6,0,L|288:36,1,46.7500014266968,10|0,1:2|0:0,0:0:0:0:
268,192,141783,2,0,L|280:252,1,46.7500014266968,2|0,0:0|0:0,0:0:0:0:
144,140,141955,1,6,1:2:0:0:
352,116,142126,1,2,0:0:0:0:
352,116,142212,1,2,0:0:0:0:
352,116,142297,1,8,1:2:0:0:
152,36,142469,1,2,0:0:0:0:
268,192,142640,6,2,B|288:231|324:247|324:247|289:255|269:271|269:271|277:295|294:315|294:315|278:319|270:331|270:331|286:359|287:383,1,255,4|0,1:2|0:0,0:3:0:0:
198,297,142983,6,0,P|146:281|106:301,1,93.5000028533936,10|0,1:2|0:0,0:0:0:0:
440,108,143326,2,0,P|456:156|448:216,1,93.5000028533936,6|0,1:2|0:0,0:0:0:0:
420,232,143583,1,2,0:0:0:0:
420,232,143669,1,8,1:2:0:0:
296,28,143840,2,0,L|288:80,1,46.7500014266968,2|0,0:0|0:0,0:0:0:0:
268,192,144012,1,6,1:2:0:0:
164,28,144183,1,2,0:0:0:0:
232,305,144355,6,0,P|196:321|132:305,1,93.5000028533936,10|0,1:2|0:0,0:0:0:0:
325,141,144697,2,0,P|345:181|333:237,1,93.5000028533936,6|0,1:2|0:0,0:0:0:0:
338,227,144955,1,2,0:0:0:0:
338,227,145040,1,8,1:2:0:0:
147,192,145212,1,2,0:0:0:0:
216,56,145383,6,2,L|236:328,1,255,6|0,1:2|0:0,0:3:0:0:
234,310,145726,6,0,L|144:284,1,93.5000028533936,10|0,1:2|0:0,0:0:0:0:
357,122,146069,2,0,L|457:150,1,93.5000028533936,6|0,1:2|0:0,0:0:0:0:
447,147,146326,1,2,0:0:0:0:
447,147,146412,1,8,1:2:0:0:
283,47,146583,1,2,0:0:0:0:
326,223,146755,1,6,1:2:0:0:
326,223,146926,1,2,0:0:0:0:
171,68,147097,6,0,P|127:57|74:71,1,93.5000028533936,6|0,0:0|0:0,0:0:0:0:
227,164,147440,2,0,P|213:105|154:62,1,118.999996368408
115,262,147783,2,0,P|184:247|226:162,1,170,2|0,0:0|0:0,0:0:0:0:
79,67,148126,2,0,P|28:177|115:262,1,259.250007417202,2|0,0:0|0:0,0:0:0:0:
365,135,148469,6,0,P|411:125|458:125,1,85,4|0,3:1|3:2,3:2:0:0:
337,206,148812,2,0,L|326:75,1,127.5,4|0,3:1|3:2,3:2:0:0:
326,78,149155,2,0,L|385:65,1,42.5,8|0,3:2|3:2,3:2:0:0:
236,180,149326,2,0,L|189:172,1,42.5,0|0,3:2|3:2,3:2:0:0:
143,17,149497,2,0,P|168:44|174:104,1,85,10|0,3:2|3:2,3:2:0:0:
94,208,149840,6,0,L|104:64,1,127.5,10|0,3:2|3:2,3:2:0:0:
21,38,150183,2,0,L|25:129,1,85,10|0,3:2|3:2,3:2:0:0:
123,325,150526,2,0,L|213:311,1,85,10|0,3:2|3:2,3:2:0:0:
183,26,150869,2,0,L|191:129,1,85,10|0,3:2|3:2,3:2:0:0:
307,218,151212,6,0,B|343:197|379:203|379:203|395:229|385:266,1,127.5,10|2,3:2|3:2,3:2:0:0:
387,253,151555,1,8,3:2:0:0:
264,84,151726,2,0,P|271:122|268:142,1,42.5,0|0,3:2|3:2,3:2:0:0:
223,229,151897,2,0,P|204:245|179:251,1,42.5,10|0,3:2|3:2,3:2:0:0:
176,59,152069,2,0,P|156:66|140:80,1,42.5,0|0,3:2|3:2,3:2:0:0:
96,192,152240,2,0,P|96:213|102:233,1,42.5,10|0,3:2|3:2,3:2:0:0:
174,323,152412,2,0,P|203:326|228:320,1,42.5,0|0,3:2|3:2,3:2:0:0:
328,228,152583,6,0,P|316:266|335:364,1,127.5,10|0,3:2|3:2,3:2:0:0:
328,351,152926,1,8,3:2:0:0:
398,202,153097,2,0,L|406:264,1,42.5,0|0,3:2|3:2,3:2:0:0:
241,272,153269,2,0,L|248:216,1,42.5,10|0,3:2|3:2,3:2:0:0:
308,144,153440,2,0,L|265:166,1,42.5,0|0,3:2|3:2,3:2:0:0:
172,248,153612,2,0,L|179:192,1,42.5,10|0,3:2|3:2,3:2:0:0:
280,80,153783,2,0,L|231:101,1,42.5,0|0,3:2|3:2,3:2:0:0:
277,290,153955,6,0,L|269:146,1,127.5,10|0,3:2|3:2,3:2:0:0:
207,276,154297,2,0,P|175:296|115:289,1,85,8|0,3:2|3:2,3:2:0:0:
20,154,154640,2,0,L|31:99,1,42.5,10|0,3:2|3:2,3:2:0:0:
124,164,154812,2,0,L|179:174,1,42.5,0|0,3:2|3:2,3:2:0:0:
124,37,154983,2,0,L|113:92,1,42.5,10|0,3:2|3:2,3:2:0:0:
126,292,155155,2,0,L|84:284,1,42.5,0|0,3:2|3:2,3:2:0:0:
128,168,155326,6,0,L|130:305,1,127.5,10|0,3:2|3:2,3:2:0:0:
207,188,155669,2,0,L|213:94,1,85,8|0,3:2|3:2,3:2:0:0:
264,244,156012,2,0,P|296:260|312:272,1,42.5,10|0,3:2|3:2,3:2:0:0:
421,312,156183,2,0,P|415:291|408:272,1,42.5,0|0,3:2|3:2,3:2:0:0:
364,160,156355,2,0,L|356:208,1,42.5,10|0,3:2|3:2,3:2:0:0:
348,320,156526,2,0,L|340:376,1,42.5,0|0,3:2|3:2,3:2:0:0:
424,124,156697,6,0,L|280:132,1,127.5,10|0,3:2|3:2,3:2:0:0:
296,131,157040,1,8,3:2:0:0:
180,24,157212,2,0,L|172:80,1,42.5,0|0,3:2|3:2,3:2:0:0:
91,146,157383,2,0,L|99:90,1,42.5,10|0,3:2|3:2,3:2:0:0:
195,182,157555,1,0,3:2:0:0:
195,182,157640,1,0,3:2:0:0:
195,182,157726,2,0,L|187:238,1,42.5,10|0,3:2|3:2,3:2:0:0:
275,98,157897,2,0,L|327:94,1,42.5,0|0,3:2|3:2,3:2:0:0:
275,214,158069,6,0,P|275:258|263:314,2,85,10|0|8,3:2|3:2|3:2,3:2:0:0:
376,32,158583,1,0,3:2:0:0:
342,167,158755,1,10,3:2:0:0:
241,19,158926,1,0,3:2:0:0:
342,167,159097,1,10,3:2:0:0:
144,88,159269,1,0,3:2:0:0:
304,68,159440,6,0,L|416:60,1,101.999996887207,8|0,1:2|3:2,3:2:0:0:
134,12,159783,2,0,L|160:200,1,152.999995330811,4|0,1:2|3:2,3:2:0:0:
296,192,160126,6,0,L|408:184,1,101.999996887207,8|0,1:2|3:2,3:2:0:0:
24,52,160469,2,0,L|88:204,1,152.999995330811,4|0,1:2|3:2,3:2:0:0:
172,338,160812,6,0,P|124:314|60:338,1,101.999996887207,8|0,1:2|3:2,3:2:0:0:
380,224,161155,2,0,P|400:268|357:376,1,152.999995330811,4|0,1:2|3:2,3:2:0:0:
163,107,161497,6,0,P|112:123|83:186,1,101.999996887207,8|0,1:2|3:2,3:2:0:0:
392,152,161840,2,0,P|393:200|300:256,1,152.999995330811,4|0,1:2|3:2,3:2:0:0:
145,33,162183,6,0,P|209:45|236:81,1,101.999996887207,8|0,1:2|3:2,3:2:0:0:
304,332,162526,2,0,B|288:247|344:267|312:172,1,152.999995330811,6|0,1:2|3:2,3:2:0:0:
80,272,162869,1,8,1:2:0:0:
144,128,163040,1,0,3:2:0:0:
164,356,163212,2,0,L|156:160,1,152.999995330811,4|0,1:2|3:2,3:2:0:0:
362,183,163555,6,0,P|394:203|478:199,1,101.999996887207,8|0,1:2|3:2,3:2:0:0:
340,32,163897,2,0,L|364:192,1,152.999995330811,6|0,1:2|3:2,3:2:0:0:
238,45,164240,2,0,L|354:29,1,101.999996887207,10|0,1:2|3:2,3:2:0:0:
144,28,164583,2,2,B|168:8|224:16|248:88|176:144|164:100|140:136|144:204|168:224,1,255,4|0,1:2|3:2,3:3:0:0:
160,214,164926,6,0,L|228:200,1,68,4|0,1:2|0:0,0:0:0:0:
204,288,165269,2,0,L|218:355,1,68,0|0,1:0|0:0,0:0:0:0:
160,214,165612,2,0,L|92:199,1,68,0|0,1:0|0:0,0:0:0:0:
116,288,165955,2,0,L|101:355,1,68,0|0,1:0|0:0,0:0:0:0:
300,292,166297,6,0,L|340:360,1,68,0|0,1:0|0:0,0:0:0:0:
425,298,166640,2,0,L|440:232,1,68,0|0,1:0|0:0,0:0:0:0:
334,33,166983,2,0,L|300:92,1,68,0|0,1:0|0:0,0:0:0:0:
440,152,167326,2,0,L|425:85,1,68,0|0,1:0|0:0,0:0:0:0:
284,184,167669,6,2,B|224:192|224:192|218:196|218:196|211:193|211:193|164:200|164:200|189:121|189:121|195:115|195:115|194:106|194:106|198:98|198:98|199:89|199:89|204:80|204:80|203:72|203:72|207:66|207:66|132:76|132:76|117:114|117:114|60:120,1,425,0|0,1:0|0:0,0:3:0:0:
284,184,168697,5,2,1:2:0:0:
75,118,169040,1,0,0:0:0:0:
224,32,169383,1,2,0:0:0:0:
160,204,169726,1,0,0:0:0:0:
300,60,170069,6,0,L|288:160,1,85,2|0,0:0|0:0,0:0:0:0:
255,343,170412,5,4,0:1:0:0:
255,343,181040,5,2,0:0:0:0:
255,343,181383,6,0,L|276:240,1,85,8|0,3:2|0:0,0:0:0:0:
128,148,181726,2,0,L|136:264,1,85,0|2,3:2|0:0,0:0:0:0:
260,84,182069,1,0,3:2:0:0:
244,76,182155,1,2,0:0:0:0:
228,68,182240,1,2,0:0:0:0:
144,244,182412,2,0,L|138:159,1,85,2|0,3:2|0:0,0:0:0:0:
388,276,182755,6,0,L|371:359,1,85,2|0,3:2|0:0,0:0:0:0:
320,160,183097,2,0,L|420:156,1,85,0|2,3:2|0:0,0:0:0:0:
176,24,183440,1,2,3:2:0:0:
192,32,183525,1,2,0:0:0:0:
208,40,183611,1,2,0:0:0:0:
128,208,183783,2,0,P|80:228|24:224,1,85,2|0,3:2|0:0,0:0:0:0:
367,81,184126,6,0,P|351:157|363:197,2,85,2|0|0,3:2|0:0|3:2,0:0:0:0:
412,256,184640,2,0,P|419:297|411:339,2,85,2|0|0,0:0|3:2|0:0,0:0:0:0:
261,107,185155,2,2,P|277:151|253:251,1,127.5,2|0,3:2|0:0,0:3:0:0:
266,229,185497,5,2,3:2:0:0:
113,26,185669,1,2,0:0:0:0:
157,22,185755,1,2,0:0:0:0:
193,46,185840,1,2,3:2:0:0:
359,210,186012,1,2,0:0:0:0:
319,241,186097,1,2,0:0:0:0:
267,230,186183,1,2,3:2:0:0:
354,86,186526,2,2,L|366:250,1,127.5,2|0,3:2|0:2,3:3:0:0:
363,213,186869,6,0,P|394:162|450:162,1,85,2|0,3:2|0:0,0:0:0:0:
176,152,187212,1,0,3:2:0:0:
276,284,187383,2,0,P|268:240|212:216,1,85,2|0,0:0|3:2,0:0:0:0:
32,120,187726,1,0,0:0:0:0:
136,240,187897,2,0,P|144:288|144:340,1,85,2|0,3:2|0:0,0:0:0:0:
32,120,188240,6,0,P|92:132|140:116,1,85,2|0,3:2|0:0,0:0:0:0:
312,52,188583,1,0,3:2:0:0:
240,244,188755,2,0,L|232:128,1,85,2|0,0:0|3:2,0:0:0:0:
392,20,189097,1,0,0:0:0:0:
352,220,189269,1,2,3:2:0:0:
344,272,189355,1,2,0:0:0:0:
336,324,189440,1,2,0:0:0:0:
168,48,189612,5,2,3:2:0:0:
228,208,189955,1,2,3:2:0:0:
220,164,190040,1,2,0:0:0:0:
196,132,190126,1,2,0:0:0:0:
188,88,190211,1,2,0:0:0:0:
168,48,190297,6,0,L|272:40,1,85,2|0,3:2|0:0,0:0:0:0:
228,208,190640,2,0,P|240:252|236:312,1,85,2|0,3:2|0:0,0:0:0:0:
352,188,190983,5,2,0:0:0:0:
352,188,191326,1,0,0:0:0:0:
352,188,191497,2,0,P|320:92|440:88,1,255
396,340,192355,6,0,L|280:320,1,85,10|0,0:0|0:0,0:0:0:0:
192,252,192697,1,8,0:0:0:0:
208,276,192783,1,2,0:0:0:0:
192,299,192869,1,2,0:0:0:0:
208,324,192955,1,2,0:0:0:0:
192,348,193040,2,0,L|68:360,1,85,10|0,0:0|0:0,0:0:0:0:
116,264,193297,2,0,L|108:184,1,42.5,2|8,0:0|0:0,0:0:0:0:
32,172,193469,1,0,0:0:0:0:
32,172,193555,2,0,L|36:240,1,42.5,2|0,0:0|0:0,0:0:0:0:
112,104,193726,6,0,P|164:124|216:116,1,85,10|0,0:0|0:0,0:0:0:0:
138,28,193983,2,0,P|105:24|69:39,1,42.5,2|8,0:0|0:0,0:0:0:0:
280,112,194240,1,2,0:0:0:0:
280,112,194412,6,0,P|265:165|278:216,1,85,10|0,0:0|0:0,0:0:0:0:
368,180,194669,2,0,P|364:200|355:220,1,42.5,2|8,0:0|0:0,0:0:0:0:
320,28,194926,1,2,0:0:0:0:
464,184,195097,6,0,L|472:284,1,85,10|0,0:0|0:0,0:0:0:0:
336,344,195440,1,8,0:0:0:0:
320,320,195526,1,2,0:0:0:0:
292,324,195612,1,2,0:0:0:0:
268,308,195697,1,2,0:0:0:0:
240,320,195783,2,0,L|120:340,1,85,10|0,0:0|0:0,0:0:0:0:
164,252,196040,2,0,L|172:188,1,42.5,2|8,0:0|0:0,0:0:0:0:
264,152,196212,1,0,0:0:0:0:
264,152,196297,2,0,L|272:224,1,42.5,2|0,0:0|0:0,0:0:0:0:
172,108,196469,6,0,L|96:120,1,42.5,10|0,0:0|0:0,0:0:0:0:
244,44,196640,1,0,0:0:0:0:
244,44,196726,2,0,L|316:36,2,42.5,2|8|0,0:0|0:0|0:0,0:0:0:0:
264,152,196983,2,0,L|252:228,1,42.5,2|0,0:0|0:0,0:0:0:0:
368,84,197155,6,0,L|444:72,1,42.5,10|0,0:0|0:0,0:0:0:0:
384,180,197326,1,0,0:0:0:0:
384,180,197412,2,0,L|312:188,2,42.5,2|8|0,0:0|0:0|0:0,0:0:0:0:
368,296,197669,2,0,L|380:372,1,42.5,2|0,0:0|0:0,0:0:0:0:
276,248,197840,6,0,P|223:235|170:251,1,85,10|0,0:0|0:0,0:0:0:0:
100,60,198183,1,8,0:0:0:0:
116,84,198269,1,2,0:0:0:0:
112,112,198355,1,2,0:0:0:0:
128,136,198441,1,2,0:0:0:0:
120,164,198526,2,0,L|220:152,1,85,10|0,0:0|0:0,0:0:0:0:
288,88,198783,2,0,L|296:164,1,42.5,2|8,0:0|0:0,0:0:0:0:
368,232,198955,1,0,0:0:0:0:
368,232,199040,2,0,L|376:176,1,42.5,2|0,0:0|0:0,0:0:0:0:
424,72,199212,6,0,P|456:112|504:128,1,85,10|0,0:0|0:0,0:0:0:0:
368,20,199469,2,0,P|320:12|300:20,1,42.5,2|8,0:0|0:0,0:0:0:0:
184,128,199726,1,2,0:0:0:0:
374,189,199897,6,0,P|414:221|430:269,1,85,10|0,0:0|0:0,0:0:0:0:
304,220,200154,2,0,P|296:172|304:152,1,42.5,2|8,0:0|0:0,0:0:0:0:
336,80,200411,1,2,0:0:0:0:
304,220,200583,6,0,L|192:224,1,85,10|0,0:0|0:0,0:0:0:0:
88,100,200926,1,8,0:0:0:0:
80,128,201012,1,2,0:0:0:0:
100,148,201097,1,2,0:0:0:0:
96,176,201183,1,2,0:0:0:0:
72,196,201269,2,0,P|60:252|76:304,1,85,10|0,0:0|0:0,0:0:0:0:
140,360,201526,2,0,L|148:304,1,42.5,2|8,0:0|0:0,0:0:0:0:
176,156,201783,1,2,0:0:0:0:
303,384,201955,5,10,0:0:0:0:
176,156,202212,1,2,0:0:0:0:
403,142,202469,1,2,0:0:0:0:
192,284,202640,5,2,0:0:0:0:
420,270,202897,1,2,0:0:0:0:
292,45,203154,1,2,0:0:0:0:
360,180,203326,6,0,L|224:192,1,110.499994941712,8|0,1:2|0:0,0:0:0:0:
216,8,203669,2,0,L|176:132,1,110.499994941712,8|0,0:0|0:0,0:0:0:0:
4,180,204012,2,0,L|114:189,1,110.499994941712,8|0,0:0|0:0,0:0:0:0:
148,8,204355,2,0,L|181:113,1,110.499994941712,8|0,0:0|0:0,0:0:0:0:
256,232,204697,6,0,P|316:176|376:184,1,110.499994941712,10|0,0:0|0:0,0:0:0:0:
336,264,204955,2,0,L|324:348,1,55.2499974708558,2|8,0:0|0:0,0:0:0:0:
356,92,205212,1,2,0:0:0:0:
252,316,205383,6,0,P|192:372|132:364,1,110.499994941712,10|0,0:0|0:0,0:0:0:0:
180,236,205641,2,0,L|173:291,2,55.2499974708558,2|8|0,0:0|0:0|0:0,0:0:0:0:
192,140,205897,1,2,0:0:0:0:
352,300,206069,6,0,P|396:308|456:264,1,110.499994941712,10|0,0:0|0:0,0:0:0:0:
272,20,206412,1,8,0:0:0:0:
296,48,206497,1,2,0:0:0:0:
332,40,206583,1,2,0:0:0:0:
368,52,206669,1,2,0:0:0:0:
372,96,206755,2,0,L|228:108,1,110.499994941712,10|0,0:0|0:0,0:0:0:0:
48,224,207097,2,0,L|184:208,1,110.499994941712,8|2,0:0|0:0,0:0:0:0:
124,40,207440,6,0,L|200:152,1,110.499994941712,10|0,0:0|0:0,0:0:0:0:
220,302,207783,2,0,L|157:210,1,110.499994941712,10|0,0:0|0:0,0:0:0:0:
352,36,208126,1,10,0:0:0:0:
308,232,208297,1,0,0:0:0:0:
308,232,208640,1,0,0:0:0:0:
236,32,208812,5,14,0:0:0:0:
236,32,208983,1,8,0:0:0:0:
196,196,209155,1,10,0:0:0:0:
196,196,209326,1,8,0:0:0:0:
356,96,209497,6,8,P|404:76|459:85,1,96.6874955739977,10|8,0:0|0:0,0:0:0:0:
420,256,209755,2,8,L|412:156,1,96.6874955739977,10|8,0:0|0:0,0:0:0:0:
344,304,210011,2,8,L|352:380,1,69.0624968385698,10|8,0:0|0:0,0:0:0:0:
316,224,210183,6,8,L|252:240,1,55.2499974708558,10|8,0:0|0:0,0:0:0:0:
100,80,210355,2,8,L|164:64,1,55.2499974708558,8|10,0:0|0:0,0:0:0:0:
264,72,210526,2,8,L|255:114,4,41.4374981031419,10|8|8|8|8,0:0|0:0|0:0|0:0|0:0,0:0:0:0:
180,140,210869,2,8,L|185:176,5,36.8333316472372,10|8|8|8|8|8,0:0|0:0|0:0|0:0|0:0|0:0,0:0:0:0:
268,184,211212,2,8,L|256:240,5,36.8333316472372,10|8|8|8|8|8,0:0|0:0|0:0|0:0|0:0|0:0,0:0:0:0:
176,248,211555,6,8,L|184:304,14,55.2499974708558,10|8|8|8|8|8|8|8|10|8|10|8|10|8|10,0:0|0:0|0:0|0:0|0:0|0:0|0:0|0:0|0:0|0:0|0:0|0:0|0:0|0:0|0:0,0:0:0:0:
256,292,212240,2,8,L|245:376,14,85,10|8|8|8|8|8|10|8|8|8|8|8|10|8|8,0:0|0:0|0:0|0:0|0:0|0:0|0:0|0:0|0:0|0:0|0:0|0:0|0:0|0:0|0:0,0:0:0:0:
268,200,212926,5,2,0:0:0:0:
352,272,213098,1,2,0:0:0:0:
268,200,213269,1,2,0:0:0:0:
416,48,213612,1,2,0:0:0:0:
416,48,213783,1,2,0:0:0:0:
416,48,213955,2,0,B|428:144,1,85
284,312,214297,6,0,P|308:236|296:192,1,110.499994941712,10|0,0:0|0:0,0:0:0:0:
64,20,214640,1,10,0:0:0:0:
36,68,214726,1,2,0:0:0:0:
24,120,214812,1,2,0:0:0:0:
28,176,214897,1,2,0:0:0:0:
48,228,214983,2,0,L|172:216,1,110.499994941712,10|0,0:0|0:0,0:0:0:0:
224,132,215240,2,0,L|232:192,2,55.2499974708558,2|8|0,0:0|0:0|0:0,0:0:0:0:
208,40,215497,1,2,0:0:0:0:
232,284,215669,5,10,0:0:0:0:
440,40,215926,1,2,0:0:0:0:
440,40,216012,1,8,0:0:0:0:
404,232,216183,1,2,0:0:0:0:
224,132,216355,5,10,0:0:0:0:
400,344,216612,1,2,0:0:0:0:
400,344,216697,1,8,0:0:0:0:
344,144,216869,1,2,0:0:0:0:
152,316,217040,6,0,P|84:328|24:292,1,110.499994941712,10|0,0:0|0:0,0:0:0:0:
32,280,217297,1,2,0:0:0:0:
32,280,217383,2,0,L|40:216,1,55.2499974708558,10|2,0:0|0:0,0:0:0:0:
128,128,217555,2,0,L|140:200,1,55.2499974708558,2|2,0:0|0:0,0:0:0:0:
236,268,217726,6,0,L|248:144,1,110.499994941712,10|0,0:0|0:0,0:0:0:0:
272,128,217983,1,2,0:0:0:0:
272,128,218069,2,0,L|360:116,1,55.2499974708558,8|0,0:0|0:0,0:0:0:0:
184,48,218240,1,2,0:0:0:0:
328,208,218412,5,10,0:0:0:0:
48,136,218669,1,2,0:0:0:0:
48,136,218755,1,8,0:0:0:0:
184,48,218926,1,2,0:0:0:0:
168,272,219097,5,10,0:0:0:0:
88,20,219355,1,2,0:0:0:0:
88,20,219440,1,8,0:0:0:0:
68,228,219612,1,2,0:0:0:0:
184,48,219783,6,0,P|244:32|304:44,1,110.499994941712,10|0,0:0|0:0,0:0:0:0:
444,280,220126,1,10,0:0:0:0:
388,292,220212,1,2,0:0:0:0:
344,260,220297,1,2,0:0:0:0:
328,208,220383,1,2,0:0:0:0:
352,160,220469,2,0,L|380:16,1,110.499994941712,10|0,0:0|0:0,0:0:0:0:
464,136,220726,2,0,L|476:224,2,55.2499974708558,2|8|0,0:0|0:0|0:0,0:0:0:0:
448,32,220983,1,2,0:0:0:0:
220,116,221155,5,10,0:0:0:0:
471,190,221412,1,2,0:0:0:0:
471,190,221497,1,8,0:0:0:0:
405,30,221669,1,2,0:0:0:0:
289,253,221840,5,10,0:0:0:0:
38,178,222097,1,2,0:0:0:0:
38,178,222182,1,8,0:0:0:0:
104,338,222354,1,2,0:0:0:0:
160,54,222526,6,0,L|144:164,1,110.499994941712,10|0,0:0|0:0,0:0:0:0:
168,196,222783,1,2,0:0:0:0:
168,196,222869,2,0,L|236:184,1,55.2499974708558,10|2,0:0|0:0,0:0:0:0:
76,80,223040,2,0,L|20:64,1,55.2499974708558,2|2,0:0|0:0,0:0:0:0:
88,224,223212,2,0,L|104:352,1,110.499994941712,10|0,0:0|0:0,0:0:0:0:
72,364,223469,1,2,0:0:0:0:
72,364,223555,2,0,L|4:352,1,55.2499974708558,8|0,0:0|0:0,0:0:0:0:
208,320,223726,1,2,0:0:0:0:
20,152,223897,5,10,0:0:0:0:
320,60,224155,1,2,0:0:0:0:
320,60,224240,1,8,0:0:0:0:
124,28,224412,1,2,0:0:0:0:
456,20,224583,5,10,0:0:0:0:
348,252,224841,1,2,0:0:0:0:
348,252,224926,1,8,0:0:0:0:
317,56,225098,1,2,0:0:0:0:
460,208,225269,5,8,0:0:0:0:
264,240,225440,1,8,0:0:0:0:
412,64,225612,1,14,0:0:0:0:
452,100,225697,1,2,0:0:0:0:
468,152,225783,1,2,0:0:0:0:
460,208,225869,1,2,0:0:0:0:
420,248,225955,1,10,0:0:0:0:
252,68,226126,1,0,0:0:0:0:
252,68,226212,2,0,L|264:140,2,55.2499974708558,2|12|0,0:0|0:0|0:0,0:0:0:0:
156,16,226469,1,2,0:0:0:0:
152,208,226640,5,10,0:0:0:0:
384,40,226897,1,2,0:0:0:0:
384,40,226983,1,12,0:0:0:0:
352,240,227155,1,2,0:0:0:0:
252,68,227326,5,10,0:0:0:0:
288,340,227583,1,2,0:0:0:0:
288,340,227669,1,12,0:0:0:0:
356,160,227840,1,2,0:0:0:0:
184,304,228012,6,0,P|108:324|48:304,1,110.499994941712,10|0,0:0|0:0,0:0:0:0:
124,44,228355,1,14,0:0:0:0:
176,28,228440,1,2,0:0:0:0:
224,52,228526,1,2,0:0:0:0:
244,104,228612,1,2,0:0:0:0:
220,152,228697,2,0,L|88:144,1,110.499994941712,10|0,0:0|0:0,0:0:0:0:
28,148,228955,2,0,L|40:228,2,55.2499974708558,2|12|0,0:0|0:0|0:0,0:0:0:0:
36,56,229212,1,2,0:0:0:0:
116,268,229383,5,10,0:0:0:0:
368,108,229640,1,2,0:0:0:0:
368,108,229726,1,12,0:0:0:0:
344,272,229897,1,2,0:0:0:0:
236,44,230069,5,10,0:0:0:0:
452,220,230326,1,2,0:0:0:0:
452,220,230412,1,12,0:0:0:0:
360,16,230583,1,2,0:0:0:0:
252,240,230755,6,0,P|192:260|120:232,1,110.499994941712,10|0,0:0|0:0,0:0:0:0:
388,116,231097,1,14,0:0:0:0:
356,160,231183,1,2,0:0:0:0:
344,216,231269,1,2,0:0:0:0:
352,272,231355,1,2,0:0:0:0:
384,316,231440,1,10,0:0:0:0:
264,128,231612,1,0,0:0:0:0:
264,128,231697,2,0,L|272:192,2,55.2499974708558,2|12|0,0:0|0:0|0:0,0:0:0:0:
188,36,231955,1,2,0:0:0:0:
88,244,232126,5,10,0:0:0:0:
364,124,232383,1,2,0:0:0:0:
364,124,232469,1,12,0:0:0:0:
188,36,232640,1,2,0:0:0:0:
228,212,232812,5,10,0:0:0:0:
368,16,233069,1,2,0:0:0:0:
368,16,233155,1,12,0:0:0:0:
180,120,233326,1,2,0:0:0:0:
412,128,233497,6,0,P|440:180|424:260,1,110.499994941712,10|0,0:0|0:0,0:0:0:0:
236,40,233840,1,14,0:0:0:0:
260,88,233926,1,2,0:0:0:0:
256,144,234012,1,2,0:0:0:0:
240,196,234097,1,2,0:0:0:0:
256,248,234183,1,10,0:0:0:0:
52,44,234440,1,2,0:0:0:0:
52,44,234526,2,12,L|172:36,1,110.499994941712,12|0,0:0|0:0,0:0:0:0:
60,312,234869,5,4,0:1:0:0:
60,312,235897,6,0,L|72:240,1,59.4999981842042
368,128,236240,6,0,L|392:276,1,118.999996368408,4|0,0:1|0:0,0:0:0:0:
240,52,236583,1,4,0:1:0:0:
180,52,236669,1,2,0:0:0:0:
128,80,236755,1,2,0:0:0:0:
104,136,236840,1,2,0:0:0:0:
112,196,236926,1,10,0:0:0:0:
124,188,237012,1,0,0:0:0:0:
48,28,237183,1,2,0:0:0:0:
40,40,237269,1,12,0:0:0:0:
24,232,237440,1,2,0:0:0:0:
240,52,237612,6,0,L|376:40,1,118.999996368408,10|0,0:0|0:0,0:0:0:0:
460,116,237869,2,0,L|467:175,2,59.4999981842042,2|12|0,0:0|0:0|0:0,0:0:0:0:
444,24,238126,1,2,0:0:0:0:
372,272,238297,1,10,0:0:0:0:
372,272,238383,1,2,0:0:0:0:
204,124,238555,1,2,0:0:0:0:
204,124,238640,1,14,0:0:0:0:
364,160,238812,1,2,0:0:0:0:
212,288,238983,6,0,P|172:308|76:272,1,118.999996368408,10|0,0:0|0:0,0:0:0:0:
136,20,239326,1,14,0:0:0:0:
168,72,239412,1,2,0:0:0:0:
156,124,239497,1,2,0:0:0:0:
128,176,239583,1,2,0:0:0:0:
148,232,239669,1,10,0:0:0:0:
160,224,239755,1,0,0:0:0:0:
256,80,239926,1,2,0:0:0:0:
244,88,240012,1,12,0:0:0:0:
260,264,240183,1,2,0:0:0:0:
388,60,240355,6,0,P|448:56|500:168,1,178.499994552612,10|0,0:0|0:0,0:0:0:0:
420,244,240697,1,14,0:0:0:0:
428,232,240783,1,2,0:0:0:0:
416,224,240869,1,2,0:0:0:0:
428,208,240955,2,0,L|416:120,1,59.4999981842042,2|8,0:0|0:0,0:0:0:0:
144,332,241297,1,0,0:0:0:0:
144,332,241383,6,0,P|92:352|56:348,1,68,2|0,0:0|0:0,0:0:0:0:
20,144,241726,6,0,L|168:156,1,118.999996368408,10|0,0:0|0:0,0:0:0:0:
316,32,242069,1,14,0:0:0:0:
356,80,242155,1,2,0:0:0:0:
372,136,242240,1,2,0:0:0:0:
352,192,242326,1,2,0:0:0:0:
312,236,242412,2,0,P|296:300|328:380,1,118.999996368408,10|0,0:0|0:0,0:0:0:0:
352,356,242669,1,2,0:0:0:0:
352,356,242755,2,0,L|432:336,1,59.4999981842042,12|0,0:0|0:0,0:0:0:0:
268,172,242926,2,0,L|188:160,1,59.4999981842042,2|0,0:0|0:0,0:0:0:0:
428,52,243097,6,0,L|440:204,1,118.999996368408,10|0,0:0|0:0,0:0:0:0:
472,264,243355,2,0,B|480:328|460:348,2,59.4999981842042,2|12|0,0:0|0:0|0:0,0:0:0:0:
352,136,243612,1,2,0:0:0:0:
192,288,243783,6,0,P|134:297|86:264,1,118.999996368408,10|0,0:0|0:0,0:0:0:0:
192,12,244126,1,14,0:0:0:0:
217,66,244212,1,2,0:0:0:0:
192,121,244297,1,2,0:0:0:0:
68,56,244469,6,0,B|156:0|200:132|340:48,1,242.249993531227,10|0,0:0|0:0,0:0:0:0:
384,40,244812,2,0,L|380:128,1,59.4999981842042,14|2,0:0|0:0,0:0:0:0:
302,196,244983,2,0,L|312:256,1,59.4999981842042,2|2,0:0|0:0,0:0:0:0:
424,376,245155,2,0,L|400:232,1,118.999996368408,10|0,0:0|0:0,0:0:0:0:
360,183,245412,1,2,0:0:0:0:
360,183,245497,2,0,L|264:203,1,59.4999981842042,12|0,0:0|0:0,0:0:0:0:
224,336,245669,1,2,0:0:0:0:
92,88,245840,6,0,P|156:36|236:60,1,118.999996368408,10|0,0:0|0:0,0:0:0:0:
132,192,246097,2,0,L|120:280,1,59.4999981842042,2|12,0:0|0:0,0:0:0:0:
328,64,246355,1,2,0:0:0:0:
164,332,246526,6,0,L|0:312,1,118.999996368408,10|0,0:0|0:0,0:0:0:0:
0,144,246783,1,2,0:0:0:0:
0,143,246869,6,0,P|26:156|36:260,1,118.999996368408,14|0,0:0|0:0,0:0:0:0:
212,64,247212,5,10,0:0:0:0:
304,296,247383,1,8,0:0:0:0:
104,64,247555,1,4,0:1:0:0:
148,100,247640,1,2,0:0:0:0:
172,156,247726,1,2,0:0:0:0:
168,216,247812,1,2,0:0:0:0:
144,272,247897,1,10,0:0:0:0:
132,264,247983,2,0,L|56:252,1,59.4999981842042,2|0,0:0|0:0,0:0:0:0:
240,232,248155,1,2,0:0:0:0:
252,240,248241,2,0,L|256:400,1,118.999996368408,14|0,0:0|0:0,0:0:0:0:
484,136,248583,6,0,L|336:168,1,118.999996368408,10|0,0:0|0:0,0:0:0:0:
276,140,248840,2,0,L|284:72,2,59.4999981842042,2|12|0,0:0|0:0|0:0,0:0:0:0:
332,248,249097,1,2,0:0:0:0:
92,64,249269,5,10,0:0:0:0:
132,96,249355,2,0,P|152:152|152:196,1,59.4999981842042,2|0,0:0|0:0,0:0:0:0:
84,252,249526,1,2,0:0:0:0:
84,252,249612,2,0,L|76:184,1,59.4999981842042,12|0,0:0|0:0,0:0:0:0:
204,52,249783,2,0,L|268:84,1,59.4999981842042,2|0,0:0|0:0,0:0:0:0:
208,208,249955,6,0,L|188:368,1,118.999996368408,10|0,0:0|0:0,0:0:0:0:
324,136,250297,1,14,0:0:0:0:
380,116,250383,1,2,0:0:0:0:
436,140,250469,1,2,0:0:0:0:
468,192,250555,1,2,0:0:0:0:
460,252,250640,2,0,P|428:332|452:396,1,118.999996368408,10|0,0:0|0:0,0:0:0:0:
328,296,250897,1,2,0:0:0:0:
328,296,250983,2,0,L|248:312,1,59.4999981842042,12|0,0:0|0:0,0:0:0:0:
216,160,251155,2,0,L|228:244,1,59.4999981842042,2|0,0:0|0:0,0:0:0:0:
136,308,251326,5,10,0:0:0:0:
268,8,251497,1,2,0:0:0:0:
313,45,251583,1,2,0:0:0:0:
326,104,251669,1,14,0:0:0:0:
66,275,251840,1,2,0:0:0:0:
99,212,251926,1,2,0:0:0:0:
172,216,252012,6,0,P|259:237|371:236,1,178.499994552612,8|0,0:0|0:0,0:0:0:0:
347,239,252355,2,0,L|333:171,1,59.4999981842042,12|0,0:0|0:0,0:0:0:0:
168,304,252526,2,0,L|170:363,1,59.4999981842042,8|0,0:0|0:0,0:0:0:0:
192,80,252697,5,10,0:0:0:0:
168,212,252869,1,8,0:0:0:0:
336,180,253040,1,8,0:0:0:0:
356,332,253212,1,8,0:0:0:0:
192,80,253383,6,8,P|136:68|88:92,1,104.124996822357,10|8,0:0|0:0,0:0:0:0:
336,180,253640,2,8,L|448:167,1,104.124996822357,10|8,0:0|0:0,0:0:0:0:
176,212,253897,2,8,L|184:288,1,74.3749977302552,10|8,0:0|0:0,0:0:0:0:
288,124,254069,6,8,L|292:52,1,59.4999981842042,10|8,0:0|0:0,0:0:0:0:
368,300,254240,2,8,L|360:364,1,59.4999981842042,8|10,0:0|0:0,0:0:0:0:
376,124,254412,2,8,L|380:76,4,44.6249986381531,12|8|8|8|8,0:0|0:0|0:0|0:0|0:0,0:0:0:0:
268,232,254755,2,8,L|272:284,5,39.6666654561361,10|8|8|8|8|8,0:0|0:0|0:0|0:0|0:0|0:0,0:0:0:0:
200,164,255097,2,8,L|204:112,5,39.6666654561361,12|8|8|10|8|8,0:0|0:0|0:0|0:0|0:0|0:0,0:0:0:0:
128,208,255440,6,8,L|132:272,14,55.2499974708558,10|8|8|8|8|8|8|8|14|8|10|8|10|8|10,0:0|0:0|0:0|0:0|0:0|0:0|0:0|0:0|0:0|0:0|0:0|0:0|0:0|0:0|0:0,0:0:0:0:
56,160,256126,2,8,L|68:68,14,85,10|8|8|8|8|8|10|8|12|8|8|8|10|8|8,0:0|0:0|0:0|0:0|0:0|0:0|0:0|0:0|0:0|0:0|0:0|0:0|0:0|0:0|0:0,0:0:0:0:
144,120,256812,5,0,0:0:0:0:
216,356,257155,1,0,0:0:0:0:
216,356,257326,1,0,0:0:0:0:
