osu file format v14

[General]
AudioFilename: audio.mp3
AudioLeadIn: 0
PreviewTime: -1
Countdown: 1
SampleSet: Soft
StackLeniency: 0.7
Mode: 0
LetterboxInBreaks: 0
WidescreenStoryboard: 0

[Editor]
Bookmarks: 5820,27420,49706,60677,71649,92220,93592,114163,120677,126506,147077,170392,192335
DistanceSpacing: 1.1
BeatDivisor: 4
GridSize: 4
TimelineZoom: 2.100001

[Metadata]
Title:MTC (Radio Edit)
TitleUnicode:MTC (Radio Edit)
Artist:S3RL
ArtistUnicode:S3RL
Creator:LeNoobster12
Version:
Source:
Tags:
BeatmapID:1568339
BeatmapSetID:743729

[Difficulty]
HPDrainRate:8
CircleSize:4
OverallDifficulty:8.5
ApproachRate:9
SliderMultiplier:1.7
SliderTickRate:1

[Events]
//Background and Video events
//Break Periods
//Storyboard Layer 0 (Background)
//Storyboard Layer 1 (Fail)
//Storyboard Layer 2 (Pass)
//Storyboard Layer 3 (Foreground)
//Storyboard Sound Samples

[TimingPoints]
355,342.857142857143,4,2,0,30,1,0
7212,-125,4,2,0,30,0,0
7897,-100,4,2,0,30,0,0
8583,-125,4,2,0,30,0,0
9612,-100,4,2,0,30,0,0
9955,-125,4,2,0,30,0,0
21955,-125,4,2,0,30,0,0
25040,-200,4,2,0,30,0,0
26069,-125,4,2,0,30,0,0
27440,-100,4,2,0,30,0,0
36012,-200,4,2,0,30,0,0
37040,-100,4,2,0,30,0,0
48697,-133.333333333333,4,2,0,30,0,0
49726,-90.9090909090909,4,2,0,30,0,0
60697,-83.3333333333333,4,2,0,30,0,0
71669,-83.3333333333333,4,2,0,30,0,1
92240,-83.3333333333333,4,2,0,30,0,0
93612,-83.3333333333333,4,2,0,30,0,1
114183,-100,4,2,0,30,0,0
126526,-90.9090909090909,4,2,0,30,0,0
147097,-125,4,2,0,30,0,0
214297,-83.3333333333333,4,2,0,30,0,1
234869,-83.3333333333333,4,2,0,30,0,0
236240,-83.3333333333333,4,2,0,30,0,1
256812,-100,4,2,0,30,0,0

[HitObjects]
42,57,4469,6,0,L|27:153,1,85
140,17,4812,2,0,L|247:28,1,85
328,133,5155,2,0,L|259:181,1,85
148,250,5497,2,0,L|242:312,1,85
336,333,5840,6,0,P|419:324|475:250,1,170
361,216,6526,1,0,0:0:0:0:
415,136,6697,1,0,0:0:0:0:
282,78,6869,2,0,P|236:62|199:57,1,85
132,161,7212,2,0,P|171:175|280:195,1,136
428,228,7897,6,0,L|394:132,1,85
210,136,8240,2,0,L|244:40,1,85
289,271,8583,2,0,P|224:235|134:234,1,136
347,164,9097,5,0,0:0:0:0:
376,57,9269,1,0,0:0:0:0:
436,138,9440,1,0,0:0:0:0:
286,81,9612,2,0,P|248:64|188:61,1,85
101,194,9955,2,0,P|191:165|263:167,1,136
407,247,10469,5,0,0:0:0:0:
291,300,10640,1,0,0:0:0:0:
407,247,10812,1,0,0:0:0:0:
291,300,10983,1,0,0:0:0:0:
302,177,11155,1,0,0:0:0:0:
224,180,11326,2,0,P|248:111|328:106,1,136
22,146,12012,5,0,0:0:0:0:
125,236,12183,1,0,0:0:0:0:
22,146,12355,1,0,0:0:0:0:
139,116,12526,1,0,0:0:0:0:
50,12,12697,2,0,P|126:-8|202:-1,1,136
342,64,13383,5,0,0:0:0:0:
479,136,13554,1,0,0:0:0:0:
447,31,13726,1,0,0:0:0:0:
374,169,13897,1,0,0:0:0:0:
490,256,14069,2,0,P|426:319|365:334,1,136
173,350,14584,5,0,0:0:0:0:
206,255,14755,1,0,0:0:0:0:
217,62,14926,1,0,0:0:0:0:
183,156,15098,1,0,0:0:0:0:
217,62,15269,1,0,0:0:0:0:
428,67,15440,2,0,P|370:107|287:120,1,136
426,208,15955,5,0,0:0:0:0:
475,290,16126,1,0,0:0:0:0:
383,294,16297,1,0,0:0:0:0:
334,212,16469,1,0,0:0:0:0:
279,340,16640,1,0,0:0:0:0:
172,273,16812,2,0,P|116:222|156:166,1,136
279,108,17497,5,0,0:0:0:0:
462,175,17668,1,0,0:0:0:0:
279,108,17840,1,0,0:0:0:0:
402,56,18011,1,0,0:0:0:0:
462,175,18183,2,0,P|438:244|358:249,1,136
218,288,18697,5,0,0:0:0:0:
218,288,18869,1,0,0:0:0:0:
91,154,19040,1,0,0:0:0:0:
120,244,19212,1,0,0:0:0:0:
229,79,19383,1,0,0:0:0:0:
212,172,19555,2,0,P|305:193|356:154,1,136
435,94,20240,5,0,0:0:0:0:
499,225,20412,1,0,0:0:0:0:
366,278,20583,1,0,0:0:0:0:
499,225,20755,1,0,0:0:0:0:
302,144,20926,2,0,P|233:95|188:109,1,136
54,320,21955,6,0,P|67:285|105:270,1,68
146,333,22297,2,0,P|169:260|127:200,1,136
65,202,22812,2,0,P|101:146|166:134,1,136
342,238,23326,6,0,L|363:164,1,68
270,269,23669,2,0,P|326:315|404:287,1,136
455,274,24183,2,0,P|398:227|321:256,1,136
224,331,24697,2,0,P|169:314|148:288,1,68
58,227,25040,2,0,P|45:166|122:95,1,170
312,92,26069,6,0,L|381:131,1,68
370,281,26412,2,0,L|409:212,1,68
214,279,26755,2,0,L|283:318,1,68
215,123,27097,2,0,L|176:192,1,68
455,26,27440,6,0,L|397:101,1,85
433,290,27783,2,0,P|492:243|424:184,1,170
307,145,28297,1,0,0:0:0:0:
203,46,28469,1,0,0:0:0:0:
140,24,28555,1,0,0:0:0:0:
77,39,28640,1,0,0:0:0:0:
40,249,28812,6,0,L|122:200,1,85
106,118,29155,2,0,P|184:145|195:231,1,170
124,333,29669,1,0,0:0:0:0:
366,260,29840,1,0,0:0:0:0:
366,260,29926,1,0,0:0:0:0:
366,260,30012,1,0,0:0:0:0:
444,95,30183,6,0,P|395:57|351:74,1,85
293,120,30526,2,0,P|202:127|155:64,1,170
343,205,31040,2,0,P|434:198|481:261,1,170
89,230,31555,6,0,P|49:183|56:144,1,85
92,56,31897,2,0,P|153:52|180:81,1,85
204,172,32240,5,0,0:0:0:0:
244,185,32325,1,0,0:0:0:0:
285,181,32411,1,0,0:0:0:0:
322,160,32497,1,0,0:0:0:0:
347,125,32583,2,0,P|408:121|435:150,1,85
460,317,32926,6,0,P|396:343|368:335,1,85
77,321,33269,2,0,P|186:282|216:233,1,170
213,240,33783,2,0,P|285:197|368:208,1,170
233,77,34297,6,0,P|177:47|129:58,1,85
165,140,34640,2,0,P|213:172|340:143,1,170
320,159,35155,2,0,P|251:205|168:196,1,170
227,8,35669,6,0,L|277:83,1,85
400,200,36012,2,0,B|311:221|311:221|304:238|304:238|289:227|289:227|286:246|286:246|270:236|270:236|264:252|264:252|250:241|250:241|246:258|246:258,1,212.5
103,267,37040,6,0,P|68:242|50:189,1,85
129,191,37383,2,0,P|171:148|215:142,1,85,2|0,0:0|0:0,0:0:0:0:
342,222,37726,2,0,L|391:193,1,42.5
373,102,37897,2,0,P|447:156|462:251,1,170
246,351,38412,6,0,P|199:328|183:297,1,85
339,28,38755,2,0,P|273:68|201:150,1,170
333,231,39269,1,0,0:0:0:0:
247,278,39440,1,0,0:0:0:0:
184,300,39526,1,0,0:0:0:0:
121,285,39611,1,0,0:0:0:0:
45,142,39783,6,0,P|74:102|135:79,1,85
225,93,40126,2,0,P|309:128|406:119,1,170
387,121,40640,1,0,0:0:0:0:
481,13,40812,1,0,0:0:0:0:
481,13,40897,1,0,0:0:0:0:
481,13,40983,1,0,0:0:0:0:
482,232,41155,6,0,P|433:276|405:275,1,85
140,221,41497,2,0,P|216:148|288:131,1,170
492,139,42012,2,0,P|416:66|344:49,1,170
202,41,42526,2,0,P|158:74|152:113,1,85
181,257,42869,1,0,0:0:0:0:
347,291,43040,5,0,0:0:0:0:
382,285,43125,1,0,0:0:0:0:
406,259,43211,1,0,0:0:0:0:
299,187,43383,5,0,0:0:0:0:
263,181,43468,1,0,0:0:0:0:
239,154,43555,2,0,P|208:118|203:66,1,85
31,229,43897,6,0,P|59:273|107:288,1,85
382,285,44240,2,0,P|299:326|208:323,1,170
223,243,44755,2,0,P|306:284|397:281,1,170
493,207,45269,6,0,P|504:163|472:117,1,85
381,67,45612,2,0,L|212:46,1,170
55,36,46126,2,0,P|70:133|130:187,1,170
370,306,46640,6,0,P|411:263|396:219,1,85
321,174,46983,2,0,P|280:131|295:87,1,85
412,38,47326,1,0,0:0:0:0:
412,38,47412,1,0,0:0:0:0:
453,100,47497,1,0,0:0:0:0:
453,100,47583,1,0,0:0:0:0:
453,100,47669,2,0,L|499:189,1,85
434,274,48012,6,0,L|368:192,1,85
247,63,48355,2,0,L|207:158,1,85
212,224,48697,2,0,L|248:257,1,31.8750012159348
307,308,48869,2,0,P|239:356|154:359,1,159.375006079674
83,352,49383,2,0,L|52:285,1,63.7500024318696
