osu file format v14

[General]
AudioFilename: audio.mp3
AudioLeadIn: 0
PreviewTime: 67267
Countdown: 0
SampleSet: Soft
StackLeniency: 0.7
Mode: 0
LetterboxInBreaks: 0
UseSkinSprites: 1
WidescreenStoryboard: 1

[Editor]
Bookmarks: 13771,24742,29210,29552,35714,46685,57657,65895,68628,79600,90571,98810,100181,101210,101542,106695,107038,112514,123485,134457,145428,156400,167371,178342,189314,200285,211257,219521,220893,222228
DistanceSpacing: 1.1
BeatDivisor: 4
GridSize: 4
TimelineZoom: 1.5

[Metadata]
Title:MTC (Noc.V 2015 Remix)
TitleUnicode:MTC (Noc.V 2015 Remix)
Artist:S3RL
ArtistUnicode:S3RL
Creator:LunarBlossom
Version:eXXXtra
Source:
Tags:hardcore P A N
BeatmapID:934427
BeatmapSetID:433508

[Difficulty]
HPDrainRate:5
CircleSize:4
OverallDifficulty:9
ApproachRate:9.4
SliderMultiplier:1.8
SliderTickRate:1

[Events]
//Background and Video events
0,0,"wp.jpg",0,0
//Break Periods
2,156636,166867
//Storyboard Layer 0 (Background)
//Storyboard Layer 1 (Fail)
//Storyboard Layer 2 (Pass)
//Storyboard Layer 3 (Foreground)
//Storyboard Sound Samples

[TimingPoints]
2836,342.857142857143,4,2,1,55,1,0
3093,-100,4,2,1,5,0,0
3178,-133.333333333333,4,2,1,55,0,0
4207,-100,4,2,1,55,0,0
4464,-100,4,2,1,5,0,0
4550,-133.333333333333,4,2,1,55,0,0
5578,-100,4,2,1,55,0,0
5836,-100,4,2,1,5,0,0
5921,-133.333333333333,4,2,1,55,0,0
6950,-100,4,2,1,55,0,0
7207,-100,4,2,1,5,0,0
7293,-133.333333333333,4,2,1,55,0,0
8321,-100,4,2,1,55,0,0
8578,-100,4,2,1,5,0,0
8664,-133.333333333333,4,2,1,55,0,0
9693,-100,4,2,1,55,0,0
9950,-100,4,2,1,5,0,0
10036,-133.333333333333,4,2,1,55,0,0
11064,-100,4,2,1,55,0,0
11321,-100,4,2,1,5,0,0
11407,-133.333333333333,4,2,1,55,0,0
12436,-100,4,2,1,55,0,0
12693,-100,4,2,1,5,0,0
12778,-133.333333333333,4,2,1,55,0,0
13807,-100,4,2,1,55,0,0
24436,-200,4,2,1,55,0,0
24778,-142.857142857143,4,2,1,55,0,0
29921,-200,4,2,1,55,0,0
30264,-142.857142857143,4,2,1,55,0,0
34721,-125,4,2,1,55,0,0
35064,-111.111111111111,4,2,1,55,0,0
35407,-100,4,2,1,55,0,0
35750,-100,4,2,1,55,0,0
46721,-125,4,2,1,55,0,0
57693,-100,4,2,2,55,0,0
63178,-100,4,2,1,55,0,0
68664,-90.9090909090909,4,2,2,55,0,1
101578,-100,4,2,1,55,0,0
107064,-100,4,2,3,55,0,0
123521,-100,4,2,1,55,0,0
124207,-100,4,2,3,55,0,0
133121,-100,4,2,1,55,0,0
178378,-86.9565217391304,4,2,2,55,0,1
198950,-117.647058823529,4,2,2,35,0,0
200321,-90.9090909090909,4,2,2,55,0,1
220893,-200,4,2,1,55,0,0

[HitObjects]
104,32,2835,6,0,B|96:96|96:96|108:120|108:120|100:192,1,135,6|0,0:0|0:0,0:0:0:0:
103,163,3178,6,0,P|59:187|31:215,1,67.5000025749208,2|0,0:0|0:0,0:0:0:0:
121,333,3521,2,0,P|126:300|138:269,1,67.5000025749208,0|2,0:0|0:0,0:0:0:0:
236,323,3864,2,0,P|257:367|283:397,1,67.5000025749208,2|0,0:0|0:0,0:0:0:0:
408,296,4207,6,0,L|420:156,1,135,2|0,0:0|0:0,0:0:0:0:
419,161,4550,2,0,P|431:127|451:95,1,67.5000025749208,2|0,0:0|0:0,0:0:0:0:
325,18,4893,2,0,P|333:50|347:81,1,67.5000025749208,0|2,0:0|0:0,0:0:0:0:
241,76,5236,2,0,P|207:63|175:43,1,67.5000025749208,2|0,0:0|0:0,0:0:0:0:
36,196,5578,6,0,L|184:204,1,135,2|0,0:0|0:0,0:0:0:0:
170,203,5921,2,0,P|164:240|160:276,1,67.5000025749208,2|0,0:0|0:0,0:0:0:0:
312,317,6264,2,0,P|303:284|296:252,1,67.5000025749208,0|2,0:0|0:0,0:0:0:0:
408,172,6607,2,0,P|426:204|447:233,1,67.5000025749208,2|0,0:0|0:0,0:0:0:0:
478,60,6950,6,0,P|422:40|330:60,1,135,2|0,0:0|0:0,0:0:0:0:
348,50,7293,2,0,P|312:64|276:72,1,67.5000025749208,2|0,0:0|0:0,0:0:0:0:
164,160,7636,2,0,P|200:173|236:181,1,67.5000025749208,0|2,0:0|0:0,0:0:0:0:
352,260,7978,2,0,P|315:273|279:281,1,67.5000025749208,2|0,0:0|0:0,0:0:0:0:
448,364,8321,6,0,L|460:216,1,135,2|0,0:0|0:0,0:0:0:0:
458,229,8664,2,0,L|452:152,1,67.5000025749208,2|0,0:0|0:0,0:0:0:0:
328,108,9007,2,0,L|322:175,1,67.5000025749208,0|2,0:0|0:0,0:0:0:0:
204,244,9350,2,0,L|197:166,1,67.5000025749208,2|0,0:0|0:0,0:0:0:0:
56,352,9693,6,0,L|72:212,1,135,2|0,0:0|0:0,0:0:0:0:
71,217,10036,2,0,P|56:184|48:144,1,67.5000025749208,2|0,0:0|0:0,0:0:0:0:
176,48,10378,2,0,P|173:85|161:124,1,67.5000025749208,0|2,0:0|0:0,0:0:0:0:
240,236,10721,2,0,P|254:205|273:178,1,67.5000025749208,2|0,0:0|0:0,0:0:0:0:
164,32,11064,6,0,P|120:56|28:48,1,135,2|0,0:0|0:0,0:0:0:0:
37,52,11407,2,0,P|12:88|-4:124,1,67.5000025749208,2|0,0:0|0:0,0:0:0:0:
96,244,11750,2,0,L|104:164,1,67.5000025749208,0|2,0:0|0:0,0:0:0:0:
228,124,12093,2,0,P|253:159|269:195,1,67.5000025749208,2|0,0:0|0:0,0:0:0:0:
188,344,12436,6,0,L|44:336,1,135,2|0,0:0|0:0,0:0:0:0:
53,336,12778,2,0,P|40:296|40:256,1,67.5000025749208,10|0,0:0|0:0,0:0:0:0:
184,188,13121,2,0,P|180:221|169:253,1,67.5000025749208,8|2,0:0|0:0,0:0:0:0:
24,116,13464,2,0,P|43:78|71:49,1,67.5000025749208,10|0,0:0|0:0,0:0:0:0:
202,171,13807,6,0,B|225:219|204:266|204:266|183:312|209:358,1,180,2|8,0:0|0:0,0:0:0:0:
284,304,14321,1,0,0:0:0:0:
124,216,14493,1,0,0:0:0:0:
280,124,14664,1,2,0:0:0:0:
124,216,14836,2,0,P|76:228|28:224,1,90,8|0,0:0|0:0,0:0:0:0:
192,80,15178,6,0,B|261:91|261:91|305:78|305:78|373:90,1,180,2|8,0:0|0:0,0:0:0:0:
440,148,15693,1,0,0:0:0:0:
304,256,15864,2,0,B|292:212|292:212|304:160,1,90,0|2,0:0|0:0,0:0:0:0:
472,272,16207,2,0,B|484:316|484:316|472:368,1,90,8|0,0:0|0:0,0:0:0:0:
304,256,16550,6,0,B|260:220|208:240|208:240|184:280|136:288,1,180,2|8,0:0|0:0,0:0:0:0:
126,189,17064,1,0,0:0:0:0:
252,360,17236,2,0,L|360:356,1,90,0|2,0:0|0:0,0:0:0:0:
424,232,17578,1,8,0:0:0:0:
480,344,17750,1,0,0:0:0:0:
304,256,17921,6,0,B|292:216|312:184|312:184|296:152|296:152|316:112|304:72,1,180,2|8,0:0|0:0,0:0:0:0:
240,24,18436,1,0,0:0:0:0:
160,172,18607,2,0,P|112:188|60:180,1,90,0|2,0:0|0:0,0:0:0:0:
104,88,18950,1,8,0:0:0:0:
208,252,19121,1,0,0:0:0:0:
306,84,19293,6,0,P|368:140|472:116,1,180,2|8,0:0|0:0,0:0:0:0:
401,41,19807,1,0,0:0:0:0:
256,164,19978,2,0,P|245:212|256:256,1,90,0|2,0:0|0:0,0:0:0:0:
480,320,20321,2,0,P|491:272|480:228,1,90,8|0,0:0|0:0,0:0:0:0:
341,315,20664,6,0,P|297:351|173:331,1,180,2|8,0:0|0:0,0:0:0:0:
104,148,21178,1,0,0:0:0:0:
248,244,21350,1,0,0:0:0:0:
68,320,21521,1,2,0:0:0:0:
204,120,21693,1,8,0:0:0:0:
341,315,21864,1,0,0:0:0:0:
295,178,22036,6,0,P|251:217|131:201,1,180,2|8,0:0|0:0,0:0:0:0:
72,144,22550,1,0,0:0:0:0:
4,204,22721,2,0,P|-9:250|10:301,1,90,0|2,0:0|0:0,0:0:0:0:
204,120,23064,2,0,P|215:76|202:34,1,90,8|0,0:0|0:0,0:0:0:0:
137,205,23407,5,0,0:0:0:0:
140,224,23750,1,0,0:0:0:0:
144,240,24093,1,0,0:0:0:0:
148,256,24436,2,0,L|224:264,1,67.5
244,256,24778,6,0,L|112:268,1,125.999996154785,6|2,0:0|0:0,0:0:0:0:
44,228,25293,2,0,P|28:196|52:104,1,125.999996154785,8|2,0:0|0:0,0:0:0:0:
124,84,25807,2,0,L|192:96,1,62.9999980773926,8|2,0:0|0:0,0:0:0:0:
296,204,26150,6,0,P|272:240|292:332,1,125.999996154785,0|2,0:0|0:0,0:0:0:0:
344,368,26664,2,0,B|412:364|412:364|472:328,1,125.999996154785,8|2,0:0|0:0,0:0:0:0:
504,264,27178,2,0,P|512:220|508:188,1,62.9999980773926,8|2,0:0|0:0,0:0:0:0:
400,112,27521,6,0,L|244:120,1,125.999996154785,2|2,0:0|0:0,0:0:0:0:
208,68,28036,2,0,P|168:96|80:80,1,125.999996154785,8|2,0:0|0:0,0:0:0:0:
16,116,28550,2,0,P|4:148|4:180,1,62.9999980773926,8|2,0:0|0:0,0:0:0:0:
84,304,28893,6,0,L|240:296,1,125.999996154785,2|8,0:0|0:0,0:0:0:0:
232,272,29321,1,0,0:0:0:0:
248,300,29407,1,0,0:0:0:0:
264,328,29493,1,0,0:0:0:0:
280,356,29578,2,0,P|315:365|344:364,1,62.9999980773926,0|2,0:0|0:0,0:0:0:0:
444,284,29921,6,0,L|436:216,1,67.5,8|0,0:0|0:0,0:0:0:0:
444,180,30264,6,0,L|428:320,1,125.999996154785,2|2,0:0|0:0,0:0:0:0:
356,344,30778,2,0,P|316:315|229:326,1,125.999996154785,8|2,0:0|0:0,0:0:0:0:
172,364,31293,2,0,P|141:374|109:372,1,62.9999980773926,8|2,0:0|0:0,0:0:0:0:
24,264,31636,6,0,B|28:212|28:212|40:188|40:188|44:132,1,125.999996154785,2|2,0:0|0:0,0:0:0:0:
108,88,32150,2,0,P|140:116|228:112,1,125.999996154785,8|2,0:0|0:0,0:0:0:0:
288,68,32664,1,8,0:0:0:0:
288,68,32750,1,0,0:0:0:0:
288,68,32836,1,0,0:0:0:0:
416,160,33007,6,0,P|436:216|420:292,1,125.999996154785,2|2,0:0|0:0,0:0:0:0:
360,332,33521,2,0,B|296:324|296:324|264:352|216:344,1,125.999996154785,8|2,0:0|0:0,0:0:0:0:
168,308,34036,2,0,P|128:296|100:300,1,62.9999980773926,8|2,0:0|0:0,0:0:0:0:
16,216,34378,6,0,L|8:108,1,94.499997116089,2|0,0:0|0:0,0:0:0:0:
9,121,34721,6,0,P|40:148|76:164,1,72,8|0,0:0|0:0,0:0:0:0:
194,239,35064,6,0,P|156:253|116:256,1,80.9999975280763,8|0,0:0|0:0,0:0:0:0:
280,320,35407,6,0,P|307:290|330:239,1,90,8|0,0:0|0:0,0:0:0:0:
312,180,35750,6,0,B|300:249|300:249|308:285|308:285|300:357,1,180,0|8,0:0|0:0,0:0:0:0:
432,284,36264,2,0,L|428:236,1,45
472,172,36436,2,0,L|468:124,1,45
420,64,36607,1,0,0:0:0:0:
312,180,36778,2,0,P|268:164|224:168,1,90,8|0,0:0|0:0,0:0:0:0:
152,216,37121,5,0,0:0:0:0:
60,136,37293,1,0,0:0:0:0:
0,284,37464,1,8,0:0:0:0:
152,216,37636,1,0,0:0:0:0:
183,247,37721,1,0,0:0:0:0:
224,264,37807,1,0,0:0:0:0:
269,265,37893,1,0,0:0:0:0:
310,248,37978,1,0,0:0:0:0:
248,140,38150,1,8,0:0:0:0:
248,140,38236,1,0,0:0:0:0:
248,140,38321,1,0,0:0:0:0:
152,252,38493,6,0,L|160:344,1,90
240,380,38836,1,8,0:0:0:0:
398,267,39007,2,0,L|406:215,1,45
346,163,39178,2,0,L|338:111,1,45
392,48,39350,1,0,0:0:0:0:
248,140,39521,2,0,P|204:156|152:148,1,90,8|0,0:0|0:0,0:0:0:0:
92,96,39864,5,0,0:0:0:0:
24,228,40036,1,0,0:0:0:0:
24,228,40121,1,0,0:0:0:0:
24,228,40207,1,8,0:0:0:0:
128,336,40378,1,0,0:0:0:0:
128,336,40464,1,0,0:0:0:0:
128,336,40550,2,0,L|184:340,2,45
224,252,40893,1,8,0:0:0:0:
300,348,41064,1,0,0:0:0:0:
356,184,41236,5,0,0:0:0:0:
300,348,41407,1,0,0:0:0:0:
468,328,41578,1,8,0:0:0:0:
376,212,41750,2,0,P|344:208|312:196,1,45
264,260,41921,2,0,P|235:244|209:222,1,45
144,248,42093,1,0,0:0:0:0:
48,128,42264,2,0,L|56:32,1,90,8|0,0:0|0:0,0:0:0:0:
55,38,42607,5,0,0:0:0:0:
128,144,42778,1,0,0:0:0:0:
39,238,42950,1,8,0:0:0:0:
188,84,43121,1,0,0:0:0:0:
219,115,43206,1,0,0:0:0:0:
260,134,43292,1,0,0:0:0:0:
304,135,43378,1,0,0:0:0:0:
346,120,43463,1,0,0:0:0:0:
464,188,43636,1,8,0:0:0:0:
466,210,43721,1,0,0:0:0:0:
469,232,43807,1,0,0:0:0:0:
471,255,43893,1,0,0:0:0:0:
474,277,43978,6,0,L|464:372,1,90
323,236,44321,2,0,L|329:168,1,45,8|0,0:0|0:0,0:0:0:0:
251,185,44493,2,0,L|245:253,1,45
170,219,44664,2,0,L|176:151,1,45
180,92,44836,1,0,0:0:0:0:
80,188,45007,1,8,0:0:0:0:
163,303,45178,1,0,0:0:0:0:
323,236,45350,6,0,P|361:253|411:252,1,90
484,204,45693,1,8,0:0:0:0:
327,37,45864,1,0,0:0:0:0:
293,39,45949,1,0,0:0:0:0:
259,41,46035,1,0,0:0:0:0:
226,44,46121,1,0,0:0:0:0:
192,46,46206,1,0,0:0:0:0:
40,192,46378,2,0,L|192:212,1,135,8|0,0:0|0:0,0:0:0:0:
204,188,46721,6,0,P|181:240|200:308,1,108
208,320,47064,1,0,0:0:0:0:
234,319,47149,1,0,0:0:0:0:
261,318,47235,1,0,0:0:0:0:
288,317,47321,1,0,0:0:0:0:
315,316,47407,2,0,L|396:324,1,72
388,248,47664,2,0,L|468:240,1,72
512,298,47921,1,0,0:0:0:0:
342,86,48093,5,0,0:0:0:0:
231,204,48350,1,0,0:0:0:0:
388,248,48607,1,0,0:0:0:0:
303,84,48778,5,0,0:0:0:0:
247,236,49035,1,0,0:0:0:0:
409,216,49292,1,0,0:0:0:0:
268,98,49464,6,0,P|224:120|140:92,1,108
136,96,49807,1,0,0:0:0:0:
134,122,49892,1,0,0:0:0:0:
132,149,49978,1,0,0:0:0:0:
130,176,50064,1,0,0:0:0:0:
128,203,50150,2,0,L|136:280,1,72
216,264,50407,2,0,L|208:340,1,72
140,372,50664,1,0,0:0:0:0:
284,189,50836,5,0,0:0:0:0:
399,304,51093,1,0,0:0:0:0:
442,149,51350,1,0,0:0:0:0:
281,227,51521,5,0,0:0:0:0:
432,288,51778,1,0,0:0:0:0:
412,128,52035,1,0,0:0:0:0:
294,262,52207,6,0,P|256:284|172:268,1,108
160,264,52550,1,0,0:0:0:0:
136,250,52635,1,0,0:0:0:0:
110,244,52721,1,0,0:0:0:0:
83,246,52807,1,0,0:0:0:0:
58,255,52893,2,0,P|44:216|44:184,1,72
0,120,53150,2,0,P|5:77|20:49,1,72
96,32,53407,1,0,0:0:0:0:
232,200,53578,5,0,0:0:0:0:
80,140,53836,1,0,0:0:0:0:
104,300,54093,1,0,0:0:0:0:
219,164,54264,5,0,0:0:0:0:
56,168,54522,1,0,0:0:0:0:
140,306,54779,1,0,0:0:0:0:
193,136,54950,6,0,L|312:132,1,108
332,116,55293,1,0,0:0:0:0:
355,129,55378,1,0,0:0:0:0:
381,135,55464,1,0,0:0:0:0:
408,135,55550,1,0,0:0:0:0:
434,128,55636,2,0,P|448:184|448:208,1,72
504,256,55893,2,0,P|494:312|485:334,1,72
416,356,56150,1,0,0:0:0:0:
292,196,56321,5,0,0:0:0:0:
172,304,56578,1,0,0:0:0:0:
100,156,56836,1,0,0:0:0:0:
274,157,57007,5,0,0:0:0:0:
206,303,57264,1,0,0:0:0:0:
82,195,57522,1,0,0:0:0:0:
259,152,57693,6,0,P|304:180|400:164,1,135,8|0,0:0|0:0,0:0:0:0:
408,136,58036,1,8,0:0:0:0:
412,180,58121,1,0,0:0:0:0:
417,225,58207,1,0,0:0:0:0:
421,270,58293,1,0,0:0:0:0:
426,315,58378,2,0,P|380:332|332:336,1,90,8|0,0:0|0:0,0:0:0:0:
282,277,58636,2,0,P|235:260|187:256,1,90
124,304,58893,1,0,0:0:0:0:
20,168,59064,6,0,P|4:108|32:32,2,135,8|0|0,0:0|0:0|0:0,0:0:0:0:
196,256,59750,2,0,P|212:316|184:392,2,135,8|0|0,0:0|0:0|0:0,0:0:0:0:
244,72,60436,6,0,L|384:84,1,135,8|0,0:0|0:0,0:0:0:0:
416,60,60778,1,8,0:0:0:0:
382,89,60863,1,0,0:0:0:0:
366,130,60949,1,0,0:0:0:0:
370,175,61035,1,0,0:0:0:0:
396,212,61121,2,0,L|493:207,1,90,8|0,0:0|0:0,0:0:0:0:
380,292,61378,2,0,L|282:287,1,90
440,352,61636,1,0,0:0:0:0:
236,212,61807,6,0,P|205:252|213:344,2,135,8|0|0,0:0|0:0|0:0,0:0:0:0:
416,156,62493,2,0,P|447:116|439:24,2,135,8|0|0,0:0|0:0|0:0,0:0:0:0:
292,60,63178,5,2,0:0:0:0:
120,88,63350,1,2,0:0:0:0:
100,164,63521,1,2,0:0:0:0:
272,136,63693,1,2,0:0:0:0:
212,304,63864,5,2,0:0:0:0:
284,100,64036,1,2,0:0:0:0:
392,244,64207,1,2,0:0:0:0:
268,72,64378,1,2,0:0:0:0:
144,200,64550,5,2,0:0:0:0:
212,365,64721,1,2,0:0:0:0:
382,306,64893,1,2,0:0:0:0:
314,141,65064,1,2,0:0:0:0:
141,299,65236,5,2,0:0:0:0:
306,368,65407,1,2,0:0:0:0:
384,206,65579,1,2,0:0:0:0:
219,137,65750,1,2,0:0:0:0:
368,352,65921,5,2,0:0:0:0:
404,316,66007,1,2,0:0:0:0:
452,300,66093,1,2,0:0:0:0:
500,304,66178,1,2,0:0:0:0:
468,268,66264,1,2,0:0:0:0:
456,220,66350,1,2,0:0:0:0:
460,172,66436,1,2,0:0:0:0:
484,128,66521,1,2,0:0:0:0:
468,80,66607,5,2,0:0:0:0:
428,52,66693,1,2,0:0:0:0:
380,44,66778,1,2,0:0:0:0:
332,52,66864,1,2,0:0:0:0:
292,80,66950,1,2,0:0:0:0:
248,104,67036,1,2,0:0:0:0:
200,112,67121,1,2,0:0:0:0:
152,100,67207,1,2,0:0:0:0:
116,68,67293,5,8,0:0:0:0:
116,68,67978,5,8,0:0:0:0:
116,68,68664,6,0,B|212:108|212:32|312:76,1,198.000006042481,8|8,0:0|0:0,0:0:0:0:
352,100,69093,1,0,0:0:0:0:
380,140,69178,1,0,0:0:0:0:
390,188,69264,1,0,0:0:0:0:
381,236,69350,2,0,B|376:288|376:288|344:328,1,99.0000030212403,8|0,0:0|0:0,0:0:0:0:
304,348,69607,1,0,0:0:0:0:
256,336,69693,2,0,P|214:309|140:324,1,99.0000030212403,8|0,0:0|0:0,0:0:0:0:
48,244,70036,6,0,P|28:200|24:144,1,99.0000030212403,8|0,0:0|0:0,0:0:0:0:
169,72,70293,2,0,P|141:112|128:160,1,99.0000030212403
216,228,70550,1,0,0:0:0:0:
324,88,70721,2,0,P|376:72|424:68,1,99.0000030212403,8|0,0:0|0:0,0:0:0:0:
492,212,70978,2,0,P|440:196|392:192,1,99.0000030212403
312,284,71236,1,0,0:0:0:0:
108,108,71407,6,0,P|152:60|260:60,1,148.50000453186,8|0,0:0|0:0,0:0:0:0:
272,76,71750,1,8,0:0:0:0:
310,107,71835,1,0,0:0:0:0:
357,121,71921,1,0,0:0:0:0:
406,118,72007,1,0,0:0:0:0:
450,97,72093,2,0,P|460:60|464:0,1,99.0000030212403,8|0,0:0|0:0,0:0:0:0:
312,200,72350,1,0,0:0:0:0:
312,200,72436,2,0,P|321:248|341:293,1,99.0000030212403,8|0,0:0|0:0,0:0:0:0:
228,355,72778,6,0,L|117:348,1,99.0000030212403,8|0,0:0|0:0,0:0:0:0:
32,240,73036,2,0,L|130:233,1,99.0000030212403
208,124,73293,1,0,0:0:0:0:
308,304,73464,2,0,P|352:328|404:332,1,99.0000030212403,8|0,0:0|0:0,0:0:0:0:
492,228,73721,2,0,P|482:179|454:139,1,99.0000030212403
308,164,73978,1,0,0:0:0:0:
204,356,74150,6,0,B|125:351|125:351|68:328|52:276,1,148.50000453186,8|0,0:0|0:0,0:0:0:0:
104,276,74493,1,8,0:0:0:0:
135,238,74578,1,0,0:0:0:0:
147,190,74664,1,0,0:0:0:0:
139,142,74750,1,0,0:0:0:0:
111,102,74836,2,0,P|156:120|216:112,1,99.0000030212403,8|0,0:0|0:0,0:0:0:0:
248,92,75093,1,0,0:0:0:0:
292,112,75178,2,0,B|307:162|307:162|292:216,1,99.0000030212403,8|0,0:0|0:0,0:0:0:0:
372,348,75521,6,0,P|424:344|480:320,1,99.0000030212403,8|0,0:0|0:0,0:0:0:0:
424,232,75778,2,0,P|450:187|463:127,1,99.0000030212403
384,60,76036,1,0,0:0:0:0:
140,348,76207,2,0,P|88:344|32:320,1,99.0000030212403,8|0,0:0|0:0,0:0:0:0:
88,232,76464,2,0,P|61:187|48:127,1,99.0000030212403
128,60,76722,1,0,0:0:0:0:
256,180,76893,6,0,L|272:332,1,148.50000453186,8|0,0:0|0:0,0:0:0:0:
308,360,77236,1,8,0:0:0:0:
354,374,77321,1,0,0:0:0:0:
398,354,77407,1,0,0:0:0:0:
420,311,77493,1,0,0:0:0:0:
408,264,77578,2,0,L|396:160,1,99.0000030212403,8|0,0:0|0:0,0:0:0:0:
380,64,77836,1,0,0:0:0:0:
380,64,77921,2,0,P|348:49|373:48,1,99.0000030212403,8|0,0:0|0:0,0:0:0:0:
256,192,78264,12,0,79464,0:0:0:0:
72,192,79636,6,0,P|118:206|160:246,1,99.0000030212403,8|0,0:0|0:0,0:0:0:0:
280,296,79978,2,0,P|269:249|282:192,1,99.0000030212403,8|0,0:0|0:0,0:0:0:0:
256,64,80321,2,0,P|234:106|187:141,1,99.0000030212403,8|0,0:0|0:0,0:0:0:0:
152,40,80664,1,8,0:0:0:0:
360,24,80836,1,0,0:0:0:0:
279,200,81007,6,0,P|269:248|280:296,1,99.0000030212403,8|0,0:0|0:0,0:0:0:0:
460,200,81350,2,0,P|470:151|459:104,1,99.0000030212403,8|0,0:0|0:0,0:0:0:0:
360,24,81693,1,8,0:0:0:0:
279,200,81864,1,0,0:0:0:0:
168,132,82036,2,0,P|124:148|72:144,1,99.0000030212403,8|0,0:0|0:0,0:0:0:0:
4,72,82378,5,8,0:0:0:0:
104,244,82550,1,0,0:0:0:0:
260,120,82721,2,0,B|277:168|277:168|268:224,1,99.0000030212403,8|0,0:0|0:0,0:0:0:0:
113,339,83064,2,0,B|96:291|96:291|105:235,1,99.0000030212403,8|0,0:0|0:0,0:0:0:0:
260,364,83407,1,8,0:0:0:0:
376,204,83578,1,0,0:0:0:0:
228,72,83750,6,0,P|186:95|128:88,1,99.0000030212403,8|0,0:0|0:0,0:0:0:0:
44,232,84093,1,8,0:0:0:0:
93,236,84178,1,0,0:0:0:0:
142,241,84264,1,0,0:0:0:0:
191,245,84350,1,0,0:0:0:0:
241,250,84435,1,8,0:0:0:0:
356,148,84607,1,0,0:0:0:0:
481,266,84778,2,0,B|496:312|496:312|480:368,1,99.0000030212403,8|0,0:0|0:0,0:0:0:0:
334,189,85121,6,0,B|319:143|319:143|335:87,1,99.0000030212403,8|0,0:0|0:0,0:0:0:0:
232,48,85464,2,0,B|199:83|199:83|143:98,1,99.0000030212403,8|0,0:0|0:0,0:0:0:0:
160,208,85807,2,0,B|207:218|207:218|247:259,1,99.0000030212403,8|0,0:0|0:0,0:0:0:0:
80,332,86150,1,8,0:0:0:0:
32,148,86321,1,0,0:0:0:0:
242,254,86493,6,0,P|254:310|258:358,1,99.0000030212403,8|0,0:0|0:0,0:0:0:0:
16,245,86836,2,0,P|20:195|31:147,1,99.0000030212403,8|0,0:0|0:0,0:0:0:0:
152,40,87178,1,8,0:0:0:0:
216,180,87350,1,0,0:0:0:0:
108,284,87521,1,8,0:0:0:0:
108,284,87607,1,0,0:0:0:0:
108,284,87693,1,0,0:0:0:0:
336,360,87864,6,0,P|384:376|448:380,1,99.0000030212403,8|0,0:0|0:0,0:0:0:0:
176,360,88207,2,0,P|128:376|64:380,1,99.0000030212403,8|0,0:0|0:0,0:0:0:0:
384,240,88550,2,0,P|416:192|436:136,1,99.0000030212403,8|0,0:0|0:0,0:0:0:0:
128,240,88893,2,0,P|96:192|76:136,1,99.0000030212403,8|0,0:0|0:0,0:0:0:0:
256,36,89236,6,0,B|220:136|292:136|256:232,1,198.000006042481,8|0,0:0|0:0,0:0:0:0:
172,300,89750,1,0,0:0:0:0:
172,300,89921,2,0,P|256:256|348:312,1,198.000006042481,8|0,0:0|0:0,0:0:0:0:
256,360,90436,1,0,0:0:0:0:
104,232,90607,6,0,P|88:184|92:136,1,99.0000030212403,8|0,0:0|0:0,0:0:0:0:
236,32,90950,2,0,L|244:148,1,99.0000030212403,8|0,0:0|0:0,0:0:0:0:
228,180,91207,1,0,0:0:0:0:
252,224,91293,2,0,P|294:247|352:244,1,99.0000030212403,8|0,0:0|0:0,0:0:0:0:
472,152,91636,2,0,L|464:52,1,99.0000030212403,8|0,0:0|0:0,0:0:0:0:
344,246,91978,6,0,L|352:346,1,99.0000030212403,8|0,0:0|0:0,0:0:0:0:
351,344,92236,1,0,0:0:0:0:
351,344,92321,2,0,P|308:360|252:356,1,99.0000030212403,8|0,0:0|0:0,0:0:0:0:
92,280,92664,2,0,L|104:176,1,99.0000030212403,8|0,0:0|0:0,0:0:0:0:
103,181,92921,1,0,0:0:0:0:
103,181,93007,2,0,P|146:196|202:192,1,99.0000030212403,8|0,0:0|0:0,0:0:0:0:
136,40,93350,6,0,L|24:48,1,99.0000030212403,8|0,0:0|0:0,0:0:0:0:
198,193,93693,1,8,0:0:0:0:
236,162,93778,1,0,0:0:0:0:
283,147,93864,1,0,0:0:0:0:
332,151,93950,1,0,0:0:0:0:
376,174,94036,2,0,P|392:224|388:280,1,99.0000030212403,8|0,0:0|0:0,0:0:0:0:
364,312,94293,1,0,0:0:0:0:
324,340,94378,2,0,B|278:359|278:359|216:344,1,99.0000030212403,8|0,0:0|0:0,0:0:0:0:
72,208,94721,6,0,L|80:96,1,99.0000030212403,8|0,0:0|0:0,0:0:0:0:
79,109,94978,1,0,0:0:0:0:
79,109,95064,1,8,0:0:0:0:
184,28,95236,1,0,0:0:0:0:
184,28,95321,1,0,0:0:0:0:
184,28,95407,2,0,P|232:48|304:28,1,99.0000030212403,8|0,0:0|0:0,0:0:0:0:
428,112,95750,2,0,P|452:154|454:203,1,99.0000030212403,8|0,0:0|0:0,0:0:0:0:
408,292,96093,5,8,0:0:0:0:
256,180,96264,1,0,0:0:0:0:
292,272,96436,1,8,0:0:0:0:
324,88,96607,1,0,0:0:0:0:
193,254,96778,1,8,0:0:0:0:
396,200,96950,1,0,0:0:0:0:
204,116,97121,1,8,0:0:0:0:
292,304,97293,1,0,0:0:0:0:
336,60,97464,5,8,0:0:0:0:
176,276,97635,1,0,0:0:0:0:
432,196,97807,1,8,0:0:0:0:
180,104,97978,1,0,0:0:0:0:
312,336,98150,1,8,0:0:0:0:
420,48,98321,1,0,0:0:0:0:
496,240,98493,1,8,0:0:0:0:
244,144,98664,1,0,0:0:0:0:
160,324,98836,5,8,0:0:0:0:
120,296,98921,1,0,0:0:0:0:
72,288,99007,1,0,0:0:0:0:
24,304,99093,1,0,0:0:0:0:
44,260,99178,1,8,0:0:0:0:
44,212,99264,1,0,0:0:0:0:
24,168,99350,1,0,0:0:0:0:
28,120,99436,1,0,0:0:0:0:
64,84,99521,5,8,0:0:0:0:
112,76,99607,1,0,0:0:0:0:
160,96,99693,1,0,0:0:0:0:
188,136,99778,1,0,0:0:0:0:
232,160,99864,1,8,0:0:0:0:
280,156,99950,1,0,0:0:0:0:
324,132,100036,1,0,0:0:0:0:
372,140,100121,1,0,0:0:0:0:
412,168,100207,6,0,P|432:220|440:268,1,99.0000030212403
316,360,100464,2,0,P|336:308|344:260,1,99.0000030212403
288,136,100721,1,0,0:0:0:0:
176,236,100893,2,0,P|156:244|132:244,15,24.7500007553101
132,240,101578,5,0,0:0:0:0:
132,240,101921,1,0,0:0:0:0:
132,240,102178,1,0,0:0:0:0:
132,240,102436,1,0,0:0:0:0:
132,240,102607,1,0,0:0:0:0:
132,240,102778,1,0,0:0:0:0:
212,120,102950,5,0,0:0:0:0:
212,120,103293,1,0,0:0:0:0:
212,120,103550,1,0,0:0:0:0:
212,120,103808,1,0,0:0:0:0:
212,120,103979,1,0,0:0:0:0:
212,120,104150,1,0,0:0:0:0:
320,216,104321,5,0,0:0:0:0:
320,216,104664,1,0,0:0:0:0:
320,216,104921,1,0,0:0:0:0:
320,216,105179,1,0,0:0:0:0:
320,216,105350,1,0,0:0:0:0:
320,216,105521,1,0,0:0:0:0:
240,336,105693,5,0,0:0:0:0:
240,336,106036,1,0,0:0:0:0:
240,336,106293,1,0,0:0:0:0:
240,336,106551,1,0,0:0:0:0:
240,336,106721,2,0,B|196:328|196:328|164:344|164:344|140:324|104:324,1,135
44,340,107064,6,0,P|28:296|24:248,1,90,8|0,0:0|0:0,0:0:0:0:
96,160,107407,2,0,B|142:166|142:166|182:154|182:154|238:162,1,135,8|0,0:0|0:0,0:0:0:0:
248,176,107750,2,0,L|300:172,1,45,8|0,0:0|0:0,0:0:0:0:
368,128,107921,1,0,0:0:0:0:
448,240,108093,2,0,P|460:290|448:334,1,90,8|0,0:0|0:0,0:0:0:0:
292,172,108436,6,0,L|306:64,1,90,8|0,0:0|0:0,0:0:0:0:
256,28,108693,1,0,0:0:0:0:
256,28,108778,2,0,P|216:48|168:40,1,90,8|0,0:0|0:0,0:0:0:0:
60,112,109121,2,0,L|48:212,1,90,8|0,0:0|0:0,0:0:0:0:
92,264,109378,1,0,0:0:0:0:
92,264,109464,2,0,L|80:364,1,90,8|0,0:0|0:0,0:0:0:0:
160,216,109807,5,8,0:0:0:0:
12,276,109978,1,0,0:0:0:0:
132,144,110150,2,0,P|191:197|300:153,1,180,8|8,0:0|0:0,0:0:0:0:
344,108,110664,1,0,0:0:0:0:
408,208,110836,2,0,B|419:256|419:256|408:300,1,90,8|0,0:0|0:0,0:0:0:0:
296,356,111178,6,0,L|192:348,1,90,8|0,0:0|0:0,0:0:0:0:
136,304,111436,1,0,0:0:0:0:
136,304,111521,2,0,B|84:316|84:316|44:320,1,90,8|0,0:0|0:0,0:0:0:0:
160,180,111864,2,0,B|196:183|196:183|248:195,1,90,8|0,0:0|0:0,0:0:0:0:
316,252,112207,1,8,0:0:0:0:
340,340,112378,1,0,0:0:0:0:
472,232,112550,6,0,P|484:188|488:136,1,90,8|0,0:0|0:0,0:0:0:0:
344,40,112893,2,0,P|304:76|180:64,1,180,8|8,0:0|0:0,0:0:0:0:
185,67,113321,1,0,0:0:0:0:
185,67,113407,1,0,0:0:0:0:
96,152,113578,2,0,P|80:196|80:244,1,90,8|0,0:0|0:0,0:0:0:0:
160,340,113921,6,0,L|272:336,1,90,8|0,0:0|0:0,0:0:0:0:
312,288,114178,1,0,0:0:0:0:
312,288,114264,2,0,L|424:284,1,90,8|0,0:0|0:0,0:0:0:0:
476,336,114607,1,8,0:0:0:0:
384,196,114778,1,0,0:0:0:0:
384,196,114864,1,0,0:0:0:0:
384,196,114950,2,0,B|376:144|376:144|384:96,1,90,8|0,0:0|0:0,0:0:0:0:
292,32,115293,6,0,P|248:44|200:44,1,90,8|0,0:0|0:0,0:0:0:0:
108,184,115636,2,0,L|292:196,1,180,8|8,0:0|0:0,0:0:0:0:
287,195,116064,1,0,0:0:0:0:
287,195,116150,1,0,0:0:0:0:
188,328,116321,2,0,P|144:344|100:352,1,90,8|0,0:0|0:0,0:0:0:0:
24,216,116664,6,0,L|36:112,1,90,8|0,0:0|0:0,0:0:0:0:
88,64,116921,1,0,0:0:0:0:
88,64,117007,2,0,P|120:80|188:76,1,90,8|0,0:0|0:0,0:0:0:0:
240,180,117350,2,0,P|272:164|340:168,1,90,8|0,0:0|0:0,0:0:0:0:
404,204,117693,1,8,0:0:0:0:
472,44,117864,1,0,0:0:0:0:
384,96,118036,5,8,0:0:0:0:
488,312,118207,1,0,0:0:0:0:
300,252,118378,2,0,P|259:287|136:268,1,180,8|8,0:0|0:0,0:0:0:0:
141,272,118807,1,0,0:0:0:0:
141,272,118893,1,0,0:0:0:0:
212,100,119064,2,0,B|223:145|223:145|208:196,1,90,8|0,0:0|0:0,0:0:0:0:
36,120,119407,6,0,B|25:75|25:75|40:24,1,90,8|0,0:0|0:0,0:0:0:0:
37,33,119664,1,0,0:0:0:0:
37,33,119750,1,8,0:0:0:0:
104,204,119921,1,0,0:0:0:0:
212,100,120093,2,0,P|260:116|304:108,1,90,8|0,0:0|0:0,0:0:0:0:
372,152,120350,1,0,0:0:0:0:
372,152,120436,2,0,L|380:248,1,90,8|0,0:0|0:0,0:0:0:0:
204,300,120778,5,8,0:0:0:0:
248,216,120950,1,0,0:0:0:0:
296,340,121121,2,0,B|188:365|220:305|104:329,1,180,8|8,0:0|0:0,0:0:0:0:
32,228,121636,1,0,0:0:0:0:
112,120,121807,2,0,P|156:136|212:136,1,90,8|0,0:0|0:0,0:0:0:0:
300,56,122150,6,0,P|344:40|400:40,1,90,8|0,0:0|0:0,0:0:0:0:
448,160,122407,1,0,0:0:0:0:
448,160,122493,2,0,P|411:136|368:124,1,90,8|0,0:0|0:0,0:0:0:0:
376,220,122750,1,0,0:0:0:0:
376,220,122836,2,0,P|398:260|407:316,1,90,8|0,0:0|0:0,0:0:0:0:
284,377,123178,2,0,P|308:339|321:296,1,90,8|0,0:0|0:0,0:0:0:0:
28,208,123521,5,2,0:0:0:0:
256,188,123778,1,2,0:0:0:0:
480,172,124036,1,2,0:0:0:0:
316,116,124207,5,8,0:0:0:0:
316,116,124293,1,0,0:0:0:0:
316,116,124378,1,0,0:0:0:0:
228,280,124550,2,0,B|180:296|180:296|120:300,1,90,8|0,0:0|0:0,0:0:0:0:
28,208,124893,6,0,P|16:160|20:116,1,90,8|0,0:0|0:0,0:0:0:0:
19,119,125150,1,0,0:0:0:0:
19,119,125236,1,8,0:0:0:0:
136,24,125407,1,0,0:0:0:0:
240,176,125578,1,8,0:0:0:0:
408,64,125750,1,0,0:0:0:0:
408,64,125836,1,0,0:0:0:0:
408,64,125921,2,0,P|428:104|440:148,1,90,8|0,0:0|0:0,0:0:0:0:
384,356,126264,5,8,0:0:0:0:
296,200,126436,1,0,0:0:0:0:
432,280,126607,2,0,B|384:259|343:277|343:277|299:295|251:278,1,180,8|8,0:0|0:0,0:0:0:0:
140,124,127121,1,0,0:0:0:0:
104,348,127293,1,8,0:0:0:0:
296,200,127464,1,0,0:0:0:0:
117,264,127636,6,0,B|61:256|61:256|21:236,1,90,8|0,0:0|0:0,0:0:0:0:
2,164,127893,1,0,0:0:0:0:
2,164,127978,2,0,P|-6:124|2:68,1,90,8|0,0:0|0:0,0:0:0:0:
192,240,128321,2,0,P|200:280|192:336,1,90,8|0,0:0|0:0,0:0:0:0:
116,152,128664,1,8,0:0:0:0:
288,32,128836,1,0,0:0:0:0:
368,224,129007,6,0,P|412:244|460:240,1,90,8|0,0:0|0:0,0:0:0:0:
344,132,129350,2,0,L|324:320,1,180,8|8,0:0|0:0,0:0:0:0:
324,310,129778,1,0,0:0:0:0:
324,310,129864,1,0,0:0:0:0:
116,152,130036,2,0,P|136:108|172:64,1,90,8|0,0:0|0:0,0:0:0:0:
232,284,130378,6,0,P|212:328|176:372,1,90,8|0,0:0|0:0,0:0:0:0:
186,361,130636,1,0,0:0:0:0:
186,361,130721,1,8,0:0:0:0:
36,312,130893,1,0,0:0:0:0:
195,200,131064,2,0,P|243:212|291:212,1,90,8|0,0:0|0:0,0:0:0:0:
352,268,131321,1,0,0:0:0:0:
352,268,131407,2,0,P|400:256|442:233,1,90,8|0,0:0|0:0,0:0:0:0:
488,164,131750,5,8,0:0:0:0:
460,352,131921,1,0,0:0:0:0:
332,144,132093,2,0,B|269:135|269:135|221:147|221:147|125:135,1,180,8|8,0:0|0:0,0:0:0:0:
154,138,132521,1,0,0:0:0:0:
154,138,132607,1,0,0:0:0:0:
248,44,132778,1,8,0:0:0:0:
284,244,132950,1,0,0:0:0:0:
188,344,133121,6,0,P|144:356|100:360,1,90
336,208,133464,2,0,P|380:212|424:224,1,90
176,208,133807,2,0,P|131:212|87:224,1,90
324,344,134150,2,0,P|368:356|412:360,1,90,2|2,0:0|0:0,0:0:0:0:
344,168,134493,6,0,B|232:172|232:172|192:184|172:212,1,180
96,248,135007,1,0,0:0:0:0:
24,196,135178,2,0,L|12:104,1,90
152,320,135521,2,0,P|111:339|59:335,1,90
175,207,135864,6,0,P|224:229|263:355,1,180
152,320,136378,1,0,0:0:0:0:
340,224,136550,2,0,P|380:236|440:240,1,90
304,84,136893,2,0,P|259:87|216:100,1,90
140,52,137236,6,0,P|196:80|260:184,1,180
228,260,137750,1,0,0:0:0:0:
312,348,137921,1,0,0:0:0:0:
428,208,138093,1,0,0:0:0:0:
480,282,138264,2,0,P|436:298|390:291,1,90
248,218,138607,6,0,L|444:206,1,180
328,104,139121,1,0,0:0:0:0:
264,316,139293,2,0,P|220:332|176:332,1,90
112,132,139636,2,0,L|128:20,1,90
14,172,139978,6,0,P|50:220|186:204,1,180
284,112,140493,1,0,0:0:0:0:
376,300,140664,1,0,0:0:0:0:
162,224,140836,1,0,0:0:0:0:
380,168,141007,1,0,0:0:0:0:
244,332,141178,1,0,0:0:0:0:
72,207,141350,6,0,P|48:139|86:31,1,180
194,123,141864,1,0,0:0:0:0:
96,348,142036,1,0,0:0:0:0:
296,236,142207,1,0,0:0:0:0:
72,207,142378,1,0,0:0:0:0:
220,368,142550,1,0,0:0:0:0:
72,207,142721,6,0,B|116:224|160:206|160:206|207:185|262:212,1,180
316,264,143236,1,0,0:0:0:0:
200,376,143407,2,0,B|188:331|188:331|204:272,1,90
440,224,143750,2,0,B|452:269|452:269|436:328,1,90
316,264,144093,6,0,B|326:196|326:196|318:164|318:164|332:83,1,180
256,36,144607,1,0,0:0:0:0:
410,236,144778,2,0,P|426:195|420:145,1,90
232,216,145121,2,0,P|216:257|222:307,1,90
320,368,145464,5,0,0:0:0:0:
410,236,145636,1,0,0:0:0:0:
464,308,145807,1,0,0:0:0:0:
360,160,145978,1,0,0:0:0:0:
232,288,146150,2,0,P|186:304|126:296,1,90
300,88,146493,2,0,P|346:72|406:80,1,90
464,124,146836,5,0,0:0:0:0:
340,252,147007,1,0,0:0:0:0:
488,356,147178,1,0,0:0:0:0:
436,212,147350,1,0,0:0:0:0:
356,340,147521,2,0,P|311:355|268:352,1,90
172,232,147864,2,0,L|180:140,1,90
189,57,148207,5,0,0:0:0:0:
53,173,148378,1,0,0:0:0:0:
161,317,148550,1,0,0:0:0:0:
297,201,148721,1,0,0:0:0:0:
92,85,148893,1,0,0:0:0:0:
78,263,149064,1,0,0:0:0:0:
257,288,149236,1,0,0:0:0:0:
271,110,149407,1,0,0:0:0:0:
176,240,149578,6,0,P|168:300|168:340,1,90
364,144,149921,2,0,P|362:99|355:54,1,90
240,144,150264,1,0,0:0:0:0:
352,308,150436,1,0,0:0:0:0:
240,144,150607,1,0,0:0:0:0:
80,260,150778,1,0,0:0:0:0:
324,156,150950,6,0,L|424:168,1,90
144,276,151293,2,0,L|44:264,1,90
244,144,151636,1,0,0:0:0:0:
356,284,151807,1,0,0:0:0:0:
500,176,151978,2,0,P|511:132|512:80,1,90
236,236,152321,6,0,P|237:280|248:324,1,90
344,340,152664,1,0,0:0:0:0:
392,144,152836,1,0,0:0:0:0:
472,288,153007,1,0,0:0:0:0:
264,228,153178,1,0,0:0:0:0:
413,66,153350,1,0,0:0:0:0:
344,340,153521,1,0,0:0:0:0:
208,144,153693,6,0,P|169:180|32:172,1,180
108,76,154207,1,0,0:0:0:0:
208,144,154378,2,0,L|220:248,1,90
37,271,154721,2,0,L|47:181,1,90
92,338,155064,6,0,P|44:358|0:350,1,90
128,176,155407,2,0,P|172:172|212:191,1,90
420,338,155750,2,0,P|468:358|512:350,1,90
384,176,156093,2,0,P|339:172|299:191,1,90
256,332,156436,5,0,0:0:0:0:
44,256,167407,6,2,P|39:234|42:211,3,45,10|2|2|2,0:0|0:0|0:0|0:0,0:0:0:0:
163,333,167750,2,2,P|185:331|206:323,3,45,10|2|2|2,0:0|0:0|0:0|0:0,0:0:0:0:
109,148,168093,2,2,L|128:103,3,45,10|2|2|2,0:0|0:0|0:0|0:0,0:0:0:0:
235,234,168436,2,2,L|267:198,3,45,10|2|10|2,0:0|0:0|0:0|0:0,0:0:0:0:
240,96,168778,5,2,0:0:0:0:
272,64,168864,1,2,0:0:0:0:
316,60,168950,1,10,0:0:0:0:
352,84,169036,1,2,0:0:0:0:
368,128,169121,1,2,0:0:0:0:
404,156,169207,1,2,0:0:0:0:
448,160,169293,1,10,0:0:0:0:
484,136,169378,1,2,0:0:0:0:
476,180,169464,5,10,0:0:0:0:
468,224,169550,1,2,0:0:0:0:
460,268,169636,1,2,0:0:0:0:
452,312,169721,1,2,0:0:0:0:
468,356,169807,1,10,0:0:0:0:
436,324,169893,1,2,0:0:0:0:
396,308,169978,1,2,0:0:0:0:
352,304,170064,1,2,0:0:0:0:
308,316,170150,6,2,P|280:324|240:324,3,45,10|2|2|2,0:0|0:0|0:0|0:0,0:0:0:0:
128,232,170493,2,2,P|135:260|155:294,3,45,10|2|2|2,0:0|0:0|0:0|0:0,0:0:0:0:
339,199,170836,2,2,P|324:216|307:232,3,45,10|2|2|2,0:0|0:0|0:0|0:0,0:0:0:0:
198,135,171178,2,2,P|195:157|196:180,3,45,10|2|10|2,0:0|0:0|0:0|0:0,0:0:0:0:
300,100,171521,5,2,0:0:0:0:
344,92,171607,1,2,0:0:0:0:
388,84,171693,1,10,0:0:0:0:
432,76,171778,1,2,0:0:0:0:
424,120,171864,1,2,0:0:0:0:
420,164,171950,1,2,0:0:0:0:
416,208,172036,1,10,0:0:0:0:
408,252,172121,1,2,0:0:0:0:
416,296,172207,5,10,0:0:0:0:
385,262,172292,1,2,0:0:0:0:
349,235,172378,1,2,0:0:0:0:
309,216,172464,1,2,0:0:0:0:
266,204,172549,1,10,0:0:0:0:
221,201,172635,1,2,0:0:0:0:
176,206,172721,1,2,0:0:0:0:
133,220,172807,1,2,0:0:0:0:
94,241,172893,6,2,P|80:268|76:296,3,45,10|2|2|2,0:0|0:0|0:0|0:0,0:0:0:0:
164,308,173236,2,2,P|173:336|190:359,3,45,10|2|2|2,0:0|0:0|0:0|0:0,0:0:0:0:
232,152,173578,2,2,P|223:122|207:99,3,45,10|2|2|2,0:0|0:0|0:0|0:0,0:0:0:0:
135,150,173921,2,2,P|108:135|80:130,3,45,10|2|10|2,0:0|0:0|0:0|0:0,0:0:0:0:
248,248,174264,5,2,0:0:0:0:
280,292,174350,1,2,0:0:0:0:
332,312,174436,1,10,0:0:0:0:
384,308,174521,1,2,0:0:0:0:
424,272,174607,1,2,0:0:0:0:
436,220,174693,1,2,0:0:0:0:
412,172,174778,1,10,0:0:0:0:
392,124,174864,1,2,0:0:0:0:
412,72,174950,5,10,0:0:0:0:
372,112,175036,1,2,0:0:0:0:
320,128,175121,1,2,0:0:0:0:
268,120,175207,1,2,0:0:0:0:
228,84,175293,1,10,0:0:0:0:
176,80,175378,1,2,0:0:0:0:
124,96,175464,1,2,0:0:0:0:
92,140,175550,1,2,0:0:0:0:
76,184,175636,5,10,0:0:0:0:
80,216,175721,1,2,0:0:0:0:
84,248,175807,1,2,0:0:0:0:
88,280,175893,1,2,0:0:0:0:
173,323,175978,5,10,0:0:0:0:
179,291,176064,1,2,0:0:0:0:
185,259,176150,1,2,0:0:0:0:
192,228,176235,1,2,0:0:0:0:
276,184,176321,5,10,0:0:0:0:
280,216,176406,1,2,0:0:0:0:
284,248,176492,1,2,0:0:0:0:
288,280,176578,1,2,0:0:0:0:
376,328,176664,5,10,0:0:0:0:
380,296,176749,1,2,0:0:0:0:
384,264,176835,1,10,0:0:0:0:
388,232,176921,1,2,0:0:0:0:
392,200,177007,5,4,0:0:0:0:
480,284,177178,1,0,0:0:0:0:
436,112,177350,2,0,B|380:104|380:104|328:112,1,90
312,140,177607,1,0,0:0:0:0:
273,163,177692,1,0,0:0:0:0:
229,168,177778,1,0,0:0:0:0:
186,154,177864,1,0,0:0:0:0:
240,46,178036,1,2,0:0:0:0:
240,46,178378,6,0,B|252:168|252:168|248:204,1,155.250002961159,8|0,0:0|0:0,0:0:0:0:
189,254,178721,2,0,P|230:220|334:248,1,155.250002961159,8|0,0:0|0:0,0:0:0:0:
264,303,179064,2,0,P|223:337|119:309,1,155.250002961159,8|0,0:0|0:0,0:0:0:0:
80,244,179407,1,8,0:0:0:0:
20,352,179578,1,0,0:0:0:0:
189,254,179750,6,0,B|205:206|205:206|189:154,1,103.500001974106,8|0,0:0|0:0,0:0:0:0:
11,95,180093,2,0,B|-5:143|-5:143|11:195,1,103.500001974106,8|0,0:0|0:0,0:0:0:0:
106,113,180436,2,0,P|150:70|257:94,1,155.250002961159,8|0,0:0|0:0,0:0:0:0:
368,116,180778,2,0,P|307:103|231:182,1,155.250002961159,8|0,0:0|0:0,0:0:0:0:
276,236,181121,6,0,B|280:336|280:336|240:388,1,155.250002961159,8|0,0:0|0:0,0:0:0:0:
197,316,181464,2,0,P|243:299|331:371,1,155.250002961159,8|0,0:0|0:0,0:0:0:0:
404,320,181807,2,0,B|413:263|413:263|404:226|404:226|415:167,1,155.250002961159,8|0,0:0|0:0,0:0:0:0:
428,85,182150,1,8,0:0:0:0:
296,196,182321,1,0,0:0:0:0:
196,56,182493,6,0,P|152:40|92:40,1,103.500001974106,8|0,0:0|0:0,0:0:0:0:
32,236,182836,2,0,P|83:236|132:219,1,103.500001974106,8|0,0:0|0:0,0:0:0:0:
276,120,183178,2,0,L|288:292,1,155.250002961159,8|0,0:0|0:0,0:0:0:0:
332,340,183521,2,0,P|383:372|476:356,1,155.250002961159,8|0,0:0|0:0,0:0:0:0:
448,276,183864,6,0,B|429:209|429:209|448:120,1,155.250002961159,8|0,0:0|0:0,0:0:0:0:
506,78,184207,2,0,P|456:120|360:100,1,155.250002961159,8|0,0:0|0:0,0:0:0:0:
308,52,184550,2,0,B|244:56|244:56|208:44|208:44|144:48,1,155.250002961159,8|0,0:0|0:0,0:0:0:0:
76,56,184893,1,8,0:0:0:0:
142,203,185064,1,0,0:0:0:0:
68,255,185236,6,0,P|52:207|72:148,1,103.500001974106,8|0,0:0|0:0,0:0:0:0:
216,252,185578,2,0,P|232:300|212:359,1,103.500001974106,8|0,0:0|0:0,0:0:0:0:
142,203,185921,2,0,L|304:216,1,155.250002961159,8|0,0:0|0:0,0:0:0:0:
376,176,186264,2,0,P|408:132|392:28,1,155.250002961159,8|0,0:0|0:0,0:0:0:0:
328,76,186607,6,0,B|448:92|448:92|480:116,1,155.250002961159,8|0,0:0|0:0,0:0:0:0:
484,188,186950,2,0,P|440:220|444:332,1,155.250002961159,8|0,0:0|0:0,0:0:0:0:
491,366,187293,2,0,P|431:318|347:330,1,155.250002961159,8|0,0:0|0:0,0:0:0:0:
292,372,187636,1,8,0:0:0:0:
224,240,187807,1,0,0:0:0:0:
115,343,187978,6,0,P|75:355|7:359,1,103.500001974106,8|0,0:0|0:0,0:0:0:0:
160,172,188321,1,8,0:0:0:0:
292,372,188493,1,0,0:0:0:0:
396,256,188664,2,0,B|388:196|388:196|396:164|396:164|388:96,1,155.250002961159,8|0,0:0|0:0,0:0:0:0:
447,44,189007,2,0,P|410:82|310:62,1,155.250002961159,8|0,0:0|0:0,0:0:0:0:
240,48,189350,6,0,P|168:26|108:72,1,155.250002961159,8|0,0:0|0:0,0:0:0:0:
152,144,189693,2,0,B|176:224|176:224|148:308,1,155.250002961159,8|0,0:0|0:0,0:0:0:0:
94,346,190036,2,0,P|142:306|234:330,1,155.250002961159,8|0,0:0|0:0,0:0:0:0:
300,360,190378,2,0,B|356:364|356:364|408:348,1,103.500001974106,8|8,0:0|0:0,0:0:0:0:
448,204,190721,5,0,0:0:0:0:
512,360,190893,1,8,0:0:0:0:
296,272,191064,1,0,0:0:0:0:
480,124,191236,1,8,0:0:0:0:
296,272,191407,2,0,B|200:296|232:240|128:264,1,155.250002961159,8|0,0:0|0:0,0:0:0:0:
84,316,191750,2,0,P|124:272|101:172,1,155.250002961159,8|0,0:0|0:0,0:0:0:0:
43,138,192093,6,0,B|111:174|111:174|212:151,1,155.250002961159,8|0,0:0|0:0,0:0:0:0:
252,100,192436,2,0,P|305:86|388:136,1,155.250002961159,8|0,0:0|0:0,0:0:0:0:
312,339,192778,2,0,L|304:175,1,155.250002961159,8|0,0:0|0:0,0:0:0:0:
304,183,193121,2,0,P|288:232|232:284,1,103.500001974106,8|8,0:0|0:0,0:0:0:0:
156,304,193464,5,0,0:0:0:0:
256,56,193636,1,8,0:0:0:0:
304,183,193807,1,0,0:0:0:0:
100,104,193978,1,8,0:0:0:0:
304,183,194150,2,0,B|396:215|372:151|476:195,1,155.250002961159,8|0,0:0|0:0,0:0:0:0:
498,112,194493,2,0,P|470:184|502:264,1,155.250002961159,8|0,0:0|0:0,0:0:0:0:
472,332,194836,6,0,B|364:324|364:324|292:352,1,155.250002961159,8|0,0:0|0:0,0:0:0:0:
248,308,195178,2,0,P|224:256|260:168,1,155.250002961159,8|0,0:0|0:0,0:0:0:0:
336,135,195521,2,0,L|172:139,1,155.250002961159,8|0,0:0|0:0,0:0:0:0:
128,72,195864,2,0,P|74:42|29:42,1,103.500001974106,8|8,0:0|0:0,0:0:0:0:
52,144,196207,5,0,0:0:0:0:
240,44,196378,1,8,0:0:0:0:
184,328,196550,1,0,0:0:0:0:
372,228,196721,1,8,0:0:0:0:
240,44,196893,2,0,P|198:78|92:68,1,155.250002961159,8|0,0:0|0:0,0:0:0:0:
28,124,197236,2,0,B|38:191|38:191|30:219|30:219|38:279,1,155.250002961159,8|0,0:0|0:0,0:0:0:0:
96,336,197578,6,0,P|156:360|124:288,1,155.250002961159,8|0,0:0|0:0,0:0:0:0:
111,226,197921,2,0,B|175:267|175:267|263:250,1,155.250002961159,8|0,0:0|0:0,0:0:0:0:
304,184,198264,2,0,P|272:236|296:336,1,155.250002961159,8|0,0:0|0:0,0:0:0:0:
360,360,198607,2,0,L|476:356,1,103.500001974106,8|8,0:0|0:0,0:0:0:0:
304,184,198950,6,0,L|196:188,1,76.5000014591217,0|8,0:0|0:0,0:0:0:0:
140,140,199293,1,0,0:0:0:0:
268,272,199464,1,8,0:0:0:0:
372,120,199636,2,0,P|412:152|524:136,1,153.000002918243,8|8,0:0|0:0,0:0:0:0:
455,58,200150,1,0,0:0:0:0:
415,247,200321,6,0,P|375:267|319:263,1,99.0000030212403,8|0,0:0|0:0,0:0:0:0:
240,168,200664,2,0,L|248:56,1,99.0000030212403,8|0,0:0|0:0,0:0:0:0:
348,148,201007,1,8,0:0:0:0:
220,312,201178,1,0,0:0:0:0:
132,216,201350,2,0,P|88:232|36:232,1,99.0000030212403,8|8,0:0|0:0,0:0:0:0:
148,112,201693,5,0,0:0:0:0:
220,312,201864,1,8,0:0:0:0:
336,24,202036,1,0,0:0:0:0:
408,224,202207,1,8,0:0:0:0:
226,78,202378,2,0,P|169:49|70:58,1,148.50000453186,8|0,0:0|0:0,0:0:0:0:
0,173,202721,2,0,P|57:144|156:153,1,148.50000453186,8|0,0:0|0:0,0:0:0:0:
208,224,203064,6,0,B|193:274|193:274|212:328,1,99.0000030212403,8|0,0:0|0:0,0:0:0:0:
480,192,203407,2,0,B|495:142|495:142|476:88,1,99.0000030212403,8|0,0:0|0:0,0:0:0:0:
308,28,203750,1,8,0:0:0:0:
208,224,203921,1,0,0:0:0:0:
384,124,204093,1,8,0:0:0:0:
200,80,204264,1,8,0:0:0:0:
316,252,204436,6,0,P|356:280|448:272,1,99.0000030212403,0|8,0:0|0:0,0:0:0:0:
252,130,204778,2,0,L|136:134,1,99.0000030212403,0|8,0:0|0:0,0:0:0:0:
80,64,205121,2,0,P|108:124|76:204,1,148.50000453186,8|0,0:0|0:0,0:0:0:0:
4,268,205464,2,0,P|46:318|132:323,1,148.50000453186,8|0,0:0|0:3,0:3:0:0:
200,272,205807,6,0,P|240:260|300:276,1,99.0000030212403,8|0,0:0|0:0,0:0:0:0:
364,344,206150,1,8,0:0:0:0:
344,124,206321,1,0,0:0:0:0:
512,260,206493,2,0,P|472:272|412:256,1,99.0000030212403,8|0,0:0|0:0,0:0:0:0:
344,124,206836,1,8,0:0:0:0:
212,344,207007,1,8,0:0:0:0:
144,200,207178,5,0,0:0:0:0:
24,304,207350,1,8,0:0:0:0:
168,104,207521,1,0,0:0:0:0:
212,344,207693,1,8,0:0:0:0:
168,104,207864,2,0,P|116:124|12:120,1,148.50000453186,8|0,0:0|0:0,0:0:0:0:
24,260,208207,2,0,P|97:256|168:280,1,148.50000453186,8|0,0:0|0:0,0:0:0:0:
212,344,208550,5,8,0:0:0:0:
332,176,208721,1,0,0:0:0:0:
416,284,208893,2,0,P|456:300|516:300,1,99.0000030212403,8|0,0:0|0:0,0:0:0:0:
360,88,209236,2,0,P|310:87|264:104,1,99.0000030212403,8|0,0:0|0:0,0:0:0:0:
168,192,209578,1,8,0:0:0:0:
84,96,209750,1,8,0:0:0:0:
0,280,209921,6,0,P|46:297|95:296,1,99.0000030212403,0|8,0:0|0:0,0:0:0:0:
244,160,210264,1,0,0:0:0:0:
344,340,210436,1,8,0:0:0:0:
181,219,210607,2,0,P|157:171|197:87,1,148.50000453186,8|0,0:0|0:0,0:0:0:0:
268,48,210950,2,0,B|331:55|331:55|360:72|360:72|424:80,1,148.50000453186,8|0,0:0|0:0,0:0:0:0:
488,52,211293,6,0,P|504:100|512:160,1,99.0000030212403,8|0,0:0|0:0,0:0:0:0:
220,255,211636,2,0,P|227:206|243:159,1,99.0000030212403,8|0,0:0|0:0,0:0:0:0:
424,352,211978,1,8,0:0:0:0:
511,147,212150,1,0,0:0:0:0:
315,229,212321,2,0,P|268:245|219:254,1,99.0000030212403,8|8,0:0|0:0,0:0:0:0:
84,168,212664,5,0,0:0:0:0:
167,343,212836,1,8,0:0:0:0:
315,229,213007,1,0,0:0:0:0:
232,54,213179,1,8,0:0:0:0:
84,168,213350,2,0,P|128:203|228:204,1,148.50000453186,8|0,0:0|0:0,0:0:0:0:
294,175,213693,2,0,P|367:174|428:216,1,148.50000453186,8|0,0:0|0:0,0:0:0:0:
427,215,214036,6,0,P|408:160|404:100,1,99.0000030212403,8|0,0:0|0:0,0:0:0:0:
200,16,214378,2,0,P|193:64|175:111,1,99.0000030212403,8|0,0:0|0:0,0:0:0:0:
12,240,214721,1,8,0:0:0:0:
236,176,214893,1,0,0:0:0:0:
88,100,215064,1,8,0:0:0:0:
156,344,215236,1,8,0:0:0:0:
236,176,215407,6,0,P|283:162|332:159,1,99.0000030212403,0|8,0:0|0:0,0:0:0:0:
452,224,215750,1,0,0:0:0:0:
372,52,215921,1,8,0:0:0:0:
320,320,216093,2,0,P|268:348|164:324,1,148.50000453186,8|0,0:0|0:0,0:0:0:0:
0,288,216436,2,0,P|52:260|156:284,1,148.50000453186,8|0,0:0|0:0,0:0:0:0:
182,336,216778,5,8,0:0:0:0:
332,159,216950,1,0,0:0:0:0:
512,300,217121,1,8,0:0:0:0:
348,264,217293,1,0,0:0:0:0:
460,152,217464,1,8,0:0:0:0:
512,300,217636,1,0,0:0:0:0:
324,364,217807,1,8,0:0:0:0:
228,192,217978,1,8,0:0:0:0:
352,45,218150,5,0,0:0:0:0:
324,364,218321,1,8,0:0:0:0:
350,71,218493,1,0,0:0:0:0:
160,248,218664,1,8,0:0:0:0:
348,100,218836,1,8,0:0:0:0:
476,216,219007,1,0,0:0:0:0:
346,131,219178,1,8,0:0:0:0:
192,360,219350,1,0,0:0:0:0:
36,240,219521,5,8,0:0:0:0:
16,188,219607,1,0,0:0:0:0:
28,136,219693,1,0,0:0:0:0:
68,100,219778,1,0,0:0:0:0:
112,128,219864,1,8,0:0:0:0:
164,144,219950,1,0,0:0:0:0:
220,140,220036,1,0,0:0:0:0:
268,112,220121,1,0,0:0:0:0:
296,64,220207,5,8,0:0:0:0:
288,116,220293,1,0,0:0:0:0:
280,168,220378,1,0,0:0:0:0:
272,224,220464,1,0,0:0:0:0:
248,244,220550,1,8,0:0:0:0:
252,272,220636,1,0,0:0:0:0:
256,300,220721,1,0,0:0:0:0:
260,328,220807,1,0,0:0:0:0:
280,352,220893,6,0,B|172:372|208:312|92:336,1,180,4|0,0:0|0:0,0:0:0:0:
