osu file format v14

[General]
AudioFilename: audio.mp3
AudioLeadIn: 0
PreviewTime: 139081
Countdown: 1
SampleSet: Normal
StackLeniency: 0.5
Mode: 0
LetterboxInBreaks: 0
WidescreenStoryboard: 1

[Editor]
Bookmarks: 18824,45053,57910,62710,63395,80195,98024,102138,161110,179967
DistanceSpacing: 1.2
BeatDivisor: 4
GridSize: 8
TimelineZoom: 2.3

[Metadata]
Title:MTC (Different Heaven Remix)
TitleUnicode:MTC (Different Heaven Remix)
Artist:S3RL
ArtistUnicode:S3RL
Creator:Sylas
Version:Insane
Source:
Tags:english featured artist fa electronic drum and bass dnb Jodie Harling Jole Hughes
BeatmapID:1910559
BeatmapSetID:914691

[Difficulty]
HPDrainRate:5
CircleSize:3.8
OverallDifficulty:8
ApproachRate:9
SliderMultiplier:1.4
SliderTickRate:1

[Events]
//Background and Video events
0,0,"vocaloid-hatsune-miku-vokaloid-khatsune-miku-devushka-khvost.jpg",0,0
//Break Periods
2,23823,25081
2,45767,55938
2,111595,115938
//Storyboard Layer 0 (Background)
//Storyboard Layer 1 (Fail)
//Storyboard Layer 2 (Pass)
//Storyboard Layer 3 (Foreground)
//Storyboard Layer 4 (Overlay)
//Storyboard Sound Samples

[TimingPoints]
310,342.857142857143,4,1,1,10,1,0
310,-200,4,1,1,10,0,0
652,-142.857142857143,4,1,1,20,0,0
995,-111.111111111111,4,1,1,30,0,0
1338,-90.9090909090909,4,1,1,40,0,0
1681,-100,4,1,1,45,0,0
12652,-80,4,1,1,45,0,0
26366,-76.9230769230769,4,1,1,60,0,0
38710,-125,4,1,1,60,0,0
40081,-76.9230769230769,4,1,1,60,0,0
56537,-142.857142857143,4,1,1,25,0,0
57909,-111.111111111111,4,1,1,30,0,0
59280,-90.9090909090908,4,1,1,35,0,0
60651,-76.9230769230769,4,1,1,40,0,0
62023,-76.9230769230769,4,1,1,45,0,0
63394,-76.9230769230769,4,1,1,50,0,0
64766,-76.9230769230769,4,1,1,55,0,0
65451,-76.9230769230769,4,1,1,65,0,0
66480,-76.9230769230769,4,1,1,20,0,0
66651,-76.9230769230769,4,1,1,30,0,0
66823,-76.9230769230769,4,1,1,40,0,0
66994,-76.9230769230769,4,1,1,50,0,0
67166,-76.9230769230769,4,1,1,60,0,0
67337,-76.9230769230769,4,1,1,70,0,0
67510,-66.6666666666667,4,1,1,75,0,1
68195,-52.6315789473684,4,1,1,75,0,1
68881,-66.6666666666667,4,1,1,75,0,1
73681,-52.6315789473684,4,1,1,75,0,1
74367,-66.6666666666667,4,1,1,75,0,1
79167,-52.6315789473684,4,1,1,75,0,1
79852,-133.333333333333,4,1,1,50,0,0
80881,-66.6666666666667,4,1,1,75,0,1
84652,-52.6315789473684,4,1,1,75,0,1
85338,-66.6666666666667,4,1,1,75,0,1
86538,-50,4,1,1,75,0,1
87052,-66.6666666666667,4,1,1,75,0,1
89452,-52.6315789473684,4,1,1,75,0,1
100424,-58.8235294117647,4,1,1,75,0,1
101795,-66.6666666666667,4,1,1,75,0,1
103167,-76.9230769230769,4,1,1,75,0,1
104538,-90.9090909090909,4,1,1,75,0,1
105910,-111.111111111111,4,1,1,75,0,1
107281,-142.857142857143,4,1,1,75,0,1
108652,-200,4,1,1,75,0,1
110024,-333.333333333333,4,1,1,75,0,1
111395,-166.666666666667,4,1,1,85,0,0
116538,-111.111111111111,4,1,1,25,0,0
127852,-83.3333333333333,4,1,1,50,0,0
133338,-76.9230769230769,4,1,1,60,0,0
140195,-66.6666666666667,4,1,1,75,0,1
140881,-52.6315789473684,4,1,1,75,0,1
141567,-66.6666666666667,4,1,1,75,0,1
146367,-52.6315789473684,4,1,1,75,0,1
147052,-66.6666666666667,4,1,1,75,0,1
151852,-52.6315789473684,4,1,1,75,0,1
152538,-133.333333333333,4,1,1,50,0,0
153567,-66.6666666666667,4,1,1,75,0,1
157338,-52.6315789473684,4,1,1,75,0,1
158024,-66.6666666666667,4,1,1,75,0,1
159224,-50,4,1,1,75,0,1
159738,-66.6666666666667,4,1,1,75,0,1
162138,-76.9230769230769,4,1,1,70,0,0
178595,-200,4,1,1,30,0,0

[Colours]
Combo1 : 247,155,136
Combo2 : 227,62,107
Combo3 : 240,140,218
Combo4 : 159,87,232
Combo5 : 86,130,220
Combo6 : 34,216,225
Combo7 : 156,224,131
Combo8 : 251,210,115

[HitObjects]
25,282,310,6,0,P|19:302|24:318,1,35,2|0,2:1|2:0,2:1:0:0:
97,300,652,2,0,P|110:325|131:336,1,48.9999985046387,2|0,2:1|2:0,2:1:0:0:
162,265,995,2,0,P|201:276|232:266,1,62.9999980773926,2|0,2:1|2:0,2:1:0:0:
194,201,1338,2,0,P|236:178|254:144,1,77.0000023498536,2|0,2:1|2:0,2:1:0:0:
178,125,1681,1,2,2:1:0:0:
178,125,2024,6,0,L|81:133,1,70,2|0,2:2|2:0,2:1:0:0:
241,67,2367,2,0,L|338:75,1,70,2|0,2:1|2:1,0:0:0:0:
323,150,2710,2,0,L|253:144,1,70,2|0,2:1|2:1,2:1:0:0:
384,101,3052,1,2,2:1:0:0:
384,101,3395,6,0,P|403:144|399:170,1,70,2|0,2:2|2:0,2:1:0:0:
339,214,3738,2,0,P|320:171|324:145,1,70,2|0,2:1|2:1,2:1:0:0:
411,242,4081,2,0,P|428:272|427:306,1,70,2|0,2:1|2:1,2:1:0:0:
352,289,4424,1,2,2:1:0:0:
352,289,4767,6,0,L|266:283,1,70,2|0,2:2|2:1,2:1:0:0:
206,251,5110,1,2,2:1:0:0:
240,352,5281,1,0,2:1:0:0:
265,203,5452,2,0,L|269:133,1,70,2|0,2:1|2:1,0:0:0:0:
169,319,5795,1,2,2:1:0:0:
169,319,6138,6,0,P|136:329|90:309,1,70,2|0,2:2|2:1,2:1:0:0:
69,207,6481,1,2,2:1:0:0:
69,207,6652,1,0,2:1:0:0:
141,247,6824,1,2,2:1:0:0:
141,247,6995,1,0,2:1:0:0:
126,147,7167,1,2,2:1:0:0:
126,147,7510,6,0,L|118:60,1,70,2|0,2:2|2:1,2:1:0:0:
201,188,7852,1,2,2:1:0:0:
201,188,8024,1,0,2:1:0:0:
271,147,8195,1,2,2:1:0:0:
271,147,8367,1,0,2:1:0:0:
262,248,8538,1,2,2:1:0:0:
262,248,8881,6,0,L|339:243,1,70,2|0,2:2|2:1,2:1:0:0:
424,170,9224,1,2,2:1:0:0:
407,240,9395,1,0,2:1:0:0:
343,166,9567,1,2,2:1:0:0:
359,95,9738,1,0,2:1:0:0:
487,226,9910,1,2,2:1:0:0:
487,226,10252,6,0,L|495:306,1,70,2|0,2:2|2:1,2:1:0:0:
506,151,10595,1,2,2:1:0:0:
434,167,10766,1,0,2:1:0:0:
379,265,10938,1,2,2:1:0:0:
308,249,11109,1,0,2:1:0:0:
232,174,11281,1,2,2:1:0:0:
232,174,11624,6,0,P|245:141|234:88,1,70,2|0,2:2|2:1,2:1:0:0:
104,66,11967,1,2,2:1:0:0:
104,66,12138,1,0,2:1:0:0:
156,134,12310,1,2,2:1:0:0:
156,134,12481,1,0,2:1:0:0:
25,87,12652,6,0,L|41:213,1,87.5,6|0,0:0|0:0,0:0:0:0:
144,220,12995,2,0,L|155:133,1,87.5,8|0,3:0|0:0,0:0:0:0:
47,282,13338,5,2,0:0:0:0:
47,282,13510,1,2,0:0:0:0:
138,332,13681,1,10,3:0:0:0:
138,332,13853,1,2,0:0:0:0:
221,274,14024,1,2,0:0:0:0:
221,274,14367,6,0,P|270:260|329:268,1,87.5,8|0,3:0|0:0,0:0:0:0:
426,305,14710,1,2,0:0:0:0:
447,227,14881,1,2,0:0:0:0:
344,187,15052,1,10,3:0:0:0:
323,109,15223,1,2,0:0:0:0:
420,45,15395,1,2,0:0:0:0:
420,45,15738,6,0,P|378:30|322:37,1,87.5,8|0,3:0|0:0,0:0:0:0:
161,179,16081,1,2,0:0:0:0:
81,186,16252,1,2,0:0:0:0:
163,73,16424,1,10,3:0:0:0:
243,81,16595,1,2,0:0:0:0:
309,184,16767,1,2,0:0:0:0:
309,184,17110,6,0,P|297:238|315:284,1,87.5,8|0,3:0|0:0,0:0:0:0:
371,122,17452,2,0,P|383:68|365:22,1,87.5,2|0,0:0|0:0,0:0:0:0:
382,231,17795,1,10,3:0:0:0:
382,231,18138,6,0,L|499:223,1,87.5,10|0,1:0|0:0,0:0:0:0:
458,116,18481,2,0,L|341:124,1,87.5,8|0,3:0|0:0,0:0:0:0:
268,254,18824,2,0,L|355:248,1,87.5,10|0,1:0|0:0,0:0:0:0:
249,140,19167,1,10,3:0:0:0:
249,140,19510,6,0,P|261:86|243:39,1,87.5,10|0,1:0|0:0,0:0:0:0:
155,97,19852,2,0,P|143:151|161:198,1,87.5,8|0,3:0|0:0,0:0:0:0:
236,313,20195,2,0,P|248:259|230:212,1,87.5,10|0,1:0|0:0,0:0:0:0:
142,270,20538,1,10,3:0:0:0:
142,270,20881,5,10,1:0:0:0:
69,287,21052,1,8,1:0:0:0:
158,194,21224,5,8,3:0:0:0:
94,154,21395,1,8,0:0:0:0:
223,151,21567,5,8,1:0:0:0:
206,78,21738,1,8,1:0:0:0:
299,166,21910,5,10,3:0:0:0:
338,102,22081,1,8,1:0:0:0:
342,230,22252,5,10,1:0:0:0:
374,223,22337,1,8,1:0:0:0:
406,216,22423,1,8,1:0:0:0:
438,209,22509,1,8,1:0:0:0:
470,202,22596,1,10,3:0:0:0:
477,170,22681,1,8,1:0:0:0:
476,137,22767,1,8,1:0:0:0:
468,106,22853,1,8,1:0:0:0:
453,76,22938,2,0,L|438:46,16,21.875,10|8|8|0|8|8|8|0|10|8|8|0|8|8|8|0|10,0:0|0:0|0:0|0:0|0:0|0:0|0:0|0:0|3:0|0:0|0:0|0:0|0:0|0:0|0:0|0:0|0:0,0:0:0:0:
189,258,25681,5,8,0:0:0:0:
169,186,25852,1,8,0:0:0:0:
256,110,26024,1,8,3:0:0:0:
256,110,26367,6,0,L|371:121,1,90.9999958343508,14|0,0:0|0:0,0:0:0:0:
424,129,26710,1,8,3:0:0:0:
201,55,26881,2,0,P|179:88|184:142,1,90.9999958343508,2|0,0:0|0:0,0:0:0:0:
238,193,27224,1,8,0:0:0:0:
389,59,27395,1,10,3:0:0:0:
389,59,27738,6,0,P|407:150|379:248,1,181.999991668702,10|8,0:0|3:0,0:0:0:0:
381,257,28167,1,0,0:0:0:0:
381,257,28252,2,0,P|379:288|389:315,1,45.4999979171754,2|0,0:0|0:0,0:0:0:0:
324,351,28424,2,0,L|204:353,1,90.9999958343508,0|8,0:0|0:0,0:0:0:0:
100,244,28767,1,10,3:0:0:0:
100,244,29110,6,0,P|85:193|106:136,1,90.9999958343508,10|0,0:0|0:0,0:0:0:0:
145,102,29452,1,8,3:0:0:0:
149,305,29624,2,0,P|98:320|41:299,1,90.9999958343508,2|0,0:0|0:0,0:0:0:0:
100,244,29967,1,8,0:0:0:0:
236,321,30138,1,10,3:0:0:0:
236,321,30481,6,0,L|326:322,1,90.9999958343508,10|0,0:0|0:0,0:0:0:0:
402,324,30824,1,8,3:0:0:0:
403,182,30995,2,0,P|369:212|357:255,1,90.9999958343508,2|0,0:0|0:0,0:0:0:0:
436,252,31338,1,8,0:0:0:0:
422,108,31510,2,0,P|390:102|368:114,2,45.4999979171754,8|2|2,3:0|3:0|0:0,0:0:0:0:
275,238,31852,6,0,P|216:305|122:304,1,181.999991668702,10|8,0:0|3:0,0:0:0:0:
252,144,32367,2,0,L|364:161,1,90.9999958343508,2|0,0:0|0:0,0:0:0:0:
176,215,32710,1,8,0:0:0:0:
331,71,32881,1,10,3:0:0:0:
331,71,33224,6,0,L|241:57,1,90.9999958343508,10|0,0:0|0:0,0:0:0:0:
177,104,33567,1,8,3:0:0:0:
412,108,33738,2,0,L|501:94,1,90.9999958343508,2|0,0:0|0:0,0:0:0:0:
443,22,34081,1,8,0:0:0:0:
341,157,34252,1,10,3:0:0:0:
341,157,34595,6,0,P|365:209|347:261,1,90.9999958343508,14|0,0:0|0:0,0:0:0:0:
286,212,34938,1,8,3:0:0:0:
393,313,35110,2,0,P|352:321|323:315,2,45.4999979171754,2|2|2,0:0|0:0|0:0,0:0:0:0:
359,240,35452,1,8,0:0:0:0:
256,354,35624,1,10,3:0:0:0:
256,354,35967,6,0,L|158:363,1,90.9999958343508,10|0,0:0|0:0,0:0:0:0:
88,369,36310,1,8,3:0:0:0:
89,222,36481,2,0,P|124:260|119:312,1,90.9999958343508,2|0,0:0|0:0,0:0:0:0:
88,369,36824,1,8,0:0:0:0:
180,184,36995,1,10,3:0:0:0:
180,184,37338,6,0,P|160:119|263:82,1,181.999991668702,10|8,0:0|3:0,0:0:0:0:
301,209,37852,2,0,P|352:228|401:219,1,90.9999958343508,2|0,0:0|0:0,0:0:0:0:
349,139,38195,1,8,0:0:0:0:
237,286,38367,1,10,3:0:0:0:
237,286,38710,6,0,L|244:354,1,56,10|2,0:0|0:0,0:0:0:0:
245,358,38967,1,0,0:0:0:0:
245,358,39052,1,2,0:0:0:0:
140,281,39224,5,2,0:0:0:0:
140,281,39310,1,0,0:0:0:0:
140,281,39395,1,10,0:0:0:0:
323,307,39567,1,8,0:0:0:0:
67,324,39738,1,8,3:0:0:0:
67,324,40081,6,0,P|39:281|42:215,1,90.9999958343508,14|0,0:0|0:0,0:0:0:0:
66,172,40424,1,8,3:0:0:0:
222,202,40595,2,0,P|266:195|303:170,1,90.9999958343508,2|0,0:0|0:0,0:0:0:0:
239,122,40938,1,8,0:0:0:0:
145,242,41110,1,10,3:0:0:0:
145,242,41452,6,0,L|141:134,1,90.9999958343508,10|0,0:0|0:0,0:0:0:0:
172,83,41795,1,8,3:0:0:0:
301,219,41967,2,0,L|297:309,1,90.9999958343508,2|0,0:0|0:0,0:0:0:0:
223,255,42310,1,8,0:0:0:0:
376,176,42481,5,10,3:0:0:0:
401,179,42566,1,0,0:0:0:0:
427,182,42652,1,0,0:0:0:0:
224,159,42824,1,10,0:0:0:0:
224,159,43167,5,8,3:0:0:0:
191,149,43252,1,0,0:0:0:0:
157,150,43338,1,2,0:0:0:0:
125,162,43424,1,0,0:0:0:0:
98,183,43509,1,0,0:0:0:0:
172,230,43681,5,8,0:0:0:0:
215,76,43852,1,10,3:0:0:0:
215,76,44195,6,0,L|321:67,1,90.9999958343508,10|0,0:0|0:0,0:0:0:0:
374,34,44538,1,10,3:0:0:0:
463,120,44710,2,0,L|357:111,1,90.9999958343508,2|0,0:0|0:0,0:0:0:0:
374,34,45052,1,8,0:0:0:0:
302,152,45224,1,8,3:0:0:0:
302,152,45567,5,6,0:0:0:0:
44,43,56538,6,0,L|52:76,3,24.4999992523194,14|0|0|0,0:0|0:0|0:0|0:0,0:0:0:0:
133,55,56881,1,10,3:0:0:0:
133,55,56967,1,0,0:0:0:0:
133,55,57052,2,0,L|126:88,1,24.4999992523194
202,101,57224,2,0,L|181:128,3,24.4999992523194,10|0|0|0,0:0|0:0|0:0|0:0,0:0:0:0:
240,173,57567,1,10,3:0:0:0:
240,173,57910,6,0,L|231:206,3,31.4999990386963,10|0|0|0,0:0|0:0|0:0|0:0,0:0:0:0:
152,190,58252,1,10,3:0:0:0:
152,190,58338,1,0,0:0:0:0:
152,190,58424,2,0,L|158:224,1,31.4999990386963
82,242,58596,2,0,L|102:270,3,31.4999990386963,10|0|0|0,0:0|0:0|0:0|0:0,0:0:0:0:
43,317,58939,1,10,3:0:0:0:
43,317,59281,6,0,L|52:366,3,38.5000011749268,10|0|0|0,0:0|0:0|0:0|0:0,0:0:0:0:
133,368,59624,1,10,3:0:0:0:
133,368,59710,1,0,0:0:0:0:
133,368,59795,2,0,L|139:330,1,38.5000011749268
212,305,59967,2,0,L|221:354,3,38.5000011749268,10|0|0|0,0:0|0:0|0:0|0:0,0:0:0:0:
296,354,60310,1,10,3:0:0:0:
296,354,60652,6,0,L|345:363,3,45.4999979171754,10|0|0|0,0:0|0:0|0:0|0:0,0:0:0:0:
212,305,60995,1,10,3:0:0:0:
212,305,61081,1,0,0:0:0:0:
212,305,61167,2,0,L|163:314,1,45.4999979171754
289,254,61338,2,0,L|338:263,3,45.4999979171754,10|0|0|0,0:0|0:0|0:0|0:0,0:0:0:0:
231,201,61681,1,10,3:0:0:0:
231,201,62024,5,14,0:0:0:0:
257,130,62195,1,8,0:0:0:0:
150,68,62367,5,10,3:0:0:0:
176,138,62538,1,8,0:0:0:0:
311,191,62710,5,10,0:0:0:0:
285,261,62881,1,8,0:0:0:0:
231,349,63052,5,10,3:0:0:0:
205,279,63223,1,8,0:0:0:0:
72,198,63395,5,10,0:0:0:0:
145,225,63566,1,8,0:0:0:0:
103,376,63738,5,10,3:0:0:0:
130,303,63909,1,8,0:0:0:0:
205,136,64081,5,10,0:0:0:0:
232,209,64252,1,8,0:0:0:0:
312,378,64424,5,10,3:0:0:0:
339,305,64595,1,8,0:0:0:0:
278,92,64767,5,14,0:0:0:0:
254,67,64852,1,8,0:0:0:0:
223,53,64938,1,10,0:0:0:0:
189,53,65024,1,8,0:0:0:0:
158,66,65110,5,10,3:0:0:0:
138,77,65195,1,8,0:0:0:0:
116,84,65281,1,10,0:0:0:0:
94,85,65367,1,8,0:0:0:0:
71,80,65452,6,0,L|80:135,3,45.4999979171754,10|8|10|8,0:0|0:0|0:0|0:0,0:0:0:0:
178,162,65795,2,0,L|169:217,3,45.4999979171754,10|8|10|8,3:0|0:0|0:0|0:0,0:0:0:0:
110,262,66138,5,10,0:0:0:0:
110,262,66481,5,2,0:0:0:0:
186,288,66652,1,2,0:0:0:0:
335,217,66824,5,2,0:0:0:0:
259,191,66995,2,0,L|266:146,1,45.4999979171754,10|0,0:0|0:0,0:0:0:0:
289,297,67167,5,10,3:0:0:0:
365,323,67338,1,2,0:0:0:0:
328,79,67510,6,0,P|296:57|180:153,1,210.000008010865,6|8,0:0|3:0,0:0:0:0:
259,191,68024,1,0,0:0:0:0:
14,79,68195,6,0,P|43:150|117:154,2,132.999996448517,2|10|10,0:0|0:0|3:0,0:0:0:0:
14,79,68881,5,2,0:0:0:0:
89,85,69052,1,2,0:0:0:0:
145,234,69224,2,0,P|155:270|150:357,1,105.000004005432,10|0,3:0|0:0,0:0:0:0:
190,134,69567,2,0,P|187:81|199:30,1,105.000004005432,2|10,0:0|0:0,0:0:0:0:
110,159,69910,5,10,3:0:0:0:
233,261,70081,2,0,P|283:273|336:270,2,105.000004005432,2|2|0,0:0|0:0|0:0,0:0:0:0:
364,188,70595,6,0,P|417:236|360:357,1,210.000008010865,10|2,3:0|0:0,0:0:0:0:
336,270,71110,1,10,0:0:0:0:
443,132,71281,5,10,3:0:0:0:
277,163,71452,2,0,P|313:109|358:96,2,105.000004005432,2|2|0,0:0|0:0|0:0,0:0:0:0:
258,324,71967,5,10,3:0:0:0:
257,248,72138,1,2,0:0:0:0:
195,199,72310,1,2,0:0:0:0:
181,279,72481,5,10,0:0:0:0:
332,212,72652,1,10,3:0:0:0:
202,115,72824,1,2,0:0:0:0:
344,298,72995,6,0,P|396:275|360:134,1,210.000008010865,6|8,0:0|3:0,0:0:0:0:
332,212,73510,1,0,0:0:0:0:
415,23,73681,6,0,P|339:46|320:101,2,132.999996448517,2|10|10,0:0|0:0|3:0,0:0:0:0:
415,23,74367,5,2,0:0:0:0:
483,52,74538,1,2,0:0:0:0:
320,90,74710,2,0,L|185:98,1,105.000004005432,10|0,3:0|0:0,0:0:0:0:
408,209,75052,2,0,L|543:217,1,105.000004005432,2|10,0:0|0:0,0:0:0:0:
389,127,75395,5,10,3:0:0:0:
303,293,75567,2,0,B|316:240|316:240|289:168,2,105.000004005432,2|2|0,0:0|0:0|0:0,0:0:0:0:
407,208,76081,6,0,L|198:225,1,210.000008010865,10|2,3:0|0:0,0:0:0:0:
134,185,76595,1,10,0:0:0:0:
219,317,76767,5,10,3:0:0:0:
201,130,76938,2,0,P|228:85|274:62,2,105.000004005432,2|2|0,0:0|0:0|0:0,0:0:0:0:
139,302,77452,5,10,3:0:0:0:
60,301,77624,1,2,0:0:0:0:
15,241,77795,1,10,0:0:0:0:
15,223,77880,1,8,3:0:0:0:
15,205,77966,1,10,0:0:0:0:
93,223,78138,5,10,3:0:0:0:
201,360,78310,1,10,0:0:0:0:
373,325,78481,1,6,0:0:0:0:
373,325,78824,6,0,L|496:337,1,105.000004005432,8|0,3:0|0:0,0:0:0:0:
329,154,79167,6,0,P|326:221|245:247,2,132.999996448517,2|10|10,0:0|0:0|3:0,0:0:0:0:
329,154,79852,6,0,P|327:121|331:95,1,52.5000020027161,2|2,0:0|0:0,0:0:0:0:
252,128,80195,2,0,P|213:129|152:94,1,105.000004005432,2|2,0:0|0:0,0:0:0:0:
156,98,80881,5,10,3:0:0:0:
287,234,81052,2,0,P|303:283|292:334,2,105.000004005432,2|6|0,0:0|0:0|0:0,0:0:0:0:
103,186,81567,6,0,P|121:282|218:285,1,210.000008010865,10|2,3:0|0:0,0:0:0:0:
172,223,82081,1,10,0:0:0:0:
22,254,82252,1,10,3:0:0:0:
174,143,82424,2,0,P|226:134|304:155,2,105.000004005432,2|2|0,0:0|0:0|0:0,0:0:0:0:
337,88,82938,5,10,3:0:0:0:
354,159,83110,1,2,0:0:0:0:
307,218,83281,1,2,0:0:0:0:
276,142,83452,5,10,0:0:0:0:
415,104,83624,1,10,3:0:0:0:
474,239,83795,1,2,0:0:0:0:
228,210,83967,6,0,P|193:153|286:58,1,210.000008010865,6|8,0:0|3:0,0:0:0:0:
276,142,84481,1,0,0:0:0:0:
209,327,84652,6,0,P|152:331|104:251,2,132.999996448517,2|10|10,0:0|0:0|3:0,0:0:0:0:
209,327,85338,5,2,0:0:0:0:
283,311,85510,1,2,0:0:0:0:
104,277,85681,2,0,P|51:265|-3:271,1,105.000004005432,10|0,3:0|0:0,0:0:0:0:
258,223,86024,2,0,P|310:227|360:215,1,105.000004005432,2|10,0:0|0:0,0:0:0:0:
184,254,86367,1,10,3:0:0:0:
431,116,86538,6,0,B|410:148|430:190|439:178|454:225|423:268,2,140,2|6|0,0:0|0:0|0:0,0:0:0:0:
300,140,87052,6,0,L|85:114,1,210.000008010865,10|2,3:0|0:0,0:0:0:0:
123,43,87567,1,10,0:0:0:0:
155,204,87738,1,10,3:0:0:0:
50,49,87910,6,0,P|17:96|34:163,2,105.000004005432,2|2|0,0:0|0:0|0:0,0:0:0:0:
123,43,88424,1,10,3:0:0:0:
91,114,88595,1,2,0:0:0:0:
155,204,88767,1,2,0:0:0:0:
240,77,88938,1,10,0:0:0:0:
172,123,89110,5,10,3:0:0:0:
320,148,89281,1,2,0:0:0:0:
438,34,89452,5,6,0:0:0:0:
438,34,89538,1,2,0:0:0:0:
438,34,89624,2,0,P|428:58|439:117,1,66.4999982242585,2|0,0:0|0:0,0:0:0:0:
456,180,89795,5,2,0:0:0:0:
456,180,89881,1,2,0:0:0:0:
456,180,89967,2,0,P|466:204|455:263,1,66.4999982242585,2|0,0:0|0:0,0:0:0:0:
418,314,90138,5,10,0:0:0:0:
418,314,90224,1,2,0:0:0:0:
418,314,90310,2,0,P|408:338|419:397,1,66.4999982242585,10|0,0:0|0:0,0:0:0:0:
376,220,90481,5,10,3:0:0:0:
376,220,90824,5,6,0:0:0:0:
351,197,90909,1,2,0:0:0:0:
320,186,90995,1,2,0:0:0:0:
287,187,91081,1,0,0:0:0:0:
258,201,91167,1,10,3:0:0:0:
229,215,91252,1,2,0:0:0:0:
196,216,91338,1,2,0:0:0:0:
165,205,91424,1,0,0:0:0:0:
140,183,91510,6,0,L|138:99,1,66.4999982242585,10|2,0:0|0:0,0:0:0:0:
212,73,91681,2,0,L|213:139,1,66.4999982242585,10|0,0:0|0:0,0:0:0:0:
164,303,91852,5,10,3:0:0:0:
172,311,92195,5,6,0:0:0:0:
172,311,92281,1,2,0:0:0:0:
172,311,92367,2,0,L|88:318,1,66.4999982242585,2|0,0:0|0:0,0:0:0:0:
93,235,92538,5,10,3:0:0:0:
93,235,92624,1,2,0:0:0:0:
93,235,92710,2,0,L|177:228,1,66.4999982242585,2|0,0:0|0:0,0:0:0:0:
298,266,92881,5,8,0:0:0:0:
298,266,92967,1,2,0:0:0:0:
298,266,93053,2,0,L|214:259,1,66.4999982242585,10|0,0:0|0:0,0:0:0:0:
122,151,93224,5,10,3:0:0:0:
122,151,93567,5,6,0:0:0:0:
143,125,93652,1,2,0:0:0:0:
172,110,93738,1,2,0:0:0:0:
205,107,93824,1,0,0:0:0:0:
237,116,93910,1,10,3:0:0:0:
263,137,93995,1,2,0:0:0:0:
278,166,94081,1,2,0:0:0:0:
281,199,94167,1,0,0:0:0:0:
272,231,94252,6,0,L|249:302,1,66.4999982242585,10|0,0:0|0:0,0:0:0:0:
180,260,94424,2,0,L|200:196,1,66.4999982242585,10|0,0:0|0:0,0:0:0:0:
251,34,94595,5,10,3:0:0:0:
259,42,94938,5,6,0:0:0:0:
259,42,95024,1,2,0:0:0:0:
259,42,95110,2,0,P|283:32|342:43,1,66.4999982242585,2|0,0:0|0:0,0:0:0:0:
374,113,95281,5,10,3:0:0:0:
374,113,95367,1,2,0:0:0:0:
374,113,95453,2,0,P|370:138|331:184,1,66.4999982242585,2|0,0:0|0:0,0:0:0:0:
255,177,95623,5,10,0:0:0:0:
255,177,95709,1,2,0:0:0:0:
255,177,95795,2,0,P|234:161|214:104,1,66.4999982242585,10|0,0:0|0:0,0:0:0:0:
294,112,95967,5,10,3:0:0:0:
294,112,96310,5,6,0:0:0:0:
297,144,96395,1,2,0:0:0:0:
290,177,96481,1,2,0:0:0:0:
273,205,96567,1,0,0:0:0:0:
248,227,96652,1,10,3:0:0:0:
218,240,96738,1,0,0:0:0:0:
185,243,96824,1,2,0:0:0:0:
153,236,96910,1,0,0:0:0:0:
125,218,96995,6,0,P|105:186|102:140,1,66.4999982242585,10|2,0:0|0:0,0:0:0:0:
155,102,97167,2,0,P|175:134|178:180,1,66.4999982242585,10|0,0:0|0:0,0:0:0:0:
124,315,97338,5,10,3:0:0:0:
132,323,97681,5,6,0:0:0:0:
132,323,97767,1,2,0:0:0:0:
132,323,97852,2,0,L|214:317,1,66.4999982242585,2|0,0:0|0:0,0:0:0:0:
274,289,98024,5,10,3:0:0:0:
274,289,98110,1,2,0:0:0:0:
274,289,98195,2,0,L|280:207,1,66.4999982242585,2|0,0:0|0:0,0:0:0:0:
199,174,98367,5,10,0:0:0:0:
199,174,98453,1,0,0:0:0:0:
199,174,98538,2,0,L|193:256,1,66.4999982242585,10|0,0:0|0:0,0:0:0:0:
349,335,98710,5,10,3:0:0:0:
349,335,99052,5,6,0:0:0:0:
374,313,99137,1,0,0:0:0:0:
386,283,99223,1,2,0:0:0:0:
382,250,99309,1,0,0:0:0:0:
364,223,99395,1,10,3:0:0:0:
346,196,99481,1,0,0:0:0:0:
342,163,99567,1,2,0:0:0:0:
354,133,99653,1,0,0:0:0:0:
380,112,99738,6,0,P|411:97|460:108,1,66.4999982242585,10|10,0:0|0:0,0:0:0:0:
485,160,99910,2,0,P|454:175|405:164,1,66.4999982242585,10|0,0:0|0:0,0:0:0:0:
307,60,100081,5,10,3:0:0:0:
315,68,100424,5,6,0:0:0:0:
315,68,100510,1,2,0:0:0:0:
315,68,100595,2,0,L|223:69,1,59.5000011348725,2|0,0:0|0:0,0:0:0:0:
192,116,100767,5,10,3:0:0:0:
192,116,100853,1,2,0:0:0:0:
192,116,100938,2,0,L|100:115,1,59.5000011348725,2|0,0:0|0:0,0:0:0:0:
68,70,101110,5,10,0:0:0:0:
68,70,101196,1,2,0:0:0:0:
68,70,101281,2,0,L|-24:71,1,59.5000011348725,10|0,0:0|0:0,0:0:0:0:
62,152,101452,5,8,3:0:0:0:
62,152,101795,6,0,L|63:244,3,52.5000020027161,6|2|2|0,0:0|0:0|0:0|0:0,0:0:0:0:
105,272,102138,2,0,L|104:364,3,52.5000020027161,10|2|2|0,3:0|0:0|0:0|0:0,0:0:0:0:
27,327,102481,2,0,L|27:274,3,52.5000020027161,10|2|10|0,0:0|0:0|0:0|0:0,0:0:0:0:
138,196,102824,5,8,3:0:0:0:
146,204,103167,5,6,0:0:0:0:
146,204,103253,1,2,0:0:0:0:
146,204,103338,2,0,L|219:204,1,45.4999979171754,2|0,0:0|0:0,0:0:0:0:
264,173,103510,5,10,3:0:0:0:
264,173,103596,1,2,0:0:0:0:
264,173,103681,2,0,L|337:172,1,45.4999979171754,2|0,0:0|0:0,0:0:0:0:
377,224,103852,5,10,0:0:0:0:
377,224,103938,1,0,0:0:0:0:
377,224,104024,2,0,L|450:224,1,45.4999979171754,10|0,0:0|0:0,0:0:0:0:
495,201,104195,5,10,3:0:0:0:
495,201,104538,6,0,L|495:127,3,38.5000011749268,6|0|2|0,0:0|0:0|0:0|0:0,0:0:0:0:
454,101,104881,2,0,L|453:27,3,38.5000011749268,10|0|2|0,3:0|0:0|0:0|0:0,0:0:0:0:
380,41,105224,2,0,L|306:41,3,38.5000011749268,10|0|10|0,0:0|0:0|0:0|0:0,0:0:0:0:
277,80,105567,5,10,3:0:0:0:
277,80,105910,6,0,L|276:124,3,31.4999990386963,6|2|2|0,0:0|0:0|0:0|0:0,0:0:0:0:
200,69,106252,2,0,L|199:113,3,31.4999990386963,10|2|2|0,3:0|0:0|0:0|0:0,0:0:0:0:
125,55,106595,2,0,L|124:99,3,31.4999990386963,10|2|10|0,0:0|0:0|0:0|0:0,0:0:0:0:
54,37,106938,5,10,3:0:0:0:
54,37,107281,6,0,L|11:37,3,24.4999992523194,6|2|2|0,0:0|0:0|0:0|0:0,0:0:0:0:
64,109,107624,2,0,L|21:109,3,24.4999992523194,10|2|2|0,3:0|0:0|0:0|0:0,0:0:0:0:
77,181,107966,2,0,L|34:181,3,24.4999992523194,10|2|10|0,0:0|0:0|0:0|0:0,0:0:0:0:
88,253,108310,5,10,3:0:0:0:
88,253,108652,6,0,P|95:270|94:284,2,17.5,6|2|2,0:0|0:0|0:0,0:0:0:0:
173,247,108995,2,0,P|172:265|165:277,2,17.5,10|2|2,3:0|0:0|0:0,0:0:0:0:
257,269,109338,2,0,P|248:285|237:293,2,17.5,10|0|10,0:0|0:0|0:0,0:0:0:0:
308,344,109681,5,10,3:0:0:0:
308,344,110024,6,0,L|336:346,1,20.9999993591309,6|2,0:0|0:0,0:0:0:0:
405,326,110367,2,0,L|433:328,1,20.9999993591309,10|2,3:0|0:0,0:0:0:0:
412,251,110710,2,0,L|383:247,2,20.9999993591309,10|10|10,0:0|0:0|3:0,0:0:0:0:
485,264,111224,1,0,0:0:0:0:
343,183,111395,5,4,0:0:0:0:
127,53,116538,5,2,2:1:0:0:
127,53,116881,2,0,P|137:105|139:188,1,125.999996154785,2|0,2:1|2:1,2:1:0:0:
37,258,117395,2,0,P|63:253|103:252,1,62.9999980773926,2|0,2:1|2:1,0:0:0:0:
113,256,117652,2,0,P|131:259|155:260,1,31.4999990386963,0|0,2:1|2:1,0:0:0:0:
230,208,117910,2,0,P|236:166|233:133,1,62.9999980773926,2|0,2:1|0:0,2:1:0:0:
272,59,118252,6,0,L|417:70,1,125.999996154785,2|0,2:1|2:1,2:1:0:0:
360,155,118767,2,0,L|234:145,1,125.999996154785,2|0,2:1|2:1,2:1:0:0:
265,236,119281,2,0,L|327:240,1,62.9999980773926,2|0,2:1|0:0,2:1:0:0:
422,219,119624,6,0,P|443:188|427:95,1,125.999996154785,2|0,2:1|2:1,2:1:0:0:
371,39,120138,2,0,P|350:70|366:163,1,125.999996154785,2|0,2:1|2:1,2:1:0:0:
422,219,120652,2,0,P|427:268|426:297,1,62.9999980773926,2|0,2:1|0:0,2:1:0:0:
359,350,120995,6,0,L|233:340,1,125.999996154785,2|2,2:1|2:1,2:1:0:0:
220,345,121424,2,0,L|176:341,2,31.4999990386963,2|2|2,2:1|2:1|2:1,0:0:0:0:
31,296,122024,1,2,2:1:0:0:
31,296,122367,6,0,P|16:232|34:151,1,125.999996154785,2|0,2:1|2:1,2:1:0:0:
100,95,122881,2,0,L|248:103,1,125.999996154785,2|0,2:1|2:1,2:1:0:0:
309,63,123395,2,0,P|318:104|310:137,1,62.9999980773926,2|0,2:1|0:0,2:1:0:0:
222,195,123738,6,0,P|207:259|225:340,1,125.999996154785,2|0,2:1|2:1,2:1:0:0:
347,355,124252,2,0,P|362:291|344:210,1,125.999996154785,2|0,2:1|2:1,2:1:0:0:
314,124,124767,2,0,L|314:86,2,31.4999990386963,2|0|0,2:1|2:1|2:1,0:0:0:0:
353,232,125110,6,0,L|498:214,1,125.999996154785,2|0,2:1|2:1,2:1:0:0:
439,108,125624,2,0,L|313:123,1,125.999996154785,2|0,2:1|2:1,2:1:0:0:
236,204,126138,2,0,L|160:194,1,62.9999980773926,2|0,2:1|0:0,2:1:0:0:
114,84,126481,6,0,P|129:54|132:19,1,62.9999980773926,2|0,2:1|2:1,2:1:0:0:
48,33,126824,1,2,2:1:0:0:
38,129,126995,2,0,P|68:189|74:259,1,125.999996154785,2|0,2:1|2:1,2:1:0:0:
16,329,127510,1,2,2:1:0:0:
261,359,127852,6,0,L|86:341,1,167.999994873047,6|8,0:0|3:0,0:0:0:0:
139,259,128367,1,2,0:0:0:0:
139,259,128452,1,2,0:0:0:0:
139,259,128538,2,0,L|255:271,2,83.9999974365235,2|2|10,0:0|0:0|3:0,0:0:0:0:
59,252,129052,1,2,0:0:0:0:
222,181,129224,6,0,L|234:64,1,83.9999974365235,2|0,0:0|0:0,0:0:0:0:
239,18,129567,1,8,3:0:0:0:
239,18,129910,2,0,L|122:30,2,83.9999974365235,2|2|10,0:0|0:0|3:0,0:0:0:0:
314,7,130424,1,2,0:0:0:0:
396,102,130595,6,0,P|381:165|382:217,1,83.9999974365235,2|0,0:0|0:0,0:0:0:0:
397,258,130938,1,8,3:0:0:0:
397,258,131281,2,0,P|460:243|512:244,2,83.9999974365235,2|2|10,0:0|0:0|3:0,0:0:0:0:
453,328,131795,1,2,0:0:0:0:
294,218,131967,6,0,P|309:266|300:305,1,83.9999974365235,2|2,0:0|0:0,0:0:0:0:
293,313,132224,1,2,0:0:0:0:
293,313,132310,1,10,3:0:0:0:
258,147,132481,1,2,0:0:0:0:
281,138,132566,1,2,0:0:0:0:
307,141,132652,1,2,0:0:0:0:
190,191,132824,5,2,0:0:0:0:
268,62,132995,1,10,3:0:0:0:
384,176,133167,1,2,0:0:0:0:
150,84,133338,6,0,L|49:67,1,90.9999958343508,10|0,1:0|0:0,0:0:0:0:
190,191,133681,2,0,L|89:174,1,90.9999958343508,8|2,3:0|0:0,0:0:0:0:
229,301,134024,5,10,1:0:0:0:
153,288,134195,1,8,0:0:0:0:
298,252,134367,1,10,3:0:0:0:
298,252,134710,6,0,L|399:269,1,90.9999958343508,10|0,1:0|0:0,0:0:0:0:
341,159,135053,2,0,L|442:176,1,90.9999958343508,8|2,3:0|0:0,0:0:0:0:
357,49,135396,5,10,1:0:0:0:
433,62,135567,1,8,0:0:0:0:
258,98,135739,1,10,3:0:0:0:
258,98,136081,5,10,1:0:0:0:
182,85,136252,1,8,1:0:0:0:
257,182,136424,5,8,3:0:0:0:
182,202,136595,1,8,0:0:0:0:
305,250,136767,5,8,1:0:0:0:
246,299,136938,1,8,1:0:0:0:
368,304,137110,5,10,3:0:0:0:
335,375,137281,1,8,1:0:0:0:
440,250,137452,5,10,1:0:0:0:
416,235,137537,1,8,1:0:0:0:
394,218,137623,1,8,1:0:0:0:
376,198,137709,1,8,1:0:0:0:
362,175,137794,1,8,3:0:0:0:
351,150,137880,1,8,1:0:0:0:
345,124,137966,1,10,1:0:0:0:
343,97,138052,1,8,1:0:0:0:
345,69,138138,2,0,L|349:27,16,22.7499989585877,10|8|8|0|8|8|8|0|10|8|8|0|8|8|8|0|10,0:0|0:0|0:0|0:0|0:0|0:0|0:0|0:0|3:0|0:0|0:0|0:0|0:0|0:0|0:0|0:0|0:0,0:0:0:0:
212,205,139167,5,2,0:0:0:0:
288,179,139338,1,2,0:0:0:0:
168,67,139510,5,2,0:0:0:0:
92,93,139681,1,2,0:0:0:0:
24,227,139852,5,10,0:0:0:0:
108,209,140023,1,8,0:0:0:0:
108,209,140110,1,8,0:0:0:0:
108,209,140195,6,0,P|97:274|212:333,1,210.000008010865,6|8,0:0|3:0,0:0:0:0:
263,280,140710,1,0,0:0:0:0:
251,73,140881,6,0,P|187:115|194:191,2,132.999996448517,2|10|10,0:0|0:0|3:0,0:0:0:0:
251,73,141567,5,2,0:0:0:0:
255,148,141738,1,2,0:0:0:0:
347,44,141910,2,0,P|409:37|470:50,1,105.000004005432,10|0,3:0|0:0,0:0:0:0:
312,227,142252,2,0,P|250:234|189:221,1,105.000004005432,2|10,0:0|0:0,0:0:0:0:
348,148,142595,5,10,3:0:0:0:
378,309,142767,2,0,P|394:268|454:239,2,105.000004005432,2|2|0,0:0|0:0|0:0,0:0:0:0:
348,148,143281,2,0,P|281:113|135:143,1,210.000008010865,10|2,3:0|0:0,0:0:0:0:
114,197,143795,1,10,0:0:0:0:
137,44,143967,5,10,3:0:0:0:
195,202,144138,2,0,P|189:266|176:335,2,105.000004005432,2|2|0,0:0|0:0|0:0,0:0:0:0:
44,158,144652,5,10,3:0:0:0:
42,233,144824,1,2,0:0:0:0:
102,277,144995,1,2,0:0:0:0:
114,197,145167,5,10,0:0:0:0:
30,311,145338,1,10,3:0:0:0:
163,335,145510,1,2,0:0:0:0:
173,142,145681,6,0,P|160:79|32:89,1,210.000008010865,6|8,0:0|3:0,0:0:0:0:
98,125,146195,1,0,0:0:0:0:
294,193,146367,6,0,P|351:178|363:88,2,132.999996448517,2|10|10,0:0|0:0|3:0,0:0:0:0:
294,193,147052,5,2,0:0:0:0:
368,204,147224,1,2,0:0:0:0:
216,262,147395,2,0,L|94:280,1,105.000004005432,10|0,3:0|0:0,0:0:0:0:
282,104,147738,2,0,L|404:122,1,105.000004005432,2|10,0:0|0:0,0:0:0:0:
213,170,148081,5,10,3:0:0:0:
441,275,148252,2,0,B|467:226|467:226|454:165,2,105.000004005432,2|2|0,0:0|0:0|0:0,0:0:0:0:
294,193,148767,6,0,L|501:162,1,210.000008010865,10|2,3:0|0:0,0:0:0:0:
502,86,149281,1,10,0:0:0:0:
441,275,149452,5,10,3:0:0:0:
416,80,149624,2,0,P|382:55|303:57,2,105.000004005432,2|2|0,0:0|0:0|0:0,0:0:0:0:
299,191,150138,5,10,3:0:0:0:
347,133,150310,1,2,0:0:0:0:
274,121,150481,1,10,0:0:0:0:
260,125,150567,1,8,3:0:0:0:
246,129,150652,1,10,0:0:0:0:
375,207,150824,5,10,3:0:0:0:
237,53,150995,1,10,0:0:0:0:
71,180,151167,1,6,0:0:0:0:
71,180,151510,6,0,L|78:293,1,105.000004005432,8|0,3:0|0:0,0:0:0:0:
148,119,151852,6,0,P|87:79|19:96,2,132.999996448517,2|10|10,0:0|0:0|3:0,0:0:0:0:
148,119,152538,6,0,L|207:128,1,52.5000020027161,2|2,0:0|0:0,0:0:0:0:
270,102,152881,2,0,P|277:144|276:208,1,105.000004005432,2|2,0:0|0:0,0:0:0:0:
276,206,153567,5,10,3:0:0:0:
216,42,153738,2,0,P|277:21|335:49,2,105.000004005432,2|6|0,0:0|0:0|0:0,0:0:0:0:
185,210,154252,6,0,P|258:299|347:266,1,210.000008010865,10|2,3:0|0:0,0:0:0:0:
276,206,154767,1,10,0:0:0:0:
133,320,154938,1,10,3:0:0:0:
416,287,155110,2,0,P|402:222|352:199,2,105.000004005432,2|2|0,0:0|0:0|0:0,0:0:0:0:
200,201,155624,5,10,3:0:0:0:
243,139,155795,1,2,0:0:0:0:
318,144,155967,1,2,0:0:0:0:
276,206,156138,5,10,0:0:0:0:
169,128,156310,1,10,3:0:0:0:
215,0,156481,1,2,0:0:0:0:
354,216,156652,6,0,P|317:278|201:233,1,210.000008010865,6|8,0:0|3:0,0:0:0:0:
199,161,157167,1,0,0:0:0:0:
20,250,157338,6,0,P|76:202|141:217,2,132.999996448517,2|10|10,0:0|0:0|3:0,0:0:0:0:
20,250,158024,5,2,0:0:0:0:
92,276,158195,1,2,0:0:0:0:
15,137,158367,2,0,P|11:76|14:19,1,105.000004005432,10|0,3:0|0:0,0:0:0:0:
180,233,158710,2,0,P|181:285|177:337,1,105.000004005432,2|10,0:0|0:0,0:0:0:0:
112,159,159052,1,10,3:0:0:0:
448,283,159224,6,0,B|408:270|375:284|391:296|349:314|294:290,2,140,2|6|0,0:0|0:0|0:0,0:0:0:0:
202,155,159738,6,0,P|225:99|360:112,1,210.000008010865,10|2,3:0|0:0,0:0:0:0:
289,158,160252,1,10,0:0:0:0:
174,32,160424,1,10,3:0:0:0:
240,229,160595,2,0,P|256:285|232:352,2,105.000004005432,2|2|0,0:0|0:0|0:0,0:0:0:0:
119,163,161110,5,10,3:0:0:0:
151,228,161281,1,0,0:0:0:0:
38,289,161452,1,2,0:0:0:0:
25,157,161624,1,10,0:0:0:0:
72,221,161795,5,10,3:0:0:0:
43,367,161967,1,2,0:0:0:0:
25,157,162138,6,0,P|107:133|211:145,1,181.999991668702,6|8,0:0|3:0,0:0:0:0:
276,172,162652,1,0,0:0:0:0:
192,60,162824,2,0,P|135:51|64:61,1,90.9999958343508,2|2,0:0|0:0,0:0:0:0:
217,227,163167,1,10,3:0:0:0:
217,227,163510,6,0,P|267:255|359:174,1,181.999991668702,6|8,0:0|3:0,0:0:0:0:
276,172,164024,1,0,0:0:0:0:
142,266,164195,2,0,P|175:306|213:326,1,90.9999958343508,2|8,0:0|0:0,0:0:0:0:
332,109,164538,1,10,3:0:0:0:
332,109,164881,6,0,P|281:85|146:82,1,181.999991668702,6|8,0:0|3:0,0:0:0:0:
95,124,165395,1,0,0:0:0:0:
234,158,165567,2,0,P|295:182|332:210,1,90.9999958343508,2|2,0:0|0:0,0:0:0:0:
70,203,165910,1,10,3:0:0:0:
70,203,166252,6,0,P|63:263|176:323,1,181.999991668702,6|8,0:0|3:0,0:0:0:0:
226,291,166767,1,2,0:0:0:0:
333,347,166938,5,2,0:0:0:0:
311,270,167110,1,2,0:0:0:0:
409,222,167281,1,10,3:0:0:0:
431,145,167453,1,2,0:0:0:0:
343,67,167624,6,0,L|139:53,1,181.999991668702,6|8,0:0|3:0,0:0:0:0:
85,47,168138,1,0,0:0:0:0:
166,216,168310,5,2,0:0:0:0:
188,139,168482,1,2,0:0:0:0:
62,194,168652,1,10,3:0:0:0:
84,271,168824,1,2,0:0:0:0:
249,191,168995,6,0,P|324:194|431:273,1,181.999991668702,6|8,0:0|3:0,0:0:0:0:
441,321,169510,1,0,0:0:0:0:
290,279,169681,5,2,0:0:0:0:
213,301,169853,1,2,0:0:0:0:
285,378,170024,1,10,3:0:0:0:
362,356,170196,1,2,0:0:0:0:
413,248,170367,6,0,P|407:184|279:125,1,181.999991668702,6|8,0:0|3:0,0:0:0:0:
246,158,170881,1,2,0:0:0:0:
125,94,171052,5,2,0:0:0:0:
147,171,171224,1,2,0:0:0:0:
40,235,171395,1,10,3:0:0:0:
18,312,171567,1,2,0:0:0:0:
130,368,171738,6,0,L|320:343,1,181.999991668702,6|8,0:0|3:0,0:0:0:0:
388,328,172252,1,2,0:0:0:0:
335,271,172424,1,2,0:0:0:0:
337,258,172509,1,8,3:0:0:0:
339,245,172595,1,2,0:0:0:0:
417,255,172767,5,10,3:0:0:0:
256,260,172938,1,10,0:0:0:0:
318,103,173110,6,0,P|369:68|502:90,1,181.999991668702,6|8,0:0|3:0,0:0:0:0:
498,153,173624,1,0,0:0:0:0:
336,188,173795,5,2,0:0:0:0:
259,166,173967,1,2,0:0:0:0:
170,73,174138,1,10,3:0:0:0:
247,51,174310,1,2,0:0:0:0:
132,185,174481,6,0,P|68:151|53:44,1,181.999991668702,6|8,0:0|3:0,0:0:0:0:
117,14,174995,1,2,0:0:0:0:
218,171,175167,5,2,0:0:0:0:
196,248,175339,1,2,0:0:0:0:
60,267,175510,1,10,3:0:0:0:
82,344,175682,1,2,0:0:0:0:
274,230,175852,6,0,P|351:226|478:285,1,181.999991668702,6|8,0:0|3:0,0:0:0:0:
460,336,176367,1,0,0:0:0:0:
508,202,176538,5,2,0:0:0:0:
486,125,176710,1,2,0:0:0:0:
350,106,176881,1,10,3:0:0:0:
372,29,177053,1,2,0:0:0:0:
415,186,177224,6,0,P|390:232|256:202,1,181.999991668702,6|8,0:0|3:0,0:0:0:0:
334,171,177738,1,0,0:0:0:0:
202,291,177910,5,2,0:0:0:0:
256,147,178081,1,2,0:0:0:0:
108,75,178252,1,10,3:0:0:0:
108,75,178595,6,0,B|96:126|96:126|111:182,2,105,6|0|0,0:0|0:0|0:0,0:0:0:0:
194,76,179967,2,0,B|207:126|207:126|195:177,2,105
141,9,181338,5,0,0:0:0:0:
334,253,182367,6,0,P|376:237|413:246,2,70,2|2|2,0:0|0:0|0:0,0:0:0:0:
379,315,183395,1,2,0:0:0:0:
