osu file format v14

[General]
AudioFilename: audio.mp3
AudioLeadIn: 0
PreviewTime: 139081
Countdown: 1
SampleSet: Normal
StackLeniency: 0.7
Mode: 0
LetterboxInBreaks: 0
WidescreenStoryboard: 1

[Editor]
Bookmarks: 18824,45053,57910,62710,63395,80195,92538,98024,102138,161110,179967
DistanceSpacing: 1.5
BeatDivisor: 4
GridSize: 8
TimelineZoom: 0.8999999

[Metadata]
Title:MTC (Different Heaven Remix)
TitleUnicode:MTC (Different Heaven Remix)
Artist:S3RL
ArtistUnicode:S3RL
Creator:Sylas
Version:Hard
Source:
Tags:english featured artist fa electronic drum and bass dnb Jodie Harling Jole Hughes
BeatmapID:1913099
BeatmapSetID:914691

[Difficulty]
HPDrainRate:4
CircleSize:3.7
OverallDifficulty:7
ApproachRate:8
SliderMultiplier:1.2
SliderTickRate:1

[Events]
//Background and Video events
0,0,"vocaloid-hatsune-miku-vokaloid-khatsune-miku-devushka-khvost.jpg",0,0
//Break Periods
2,45767,55788
2,111595,115788
//Storyboard Layer 0 (Background)
//Storyboard Layer 1 (Fail)
//Storyboard Layer 2 (Pass)
//Storyboard Layer 3 (Foreground)
//Storyboard Layer 4 (Overlay)
//Storyboard Sound Samples

[TimingPoints]
310,342.857142857143,4,1,1,10,1,0
310,-133.333333333333,4,1,1,10,0,0
652,-133.333333333333,4,1,1,20,0,0
995,-133.333333333333,4,1,1,30,0,0
1338,-133.333333333333,4,1,1,40,0,0
1681,-133.333333333333,4,1,1,45,0,0
12652,-111.111111111111,4,1,1,45,0,0
26366,-100,4,1,1,60,0,0
56537,-100,4,1,1,25,0,0
57909,-100,4,1,1,30,0,0
59280,-100,4,1,1,35,0,0
60651,-100,4,1,1,40,0,0
62023,-100,4,1,1,45,0,0
63394,-100,4,1,1,50,0,0
64766,-100,4,1,1,55,0,0
65451,-100,4,1,1,65,0,0
66480,-133.333333333333,4,1,1,20,0,0
66651,-133.333333333333,4,1,1,30,0,0
66823,-100,4,1,1,40,0,0
66994,-100,4,1,1,50,0,0
67166,-100,4,1,1,60,0,0
67337,-100,4,1,1,70,0,0
67510,-83.3333333333333,4,1,1,75,0,1
79852,-100,4,1,1,50,0,0
80881,-83.3333333333333,4,1,1,75,0,1
111395,-100,4,1,1,85,0,0
116538,-100,4,1,1,25,0,0
116881,-125,4,1,1,25,0,0
127852,-100,4,1,1,50,0,0
133338,-90.9090909090909,4,1,1,60,0,0
140195,-83.3333333333333,4,1,1,75,0,1
152538,-100,4,1,1,50,0,0
153567,-83.3333333333333,4,1,1,75,0,1
162138,-100,4,1,1,70,0,0
178595,-133.333333333333,4,1,1,30,0,0

[Colours]
Combo1 : 247,155,136
Combo2 : 227,62,107
Combo3 : 240,140,218
Combo4 : 159,87,232
Combo5 : 86,130,220
Combo6 : 34,216,225
Combo7 : 156,224,131
Combo8 : 251,210,115

[HitObjects]
122,180,310,6,0,P|113:222|144:274,1,90.0000034332277,2|2,2:1|2:1,2:1:0:0:
244,148,995,2,0,L|188:141,1,45.0000017166138,2|0,2:1|2:0,2:1:0:0:
191,215,1338,2,0,L|238:220,1,45.0000017166138,2|0,2:1|2:0,2:1:0:0:
312,196,1681,5,2,2:1:0:0:
312,196,2024,2,0,P|376:186|415:207,1,90.0000034332276,2|2,2:2|2:1,2:1:0:0:
432,262,2538,1,0,2:1:0:0:
355,260,2710,2,0,P|351:295|357:319,1,45.0000017166138,2|0,2:1|2:1,2:1:0:0:
423,339,3052,6,0,L|527:330,1,90.0000034332277,2|2,2:1|2:2,0:0:0:0:
269,278,3738,2,0,L|165:269,1,90.0000034332277,2|2,2:1|2:1,2:1:0:0:
37,347,4424,6,0,P|65:299|62:252,1,90.0000034332277,2|2,2:1|2:2,0:0:0:0:
32,195,4938,1,0,2:1:0:0:
86,139,5110,2,0,L|92:78,1,45.0000017166138,2|0,2:1|2:1,0:0:0:0:
19,75,5452,2,0,L|14:119,1,45.0000017166138,2|0,2:1|2:1,0:0:0:0:
116,208,5795,6,0,P|160:201|205:180,1,90.0000034332277,2|2,2:1|2:2,0:0:0:0:
253,124,6310,1,0,2:1:0:0:
276,197,6481,2,0,P|276:223|266:248,1,45.0000017166138,2|0,2:1|2:1,0:0:0:0:
195,226,6824,2,0,P|195:200|205:175,1,45.0000017166138,2|0,2:1|2:1,0:0:0:0:
333,130,7167,6,0,L|423:141,1,90.0000034332277,2|2,2:1|2:2,0:0:0:0:
178,18,7852,2,0,P|192:49|195:66,1,45.0000017166138,2|0,2:1|2:1,0:0:0:0:
269,82,8195,2,0,P|255:113|252:130,1,45.0000017166138,2|0,2:1|2:1,0:0:0:0:
162,161,8538,6,0,P|129:138|62:130,1,90.0000034332277,2|2,2:1|2:2,0:0:0:0:
230,272,9224,2,0,L|238:215,1,45.0000017166138,2|0,2:1|2:1,0:0:0:0:
310,197,9567,2,0,L|316:241,1,45.0000017166138,2|0,2:1|2:1,0:0:0:0:
353,332,9910,6,0,P|400:312|450:320,1,90.0000034332277,2|2,2:1|2:2,0:0:0:0:
503,349,10424,1,0,2:1:0:0:
498,272,10595,2,0,L|504:227,1,45.0000017166138,2|0,2:1|2:1,0:0:0:0:
440,189,10938,2,0,L|446:144,1,45.0000017166138,2|0,2:1|2:1,0:0:0:0:
492,35,11281,6,0,P|461:50|397:42,1,90.0000034332277,2|2,2:1|2:2,0:0:0:0:
341,5,11795,1,0,2:1:0:0:
338,77,11967,2,0,P|342:109|336:132,1,45.0000017166138,2|0,2:1|2:1,0:0:0:0:
265,95,12310,2,0,P|261:63|267:40,1,45.0000017166138,2|0,2:1|2:1,0:0:0:0:
274,178,12652,6,0,L|142:186,2,107.999996704102,6|8|2,0:0|3:0|0:0,0:0:0:0:
350,172,13510,1,2,0:0:0:0:
316,245,13681,2,0,L|320:313,1,53.9999983520508,10|2,3:0|0:0,0:0:0:0:
210,347,14024,6,0,P|178:326|101:318,1,107.999996704102,2|8,0:0|3:0,0:0:0:0:
34,343,14538,1,0,0:0:0:0:
53,266,14710,2,0,P|59:235|54:200,1,53.9999983520508,2|2,0:0|0:0,0:0:0:0:
29,137,15052,2,0,P|23:106|28:71,1,53.9999983520508,10|2,3:0|0:0,0:0:0:0:
113,37,15395,6,0,P|142:61|218:48,1,107.999996704102,2|8,0:0|3:0,0:0:0:0:
340,16,16081,2,0,P|352:44|356:78,1,53.9999983520508,2|2,0:0|0:0,0:0:0:0:
424,100,16424,2,0,P|412:128|408:162,1,53.9999983520508,10|2,3:0|0:0,0:0:0:0:
342,229,16767,6,0,L|218:234,1,107.999996704102,2|8,0:0|3:0,0:0:0:0:
81,334,17452,2,0,L|88:280,1,53.9999983520508,2|0,0:0|0:0,0:0:0:0:
135,214,17795,1,10,3:0:0:0:
135,214,18138,6,0,P|105:194|77:191,1,53.9999983520508,10|0,1:0|0:0,0:0:0:0:
205,180,18481,2,0,P|186:149|162:134,1,53.9999983520508,8|0,3:0|0:0,0:0:0:0:
278,180,18824,2,0,P|274:144|258:120,1,53.9999983520508,10|0,1:0|0:0,0:0:0:0:
340,227,19167,1,10,3:0:0:0:
340,227,19510,6,0,P|360:257|363:285,1,53.9999983520508,10|0,1:0|0:0,0:0:0:0:
374,157,19853,2,0,P|404:175|419:199,1,53.9999983520508,8|0,3:0|0:0,0:0:0:0:
374,84,20196,2,0,P|409:87|433:103,1,53.9999983520508,10|0,1:0|0:0,0:0:0:0:
327,22,20539,1,10,3:0:0:0:
327,22,20881,6,0,L|258:24,1,53.9999983520508,10|8,1:0|1:0,0:0:0:0:
190,8,21224,1,8,3:0:0:0:
190,8,21395,1,8,0:0:0:0:
233,93,21567,2,0,L|231:162,1,53.9999983520508,8|8,1:0|1:0,0:0:0:0:
193,220,21910,1,10,3:0:0:0:
193,220,22081,1,8,1:0:0:0:
289,214,22252,6,0,L|331:222,3,26.9999991760254,10|8|8|8,1:0|1:0|1:0|1:0,0:0:0:0:
344,214,22595,2,0,L|370:219,3,26.9999991760254,10|8|8|8,3:0|1:0|1:0|1:0,0:0:0:0:
400,212,22938,2,0,L|442:220,3,26.9999991760254,10|8|8|8,0:0|0:0|0:0|0:0,0:0:0:0:
455,212,23281,2,0,L|481:217,3,26.9999991760254,10|8|8|8,3:0|0:0|0:0|0:0,0:0:0:0:
508,209,23624,5,10,0:0:0:0:
508,209,25681,2,0,P|509:173|507:148,1,53.9999983520508,8|8,0:0|0:0,0:0:0:0:
491,81,26024,1,8,3:0:0:0:
491,81,26367,6,0,P|443:71|369:77,1,120,14|8,0:0|3:0,0:0:0:0:
280,176,26881,1,2,0:0:0:0:
280,176,27052,2,0,P|251:183|206:175,1,60,0|8,0:0|0:0,0:0:0:0:
219,80,27395,2,0,P|248:73|293:81,1,60,10|0,3:0|0:0,0:0:0:0:
385,221,27738,6,0,L|379:297,1,60,10|0,0:0|0:0,0:0:0:0:
271,344,28081,1,8,3:0:0:0:
274,270,28252,2,0,L|278:210,1,60,2|0,0:0|0:0,0:0:0:0:
361,120,28595,1,8,0:0:0:0:
346,46,28767,1,10,3:0:0:0:
346,46,29110,6,0,P|278:40|217:49,1,120,10|8,0:0|3:0,0:0:0:0:
90,123,29624,1,2,0:0:0:0:
90,123,29795,2,0,P|87:157|92:188,1,60,0|8,0:0|0:0,0:0:0:0:
190,209,30138,2,0,P|193:175|188:144,1,60,10|0,3:0|0:0,0:0:0:0:
92,31,30481,6,0,L|22:35,1,60,10|0,0:0|0:0,0:0:0:0:
168,73,30824,1,8,3:0:0:0:
245,70,30995,2,0,L|315:74,1,60,2|0,0:0|0:0,0:0:0:0:
420,44,31338,1,8,0:0:0:0:
375,113,31510,2,0,L|371:172,1,60,10|0,3:0|0:0,0:0:0:0:
461,273,31852,5,10,0:0:0:0:
461,273,32024,2,0,P|458:239|433:200,1,60,0|8,0:0|3:0,0:0:0:0:
286,294,32367,2,0,P|314:334|403:351,1,120,2|8,0:0|0:0,0:0:0:0:
376,264,32881,1,10,3:0:0:0:
376,264,33224,6,0,L|249:273,1,120,10|8,0:0|3:0,0:0:0:0:
266,117,33738,2,0,L|393:108,1,120,2|8,0:0|0:0,0:0:0:0:
212,190,34252,1,10,3:0:0:0:
212,190,34595,6,0,P|173:138|192:63,1,120,14|8,0:0|3:0,0:0:0:0:
297,165,35110,1,2,0:0:0:0:
297,165,35281,2,0,P|301:212|290:236,1,60,0|8,0:0|0:0,0:0:0:0:
191,275,35624,2,0,P|161:281|132:274,1,60,10|0,3:0|0:0,0:0:0:0:
58,127,35967,6,0,L|52:64,1,60,10|0,0:0|0:0,0:0:0:0:
169,34,36310,1,8,3:0:0:0:
162,109,36481,2,0,L|156:168,1,60,2|0,0:0|0:0,0:0:0:0:
259,203,36824,1,8,0:0:0:0:
252,128,36995,1,10,3:0:0:0:
252,128,37338,6,0,P|298:95|360:105,1,120,10|8,0:0|3:0,0:0:0:0:
370,255,37852,1,2,0:0:0:0:
370,255,38024,2,0,P|342:268|305:269,1,60,0|8,0:0|0:0,0:0:0:0:
323,184,38367,1,10,3:0:0:0:
323,184,38710,6,0,B|378:202|378:202|459:187,2,120,10|0|10,0:0|0:0|0:0,0:0:0:0:
245,147,39567,1,8,0:0:0:0:
274,255,39738,1,8,3:0:0:0:
274,255,40081,6,0,L|143:237,1,120,14|8,0:0|3:0,0:0:0:0:
122,89,40595,1,2,0:0:0:0:
122,89,40767,2,0,L|199:78,1,60,0|8,0:0|0:0,0:0:0:0:
262,168,41110,2,0,L|183:157,1,60,10|0,3:0|0:0,0:0:0:0:
298,6,41452,6,0,P|329:49|341:126,1,120,10|8,0:0|3:0,0:0:0:0:
336,230,41967,1,2,0:0:0:0:
336,230,42138,2,0,L|343:289,1,60,0|8,0:0|0:0,0:0:0:0:
432,351,42481,2,0,L|440:290,1,60,10|0,3:0|0:0,0:0:0:0:
286,372,42824,5,10,0:0:0:0:
286,372,43167,2,0,L|202:379,1,60,8|2,3:0|0:0,0:0:0:0:
139,299,43510,2,0,L|198:294,1,60,0|8,0:0|0:0,0:0:0:0:
228,209,43852,1,10,3:0:0:0:
228,209,44195,6,0,P|246:158|233:75,1,120,10|10,0:0|3:0,0:0:0:0:
182,45,44710,2,0,L|108:47,1,60,2|0,0:0|0:0,0:0:0:0:
41,23,45052,1,8,0:0:0:0:
77,115,45224,1,8,3:0:0:0:
356,39,45567,5,6,0:0:0:0:
106,226,56538,6,0,L|106:191,2,30,14|0|0,0:0|0:0|0:0,0:0:0:0:
179,245,56881,2,0,L|194:213,2,30,10|0|0,3:0|0:0|0:0,0:0:0:0:
238,293,57224,2,0,L|260:266,2,30,10|0|0,0:0|0:0|0:0,0:0:0:0:
285,354,57567,1,10,3:0:0:0:
285,354,57910,6,0,L|251:361,2,30,10|0|0,0:0|0:0|0:0,0:0:0:0:
287,278,58253,2,0,L|253:269,2,30,10|0|0,3:0|0:0|0:0,0:0:0:0:
321,210,58596,2,0,L|290:193,2,30,10|0|0,0:0|0:0|0:0,0:0:0:0:
371,154,58939,1,10,3:0:0:0:
371,154,59281,6,0,L|373:112,2,30,10|0|0,0:0|0:0|0:0,0:0:0:0:
297,126,59624,2,0,L|299:84,2,30,10|0|0,3:0|0:0|0:0,0:0:0:0:
218,158,59967,2,0,L|220:116,2,30,10|0|0,0:0|0:0|0:0,0:0:0:0:
144,130,60310,1,10,3:0:0:0:
144,130,60652,6,0,L|102:128,2,30,10|0|0,0:0|0:0|0:0,0:0:0:0:
116,204,60995,2,0,L|74:202,2,30,10|0|0,3:0|0:0|0:0,0:0:0:0:
148,283,61338,2,0,L|106:281,2,30,10|0|0,0:0|0:0|0:0,0:0:0:0:
120,357,61681,1,10,3:0:0:0:
120,357,62024,6,0,L|204:353,1,60,14|8,0:0|0:0,0:0:0:0:
243,278,62367,2,0,L|327:282,1,60,10|8,3:0|0:0,0:0:0:0:
369,334,62710,1,10,0:0:0:0:
369,334,62881,1,8,0:0:0:0:
374,230,63052,2,0,L|378:146,1,60,10|8,3:0|0:0,0:0:0:0:
279,47,63395,6,0,P|244:39|206:50,1,60,10|8,0:0|0:0,0:0:0:0:
244,118,63738,2,0,P|279:126|317:115,1,60,10|8,3:0|0:0,0:0:0:0:
364,64,64081,1,10,0:0:0:0:
364,64,64252,1,8,0:0:0:0:
400,150,64424,2,0,P|392:185|403:223,1,60,10|8,3:0|0:0,0:0:0:0:
275,262,64767,6,0,L|232:267,3,30,14|8|10|8,0:0|0:0|0:0|0:0,0:0:0:0:
225,254,65110,2,0,L|182:259,3,30,10|8|10|8,3:0|0:0|0:0|0:0,0:0:0:0:
179,278,65452,2,0,L|136:283,3,30,10|8|10|8,0:0|0:0|0:0|0:0,0:0:0:0:
129,270,65795,2,0,L|86:275,3,30,10|8|10|8,3:0|0:0|0:0|0:0,0:0:0:0:
81,290,66138,5,10,0:0:0:0:
358,115,66481,6,0,P|348:147|349:173,2,45.0000017166138,2|2|2,0:0|0:0|0:0,0:0:0:0:
430,83,66995,1,10,0:0:0:0:
409,212,67167,1,10,3:0:0:0:
409,212,67510,6,0,P|356:179|260:177,1,143.999995605469,6|8,0:0|3:0,0:0:0:0:
212,217,68024,1,0,0:0:0:0:
247,79,68195,2,0,P|219:103|208:144,1,71.9999978027344,2|10,0:0|0:0,0:0:0:0:
281,262,68538,1,10,3:0:0:0:
281,262,68881,6,0,L|363:255,1,71.9999978027344,2|2,0:0|0:0,0:0:0:0:
208,314,69224,2,0,L|126:307,1,71.9999978027344,10|0,3:0|0:0,0:0:0:0:
131,223,69567,2,0,L|202:229,1,71.9999978027344,2|10,0:0|0:0,0:0:0:0:
287,345,69910,1,10,3:0:0:0:
287,345,70081,1,2,0:0:0:0:
352,255,70252,6,0,P|364:196|335:110,1,143.999995605469,2|10,0:0|3:0,0:0:0:0:
138,38,70938,2,0,P|96:30|64:36,1,71.9999978027344,2|10,0:0|0:0,0:0:0:0:
101,113,71281,1,10,3:0:0:0:
210,77,71452,2,0,P|218:35|212:3,2,71.9999978027344,2|2|0,0:0|0:0|0:0,0:0:0:0:
133,197,71967,6,0,L|148:272,1,71.9999978027344,10|2,3:0|0:0,0:0:0:0:
221,212,72310,2,0,L|236:287,1,71.9999978027344,2|10,0:0|0:0,0:0:0:0:
307,224,72652,1,10,3:0:0:0:
321,297,72824,1,2,0:0:0:0:
347,155,72995,6,0,B|257:126|294:187|177:153,1,143.999995605469,6|8,0:0|3:0,0:0:0:0:
147,106,73510,1,0,0:0:0:0:
228,16,73681,2,0,P|235:61|223:92,1,71.9999978027344,2|10,0:0|0:0,0:0:0:0:
130,186,74024,1,10,3:0:0:0:
130,186,74367,6,0,L|135:268,1,71.9999978027344,2|2,0:0|0:0,0:0:0:0:
63,118,74710,2,0,L|67:47,1,71.9999978027344,10|0,3:0|0:0,0:0:0:0:
0,186,75052,2,0,P|9:220|55:253,1,71.9999978027344,2|10,0:0|0:0,0:0:0:0:
122,284,75395,1,10,3:0:0:0:
122,284,75567,1,2,0:0:0:0:
82,357,75738,6,0,B|172:386|135:325|252:359,1,143.999995605469,2|10,0:0|3:0,0:0:0:0:
373,203,76424,2,0,P|362:160|370:117,1,71.9999978027344,2|10,0:0|0:0,0:0:0:0:
448,162,76767,1,10,3:0:0:0:
417,275,76938,2,0,P|374:286|331:278,2,71.9999978027344,2|2|0,0:0|0:0|0:0,0:0:0:0:
364,132,77452,6,0,L|349:57,1,71.9999978027344,10|2,3:0|0:0,0:0:0:0:
277,114,77795,1,10,0:0:0:0:
277,114,77881,1,8,3:0:0:0:
277,114,77967,1,10,0:0:0:0:
207,10,78138,2,0,L|192:80,1,71.9999978027344,10|10,3:0|0:0,0:0:0:0:
115,154,78481,6,0,P|108:199|150:297,1,143.999995605469,6|8,0:0|3:0,0:0:0:0:
395,289,79167,2,0,P|361:271|314:276,1,71.9999978027344,2|10,0:0|0:0,0:0:0:0:
238,322,79510,2,0,P|231:277|273:179,1,143.999995605469,10|2,3:0|0:0,0:0:0:0:
265,187,80881,6,0,L|273:115,1,71.9999978027344,10|2,3:0|0:0,0:0:0:0:
210,15,81224,2,0,P|212:82|285:115,1,143.999995605469,6|10,0:0|3:0,0:0:0:0:
486,92,81910,2,0,P|487:48|468:-1,1,71.9999978027344,2|10,0:0|0:0,0:0:0:0:
397,71,82252,1,10,3:0:0:0:
453,177,82424,2,0,P|454:221|435:270,2,71.9999978027344,2|2|0,0:0|0:0|0:0,0:0:0:0:
321,87,82938,6,0,L|237:89,1,71.9999978027344,10|2,3:0|0:0,0:0:0:0:
230,193,83281,2,0,L|301:191,1,71.9999978027344,2|10,0:0|0:0,0:0:0:0:
161,101,83624,1,10,3:0:0:0:
86,102,83795,1,2,0:0:0:0:
153,200,83967,6,0,P|160:251|114:337,1,143.999995605469,6|8,0:0|3:0,0:0:0:0:
44,364,84481,1,0,0:0:0:0:
0,251,84652,2,0,P|52:272|75:300,1,71.9999978027344,2|10,0:0|0:0,0:0:0:0:
190,377,84995,1,10,3:0:0:0:
190,377,85338,6,0,L|277:372,1,71.9999978027344,2|2,0:0|0:0,0:0:0:0:
302,264,85681,2,0,L|230:268,1,71.9999978027344,10|0,3:0|0:0,0:0:0:0:
361,337,86024,2,0,P|387:297|391:253,1,71.9999978027344,2|10,0:0|0:0,0:0:0:0:
347,188,86367,1,10,3:0:0:0:
303,264,86538,1,2,0:0:0:0:
433,192,86710,6,0,P|415:130|326:104,1,143.999995605469,6|10,0:0|3:0,0:0:0:0:
145,228,87395,2,0,P|100:235|73:232,1,71.9999978027344,2|10,0:0|0:0,0:0:0:0:
103,150,87738,1,10,3:0:0:0:
222,194,87910,2,0,P|229:239|226:266,2,71.9999978027344,2|2|0,0:0|0:0|0:0,0:0:0:0:
178,122,88424,6,0,P|171:77|174:50,1,71.9999978027344,10|2,3:0|0:0,0:0:0:0:
257,82,88767,1,2,0:0:0:0:
257,82,88938,1,10,0:0:0:0:
310,150,89110,1,10,3:0:0:0:
310,150,89281,1,2,0:0:0:0:
391,96,89452,6,0,L|400:149,3,35.9999989013672,6|2|2|0,0:0|0:0|0:0|0:0,0:0:0:0:
415,171,89795,2,0,L|406:224,3,35.9999989013672,2|2|2|0,0:0|0:0|0:0|0:0,0:0:0:0:
393,232,90138,2,0,L|402:285,3,35.9999989013672,10|2|10|0,0:0|0:0|0:0|0:0,0:0:0:0:
408,287,90481,1,10,3:0:0:0:
235,268,90824,5,6,0:0:0:0:
235,268,90910,1,2,0:0:0:0:
235,268,90995,1,2,0:0:0:0:
174,188,91167,2,0,L|83:195,1,71.9999978027344,10|2,3:0|0:0,0:0:0:0:
19,236,91510,1,10,0:0:0:0:
19,236,91595,1,2,0:0:0:0:
19,236,91681,1,10,0:0:0:0:
100,287,91852,1,10,3:0:0:0:
177,52,92195,6,0,P|203:47|224:60,3,35.9999989013672,6|2|2|0,0:0|0:0|0:0|0:0,0:0:0:0:
243,73,92538,2,0,P|248:99|235:120,3,35.9999989013672,10|2|2|0,3:0|0:0|0:0|0:0,0:0:0:0:
267,128,92881,2,0,P|293:133|314:120,3,35.9999989013672,8|2|10|0,0:0|0:0|0:0|0:0,0:0:0:0:
316,114,93224,1,10,3:0:0:0:
452,112,93567,5,6,0:0:0:0:
452,112,93652,1,2,0:0:0:0:
452,112,93738,1,2,0:0:0:0:
504,190,93910,2,0,L|489:270,1,71.9999978027344,10|2,3:0|0:0,0:0:0:0:
407,297,94252,1,10,0:0:0:0:
407,297,94338,1,0,0:0:0:0:
407,297,94424,1,10,0:0:0:0:
410,203,94595,1,10,3:0:0:0:
237,191,94938,6,0,L|246:244,3,35.9999989013672,6|2|2|0,0:0|0:0|0:0|0:0,0:0:0:0:
257,262,95281,2,0,L|248:315,3,35.9999989013672,10|2|2|0,3:0|0:0|0:0|0:0,0:0:0:0:
280,315,95624,2,0,L|333:306,3,35.9999989013672,10|2|10|0,0:0|0:0|0:0|0:0,0:0:0:0:
331,314,95967,1,10,3:0:0:0:
145,207,96310,5,6,0:0:0:0:
145,207,96395,1,2,0:0:0:0:
145,207,96481,1,2,0:0:0:0:
46,189,96652,2,0,L|60:262,1,71.9999978027344,10|2,3:0|0:0,0:0:0:0:
94,356,96995,1,10,0:0:0:0:
94,356,97081,1,2,0:0:0:0:
94,356,97167,1,10,0:0:0:0:
170,302,97338,1,10,3:0:0:0:
330,55,97681,6,0,P|304:50|283:63,3,35.9999989013672,6|2|2|0,0:0|0:0|0:0|0:0,0:0:0:0:
255,70,98024,2,0,P|229:75|208:62,3,35.9999989013672,10|2|2|0,3:0|0:0|0:0|0:0,0:0:0:0:
196,47,98367,2,0,P|170:42|149:55,3,35.9999989013672,10|0|10|0,0:0|0:0|0:0|0:0,0:0:0:0:
145,56,98710,1,10,3:0:0:0:
311,158,99052,5,6,0:0:0:0:
311,158,99138,1,0,0:0:0:0:
311,158,99224,1,2,0:0:0:0:
237,213,99395,2,0,P|281:247|308:252,1,71.9999978027344,10|2,3:0|0:0,0:0:0:0:
391,257,99738,1,10,0:0:0:0:
400,235,99824,1,10,0:0:0:0:
407,216,99910,1,10,0:0:0:0:
431,137,100081,1,10,3:0:0:0:
155,290,100424,6,0,P|142:256|149:221,1,71.9999978027344,6|2,0:0|0:0,0:0:0:0:
260,143,100767,2,0,P|266:161|268:179,2,35.9999989013672,10|2|2,3:0|0:0|0:0,0:0:0:0:
293,255,101110,2,0,P|258:261|225:248,1,71.9999978027344,10|10,0:0|0:0,0:0:0:0:
172,142,101452,1,8,3:0:0:0:
393,342,101795,6,0,L|442:338,2,35.9999989013672,6|2|2,0:0|0:0|0:0,0:0:0:0:
369,244,102138,2,0,L|415:261,2,35.9999989013672,10|2|2,3:0|0:0|0:0,0:0:0:0:
391,145,102481,2,0,L|425:179,2,35.9999989013672,10|2|10,0:0|0:0|0:0,0:0:0:0:
450,63,102824,1,8,3:0:0:0:
177,27,103167,6,0,L|91:33,1,71.9999978027344,6|2,0:0|0:0,0:0:0:0:
171,118,103510,2,0,L|124:100,2,35.9999989013672,10|2|2,3:0|0:0|0:0,0:0:0:0:
168,241,103853,2,0,L|116:181,1,71.9999978027344,10|10,0:0|0:0,0:0:0:0:
85,275,104196,1,10,3:0:0:0:
373,119,104538,6,0,P|382:94|378:73,2,35.9999989013672,6|0|2,0:0|0:0|0:0,0:0:0:0:
286,152,104881,2,0,P|261:143|240:147,2,35.9999989013672,10|0|2,3:0|0:0|0:0,0:0:0:0:
326,238,105224,2,0,P|317:263|321:284,2,35.9999989013672,10|0|10,0:0|0:0|0:0,0:0:0:0:
411,204,105567,1,10,3:0:0:0:
106,126,105910,6,0,P|98:160|108:195,1,71.9999978027344,6|2,0:0|0:0,0:0:0:0:
195,229,106253,2,0,P|220:220|241:224,2,35.9999989013672,10|2|2,3:0|0:0|0:0,0:0:0:0:
162,308,106595,2,0,P|171:342|163:376,1,71.9999978027344,10|10,0:0|0:0,0:0:0:0:
81,341,106939,1,10,3:0:0:0:
365,339,107281,6,0,L|413:334,2,35.9999989013672,6|2|2,0:0|0:0|0:0,0:0:0:0:
301,292,107624,2,0,L|253:287,2,35.9999989013672,10|2|2,3:0|0:0|0:0,0:0:0:0:
353,238,107967,2,0,L|401:233,2,35.9999989013672,10|2|10,0:0|0:0|0:0,0:0:0:0:
287,195,108310,1,10,3:0:0:0:
88,323,108652,6,0,L|14:328,1,71.9999978027344,6|2,0:0|0:0,0:0:0:0:
41,241,108995,2,0,L|112:236,1,71.9999978027344,10|2,3:0|0:0,0:0:0:0:
159,327,109338,2,0,L|87:322,1,71.9999978027344,10|10,0:0|0:0,0:0:0:0:
217,255,109681,1,10,3:0:0:0:
25,43,110024,6,0,P|78:35|167:67,1,143.999995605469,6|10,0:0|3:0,0:0:0:0:
214,145,110538,2,0,P|267:153|356:121,1,143.999995605469,2|10,0:0|0:0,0:0:0:0:
388,44,111052,1,10,3:0:0:0:
388,44,111224,1,0,0:0:0:0:
274,54,111395,1,4,0:0:0:0:
131,286,116538,5,2,2:1:0:0:
131,286,116881,2,0,P|113:252|113:184,1,96,2|0,2:1|2:1,2:1:0:0:
156,139,117395,2,0,L|268:146,1,96,2|0,2:1|2:1,0:0:0:0:
324,153,117910,1,2,2:1:0:0:
458,101,118252,6,0,P|447:145|463:199,1,96,2|0,2:1|2:1,2:1:0:0:
414,250,118767,2,0,P|426:295|415:342,1,96,2|0,2:1|2:1,2:1:0:0:
345,362,119281,2,0,L|288:367,1,48,2|0,2:1|0:0,2:1:0:0:
214,319,119624,6,0,L|115:327,1,96,2|0,2:1|2:1,2:1:0:0:
106,256,120138,2,0,L|201:247,1,96,2|0,2:1|2:1,2:1:0:0:
271,263,120652,2,0,P|273:234|263:209,1,48,2|0,2:1|0:0,2:1:0:0:
202,158,120995,6,0,P|198:115|201:45,1,96,2|2,2:1|2:1,2:1:0:0:
220,32,121424,2,0,L|260:38,2,24,2|2|2,2:1|2:1|2:1,0:0:0:0:
49,20,122024,1,2,2:1:0:0:
49,20,122367,6,0,P|37:75|68:120,1,96,2|0,2:1|2:1,2:1:0:0:
123,129,122881,2,0,P|162:119|219:118,1,96,2|0,2:1|2:1,2:1:0:0:
285,142,123395,1,2,2:1:0:0:
421,97,123738,6,0,L|414:212,1,96,2|0,2:1|2:1,2:1:0:0:
467,242,124252,2,0,P|428:265|368:249,1,96,2|0,2:1|2:1,2:1:0:0:
334,200,124767,2,0,P|312:197|306:197,2,24,2|0|0,2:1|2:1|2:1,0:0:0:0:
299,279,125110,6,0,P|264:287|199:289,1,96,2|0,2:1|2:1,2:1:0:0:
144,248,125624,2,0,P|109:240|44:238,1,96,2|0,2:1|2:1,2:1:0:0:
9,297,126138,1,2,2:1:0:0:
0,153,126481,6,0,L|68:141,1,48,2|0,2:1|2:1,2:1:0:0:
117,129,126824,1,2,2:1:0:0:
187,113,126995,2,0,L|284:129,1,96,2|0,2:1|2:1,2:1:0:0:
352,145,127510,1,2,2:1:0:0:
105,10,127852,6,0,L|118:136,1,120,6|8,0:0|3:0,0:0:0:0:
150,306,128538,2,0,L|158:222,1,60,2|2,0:0|0:0,0:0:0:0:
225,317,128881,2,0,L|231:257,1,60,10|2,3:0|0:0,0:0:0:0:
310,333,129224,6,0,L|369:326,2,60,2|0|8,0:0|0:0|3:0,0:0:0:0:
323,180,129910,2,0,L|331:263,1,60,2|2,0:0|0:0,0:0:0:0:
398,169,130253,2,0,L|404:228,1,60,10|2,3:0|0:0,0:0:0:0:
469,113,130595,6,0,P|404:82|346:94,1,120,2|8,0:0|3:0,0:0:0:0:
276,108,131110,1,0,0:0:0:0:
276,108,131281,2,0,P|243:127|200:129,1,60,2|2,0:0|0:0,0:0:0:0:
247,35,131624,2,0,P|217:41|192:57,1,60,10|2,3:0|0:0,0:0:0:0:
122,26,131967,6,0,P|118:71|129:102,2,60,2|2|10,0:0|0:0|3:0,0:0:0:0:
62,259,132652,2,0,P|45:233|39:204,1,60,2|2,0:0|0:0,0:0:0:0:
134,229,132995,2,0,P|127:199|111:174,1,60,10|2,3:0|0:0,0:0:0:0:
125,316,133338,6,0,L|263:331,1,132.00000402832,10|8,1:0|3:0,0:0:0:0:
336,183,134024,2,0,L|257:174,1,66.0000020141602,10|8,1:0|0:0,0:0:0:0:
296,259,134367,2,0,L|361:266,1,66.0000020141602,10|0,3:0|0:0,0:0:0:0:
465,182,134710,6,0,L|480:44,1,132.00000402832,10|8,1:0|3:0,0:0:0:0:
331,35,135395,2,0,L|252:43,1,66.0000020141602,10|8,1:0|0:0,0:0:0:0:
197,103,135738,2,0,L|118:94,1,66.0000020141602,10|0,3:0|0:0,0:0:0:0:
39,54,136081,5,10,1:0:0:0:
39,54,136252,1,8,1:0:0:0:
50,152,136424,2,0,L|58:230,1,66.0000020141602,8|8,3:0|0:0,0:0:0:0:
163,181,136767,5,8,1:0:0:0:
163,181,136938,1,8,1:0:0:0:
152,279,137110,2,0,L|143:357,1,66.0000020141602,10|8,3:0|1:0,0:0:0:0:
247,238,137452,6,0,L|293:236,3,33.0000010070801,10|8|8|8,1:0|1:0|1:0|1:0,0:0:0:0:
299,245,137795,2,0,L|345:243,3,33.0000010070801,8|8|10|8,3:0|1:0|1:0|1:0,0:0:0:0:
345,250,138138,2,0,L|391:248,3,33.0000010070801,10|8|8|8,0:0|0:0|0:0|0:0,0:0:0:0:
397,257,138481,2,0,L|443:255,3,33.0000010070801,10|8|8|8,3:0|0:0|0:0|0:0,0:0:0:0:
448,263,138824,1,10,0:0:0:0:
328,91,139167,6,0,P|364:83|396:91,2,66.0000020141602,2|2|2,0:0|0:0|0:0,0:0:0:0:
273,146,139681,1,2,0:0:0:0:
252,70,139852,1,10,0:0:0:0:
201,125,140024,1,8,0:0:0:0:
201,125,140110,1,8,0:0:0:0:
201,125,140195,6,0,B|109:117|166:164|39:153,1,143.999995605469,6|8,0:0|3:0,0:0:0:0:
0,105,140710,1,0,0:0:0:0:
66,5,140881,2,0,P|81:46|80:75,1,71.9999978027344,2|10,0:0|0:0,0:0:0:0:
6,213,141224,1,10,3:0:0:0:
6,213,141567,6,0,L|15:284,1,71.9999978027344,2|2,0:0|0:0,0:0:0:0:
108,236,141910,2,0,L|99:165,1,71.9999978027344,10|0,3:0|0:0,0:0:0:0:
106,328,142252,2,0,L|177:337,1,71.9999978027344,2|10,0:0|0:0,0:0:0:0:
284,352,142595,1,10,3:0:0:0:
284,352,142767,1,2,0:0:0:0:
237,255,142938,6,0,P|227:203|272:108,1,143.999995605469,2|10,0:0|3:0,0:0:0:0:
459,184,143624,2,0,P|462:219|455:260,1,71.9999978027344,2|10,0:0|0:0,0:0:0:0:
377,208,143967,1,10,3:0:0:0:
431,104,144138,2,0,P|466:101|507:108,2,71.9999978027344,2|2|0,0:0|0:0|0:0,0:0:0:0:
275,131,144652,6,0,L|269:56,1,71.9999978027344,10|2,3:0|0:0,0:0:0:0:
190,143,144995,2,0,L|184:68,1,71.9999978027344,2|10,0:0|0:0,0:0:0:0:
109,160,145338,1,10,3:0:0:0:
101,82,145510,1,2,0:0:0:0:
44,204,145681,6,0,P|102:242|167:218,1,143.999995605469,6|8,0:0|3:0,0:0:0:0:
190,143,146195,1,0,0:0:0:0:
215,279,146367,2,0,P|240:244|243:204,1,71.9999978027344,2|10,0:0|0:0,0:0:0:0:
109,160,146710,1,10,3:0:0:0:
109,160,147052,6,0,L|100:75,1,71.9999978027344,2|2,0:0|0:0,0:0:0:0:
182,32,147395,2,0,L|189:103,1,71.9999978027344,10|0,3:0|0:0,0:0:0:0:
226,227,147738,2,0,L|311:236,1,71.9999978027344,2|10,0:0|0:0,0:0:0:0:
394,244,148081,1,10,3:0:0:0:
394,244,148252,1,2,0:0:0:0:
332,162,148424,6,0,P|306:226|310:326,1,143.999995605469,2|10,0:0|3:0,0:0:0:0:
145,332,149110,2,0,P|160:289|161:253,1,71.9999978027344,2|10,0:0|0:0,0:0:0:0:
110,194,149452,1,10,3:0:0:0:
207,116,149624,2,0,P|192:159|191:195,2,71.9999978027344,2|2|0,0:0|0:0|0:0,0:0:0:0:
325,51,150138,6,0,L|396:45,1,71.9999978027344,10|2,3:0|0:0,0:0:0:0:
372,134,150481,1,10,0:0:0:0:
372,134,150567,1,8,3:0:0:0:
372,134,150652,1,10,0:0:0:0:
460,220,150824,2,0,L|389:214,1,71.9999978027344,10|10,3:0|0:0,0:0:0:0:
295,232,151167,6,0,P|289:280|355:369,1,143.999995605469,6|8,0:0|3:0,0:0:0:0:
243,147,151852,2,0,P|197:134|158:142,1,71.9999978027344,2|10,0:0|0:0,0:0:0:0:
92,158,152195,2,0,P|102:93|182:50,1,143.999995605469,10|2,3:0|0:0,0:0:0:0:
163,51,153567,6,0,L|248:56,1,71.9999978027344,10|2,3:0|0:0,0:0:0:0:
304,154,153910,2,0,P|249:132|249:33,1,143.999995605469,6|10,0:0|3:0,0:0:0:0:
436,106,154595,2,0,P|471:111|507:108,1,71.9999978027344,2|10,0:0|0:0,0:0:0:0:
399,19,154938,1,10,3:0:0:0:
306,82,155110,2,0,P|300:117|303:153,2,71.9999978027344,2|2|0,0:0|0:0|0:0,0:0:0:0:
240,208,155624,6,0,L|156:206,1,71.9999978027344,10|2,3:0|0:0,0:0:0:0:
133,114,155967,2,0,L|204:113,1,71.9999978027344,2|10,0:0|0:0,0:0:0:0:
75,190,156310,1,10,3:0:0:0:
0,189,156481,1,2,0:0:0:0:
100,32,156652,6,0,L|268:29,1,143.999995605469,6|8,0:0|3:0,0:0:0:0:
334,1,157167,1,0,0:0:0:0:
301,161,157338,2,0,P|301:114|313:84,1,71.9999978027344,2|10,0:0|0:0,0:0:0:0:
420,16,157681,1,10,3:0:0:0:
420,16,158024,6,0,P|430:50|428:86,1,71.9999978027344,2|2,0:0|0:0,0:0:0:0:
301,161,158367,2,0,L|201:167,1,71.9999978027344,10|0,3:0|0:0,0:0:0:0:
265,62,158710,2,0,L|336:57,1,71.9999978027344,2|10,0:0|0:0,0:0:0:0:
376,205,159052,1,10,3:0:0:0:
301,161,159224,1,2,0:0:0:0:
456,170,159395,6,0,P|462:233|401:297,1,143.999995605469,6|10,0:0|3:0,0:0:0:0:
186,300,160081,2,0,P|145:304|86:331,1,71.9999978027344,2|10,0:0|0:0,0:0:0:0:
265,349,160424,1,10,3:0:0:0:
172,216,160595,2,0,P|213:220|272:247,2,71.9999978027344,2|2|0,0:0|0:0|0:0,0:0:0:0:
90,233,161110,6,0,P|91:191|85:136,1,71.9999978027344,10|0,3:0|0:0,0:0:0:0:
42,92,161452,1,2,0:0:0:0:
42,92,161624,1,10,0:0:0:0:
126,44,161795,1,10,3:0:0:0:
204,131,161967,1,2,0:0:0:0:
290,23,162138,6,0,B|359:17|320:64|420:52,1,120,6|8,0:0|3:0,0:0:0:0:
483,153,162824,2,0,L|467:222,1,60,2|2,0:0|0:0,0:0:0:0:
377,210,163167,2,0,L|393:279,1,60,10|0,3:0|0:0,0:0:0:0:
318,360,163510,6,0,P|286:336|189:337,1,120,6|8,0:0|3:0,0:0:0:0:
56,355,164195,2,0,P|78:317|81:278,2,60,2|8|10,0:0|0:0|3:0,0:0:0:0:
88,37,164881,6,0,P|88:91|134:164,1,120,6|8,0:0|3:0,0:0:0:0:
184,192,165395,1,0,0:0:0:0:
244,109,165567,2,0,L|320:118,1,60,2|2,0:0|0:0,0:0:0:0:
325,201,165910,2,0,L|265:193,1,60,10|0,3:0|0:0,0:0:0:0:
400,144,166252,6,0,P|417:211|390:272,1,120,6|8,0:0|3:0,0:0:0:0:
333,304,166767,1,2,0:0:0:0:
234,287,166938,2,0,P|232:331|250:365,1,60,2|2,0:0|0:0,0:0:0:0:
293,220,167281,2,0,P|295:176|277:142,1,60,10|2,3:0|0:0,0:0:0:0:
198,58,167624,6,0,B|125:47|163:100|60:78,1,120,6|8,0:0|3:0,0:0:0:0:
47,286,168310,2,0,P|45:330|63:364,1,60,2|2,0:0|0:0,0:0:0:0:
136,338,168652,2,0,P|138:294|120:260,1,60,10|2,3:0|0:0,0:0:0:0:
31,191,168995,6,0,P|78:203|167:193,1,120,6|8,0:0|3:0,0:0:0:0:
379,108,169681,2,0,L|373:176,1,60,2|2,0:0|0:0,0:0:0:0:
317,237,170024,2,0,L|323:305,1,60,10|2,3:0|0:0,0:0:0:0:
224,349,170367,6,0,P|267:304|334:299,1,120,6|8,0:0|3:0,0:0:0:0:
390,336,170881,1,2,0:0:0:0:
459,288,171052,2,0,L|453:228,1,60,2|2,0:0|0:0,0:0:0:0:
477,153,171395,2,0,L|482:93,1,60,10|2,3:0|0:0,0:0:0:0:
319,32,171738,6,0,P|256:24|181:38,1,120,6|8,0:0|3:0,0:0:0:0:
44,164,172424,1,2,0:0:0:0:
44,164,172510,1,8,3:0:0:0:
44,164,172595,1,2,0:0:0:0:
90,231,172767,2,0,P|93:273|86:313,1,60,10|10,3:0|0:0,0:0:0:0:
176,168,173110,6,0,B|249:154|216:215|316:191,1,120,6|8,0:0|3:0,0:0:0:0:
446,126,173795,2,0,P|459:80|455:45,1,60,2|2,0:0|0:0,0:0:0:0:
367,49,174138,2,0,P|354:95|358:130,1,60,10|2,3:0|0:0,0:0:0:0:
441,220,174481,6,0,P|446:263|436:363,1,120,6|8,0:0|3:0,0:0:0:0:
369,366,174995,1,2,0:0:0:0:
291,310,175167,2,0,L|214:316,1,60,2|2,0:0|0:0,0:0:0:0:
168,272,175510,2,0,L|91:266,1,60,10|2,3:0|0:0,0:0:0:0:
76,380,175852,6,0,P|101:330|104:244,1,120,6|8,0:0|3:0,0:0:0:0:
62,50,176538,2,0,L|121:54,1,60,2|2,0:0|0:0,0:0:0:0:
188,108,176881,2,0,L|247:103,1,60,10|2,3:0|0:0,0:0:0:0:
311,48,177224,5,6,0:0:0:0:
449,204,177567,2,0,L|442:335,1,120,8|2,3:0|0:0,0:0:0:0:
374,361,178081,1,2,0:0:0:0:
327,265,178252,2,0,P|292:247|248:251,1,60,10|0,3:0|0:0,0:0:0:0:
204,285,178595,6,0,P|192:225|254:166,2,135.000005149841,6|0|0,0:0|0:0|0:0,0:0:0:0:
143,355,179967,2,0,P|111:309|107:212,2,135.000005149841
253,370,181338,1,0,0:0:0:0:
416,55,182367,6,0,L|409:145,2,90.0000034332277,2|2|2,0:0|0:0|0:0,0:0:0:0:
319,93,183395,1,2,0:0:0:0:
