osu file format v14

[General]
AudioFilename: audio.mp3
AudioLeadIn: 0
PreviewTime: 139081
Countdown: 1
SampleSet: Normal
StackLeniency: 0.5
Mode: 0
LetterboxInBreaks: 0
WidescreenStoryboard: 1

[Editor]
Bookmarks: 21910,27395,30138,35110,45053,62710,63395,80195,135052,161110,179967
DistanceSpacing: 0.7
BeatDivisor: 4
GridSize: 16
TimelineZoom: 1.3

[Metadata]
Title:MTC (Different Heaven Remix)
TitleUnicode:MTC (Different Heaven Remix)
Artist:S3RL
ArtistUnicode:S3RL
Creator:Sylas
Version:Expert
Source:
Tags:english featured artist fa electronic drum and bass dnb Jodie Harling Jole Hughes
BeatmapID:1919344
BeatmapSetID:914691

[Difficulty]
HPDrainRate:6
CircleSize:3.9
OverallDifficulty:8.5
ApproachRate:9.3
SliderMultiplier:1.6
SliderTickRate:1

[Events]
//Background and Video events
0,0,"vocaloid-hatsune-miku-vokaloid-khatsune-miku-devushka-khvost.jpg",0,0
//Break Periods
2,23823,25111
2,45767,55968
2,111595,115984
//Storyboard Layer 0 (Background)
//Storyboard Layer 1 (Fail)
//Storyboard Layer 2 (Pass)
//Storyboard Layer 3 (Foreground)
//Storyboard Layer 4 (Overlay)
//Storyboard Sound Samples

[TimingPoints]
310,342.857142857143,4,1,1,10,1,0
310,-133.333333333333,4,1,1,10,0,0
652,-133.333333333333,4,1,1,20,0,0
995,-100,4,1,1,30,0,0
1338,-100,4,1,1,40,0,0
1681,-100,4,1,1,45,0,0
1938,-100,4,1,1,5,0,0
2024,-100,4,1,1,45,0,0
3310,-100,4,1,1,5,0,0
3395,-100,4,1,1,45,0,0
4681,-100,4,1,1,5,0,0
4767,-100,4,1,1,45,0,0
6052,-100,4,1,1,5,0,0
6138,-100,4,1,1,45,0,0
7424,-100,4,1,1,5,0,0
7510,-100,4,1,1,45,0,0
8795,-100,4,1,1,5,0,0
8881,-100,4,1,1,45,0,0
10167,-100,4,1,1,5,0,0
10252,-100,4,1,1,45,0,0
11538,-100,4,1,1,5,0,0
11624,-100,4,1,1,45,0,0
12652,-80,4,1,1,45,0,0
18052,-80,4,1,1,5,0,0
18138,-80,4,1,1,45,0,0
26023,-166.666666666667,4,1,1,45,0,0
26281,-166.666666666667,4,1,1,5,0,0
26366,-66.6666666666667,4,1,1,60,0,0
27652,-66.6666666666667,4,1,1,5,0,0
27738,-66.6666666666667,4,1,1,60,0,0
29024,-66.6666666666667,4,1,1,5,0,0
29109,-66.6666666666667,4,1,1,60,0,0
30395,-66.6666666666667,4,1,1,5,0,0
30481,-66.6666666666667,4,1,1,60,0,0
33138,-66.6666666666667,4,1,1,5,0,0
33224,-66.6666666666667,4,1,1,60,0,0
34510,-66.6666666666667,4,1,1,5,0,0
34594,-66.6666666666667,4,1,1,60,0,0
35881,-66.6666666666667,4,1,1,5,0,0
35967,-66.6666666666667,4,1,1,60,0,0
37252,-66.6666666666667,4,1,1,5,0,0
37338,-66.6666666666667,4,1,1,60,0,0
38624,-66.6666666666667,4,1,1,5,0,0
38710,-66.6666666666667,4,1,1,60,0,0
39737,-142.857142857143,4,1,1,60,0,0
39995,-142.857142857143,4,1,1,5,0,0
40080,-60.6060606060606,4,1,1,60,0,0
41367,-60.6060606060606,4,1,1,5,0,0
41452,-60.6060606060606,4,1,1,60,0,0
43081,-60.6060606060606,4,1,1,5,0,0
43167,-60.6060606060606,4,1,1,60,0,0
44110,-60.6060606060606,4,1,1,5,0,0
44195,-68.9655172413793,4,1,1,60,0,0
45481,-68.9655172413793,4,1,1,60,0,0
45566,-68.9655172413793,4,1,1,60,0,0
56537,-142.857142857143,4,1,1,25,0,0
57824,-142.857142857143,4,1,1,5,0,0
57909,-111.111111111111,4,1,1,30,0,0
59195,-111.111111111111,4,1,1,5,0,0
59280,-90.9090909090908,4,1,1,35,0,0
60567,-90.9090909090908,4,1,1,5,0,0
60651,-76.9230769230769,4,1,1,40,0,0
61938,-76.9230769230769,4,1,1,5,0,0
62023,-76.9230769230769,4,1,1,45,0,0
63394,-76.9230769230769,4,1,1,50,0,0
64766,-76.9230769230769,4,1,1,55,0,0
65451,-76.9230769230769,4,1,1,65,0,0
66480,-76.9230769230769,4,1,1,20,0,0
66651,-76.9230769230769,4,1,1,30,0,0
66823,-76.9230769230769,4,1,1,40,0,0
66994,-76.9230769230769,4,1,1,50,0,0
67166,-76.9230769230769,4,1,1,60,0,0
67337,-76.9230769230769,4,1,1,70,0,0
67510,-71.4285714285714,4,1,1,75,0,1
67767,-71.4285714285714,4,1,1,5,0,1
67852,-71.4285714285714,4,1,1,75,0,1
70510,-71.4285714285714,4,1,1,5,0,1
70595,-71.4285714285714,4,1,1,75,0,1
73252,-71.4285714285714,4,1,1,5,0,1
73338,-71.4285714285714,4,1,1,75,0,1
75995,-71.4285714285714,4,1,1,5,0,1
76081,-71.4285714285714,4,1,1,75,0,1
79852,-133.333333333333,4,1,1,50,0,0
80881,-71.4285714285714,4,1,1,75,0,1
81481,-71.4285714285714,4,1,1,5,0,1
81567,-71.4285714285714,4,1,1,75,0,1
84224,-71.4285714285714,4,1,1,5,0,1
84310,-71.4285714285714,4,1,1,75,0,1
86538,-66.6666666666667,4,1,1,75,0,1
86967,-66.6666666666667,4,1,1,5,0,1
87052,-71.4285714285714,4,1,1,75,0,1
88424,-83.3333333333333,4,1,1,75,0,0
89452,-66.6666666666667,4,1,1,75,0,1
90481,-133.333333333333,4,1,1,75,0,1
90738,-133.333333333333,4,1,1,5,0,1
90824,-66.6666666666667,4,1,1,75,0,1
91852,-133.333333333333,4,1,1,75,0,1
92110,-133.333333333333,4,1,1,5,0,1
92195,-66.6666666666667,4,1,1,75,0,1
93224,-133.333333333333,4,1,1,75,0,1
93481,-133.333333333333,4,1,1,5,0,1
93567,-66.6666666666667,4,1,1,75,0,1
94595,-133.333333333333,4,1,1,75,0,1
94852,-133.333333333333,4,1,1,5,0,1
94938,-66.6666666666667,4,1,1,75,0,1
95967,-133.333333333333,4,1,1,75,0,1
96224,-133.333333333333,4,1,1,5,0,1
96310,-66.6666666666667,4,1,1,75,0,1
97338,-133.333333333333,4,1,1,75,0,1
97595,-133.333333333333,4,1,1,5,0,1
97681,-66.6666666666667,4,1,1,75,0,1
98710,-133.333333333333,4,1,1,75,0,1
98967,-133.333333333333,4,1,1,5,0,1
99052,-66.6666666666667,4,1,1,75,0,1
100081,-133.333333333333,4,1,1,75,0,1
100338,-133.333333333333,4,1,1,5,0,1
100424,-76.9230769230769,4,1,1,75,0,1
108652,-100,4,1,1,75,0,1
110024,-133.333333333333,4,1,1,75,0,1
111395,-166.666666666667,4,1,1,85,0,0
116538,-142.857142857143,4,1,1,25,0,0
118167,-142.857142857143,4,1,1,5,0,0
118252,-142.857142857143,4,1,1,25,0,0
119538,-142.857142857143,4,1,1,5,0,0
119624,-142.857142857143,4,1,1,25,0,0
120910,-142.857142857143,4,1,1,5,0,0
120995,-142.857142857143,4,1,1,25,0,0
121252,-142.857142857143,4,1,1,5,0,0
121338,-142.857142857143,4,1,1,25,0,0
121938,-142.857142857143,4,1,1,5,0,0
122024,-142.857142857143,4,1,1,25,0,0
123652,-142.857142857143,4,1,1,5,0,0
123738,-142.857142857143,4,1,1,25,0,0
126395,-142.857142857143,4,1,1,5,0,0
126481,-142.857142857143,4,1,1,25,0,0
127767,-142.857142857143,4,1,1,5,0,0
127852,-76.9230769230769,4,1,1,50,0,0
133338,-71.4285714285714,4,1,1,60,0,0
140195,-71.4285714285714,4,1,1,75,0,1
140452,-71.4285714285714,4,1,1,5,0,1
140538,-71.4285714285714,4,1,1,75,0,1
143195,-71.4285714285714,4,1,1,5,0,1
143281,-71.4285714285714,4,1,1,75,0,1
145938,-71.4285714285714,4,1,1,5,0,1
146024,-71.4285714285714,4,1,1,75,0,1
148681,-71.4285714285714,4,1,1,5,0,1
148767,-71.4285714285714,4,1,1,75,0,1
152538,-133.333333333333,4,1,1,50,0,0
153567,-71.4285714285714,4,1,1,75,0,1
154167,-71.4285714285714,4,1,1,5,0,1
154252,-71.4285714285714,4,1,1,75,0,1
156910,-71.4285714285714,4,1,1,5,0,1
156995,-71.4285714285714,4,1,1,75,0,1
159224,-62.5,4,1,1,75,0,1
159652,-62.5,4,1,1,5,0,1
159738,-71.4285714285714,4,1,1,75,0,1
162138,-76.9230769230769,4,1,1,70,0,0
162395,-76.9230769230769,4,1,1,5,0,0
162481,-76.9230769230769,4,1,1,70,0,0
163767,-76.9230769230769,4,1,1,5,0,0
163852,-76.9230769230769,4,1,1,70,0,0
165138,-76.9230769230769,4,1,1,5,0,0
165224,-76.9230769230769,4,1,1,70,0,0
166510,-76.9230769230769,4,1,1,5,0,0
166595,-76.9230769230769,4,1,1,70,0,0
167881,-76.9230769230769,4,1,1,5,0,0
167967,-76.9230769230769,4,1,1,70,0,0
169252,-76.9230769230769,4,1,1,5,0,0
169338,-76.9230769230769,4,1,1,70,0,0
170624,-76.9230769230769,4,1,1,5,0,0
170710,-76.9230769230769,4,1,1,70,0,0
171995,-76.9230769230769,4,1,1,5,0,0
172081,-76.9230769230769,4,1,1,70,0,0
173367,-76.9230769230769,4,1,1,5,0,0
173452,-76.9230769230769,4,1,1,70,0,0
174738,-76.9230769230769,4,1,1,5,0,0
174824,-76.9230769230769,4,1,1,70,0,0
176110,-76.9230769230769,4,1,1,5,0,0
176195,-76.9230769230769,4,1,1,70,0,0
177481,-76.9230769230769,4,1,1,5,0,0
177567,-76.9230769230769,4,1,1,70,0,0
178595,-125,4,1,1,30,0,0

[Colours]
Combo1 : 247,155,136
Combo2 : 227,62,107
Combo3 : 240,140,218
Combo4 : 159,87,232
Combo5 : 86,130,220
Combo6 : 34,216,225
Combo7 : 156,224,131
Combo8 : 251,210,115

[HitObjects]
32,140,310,6,0,P|39:193|55:215,1,60.0000022888184,2|0,2:1|2:0,2:1:0:0:
168,157,652,2,0,P|160:103|144:81,1,60.0000022888184,2|0,2:1|2:0,2:1:0:0:
14,135,995,6,0,P|24:206|45:236,1,80,2|0,2:1|2:0,2:1:0:0:
186,157,1338,2,0,P|176:86|155:56,1,80,2|0,2:1|2:0,2:1:0:0:
89,295,1681,6,0,B|167:287|127:330|229:319,1,120,2|0,2:1|0:0,0:0:0:0:
192,245,2024,2,0,P|156:225|103:221,1,80,2|0,2:2|2:0,2:1:0:0:
108,365,2367,1,2,2:1:0:0:
265,268,2538,1,0,2:1:0:0:
43,235,2710,2,0,P|20:266|19:318,1,80,2|0,2:1|2:1,2:1:0:0:
345,290,3052,6,0,P|341:235|266:181,1,120,2|0,2:1|0:0,0:0:0:0:
223,190,3395,2,0,P|233:149|278:114,1,80,2|0,2:2|2:0,2:1:0:0:
413,170,3738,2,0,P|454:170|498:162,1,80,2|0,2:1|2:1,2:1:0:0:
286,41,4081,2,0,P|245:41|201:49,1,80,2|0,2:1|2:1,2:1:0:0:
340,236,4424,6,0,P|382:265|462:284,1,120,2|0,2:1|0:0,0:0:0:0:
502,334,4767,2,0,P|463:354|417:352,1,80,2|0,2:2|2:1,2:1:0:0:
497,220,5110,1,2,2:1:0:0:
345,335,5281,1,0,2:1:0:0:
438,159,5452,2,0,P|472:140|512:138,1,80,2|0,2:1|2:1,0:0:0:0:
252,291,5795,6,0,P|211:300|128:269,1,120,2|0,2:1|0:0,0:0:0:0:
71,237,6138,2,0,P|63:277|79:322,1,80,2|0,2:2|2:1,2:1:0:0:
204,208,6481,1,2,2:1:0:0:
130,366,6652,1,0,2:1:0:0:
124,164,6824,1,2,2:1:0:0:
222,376,6995,1,0,2:1:0:0:
206,101,7167,6,0,B|271:93|250:140|329:132,1,120,2|0,2:1|0:0,0:0:0:0:
381,88,7510,2,0,P|392:138|380:175,1,80,2|0,2:2|2:1,2:1:0:0:
312,46,7852,1,2,2:1:0:0:
338,219,8024,1,0,2:1:0:0:
377,17,8195,1,2,2:1:0:0:
267,202,8367,1,0,2:1:0:0:
461,39,8538,6,0,P|481:107|480:189,1,120,2|0,2:1|0:0,0:0:0:0:
432,209,8881,2,0,P|470:232|519:226,1,80,2|0,2:2|2:1,2:1:0:0:
395,139,9224,1,2,2:1:0:0:
451,304,9395,1,0,2:1:0:0:
301,168,9567,1,2,2:1:0:0:
357,334,9738,1,0,2:1:0:0:
191,197,9910,6,0,P|152:181|61:184,1,120,2|0,2:1|0:0,0:0:0:0:
0,191,10252,2,0,P|17:233|59:254,1,80,2|0,2:2|2:1,2:1:0:0:
189,102,10595,1,2,2:1:0:0:
129,276,10766,1,0,2:1:0:0:
287,133,10938,1,2,2:1:0:0:
228,308,11109,1,0,2:1:0:0:
107,56,11281,6,0,P|144:20|238:25,1,120,2|0,2:1|0:0,0:0:0:0:
284,8,11624,2,0,P|272:51|242:79,1,80,2|0,2:2|2:1,2:1:0:0:
34,24,11967,1,2,2:1:0:0:
213,148,12138,1,0,2:1:0:0:
41,101,12310,1,2,2:1:0:0:
287,133,12481,1,0,2:1:0:0:
11,175,12652,6,0,L|28:286,1,100,6|0,0:0|0:0,0:0:0:0:
255,74,12995,1,8,3:0:0:0:
34,23,13167,1,0,0:0:0:0:
276,225,13338,5,2,0:0:0:0:
214,2,13510,1,2,0:0:0:0:
174,249,13681,1,10,3:0:0:0:
112,26,13853,1,2,0:0:0:0:
360,185,14024,6,0,P|416:199|468:180,1,100,2|0,0:0|0:0,0:0:0:0:
183,86,14367,1,8,3:0:0:0:
347,339,14538,5,0,0:0:0:0:
409,116,14710,1,2,0:0:0:0:
245,315,14881,1,2,0:0:0:0:
307,92,15053,1,10,3:0:0:0:
440,305,15224,1,2,0:0:0:0:
131,188,15395,6,0,P|76:180|25:212,1,100,2|0,0:0|0:0,0:0:0:0:
381,129,15738,2,0,P|389:74|357:23,1,100,8|0,3:0|0:0,0:0:0:0:
89,50,16081,5,2,0:0:0:0:
151,273,16253,1,2,0:0:0:0:
191,26,16424,1,10,3:0:0:0:
253,249,16596,1,2,0:0:0:0:
6,109,16767,2,0,P|25:160|49:200,1,100,2|0,0:0|0:0,0:0:0:0:
314,342,17110,2,0,P|339:298|356:251,1,100,8|0,3:0|0:0,0:0:0:0:
172,23,17452,5,2,0:0:0:0:
249,265,17624,1,0,0:0:0:0:
443,48,17795,2,0,P|374:57|274:125,1,150,10|0,3:0|0:0,0:0:0:0:
245,150,18138,5,10,1:0:0:0:
499,117,18310,1,0,0:0:0:0:
240,55,18481,2,0,P|228:92|250:156,1,100,8|0,3:0|0:0,0:0:0:0:
299,331,18824,5,10,1:0:0:0:
55,295,18996,1,0,0:0:0:0:
343,251,19167,2,0,P|306:239|242:261,1,100,10|0,3:0|0:0,0:0:0:0:
435,215,19510,5,10,1:0:0:0:
351,2,19681,1,0,0:0:0:0:
343,251,19852,2,0,P|318:189|309:136,1,100,8|0,3:0|0:0,0:0:0:0:
339,341,20195,5,10,1:0:0:0:
231,116,20366,1,0,0:0:0:0:
218,377,20538,2,0,P|243:315|252:262,1,100,10|0,3:0|0:0,0:0:0:0:
427,36,20881,5,10,1:0:0:0:
177,44,21052,1,8,1:0:0:0:
418,249,21224,5,8,3:0:0:0:
402,6,21395,1,8,0:0:0:0:
148,152,21567,5,8,1:0:0:0:
426,173,21738,1,8,1:0:0:0:
157,24,21910,5,10,3:0:0:0:
185,301,22081,1,8,1:0:0:0:
492,114,22252,5,10,1:0:0:0:
454,118,22337,1,8,1:0:0:0:
420,133,22423,1,8,1:0:0:0:
392,157,22509,1,8,1:0:0:0:
372,188,22595,2,0,L|367:249,1,50,10|8,3:0|1:0,0:0:0:0:
258,86,22767,2,0,L|254:36,1,50,8|8,1:0|1:0,0:0:0:0:
182,269,22938,6,0,L|179:299,16,25,10|8|8|0|8|8|8|0|10|8|8|0|8|8|8|0|10,0:0|0:0|0:0|0:0|0:0|0:0|0:0|0:0|3:0|0:0|0:0|0:0|0:0|0:0|0:0|0:0|0:0,0:0:0:0:
112,193,25681,5,8,0:0:0:0:
268,277,25852,1,8,0:0:0:0:
73,269,26024,6,0,P|119:282|153:271,1,71.9999978027344,8|0,3:0|0:0,0:0:0:0:
218,207,26367,6,0,P|238:145|238:76,1,120.000004577637,14|0,0:0|0:0,0:0:0:0:
22,183,26710,1,8,3:0:0:0:
268,277,26881,2,0,P|312:229|341:166,1,120.000004577637,2|0,0:0|0:0,0:0:0:0:
72,108,27224,1,8,0:0:0:0:
270,365,27395,2,0,P|360:328|439:261,1,180.000006866455,10|0,3:0|0:0,0:0:0:0:
446,204,27738,6,0,P|433:148|457:83,1,120.000004577637,10|0,0:0|0:0,0:0:0:0:
261,45,28081,1,8,3:0:0:0:
274,73,28166,1,0,0:0:0:0:
279,101,28252,1,2,0:0:0:0:
277,131,28338,1,0,0:0:0:0:
266,159,28423,1,0,0:0:0:0:
381,31,28595,1,8,0:0:0:0:
340,244,28767,2,0,P|292:260|164:218,1,180.000006866455,10|0,3:0|0:0,0:0:0:0:
133,158,29110,6,0,P|73:151|16:171,1,120.000004577637,10|0,0:0|0:0,0:0:0:0:
318,150,29452,1,8,3:0:0:0:
80,242,29624,2,0,P|73:302|93:359,1,120.000004577637,2|0,0:0|0:0,0:0:0:0:
279,59,29967,1,8,0:0:0:0:
174,297,30138,2,0,P|270:308|361:276,1,180.000006866455,10|0,3:0|0:0,0:0:0:0:
414,234,30481,6,0,L|434:101,1,120.000004577637,10|0,0:0|0:0,0:0:0:0:
264,33,30824,1,8,3:0:0:0:
324,199,30995,2,0,L|344:332,1,120.000004577637,2|0,0:0|0:0,0:0:0:0:
392,32,31338,1,8,0:0:0:0:
234,284,31510,1,10,3:0:0:0:
192,101,31681,2,0,L|182:41,1,60.0000022888184,2|2,0:0|0:0,0:0:0:0:
73,174,31852,6,0,L|191:191,1,120.000004577637,10|0,0:0|0:0,0:0:0:0:
260,363,32195,1,8,3:0:0:0:
412,179,32367,2,0,L|293:196,1,120.000004577637,2|0,0:0|0:0,0:0:0:0:
169,359,32710,1,8,0:0:0:0:
63,82,32881,2,0,L|240:108,1,180.000006866455,10|0,3:0|0:0,0:0:0:0:
313,66,33224,6,0,P|264:37|195:28,1,120.000004577637,10|0,0:0|0:0,0:0:0:0:
236,237,33567,1,8,3:0:0:0:
366,0,33738,2,0,P|397:50|407:109,1,120.000004577637,2|0,0:0|0:0,0:0:0:0:
222,246,34081,1,8,0:0:0:0:
449,228,34252,2,0,P|496:160|489:43,1,180.000006866455,10|0,3:0|0:0,0:0:0:0:
407,109,34595,6,0,B|329:96|370:151|251:128,1,120.000004577637,14|0,0:0|0:0,0:0:0:0:
172,50,34938,1,8,3:0:0:0:
358,236,35110,1,2,0:0:0:0:
358,236,35195,1,2,0:0:0:0:
358,236,35281,1,2,0:0:0:0:
299,37,35452,1,8,0:0:0:0:
252,282,35624,2,0,B|138:263|198:343|24:309,1,180.000006866455,10|0,3:0|0:0,0:0:0:0:
102,237,35967,6,0,P|83:182|41:130,1,120.000004577637,10|0,0:0|0:0,0:0:0:0:
284,365,36310,1,8,3:0:0:0:
210,66,36481,2,0,P|203:125|177:179,1,120.000004577637,2|0,0:0|0:0,0:0:0:0:
193,382,36824,1,8,0:0:0:0:
301,100,36995,2,0,P|365:80|483:106,1,180.000006866455,10|0,3:0|0:0,0:0:0:0:
403,168,37338,6,0,P|382:225|398:325,1,120.000004577637,10|0,0:0|0:0,0:0:0:0:
436,5,37681,1,8,3:0:0:0:
265,181,37852,2,0,P|270:241|326:325,1,120.000004577637,2|0,0:0|0:0,0:0:0:0:
451,26,38195,1,8,0:0:0:0:
132,248,38367,2,0,P|171:316|284:384,1,180.000006866455,10|0,3:0|0:0,0:0:0:0:
329,365,38710,5,10,0:0:0:0:
180,161,38881,2,0,P|154:150|111:156,2,60.0000022888184,2|2|2,0:0|0:0|0:0,0:0:0:0:
237,243,39224,1,2,0:0:0:0:
237,243,39310,1,2,0:0:0:0:
237,243,39395,1,10,0:0:0:0:
190,53,39567,5,8,0:0:0:0:
157,384,39738,2,0,P|178:331|181:284,1,83.9999974365235,8|0,3:0|0:0,0:0:0:0:
237,243,40081,6,0,P|291:255|373:242,1,132.00000125885,14|0,0:0|0:0,0:0:0:0:
344,66,40424,1,8,3:0:0:0:
157,193,40595,2,0,P|146:257|158:322,1,132.00000125885,2|0,0:0|0:0,0:0:0:0:
353,61,40938,1,8,0:0:0:0:
45,252,41110,2,0,P|74:154|170:61,1,198.000001888275,10|0,3:0|0:0,0:0:0:0:
228,78,41452,6,0,P|181:11|99:6,1,132.00000125885,10|0,0:0|0:0,0:0:0:0:
135,273,41795,1,8,3:0:0:0:
307,133,41967,2,0,P|321:52|266:-9,1,132.00000125885,2|0,0:0|0:0,0:0:0:0:
139,288,42310,1,8,0:0:0:0:
379,196,42481,2,0,P|410:165|425:137,2,66.0000006294251,10|0|0,3:0|0:0|0:0,0:0:0:0:
122,203,42824,6,0,B|244:216|168:277|317:288,1,198.000001888275,10|0,0:0|0:0,0:0:0:0:
355,231,43167,5,8,3:0:0:0:
356,214,43252,1,0,0:0:0:0:
358,198,43338,1,2,0:0:0:0:
360,181,43424,1,0,0:0:0:0:
362,165,43510,1,0,0:0:0:0:
182,123,43681,1,8,0:0:0:0:
390,303,43852,2,0,P|444:272|443:137,1,198.000001888275,10|0,3:0|0:0,0:0:0:0:
387,91,44195,6,0,L|248:98,1,116.000003540039,10|0,0:0|0:0,0:0:0:0:
474,67,44538,1,10,3:0:0:0:
267,190,44710,2,0,L|128:183,1,116.000003540039,2|0,0:0|0:0,0:0:0:0:
412,10,45052,1,8,0:0:0:0:
335,330,45224,1,8,3:0:0:0:
335,330,45567,5,6,0:0:0:0:
95,312,56538,6,0,L|59:316,3,27.9999991455078,14|0|0|0,0:0|0:0|0:0|0:0,0:0:0:0:
151,250,56881,1,10,3:0:0:0:
151,250,56967,1,0,0:0:0:0:
151,250,57052,2,0,L|187:254,1,27.9999991455078
65,221,57224,2,0,L|29:225,3,27.9999991455078,10|0|0|0,0:0|0:0|0:0|0:0,0:0:0:0:
134,171,57567,2,0,P|185:163|230:173,1,83.9999974365235,10|0,3:0|0:0,0:0:0:0:
284,261,57910,5,10,0:0:0:0:
285,234,57995,1,0,0:0:0:0:
294,208,58081,1,0,0:0:0:0:
309,186,58167,1,0,0:0:0:0:
330,169,58252,2,0,L|377:176,3,35.9999989013672,10|0|0|0,3:0|0:0|0:0|0:0,0:0:0:0:
375,260,58596,5,10,0:0:0:0:
402,259,58681,1,0,0:0:0:0:
428,250,58767,1,0,0:0:0:0:
450,235,58852,1,0,0:0:0:0:
467,214,58939,2,0,P|475:163|458:106,1,107.999996704102,10|0,3:0|0:0,0:0:0:0:
367,42,59281,6,0,L|313:32,3,44.0000013427735,10|0|0|0,0:0|0:0|0:0|0:0,0:0:0:0:
250,76,59624,1,10,3:0:0:0:
250,76,59710,1,0,0:0:0:0:
250,76,59795,2,0,L|196:86,1,44.0000013427735
128,38,59967,2,0,L|74:28,3,44.0000013427735,10|0|0|0,0:0|0:0|0:0|0:0,0:0:0:0:
24,96,60310,2,0,P|37:139|44:240,1,132.00000402832,10|0,3:0|0:0,0:0:0:0:
39,319,60652,5,10,0:0:0:0:
64,322,60737,1,0,0:0:0:0:
90,326,60823,1,0,0:0:0:0:
116,330,60909,1,0,0:0:0:0:
141,334,60995,2,0,L|199:341,3,51.999997619629,10|0|0|0,3:0|0:0|0:0|0:0,0:0:0:0:
263,275,61338,5,10,0:0:0:0:
288,271,61423,1,0,0:0:0:0:
314,267,61509,1,0,0:0:0:0:
340,263,61595,1,0,0:0:0:0:
364,262,61681,2,0,P|386:201|394:107,1,155.999992858887,10|0,3:0|0:0,0:0:0:0:
375,5,62024,5,14,0:0:0:0:
506,98,62195,1,8,0:0:0:0:
282,109,62367,5,10,3:0:0:0:
442,51,62538,1,8,0:0:0:0:
257,21,62710,5,10,0:0:0:0:
432,129,62881,1,8,0:0:0:0:
202,172,63052,5,10,3:0:0:0:
367,83,63224,1,8,0:0:0:0:
127,138,63395,5,10,0:0:0:0:
213,258,63567,1,8,0:0:0:0:
198,91,63738,5,10,3:0:0:0:
132,300,63910,1,8,0:0:0:0:
118,50,64081,5,10,0:0:0:0:
213,258,64252,1,8,0:0:0:0:
190,7,64424,5,10,3:0:0:0:
132,300,64595,1,8,0:0:0:0:
290,36,64767,5,14,0:0:0:0:
328,32,64852,1,8,0:0:0:0:
366,40,64938,1,10,0:0:0:0:
401,58,65024,1,8,0:0:0:0:
429,85,65110,2,0,L|486:85,1,51.999997619629,10|8,3:0|0:0,0:0:0:0:
265,167,65281,2,0,L|213:167,1,51.999997619629,10|8,0:0|0:0,0:0:0:0:
430,193,65452,5,10,0:0:0:0:
434,231,65537,1,8,0:0:0:0:
426,269,65623,1,10,0:0:0:0:
408,304,65709,1,8,0:0:0:0:
381,332,65795,2,0,L|381:389,1,51.999997619629,10|8,3:0|0:0,0:0:0:0:
265,167,65967,2,0,L|265:115,1,51.999997619629,10|8,0:0|0:0,0:0:0:0:
157,289,66138,5,10,0:0:0:0:
157,289,66481,5,2,0:0:0:0:
302,253,66652,1,2,0:0:0:0:
88,224,66824,5,2,0:0:0:0:
242,374,66995,2,0,L|247:321,1,51.999997619629,10|0,0:0|0:0,0:0:0:0:
264,67,67167,5,10,3:0:0:0:
157,289,67338,1,2,0:0:0:0:
428,137,67510,6,0,B|316:123|385:189|230:172,1,167.999994873047,6|0,0:0|0:0,0:0:0:0:
204,134,67852,2,0,L|80:143,1,111.999996582031,8|0,3:0|0:0,0:0:0:0:
438,58,68195,5,2,0:0:0:0:
347,294,68367,1,10,0:0:0:0:
332,21,68538,1,10,3:0:0:0:
332,21,68881,5,2,0:0:0:0:
483,172,69052,1,2,0:0:0:0:
236,58,69224,2,0,L|112:67,1,111.999996582031,10|0,3:0|0:0,0:0:0:0:
390,243,69567,1,2,0:0:0:0:
428,24,69738,1,10,0:0:0:0:
212,231,69910,5,10,3:0:0:0:
483,172,70081,1,2,0:0:0:0:
127,184,70252,2,0,P|120:271|187:319,1,167.999994873047,2|0,0:0|0:0,0:0:0:0:
255,298,70595,6,0,P|321:287|366:298,1,111.999996582031,10|0,3:0|0:0,0:0:0:0:
37,191,70938,1,2,0:0:0:0:
222,380,71110,1,10,0:0:0:0:
195,62,71281,5,10,3:0:0:0:
107,331,71452,1,2,0:0:0:0:
289,80,71624,2,0,L|431:92,1,111.999996582031,2|0,0:0|0:0,0:0:0:0:
140,141,71967,5,10,3:0:0:0:
390,290,72138,1,2,0:0:0:0:
134,148,72310,5,2,0:0:0:0:
434,177,72481,1,10,0:0:0:0:
134,157,72652,5,10,3:0:0:0:
427,59,72823,1,2,0:0:0:0:
233,288,72995,6,0,P|261:215|269:91,1,167.999994873047,6|0,0:0|0:0,0:0:0:0:
230,59,73338,2,0,L|89:45,1,111.999996582031,8|0,3:0|0:0,0:0:0:0:
336,279,73681,5,2,0:0:0:0:
78,149,73852,1,10,0:0:0:0:
276,376,74024,1,10,3:0:0:0:
276,376,74367,5,2,0:0:0:0:
319,109,74538,1,2,0:0:0:0:
138,318,74710,2,0,P|81:333|25:320,1,111.999996582031,10|0,3:0|0:0,0:0:0:0:
359,224,75052,5,2,0:0:0:0:
88,216,75224,1,10,0:0:0:0:
391,331,75395,5,10,3:0:0:0:
319,109,75567,1,2,0:0:0:0:
233,360,75738,2,0,P|235:284|201:200,1,167.999994873047,2|0,0:0|0:0,0:0:0:0:
139,157,76081,6,0,L|299:169,1,111.999996582031,10|0,3:0|0:0,0:0:0:0:
40,66,76424,1,2,0:0:0:0:
103,270,76595,1,10,0:0:0:0:
175,26,76767,5,10,3:0:0:0:
5,266,76938,1,2,0:0:0:0:
337,203,77110,2,0,P|340:148|306:81,1,111.999996582031,2|0,0:0|0:0,0:0:0:0:
173,358,77452,5,10,3:0:0:0:
114,52,77624,1,2,0:0:0:0:
297,339,77795,1,10,0:0:0:0:
297,339,77881,1,8,3:0:0:0:
297,339,77967,1,10,0:0:0:0:
238,33,78138,5,10,3:0:0:0:
173,358,78310,1,10,0:0:0:0:
363,44,78481,6,0,P|352:138|468:89,1,223.999993164063,6|8,0:0|3:0,0:0:0:0:
454,135,79167,1,2,0:0:0:0:
153,146,79338,1,10,0:0:0:0:
462,262,79510,1,10,3:0:0:0:
462,262,79852,5,2,0:0:0:0:
386,254,80024,1,2,0:0:0:0:
419,325,80195,1,2,0:0:0:0:
419,325,80538,2,0,L|412:389,1,60.0000022888184,2|0,0:0|0:0,0:0:0:0:
459,109,80881,5,10,3:0:0:0:
330,326,81052,1,2,0:0:0:0:
170,46,81224,6,0,P|239:76|319:192,1,167.999994873047,6|0,0:0|0:0,0:0:0:0:
297,220,81567,2,0,L|176:239,1,111.999996582031,10|0,3:0|0:0,0:0:0:0:
406,236,81910,5,2,0:0:0:0:
156,161,82081,1,10,0:0:0:0:
381,53,82252,5,10,3:0:0:0:
285,344,82424,1,2,0:0:0:0:
269,31,82595,2,0,P|279:88|307:142,1,111.999996582031,2|0,0:0|0:0,0:0:0:0:
129,330,82938,5,10,3:0:0:0:
409,286,83110,1,2,0:0:0:0:
121,325,83281,5,2,0:0:0:0:
356,166,83453,1,10,0:0:0:0:
113,323,83624,5,10,3:0:0:0:
258,79,83796,1,2,0:0:0:0:
43,220,83967,6,0,B|142:203|94:266|231:238,1,167.999994873047,6|0,0:0|0:0,0:0:0:0:
273,200,84310,2,0,P|229:166|174:167,1,111.999996582031,8|0,3:0|0:0,0:0:0:0:
373,378,84652,5,2,0:0:0:0:
344,51,84824,1,10,0:0:0:0:
245,364,84995,1,10,3:0:0:0:
245,364,85338,5,2,0:0:0:0:
458,321,85510,1,2,0:0:0:0:
162,306,85681,2,0,L|35:294,1,111.999996582031,10|0,3:0|0:0,0:0:0:0:
333,118,86024,5,2,0:0:0:0:
245,364,86195,1,10,0:0:0:0:
128,68,86367,5,10,3:0:0:0:
454,185,86538,1,2,0:0:0:0:
40,215,86710,2,0,B|6:226|-19:152|108:169|170:208,1,180.000006866455,6|0,0:0|0:0,0:0:0:0:
228,233,87052,6,0,P|310:244|349:241,1,111.999996582031,10|0,3:0|0:0,0:0:0:0:
70,82,87395,1,2,0:0:0:0:
156,307,87567,1,10,0:0:0:0:
277,39,87738,5,10,3:0:0:0:
48,262,87910,1,2,0:0:0:0:
402,146,88081,1,2,0:0:0:0:
402,146,88424,6,0,L|386:274,1,95.9999970703126,10|2,3:0|0:0,0:0:0:0:
292,185,88767,2,0,L|303:89,1,95.9999970703126,2|10,0:0|0:0,0:0:0:0:
508,117,89110,1,10,3:0:0:0:
390,241,89281,1,2,0:0:0:0:
175,51,89452,5,6,0:0:0:0:
132,37,89537,1,2,0:0:0:0:
89,47,89623,1,2,0:0:0:0:
57,78,89709,1,2,0:0:0:0:
45,121,89795,1,2,0:0:0:0:
57,164,89880,1,2,0:0:0:0:
89,195,89966,1,2,0:0:0:0:
132,205,90052,1,2,0:0:0:0:
175,191,90137,1,10,0:0:0:0:
218,177,90223,1,2,0:0:0:0:
262,173,90309,1,10,0:0:0:0:
307,179,90395,1,2,0:0:0:0:
349,195,90481,6,0,P|359:243|357:297,1,90.0000034332277,10|0,3:0|0:0,0:0:0:0:
275,356,90824,5,6,0:0:0:0:
275,356,90910,1,2,0:0:0:0:
275,356,90995,2,0,L|187:365,1,60.0000022888184,2|0,0:0|0:0,0:0:0:0:
452,300,91167,5,10,3:0:0:0:
452,300,91253,1,2,0:0:0:0:
452,300,91338,2,0,L|540:309,1,60.0000022888184,2|0,0:0|0:0,0:0:0:0:
225,263,91510,5,10,0:0:0:0:
225,263,91596,1,2,0:0:0:0:
225,263,91681,2,0,L|137:272,1,60.0000022888184,10|0,0:0|0:0,0:0:0:0:
349,195,91852,6,0,L|444:204,1,90.0000034332277,10|0,3:0|0:0,0:0:0:0:
311,110,92195,5,6,0:0:0:0:
273,134,92280,1,2,0:0:0:0:
251,172,92366,1,2,0:0:0:0:
250,217,92452,1,2,0:0:0:0:
269,258,92538,1,10,3:0:0:0:
307,233,92623,1,2,0:0:0:0:
329,195,92709,1,2,0:0:0:0:
330,150,92795,1,2,0:0:0:0:
311,110,92882,1,10,0:0:0:0:
271,91,92967,1,2,0:0:0:0:
226,92,93053,1,10,0:0:0:0:
188,114,93139,1,2,0:0:0:0:
163,151,93224,6,0,P|112:175|53:179,1,90.0000034332277,10|0,3:0|0:0,0:0:0:0:
18,87,93567,5,6,0:0:0:0:
18,87,93652,1,2,0:0:0:0:
18,87,93738,2,0,P|32:47|33:16,1,60.0000022888184,2|0,0:0|0:0,0:0:0:0:
38,273,93910,5,10,3:0:0:0:
38,273,93995,1,2,0:0:0:0:
38,273,94081,2,0,P|52:313|53:344,1,60.0000022888184,2|0,0:0|0:0,0:0:0:0:
139,70,94252,5,10,0:0:0:0:
139,70,94337,1,0,0:0:0:0:
139,70,94424,2,0,P|153:30|154:-1,1,60.0000022888184,10|0,0:0|0:0,0:0:0:0:
153,254,94595,6,0,P|209:260|254:287,1,90.0000034332277,10|0,3:0|0:0,0:0:0:0:
305,362,94938,5,6,0:0:0:0:
326,322,95023,1,2,0:0:0:0:
332,278,95109,1,2,0:0:0:0:
321,234,95195,1,2,0:0:0:0:
299,195,95280,1,10,3:0:0:0:
279,155,95366,1,2,0:0:0:0:
271,111,95452,1,2,0:0:0:0:
279,67,95538,1,2,0:0:0:0:
299,27,95624,1,10,0:0:0:0:
320,68,95710,1,2,0:0:0:0:
327,112,95796,1,10,0:0:0:0:
320,156,95882,1,2,0:0:0:0:
299,195,95967,6,0,P|258:213|214:215,1,90.0000034332277,10|0,3:0|0:0,0:0:0:0:
103,140,96310,5,6,0:0:0:0:
103,140,96395,1,2,0:0:0:0:
103,140,96481,2,0,L|100:74,1,60.0000022888184,2|0,0:0|0:0,0:0:0:0:
210,274,96652,5,10,3:0:0:0:
210,274,96737,1,0,0:0:0:0:
210,274,96824,2,0,L|213:208,1,60.0000022888184,2|0,0:0|0:0,0:0:0:0:
329,110,96995,5,10,0:0:0:0:
329,110,97080,1,2,0:0:0:0:
329,110,97167,2,0,L|326:44,1,60.0000022888184,10|0,0:0|0:0,0:0:0:0:
413,300,97338,6,0,L|417:195,1,90.0000034332277,10|0,3:0|0:0,0:0:0:0:
486,150,97681,5,6,0:0:0:0:
448,126,97766,1,2,0:0:0:0:
404,122,97852,1,2,0:0:0:0:
362,139,97938,1,2,0:0:0:0:
334,173,98025,1,10,3:0:0:0:
305,207,98110,1,2,0:0:0:0:
264,224,98196,1,2,0:0:0:0:
219,220,98282,1,2,0:0:0:0:
182,196,98367,1,10,0:0:0:0:
206,233,98452,1,2,0:0:0:0:
210,278,98538,1,10,0:0:0:0:
193,319,98624,1,2,0:0:0:0:
159,348,98710,6,0,L|57:357,1,90.0000034332277,10|0,3:0|0:0,0:0:0:0:
293,257,99052,5,6,0:0:0:0:
337,251,99137,1,2,0:0:0:0:
380,261,99223,1,2,0:0:0:0:
417,287,99309,1,2,0:0:0:0:
441,324,99396,1,10,3:0:0:0:
397,330,99481,1,2,0:0:0:0:
354,320,99567,1,2,0:0:0:0:
317,294,99653,1,2,0:0:0:0:
293,257,99738,1,10,0:0:0:0:
269,220,99823,1,10,0:0:0:0:
232,194,99909,1,10,0:0:0:0:
189,184,99995,1,2,0:0:0:0:
145,190,100081,6,0,P|97:210|46:220,1,90.0000034332277,10|0,3:0|0:0,0:0:0:0:
38,134,100424,5,6,0:0:0:0:
38,134,100510,1,2,0:0:0:0:
38,134,100596,2,0,L|49:67,1,51.999997619629,2|0,0:0|0:0,0:0:0:0:
168,90,100767,5,10,3:0:0:0:
168,90,100853,1,2,0:0:0:0:
168,90,100939,2,0,L|157:23,1,51.999997619629,2|0,0:0|0:0,0:0:0:0:
277,151,101110,6,0,L|288:84,1,51.999997619629,10|2,0:0|0:0,0:0:0:0:
403,111,101281,2,0,L|392:44,1,51.999997619629,10|0,0:0|0:0,0:0:0:0:
327,245,101452,5,8,3:0:0:0:
335,253,101795,5,6,0:0:0:0:
335,253,101881,1,2,0:0:0:0:
335,253,101967,2,0,P|323:301|334:332,1,51.999997619629,2|0,0:0|0:0,0:0:0:0:
222,249,102138,5,10,3:0:0:0:
222,249,102224,1,2,0:0:0:0:
222,249,102310,2,0,P|179:274|165:304,1,51.999997619629,2|0,0:0|0:0,0:0:0:0:
135,184,102481,6,0,P|87:172|56:183,1,51.999997619629,10|2,0:0|0:0,0:0:0:0:
134,96,102652,2,0,P|108:53|78:39,1,51.999997619629,10|0,0:0|0:0,0:0:0:0:
220,135,102824,5,8,3:0:0:0:
220,135,103167,5,6,0:0:0:0:
254,116,103252,1,2,0:0:0:0:
292,109,103338,1,2,0:0:0:0:
331,113,103424,1,0,0:0:0:0:
366,128,103510,1,10,3:0:0:0:
381,163,103595,1,2,0:0:0:0:
385,202,103681,1,2,0:0:0:0:
378,240,103767,1,0,0:0:0:0:
360,274,103852,6,0,L|275:282,1,51.999997619629,10|0,0:0|0:0,0:0:0:0:
229,229,104024,2,0,L|177:224,1,51.999997619629,10|0,0:0|0:0,0:0:0:0:
110,281,104195,5,10,3:0:0:0:
110,281,104538,5,6,0:0:0:0:
97,258,104623,1,0,0:0:0:0:
92,233,104709,1,2,0:0:0:0:
95,207,104795,1,0,0:0:0:0:
105,183,104881,1,10,3:0:0:0:
115,159,104966,1,0,0:0:0:0:
118,133,105052,1,2,0:0:0:0:
113,108,105138,1,0,0:0:0:0:
101,86,105224,6,0,L|105:22,1,51.999997619629,10|0,0:0|0:0,0:0:0:0:
185,12,105395,2,0,L|181:63,1,51.999997619629,10|0,0:0|0:0,0:0:0:0:
240,134,105567,5,10,3:0:0:0:
240,134,105910,6,0,P|283:123|320:128,3,51.999997619629,6|2|2|0,0:0|0:0|0:0|0:0,0:0:0:0:
355,79,106252,2,0,P|398:90|435:85,3,51.999997619629,10|2|2|0,3:0|0:0|0:0|0:0,0:0:0:0:
443,166,106595,6,0,P|432:209|437:246,1,51.999997619629,10|2,0:0|0:0,0:0:0:0:
353,241,106767,2,0,P|364:284|359:321,1,51.999997619629,10|0,0:0|0:0,0:0:0:0:
428,343,106938,5,10,3:0:0:0:
428,343,107281,2,0,L|340:336,3,51.999997619629,6|2|2|0,0:0|0:0|0:0|0:0,0:0:0:0:
298,366,107624,2,0,L|210:373,3,51.999997619629,10|2|2|0,3:0|0:0|0:0|0:0,0:0:0:0:
170,332,107967,6,0,L|177:244,1,51.999997619629,10|2,0:0|0:0,0:0:0:0:
230,224,108138,2,0,L|223:136,1,51.999997619629,10|0,0:0|0:0,0:0:0:0:
168,123,108310,5,10,3:0:0:0:
168,123,108652,6,0,P|128:118|102:128,3,40,6|2|2|0,0:0|0:0|0:0|0:0,0:0:0:0:
86,187,108995,2,0,P|46:192|20:182,3,40,10|2|2|0,3:0|0:0|0:0|0:0,0:0:0:0:
16,119,109338,5,10,0:0:0:0:
70,269,109510,1,10,0:0:0:0:
95,39,109681,5,10,3:0:0:0:
95,39,110024,2,0,L|50:42,2,30.0000011444092,6|0|2,0:0|0:0|0:0,0:0:0:0:
262,73,110367,2,0,L|307:76,2,30.0000011444092,10|0|2,3:0|0:0|0:0,0:0:0:0:
101,140,110710,2,0,L|39:144,1,60.0000022888184,10|10,0:0|0:0,0:0:0:0:
179,51,111052,1,10,3:0:0:0:
139,224,111224,1,0,0:0:0:0:
363,120,111395,5,4,0:0:0:0:
71,147,116538,5,2,2:1:0:0:
10,213,116881,2,0,P|58:240|122:224,1,111.999996582031,2|0,2:1|2:1,2:1:0:0:
170,165,117395,2,0,P|194:151|226:154,1,55.9999982910157,2|0,2:1|2:1,0:0:0:0:
237,162,117652,1,0,2:1:0:0:
237,162,117738,1,0,2:1:0:0:
343,123,117910,2,0,P|328:159|333:216,1,83.9999974365235,2|0,2:1|0:0,2:1:0:0:
345,221,118252,6,0,L|461:212,1,111.999996582031,2|0,2:1|2:1,2:1:0:0:
447,35,118767,2,0,L|335:43,1,111.999996582031,2|0,2:1|2:1,2:1:0:0:
254,151,119281,2,0,L|170:157,1,83.9999974365235,2|0,2:1|0:0,2:1:0:0:
156,153,119624,6,0,P|118:126|52:107,1,111.999996582031,2|0,2:1|2:1,2:1:0:0:
0,265,120138,2,0,P|38:292|104:311,1,111.999996582031,2|0,2:1|2:1,2:1:0:0:
223,228,120652,2,0,P|255:205|311:188,1,83.9999974365235,2|0,2:1|0:0,2:1:0:0:
321,195,120995,6,0,P|359:212|422:200,1,83.9999974365235,2|0,2:1|2:1,2:1:0:0:
424,192,121338,1,2,0:0:0:0:
424,192,121424,2,0,L|419:143,1,27.9999991455078,2|2,2:1|2:1,0:0:0:0:
471,94,121595,2,0,P|417:80|365:98,1,111.999996582031,2|0,2:1|0:0,0:0:0:0:
345,115,122024,1,2,2:1:0:0:
207,60,122367,6,0,P|222:115|225:180,1,111.999996582031,2|0,2:1|2:1,2:1:0:0:
46,168,122881,2,0,P|86:127|140:92,1,111.999996582031,2|0,2:1|2:1,2:1:0:0:
214,259,123395,2,0,P|170:247|124:223,1,83.9999974365235,2|0,2:1|0:0,2:1:0:0:
118,224,123738,6,0,P|132:280|133:357,1,111.999996582031,2|0,2:1|2:1,2:1:0:0:
310,307,124252,2,0,P|296:251|295:174,1,111.999996582031,2|0,2:1|2:1,2:1:0:0:
395,120,124767,1,2,2:1:0:0:
422,123,124852,1,0,2:1:0:0:
450,127,124938,1,0,2:1:0:0:
327,47,125110,6,0,P|267:77|207:83,1,111.999996582031,2|0,2:1|2:1,2:1:0:0:
30,39,125624,2,0,P|84:48|133:75,1,111.999996582031,2|0,2:1|2:1,2:1:0:0:
176,168,126138,2,0,L|165:275,1,83.9999974365235,2|0,2:1|0:0,2:1:0:0:
162,269,126481,6,0,L|101:278,1,55.9999982910157,2|0,2:1|2:1,2:1:0:0:
258,226,126824,1,2,2:1:0:0:
98,363,126995,2,0,L|221:344,1,111.999996582031,2|0,2:1|2:1,2:1:0:0:
377,186,127510,2,0,P|397:143|381:85,1,83.9999974365235,2|0,2:1|0:0,0:0:0:0:
319,134,127852,6,0,L|430:127,1,103.999995239258,6|0,0:0|0:0,0:0:0:0:
128,194,128195,2,0,L|16:187,1,103.999995239258,8|2,3:0|0:0,0:0:0:0:
217,38,128538,5,2,0:0:0:0:
182,294,128710,1,2,0:0:0:0:
125,27,128881,1,10,3:0:0:0:
90,284,129053,1,2,0:0:0:0:
286,113,129224,6,0,P|312:66|316:9,1,103.999995239258,2|0,0:0|0:0,0:0:0:0:
151,197,129567,2,0,P|156:248|181:293,1,103.999995239258,8|0,3:0|0:0,0:0:0:0:
398,69,129910,5,2,0:0:0:0:
137,109,130081,1,2,0:0:0:0:
412,157,130252,1,10,3:0:0:0:
151,197,130423,1,2,0:0:0:0:
322,314,130595,6,0,L|345:194,1,103.999995239258,2|0,0:0|0:0,0:0:0:0:
48,165,130938,2,0,L|67:267,1,103.999995239258,8|0,3:0|0:0,0:0:0:0:
291,133,131281,5,2,0:0:0:0:
233,353,131452,1,2,0:0:0:0:
202,104,131624,1,10,3:0:0:0:
144,324,131795,1,2,0:0:0:0:
369,94,131967,6,0,P|430:91|485:124,1,103.999995239258,2|2,0:0|0:0,0:0:0:0:
125,224,132310,2,0,P|73:228|26:209,1,103.999995239258,10|2,3:0|0:0,0:0:0:0:
254,32,132652,5,2,0:0:0:0:
368,228,132823,1,2,0:0:0:0:
170,74,132995,1,10,3:0:0:0:
284,270,133166,1,2,0:0:0:0:
486,51,133338,6,0,L|361:35,1,111.999996582031,10|0,1:0|0:0,0:0:0:0:
284,270,133681,2,0,L|395:284,1,111.999996582031,8|2,3:0|0:0,0:0:0:0:
172,79,134024,5,10,1:0:0:0:
211,313,134195,1,8,0:0:0:0:
294,112,134367,2,0,L|308:0,1,111.999996582031,10|0,3:0|0:0,0:0:0:0:
72,229,134710,5,10,1:0:0:0:
271,196,134881,1,0,0:0:0:0:
109,132,135052,2,0,P|155:187|181:271,1,111.999996582031,8|2,3:0|0:0,0:0:0:0:
345,284,135395,5,10,1:0:0:0:
216,60,135567,1,8,0:0:0:0:
108,314,135738,2,0,P|145:272|170:222,1,111.999996582031,10|0,3:0|0:0,0:0:0:0:
316,44,136081,5,10,1:0:0:0:
162,125,136252,1,8,1:0:0:0:
353,124,136424,5,8,3:0:0:0:
138,44,136595,1,8,0:0:0:0:
401,48,136767,5,8,1:0:0:0:
162,125,136938,1,8,1:0:0:0:
447,131,137110,5,10,3:0:0:0:
138,44,137281,1,8,1:0:0:0:
487,61,137452,5,10,1:0:0:0:
458,91,137537,1,8,1:0:0:0:
447,131,137623,1,8,1:0:0:0:
453,172,137709,1,8,1:0:0:0:
476,207,137795,1,8,3:0:0:0:
499,241,137881,1,8,1:0:0:0:
505,282,137967,1,10,1:0:0:0:
493,322,138053,1,8,1:0:0:0:
465,353,138138,2,0,L|435:355,16,27.9999991455078,10|8|8|0|8|8|8|0|10|8|8|0|8|8|8|0|10,0:0|0:0|0:0|0:0|0:0|0:0|0:0|0:0|3:0|0:0|0:0|0:0|0:0|0:0|0:0|0:0|0:0,0:0:0:0:
355,258,139167,5,2,0:0:0:0:
325,325,139338,1,2,0:0:0:0:
213,164,139510,5,2,0:0:0:0:
211,315,139681,1,2,0:0:0:0:
57,125,139852,5,10,0:0:0:0:
122,365,140024,1,8,0:0:0:0:
122,365,140110,1,8,0:0:0:0:
122,365,140195,6,0,B|115:274|153:173,1,167.999994873047,6|0,0:0|0:0,0:0:0:0:
213,164,140538,2,0,L|358:163,1,111.999996582031,8|0,3:0|0:0,0:0:0:0:
106,56,140881,5,2,0:0:0:0:
262,308,141052,1,10,0:0:0:0:
229,4,141224,1,10,3:0:0:0:
229,4,141567,5,2,0:0:0:0:
68,134,141738,1,2,0:0:0:0:
337,76,141910,2,0,L|451:89,1,111.999996582031,10|0,3:0|0:0,0:0:0:0:
196,241,142252,1,2,0:0:0:0:
138,17,142424,1,10,0:0:0:0:
351,168,142595,5,10,3:0:0:0:
64,215,142767,1,2,0:0:0:0:
337,76,142938,2,0,P|415:100|432:214,1,167.999994873047,2|0,0:0|0:0,0:0:0:0:
391,241,143281,6,0,P|383:317|390:369,1,111.999996582031,10|0,3:0|0:0,0:0:0:0:
256,96,143624,1,2,0:0:0:0:
476,269,143795,1,10,0:0:0:0:
191,290,143967,5,10,3:0:0:0:
444,175,144138,1,2,0:0:0:0:
128,225,144310,2,0,P|66:217|10:200,1,111.999996582031,2|0,0:0|0:0,0:0:0:0:
339,74,144652,5,10,3:0:0:0:
250,355,144824,1,2,0:0:0:0:
348,74,144995,5,2,0:0:0:0:
148,291,145167,1,10,0:0:0:0:
357,77,145338,5,10,3:0:0:0:
85,184,145510,1,2,0:0:0:0:
452,101,145681,6,0,B|417:181|491:172|446:298,1,167.999994873047,6|0,0:0|0:0,0:0:0:0:
437,336,146024,2,0,L|314:350,1,111.999996582031,8|0,3:0|0:0,0:0:0:0:
213,46,146367,5,2,0:0:0:0:
234,343,146538,1,10,0:0:0:0:
357,77,146710,1,10,3:0:0:0:
357,77,147052,5,2,0:0:0:0:
82,132,147224,1,2,0:0:0:0:
352,242,147395,2,0,P|409:246|471:238,1,111.999996582031,10|0,3:0|0:0,0:0:0:0:
169,127,147738,1,2,0:0:0:0:
234,343,147910,1,10,0:0:0:0:
271,59,148081,5,10,3:0:0:0:
89,237,148252,1,2,0:0:0:0:
409,217,148424,2,0,P|347:177|220:150,1,167.999994873047,2|0,0:0|0:0,0:0:0:0:
191,192,148767,2,0,P|126:226|88:238,1,111.999996582031,10|0,3:0|0:0,0:0:0:0:
333,277,149110,1,2,0:0:0:0:
84,130,149281,1,10,0:0:0:0:
398,101,149452,5,10,3:0:0:0:
246,342,149624,1,2,0:0:0:0:
176,61,149795,1,2,0:0:0:0:
176,61,150138,5,10,3:0:0:0:
467,145,150310,1,2,0:0:0:0:
146,201,150481,1,10,0:0:0:0:
146,201,150567,1,8,3:0:0:0:
146,201,150652,1,10,0:0:0:0:
446,265,150824,5,10,3:0:0:0:
176,61,150995,1,10,0:0:0:0:
288,350,151167,6,0,P|331:272|330:111,1,223.999993164063,6|8,0:0|3:0,0:0:0:0:
339,140,151852,5,2,0:0:0:0:
37,223,152024,1,10,0:0:0:0:
300,71,152195,1,10,3:0:0:0:
300,71,152538,5,2,0:0:0:0:
376,72,152710,1,2,0:0:0:0:
339,140,152881,1,2,0:0:0:0:
339,140,153224,2,0,L|345:221,1,60.0000022888184,2|0,0:0|0:0,0:0:0:0:
145,35,153567,5,10,3:0:0:0:
428,170,153738,1,2,0:0:0:0:
5,86,153910,6,0,B|108:66|62:150|194:121,1,167.999994873047,6|0,0:0|0:0,0:0:0:0:
217,72,154252,2,0,P|240:122|207:192,1,111.999996582031,10|0,3:0|0:0,0:0:0:0:
47,260,154595,1,2,0:0:0:0:
331,120,154767,1,10,0:0:0:0:
14,96,154938,5,10,3:0:0:0:
180,349,155110,1,2,0:0:0:0:
266,45,155281,2,0,P|245:122|256:185,1,111.999996582031,2|0,0:0|0:0,0:0:0:0:
100,353,155624,5,10,3:0:0:0:
425,263,155795,1,2,0:0:0:0:
100,344,155967,5,2,0:0:0:0:
357,120,156138,1,10,0:0:0:0:
94,333,156310,5,10,3:0:0:0:
231,19,156481,1,2,0:0:0:0:
239,353,156652,6,0,P|229:267|181:180,1,167.999994873047,6|0,0:0|0:0,0:0:0:0:
116,170,156995,2,0,L|-6:182,1,111.999996582031,8|0,3:0|0:0,0:0:0:0:
403,261,157338,5,2,0:0:0:0:
54,282,157510,1,10,0:0:0:0:
359,121,157681,1,10,3:0:0:0:
359,121,158024,5,2,0:0:0:0:
194,349,158195,1,2,0:0:0:0:
260,70,158367,2,0,P|255:144|275:222,1,111.999996582031,10|0,3:0|0:0,0:0:0:0:
342,321,158710,1,2,0:0:0:0:
155,154,158881,1,10,0:0:0:0:
272,375,159052,5,10,3:0:0:0:
316,18,159224,1,2,0:0:0:0:
66,231,159395,2,0,B|8:263|61:311|132:304|195:254,1,192,6|0,0:0|0:0,0:0:0:0:
218,198,159738,6,0,P|222:135|188:46,1,111.999996582031,10|0,3:0|0:0,0:0:0:0:
187,355,160081,1,2,0:0:0:0:
339,178,160252,1,10,0:0:0:0:
54,146,160424,5,10,3:0:0:0:
346,308,160595,1,2,0:0:0:0:
117,43,160767,6,0,P|35:36|-14:56,1,111.999996582031,2|0,0:0|0:0,0:0:0:0:
244,267,161110,2,0,P|255:212|245:157,1,111.999996582031,10|0,3:0|0:0,0:0:0:0:
227,137,161367,1,0,0:0:0:0:
227,137,161452,5,2,0:0:0:0:
130,346,161624,1,10,0:0:0:0:
419,214,161795,1,10,3:0:0:0:
40,216,161967,1,2,0:0:0:0:
369,335,162138,6,0,B|385:241|323:282|349:171,1,155.999992858887,6|0,0:0|0:0,0:0:0:0:
388,121,162481,2,0,P|418:162|419:214,1,103.999995239258,8|0,3:0|0:0,0:0:0:0:
287,321,162824,5,2,0:0:0:0:
310,84,162995,1,2,0:0:0:0:
192,338,163167,2,0,L|83:350,1,103.999995239258,10|0,3:0|0:0,0:0:0:0:
173,39,163510,6,0,P|208:111|224:195,1,155.999992858887,6|0,0:0|0:0,0:0:0:0:
183,251,163852,2,0,L|74:263,1,103.999995239258,8|0,3:0|0:0,0:0:0:0:
323,160,164195,5,2,0:0:0:0:
227,351,164367,1,8,0:0:0:0:
62,93,164538,2,0,P|127:164|150:204,1,103.999995239258,10|0,3:0|0:0,0:0:0:0:
416,243,164881,6,0,P|438:164|403:66,1,155.999992858887,6|0,0:0|0:0,0:0:0:0:
347,67,165224,2,0,P|381:26|441:16,1,103.999995239258,8|0,3:0|0:0,0:0:0:0:
334,285,165567,5,2,0:0:0:0:
510,66,165738,1,2,0:0:0:0:
260,260,165910,2,0,P|264:320|305:361,1,103.999995239258,10|0,3:0|0:0,0:0:0:0:
226,40,166252,6,0,B|139:24|177:92|32:61,1,155.999992858887,6|0,0:0|0:0,0:0:0:0:
8,34,166595,2,0,P|49:91|64:151,1,103.999995239258,8|2,3:0|0:0,0:0:0:0:
151,342,166938,5,2,0:0:0:0:
205,117,167110,1,2,0:0:0:0:
22,293,167281,1,10,3:0:0:0:
76,68,167453,1,2,0:0:0:0:
272,314,167624,6,0,P|336:333|450:299,1,155.999992858887,6|0,0:0|0:0,0:0:0:0:
475,259,167967,2,0,P|477:201|460:150,1,103.999995239258,8|0,3:0|0:0,0:0:0:0:
143,214,168310,5,2,0:0:0:0:
382,241,168481,1,2,0:0:0:0:
155,86,168652,1,10,3:0:0:0:
394,113,168823,1,2,0:0:0:0:
163,292,168995,6,0,P|211:256|199:157,1,155.999992858887,6|0,0:0|0:0,0:0:0:0:
143,214,169338,2,0,L|28:225,1,103.999995239258,8|0,3:0|0:0,0:0:0:0:
291,363,169681,5,2,0:0:0:0:
300,110,169852,1,2,0:0:0:0:
120,352,170024,1,10,3:0:0:0:
129,99,170195,1,2,0:0:0:0:
417,320,170367,6,0,B|316:331|368:273|252:291,1,155.999992858887,6|0,0:0|0:0,0:0:0:0:
201,324,170710,2,0,P|240:358|291:363,1,103.999995239258,8|2,3:0|0:0,0:0:0:0:
412,30,171052,5,2,0:0:0:0:
389,236,171223,1,2,0:0:0:0:
278,7,171395,1,10,3:0:0:0:
255,213,171566,1,2,0:0:0:0:
512,57,171738,6,0,P|465:106|350:106,1,155.999992858887,6|0,0:0|0:0,0:0:0:0:
313,83,172081,2,0,P|235:90|181:108,1,103.999995239258,8|2,3:0|0:0,0:0:0:0:
120,312,172424,5,2,0:0:0:0:
120,312,172510,1,8,3:0:0:0:
120,312,172595,1,2,0:0:0:0:
121,48,172767,1,10,3:0:0:0:
216,307,172938,1,10,0:0:0:0:
0,110,173110,6,0,B|101:99|49:157|165:139,1,155.999992858887,6|0,0:0|0:0,0:0:0:0:
210,96,173452,2,0,P|225:151|202:200,1,103.999995239258,8|0,3:0|0:0,0:0:0:0:
13,235,173795,5,2,0:0:0:0:
170,30,173967,1,2,0:0:0:0:
141,286,174138,1,10,3:0:0:0:
39,33,174310,1,2,0:0:0:0:
275,299,174481,6,0,L|443:292,1,155.999992858887,6|0,0:0|0:0,0:0:0:0:
438,218,174824,2,0,L|313:223,1,103.999995239258,8|2,3:0|0:0,0:0:0:0:
241,366,175167,5,2,0:0:0:0:
400,134,175338,1,2,0:0:0:0:
158,226,175510,1,10,3:0:0:0:
430,292,175681,1,2,0:0:0:0:
210,51,175852,6,0,P|227:135|286:211,1,155.999992858887,6|0,0:0|0:0,0:0:0:0:
343,214,176195,2,0,L|446:209,1,103.999995239258,8|0,3:0|0:0,0:0:0:0:
103,106,176538,5,2,0:0:0:0:
297,314,176710,1,2,0:0:0:0:
316,81,176881,1,10,3:0:0:0:
170,327,177052,1,2,0:0:0:0:
125,3,177224,6,0,P|194:57|204:153,1,155.999992858887,6|0,0:0|0:0,0:0:0:0:
171,184,177567,2,0,L|47:193,1,103.999995239258,8|0,3:0|0:0,0:0:0:0:
403,128,177910,5,2,0:0:0:0:
83,305,178081,1,2,0:0:0:0:
503,263,178252,1,10,3:0:0:0:
503,263,178595,6,0,B|387:237|442:308|313:282,2,192,6|0|0,0:0|0:0|0:0,0:0:0:0:
234,297,179967,6,0,P|263:211|354:203,2,192
462,343,181338,1,0,0:0:0:0:
115,53,182367,6,0,P|120:123|125:134,1,64,2|0,0:0|0:0,0:0:0:0:
205,118,182710,2,0,P|200:48|195:37,1,64,2|0,0:0|0:0,0:0:0:0:
152,189,183052,2,0,P|157:259|162:270,1,64,2|0,0:0|0:0,0:0:0:0:
234,215,183395,5,2,0:0:0:0:
