osu file format v14

[General]
AudioFilename: audio.mp3
AudioLeadIn: 0
PreviewTime: 139081
Countdown: 0
SampleSet: Normal
StackLeniency: 0.7
Mode: 0
LetterboxInBreaks: 0
WidescreenStoryboard: 1

[Editor]
Bookmarks: 18824,45053,57910,62710,63395,80195,92195,92538,98024,102138,148081,161110,179967
DistanceSpacing: 1
BeatDivisor: 4
GridSize: 32
TimelineZoom: 0.6999999

[Metadata]
Title:MTC (Different Heaven Remix)
TitleUnicode:MTC (Different Heaven Remix)
Artist:S3RL
ArtistUnicode:S3RL
Creator:Sylas
Version:Easy
Source:
Tags:english featured artist fa electronic drum and bass dnb Jodie Harling Jole Hughes
BeatmapID:2559808
BeatmapSetID:914691

[Difficulty]
HPDrainRate:2
CircleSize:3
OverallDifficulty:2
ApproachRate:3
SliderMultiplier:0.8
SliderTickRate:1

[Events]
//Background and Video events
0,0,"vocaloid-hatsune-miku-vokaloid-khatsune-miku-devushka-khvost.jpg",0,0
//Break Periods
2,45767,55098
2,111595,126412
//Storyboard Layer 0 (Background)
//Storyboard Layer 1 (Fail)
//Storyboard Layer 2 (Pass)
//Storyboard Layer 3 (Foreground)
//Storyboard Layer 4 (Overlay)
//Storyboard Sound Samples

[TimingPoints]
310,342.857142857143,4,1,1,10,1,0
310,-100,4,1,1,10,0,0
652,-100,4,1,1,20,0,0
995,-100,4,1,1,30,0,0
1338,-100,4,1,1,40,0,0
1681,-100,4,1,1,45,0,0
26366,-100,4,1,1,60,0,0
56537,-100,4,1,1,25,0,0
57909,-100,4,1,1,30,0,0
59280,-100,4,1,1,35,0,0
60651,-100,4,1,1,40,0,0
62023,-100,4,1,1,45,0,0
63394,-100,4,1,1,50,0,0
64766,-100,4,1,1,55,0,0
65451,-100,4,1,1,65,0,0
66480,-100,4,1,1,20,0,0
66651,-100,4,1,1,30,0,0
66823,-100,4,1,1,40,0,0
66994,-100,4,1,1,50,0,0
67166,-100,4,1,1,60,0,0
67337,-100,4,1,1,70,0,0
67510,-90.9090909090909,4,1,1,75,0,1
79852,-90.9090909090909,4,1,1,50,0,0
80881,-90.9090909090909,4,1,1,75,0,1
111395,-90.9090909090909,4,1,1,85,0,0
116538,-100,4,1,1,25,0,0
127852,-100,4,1,1,50,0,0
133338,-100,4,1,1,60,0,0
140195,-90.9090909090909,4,1,1,75,0,1
152538,-90.9090909090909,4,1,1,50,0,0
153567,-90.9090909090909,4,1,1,75,0,1
162138,-100,4,1,1,70,0,0
178595,-100,4,1,1,30,0,0
183481,-100,4,1,1,30,0,0

[Colours]
Combo1 : 247,155,136
Combo2 : 227,62,107
Combo3 : 240,140,218
Combo4 : 159,87,232
Combo5 : 86,130,220
Combo6 : 34,216,225
Combo7 : 156,224,131
Combo8 : 251,210,115

[HitObjects]
49,89,1681,6,0,P|73:46|190:37,1,160,2|2,2:1|2:1,0:0:0:0:
285,144,3052,1,2,2:1:0:0:
215,288,3738,2,0,L|131:305,1,80,2|2,2:1|2:1,2:1:0:0:
58,320,4424,5,2,2:1:0:0:
97,164,5110,2,0,L|175:148,1,80,2|2,2:1|2:1,0:0:0:0:
249,177,5795,2,0,P|341:200|393:256,1,160,2|2,2:1|2:1,0:0:0:0:
494,362,7167,5,2,2:1:0:0:
496,202,7852,2,0,P|494:156|481:124,1,80,2|2,2:1|2:1,0:0:0:0:
438,56,8538,1,2,2:1:0:0:
286,108,9224,2,0,P|288:154|301:186,1,80,2|2,2:1|2:1,0:0:0:0:
346,251,9910,6,0,B|271:292|265:228|186:265,1,160,2|2,2:1|2:1,0:0:0:0:
40,316,11281,1,2,2:1:0:0:
72,153,11967,2,0,L|60:64,1,80,2|2,2:1|2:1,0:0:0:0:
121,21,12652,6,0,P|176:60|283:76,1,160,6|2,0:0|0:0,0:0:0:0:
422,44,14024,2,0,P|444:89|454:202,1,160,2|2,0:0|0:0,0:0:0:0:
445,276,15052,1,10,3:0:0:0:
383,326,15395,6,0,P|344:296|237:300,1,160,2|2,0:0|0:0,0:0:0:0:
84,345,16767,1,2,0:0:0:0:
73,265,17110,2,0,L|63:172,1,80,8|2,3:0|0:0,0:0:0:0:
109,118,17795,1,10,3:0:0:0:
179,79,18138,6,0,P|230:63|307:56,2,120,10|0|10,1:0|0:0|3:0,0:0:0:0:
196,158,19510,2,0,P|180:209|173:286,2,120,10|0|10,1:0|0:0|3:0,0:0:0:0:
263,115,20881,6,0,P|291:114|349:221,1,160,10|8,1:0|1:0,0:0:0:0:
341,292,21910,1,10,3:0:0:0:
279,342,22252,2,0,L|185:332,1,80,10|10,1:0|3:0,0:0:0:0:
121,354,22938,2,0,L|27:364,2,80,10|10|10,0:0|3:0|0:0,0:0:0:0:
336,17,25681,6,0,P|325:60|331:108,1,80,8|8,0:0|3:0,0:0:0:0:
362,167,26367,2,0,P|422:158|483:124,2,120,14|2|10,0:0|0:0|3:0,0:0:0:0:
282,160,27738,1,10,0:0:0:0:
238,92,28081,2,0,P|186:44|92:41,1,160,8|10,3:0|3:0,0:0:0:0:
31,80,29110,6,0,P|25:198|83:319,1,240,10|10,0:0|3:0,0:0:0:0:
145,341,30481,2,0,P|203:355|262:358,2,120,10|2|10,0:0|0:0|3:0,0:0:0:0:
135,261,31852,5,10,0:0:0:0:
182,196,32195,2,0,P|219:198|264:208,1,80,8|0,3:0|0:0,0:0:0:0:
318,263,32881,1,10,3:0:0:0:
369,323,33224,2,0,P|406:321|451:311,1,80,10|8,0:0|3:0,0:0:0:0:
501,161,34252,1,10,3:0:0:0:
433,117,34595,6,0,L|452:-9,2,120,14|2|10,0:0|0:0|3:0,0:0:0:0:
407,193,35967,1,10,0:0:0:0:
372,265,36310,2,0,P|308:311|224:312,1,160,8|10,3:0|3:0,0:0:0:0:
156,280,37338,6,0,P|135:206|140:36,1,240,10|10,0:0|3:0,0:0:0:0:
205,0,38710,1,10,0:0:0:0:
350,65,39395,2,0,P|347:104|331:141,1,80,10|8,0:0|3:0,0:0:0:0:
285,206,40081,6,0,P|330:244|388:262,2,120,14|2|10,0:0|0:0|3:0,0:0:0:0:
239,140,41452,1,10,0:0:0:0:
163,113,41795,2,0,L|85:97,1,80,8|0,3:0|0:0,0:0:0:0:
12,132,42481,1,10,3:0:0:0:
39,207,42824,5,10,0:0:0:0:
169,300,43510,2,0,L|248:285,1,80,0|10,0:0|3:0,0:0:0:0:
325,304,44195,2,0,B|352:192|248:212|280:68,1,240,10|8,0:0|3:0,0:0:0:0:
344,33,45567,1,6,0:0:0:0:
176,358,56538,6,0,P|231:366|334:341,1,160,14|10,0:0|0:0,0:0:0:0:
467,256,57910,1,10,0:0:0:0:
433,99,58595,1,10,0:0:0:0:
282,43,59281,6,0,P|202:36|126:58,1,160,10|10,0:0|0:0,0:0:0:0:
23,181,60652,1,10,0:0:0:0:
160,263,61338,1,10,0:0:0:0:
256,192,62024,12,0,66138,0:0:0:0:
289,310,67510,6,0,P|331:310|458:251,1,176.000005371094,6|2,0:0|0:0,0:0:0:0:
422,83,68881,2,0,P|378:84|342:107,1,88.000002685547,2|10,0:0|3:0,0:0:0:0:
271,160,69567,2,0,P|227:158|191:135,1,88.000002685547,2|10,0:0|3:0,0:0:0:0:
103,123,70252,6,0,P|43:123|3:126,2,88.000002685547,2|10|2,0:0|3:0|0:0,0:0:0:0:
137,204,71281,1,10,3:0:0:0:
142,291,71624,1,2,0:0:0:0:
227,311,71967,2,0,P|270:313|314:312,1,88.000002685547,10|2,3:0|0:0,0:0:0:0:
395,276,72652,1,10,3:0:0:0:
460,213,72995,6,0,L|438:18,1,176.000005371094,6|2,0:0|0:0,0:0:0:0:
267,74,74367,2,0,P|233:93|175:89,1,88.000002685547,2|10,0:0|3:0,0:0:0:0:
97,83,75052,2,0,P|95:126|112:167,1,88.000002685547,2|10,0:0|3:0,0:0:0:0:
193,201,75738,6,0,L|290:191,2,88.000002685547,2|10|2,0:0|3:0|0:0,0:0:0:0:
131,263,76767,1,10,3:0:0:0:
174,339,77110,1,2,0:0:0:0:
260,325,77452,2,0,L|357:315,1,88.000002685547,10|10,3:0|0:0,0:0:0:0:
433,334,78138,1,10,3:0:0:0:
484,262,78481,6,0,P|485:192|446:82,1,176.000005371094,6|2,0:0|0:0,0:0:0:0:
296,9,79852,1,2,0:0:0:0:
34,244,81224,6,0,P|22:287|23:344,1,88.000002685547,6|10,0:0|3:0,0:0:0:0:
107,347,81910,2,0,P|119:304|118:247,1,88.000002685547,2|10,0:0|3:0,0:0:0:0:
119,172,82595,1,2,0:0:0:0:
199,135,82938,2,0,P|242:134|283:149,1,88.000002685547,10|2,3:0|0:0,0:0:0:0:
351,206,83624,1,10,3:0:0:0:
438,201,83967,6,0,B|463:113|387:124|429:17,1,176.000005371094,6|2,0:0|0:0,0:0:0:0:
248,15,85338,2,0,L|146:29,1,88.000002685547,2|10,0:0|3:0,0:0:0:0:
93,84,86024,1,2,0:0:0:0:
12,48,86367,1,10,3:0:0:0:
3,135,86710,6,0,P|8:192|21:240,1,88.000002685547,6|10,0:0|3:0,0:0:0:0:
76,285,87395,2,0,P|118:294|162:297,1,88.000002685547,2|10,0:0|3:0,0:0:0:0:
244,262,88081,2,0,P|263:208|378:188,1,176.000005371094,2|2,0:0|0:0,0:0:0:0:
444,230,89110,1,10,3:0:0:0:
504,166,89452,6,0,P|495:86|428:17,1,176.000005371094,6|10,0:0|0:0,0:0:0:0:
343,8,90481,1,10,3:0:0:0:
294,81,90824,2,0,P|296:130|304:180,2,88.000002685547,6|10|10,0:0|3:0|0:0,0:0:0:0:
220,32,91852,1,10,3:0:0:0:
163,99,92195,6,0,P|124:100|15:178,1,176.000005371094,6|8,0:0|0:0,0:0:0:0:
94,333,93567,2,0,L|277:350,1,176.000005371094,6|10,0:0|0:0,0:0:0:0:
357,356,94595,1,10,3:0:0:0:
440,328,94938,6,0,P|455:272|453:230,1,88.000002685547,6|10,0:0|3:0,0:0:0:0:
379,195,95624,2,0,P|364:139|366:97,1,88.000002685547,10|10,0:0|3:0,0:0:0:0:
408,32,96310,2,0,L|510:42,2,88.000002685547,6|10|10,0:0|3:0|0:0,0:0:0:0:
320,21,97338,1,10,3:0:0:0:
244,66,97681,6,0,L|56:84,1,176.000005371094,6|10,0:0|0:0,0:0:0:0:
91,257,99052,2,0,L|266:239,1,176.000005371094,6|10,0:0|0:0,0:0:0:0:
354,239,100081,1,10,3:0:0:0:
425,188,100424,6,0,P|427:121|356:43,1,176.000005371094,6|10,0:0|0:0,0:0:0:0:
274,15,101452,1,8,3:0:0:0:
196,55,101795,2,0,L|99:68,2,88.000002685547,6|10|10,0:0|3:0|0:0,0:0:0:0:
245,127,102824,1,8,3:0:0:0:
178,184,103167,6,0,P|147:246|185:348,1,176.000005371094,6|10,0:0|0:0,0:0:0:0:
355,346,104538,2,0,P|386:284|348:182,1,176.000005371094,6|10,0:0|0:0,0:0:0:0:
278,141,105567,1,10,3:0:0:0:
197,104,105910,6,0,L|104:122,1,88.000002685547,6|10,0:0|3:0,0:0:0:0:
38,171,106595,2,0,P|29:232|46:263,1,88.000002685547,10|10,0:0|3:0,0:0:0:0:
117,295,107281,2,0,L|305:258,1,176.000005371094,6|10,0:0|0:0,0:0:0:0:
375,282,108310,1,10,3:0:0:0:
447,231,108652,6,0,P|452:156|365:125,1,176.000005371094,6|10,0:0|0:0,0:0:0:0:
204,185,110024,2,0,P|137:186|45:122,1,176.000005371094,6|0,0:0|0:0,0:0:0:0:
20,44,111052,1,10,3:0:0:0:
103,15,111395,1,4,0:0:0:0:
458,207,127852,6,0,P|487:265|501:326,2,120,6|0|10,0:0|0:0|3:0,0:0:0:0:
406,145,129224,2,0,P|435:87|449:26,2,120,2|0|10,0:0|0:0|3:0,0:0:0:0:
326,157,130595,6,0,L|79:140,1,240,2|10,0:0|3:0,0:0:0:0:
13,174,131967,1,2,0:0:0:0:
38,331,132652,2,0,P|86:357|112:355,1,80,2|10,0:0|3:0,0:0:0:0:
186,331,133338,5,10,1:0:0:0:
226,261,133681,2,0,P|311:244|397:252,1,160,8|10,3:0|3:0,0:0:0:0:
459,274,134710,1,10,1:0:0:0:
500,205,135052,2,0,P|507:155|492:37,1,160,8|10,3:0|3:0,0:0:0:0:
415,39,136081,6,0,L|334:56,1,80,10|8,1:0|3:0,0:0:0:0:
285,117,136767,2,0,L|204:100,1,80,8|10,1:0|3:0,0:0:0:0:
126,99,137452,2,0,B|82:206|212:213|163:337,1,240,10|10,1:0|3:0,0:0:0:0:
100,367,138824,1,10,0:0:0:0:
251,49,140195,6,0,P|342:48|442:71,1,176.000005371094,6|2,0:0|0:0,0:0:0:0:
458,238,141567,2,0,P|413:267|363:255,1,88.000002685547,2|10,0:0|3:0,0:0:0:0:
304,219,142252,2,0,P|259:190|209:202,1,88.000002685547,2|10,0:0|3:0,0:0:0:0:
142,221,142938,6,0,P|149:276|160:309,2,88.000002685547,2|10|2,0:0|3:0|0:0,0:0:0:0:
111,138,143967,1,10,3:0:0:0:
152,60,144310,1,2,0:0:0:0:
235,86,144652,2,0,P|277:98|320:103,1,88.000002685547,10|2,3:0|0:0,0:0:0:0:
406,79,145338,1,10,3:0:0:0:
464,144,145681,6,0,P|468:219|410:299,1,176.000005371094,6|2,0:0|0:0,0:0:0:0:
236,316,147052,2,0,L|145:325,1,88.000002685547,2|10,0:0|3:0,0:0:0:0:
66,291,147738,2,0,P|54:244|57:200,1,88.000002685547,2|10,0:0|3:0,0:0:0:0:
97,126,148424,6,0,P|109:79|106:35,2,88.000002685547,2|10|2,0:0|3:0|0:0,0:0:0:0:
161,186,149452,1,10,3:0:0:0:
242,220,149795,1,2,0:0:0:0:
323,186,150138,2,0,L|410:197,1,88.000002685547,10|10,3:0|0:0,0:0:0:0:
460,125,150824,1,10,3:0:0:0:
406,54,151167,6,0,L|231:77,1,176.000005371094,6|2,0:0|0:0,0:0:0:0:
57,47,152538,1,2,0:0:0:0:
37,310,153567,1,10,3:0:0:0:
120,345,153910,6,0,P|175:348|216:336,1,88.000002685547,6|10,0:0|3:0,0:0:0:0:
269,278,154595,2,0,P|324:275|365:287,1,88.000002685547,2|10,0:0|3:0,0:0:0:0:
432,325,155281,1,2,0:0:0:0:
465,243,155624,2,0,L|470:136,1,88.000002685547,10|2,3:0|0:0,0:0:0:0:
471,66,156310,1,10,3:0:0:0:
388,39,156652,6,0,B|307:34|317:118|223:104,1,176.000005371094,6|2,0:0|0:0,0:0:0:0:
59,71,158024,2,0,P|64:113|83:164,1,88.000002685547,2|10,0:0|3:0,0:0:0:0:
144,214,158710,1,2,0:0:0:0:
121,298,159052,1,10,3:0:0:0:
186,356,159395,6,0,P|230:351|288:326,1,88.000002685547,6|10,0:0|3:0,0:0:0:0:
323,265,160081,2,0,P|364:250|408:246,1,88.000002685547,2|10,0:0|3:0,0:0:0:0:
493,258,160767,2,0,L|522:158,1,88.000002685547,2|10,0:0|3:0,0:0:0:0:
484,91,161452,1,2,0:0:0:0:
402,58,161795,1,10,3:0:0:0:
327,90,162138,6,0,L|161:61,1,160,6|2,0:0|0:0,0:0:0:0:
91,83,163167,1,10,3:0:0:0:
58,156,163510,2,0,P|68:232|132:286,1,160,6|2,0:0|0:0,0:0:0:0:
207,290,164538,1,10,3:0:0:0:
273,245,164881,5,6,0:0:0:0:
372,118,165567,2,0,P|422:105|460:125,1,80,2|10,0:0|3:0,0:0:0:0:
507,167,166252,2,0,P|496:255|469:326,1,160,6|2,0:0|0:0,0:0:0:0:
398,354,167281,1,10,3:0:0:0:
321,331,167624,6,0,L|157:356,1,160,6|2,0:0|0:0,0:0:0:0:
91,319,168652,1,10,3:0:0:0:
56,246,168995,2,0,P|48:143|71:80,1,160,6|2,0:0|0:0,0:0:0:0:
121,33,170024,1,10,3:0:0:0:
200,45,170367,5,6,0:0:0:0:
341,120,171052,2,0,L|353:213,1,80,2|10,0:0|3:0,0:0:0:0:
341,278,171738,2,0,P|267:260|171:264,1,160,6|2,0:0|0:0,0:0:0:0:
109,291,172767,1,10,3:0:0:0:
54,232,173110,6,0,P|43:181|84:83,1,160,6|2,0:0|0:0,0:0:0:0:
154,48,174138,1,10,3:0:0:0:
232,34,174481,2,0,L|399:56,1,160,6|2,0:0|0:0,0:0:0:0:
465,83,175510,1,10,3:0:0:0:
493,157,175852,5,6,0:0:0:0:
336,190,176538,2,0,L|252:201,1,80,2|10,0:0|3:0,0:0:0:0:
183,167,177224,1,6,0:0:0:0:
134,230,177567,2,0,P|142:269|160:304,1,80,8|2,3:0|0:0,0:0:0:0:
223,354,178252,1,10,3:0:0:0:
295,320,178595,1,6,0:0:0:0:
