osu file format v14

[General]
AudioFilename: audio.mp3
AudioLeadIn: 0
PreviewTime: 139081
Countdown: 1
SampleSet: Normal
StackLeniency: 0.5
Mode: 0
LetterboxInBreaks: 0
WidescreenStoryboard: 0

[Editor]
Bookmarks: 12310,45053,57910,62710,63395,80195,97167,135052,161110,179967
DistanceSpacing: 1.6
BeatDivisor: 4
GridSize: 4
TimelineZoom: 1.5

[Metadata]
Title:MTC (Different Heaven Remix)
TitleUnicode:MTC (Different Heaven Remix)
Artist:S3RL
ArtistUnicode:S3RL
Creator:Sylas
Version:Anime Haven
Source:
Tags:english featured artist fa electronic drum and bass dnb Jodie Harling Jole Hughes
BeatmapID:1910434
BeatmapSetID:914691

[Difficulty]
HPDrainRate:6
CircleSize:4
OverallDifficulty:9
ApproachRate:9.4
SliderMultiplier:1.4
SliderTickRate:1

[Events]
//Background and Video events
0,0,"vocaloid-hatsune-miku-vokaloid-khatsune-miku-devushka-khvost.jpg",0,0
//Break Periods
2,23824,25141
2,45767,55984
2,111595,115998
//Storyboard Layer 0 (Background)
//Storyboard Layer 1 (Fail)
//Storyboard Layer 2 (Pass)
//Storyboard Layer 3 (Foreground)
//Storyboard Layer 4 (Overlay)
//Storyboard Sound Samples

[TimingPoints]
310,342.857142857143,4,1,1,10,1,0
310,-200,4,1,1,10,0,0
567,-200,4,1,1,5,0,0
652,-133.333333333333,4,1,1,20,0,0
910,-133.333333333333,4,1,1,5,0,0
995,-100,4,1,1,30,0,0
1252,-100,4,1,1,5,0,0
1338,-80,4,1,1,40,0,0
1595,-80,4,1,1,5,0,0
1681,-90.9090909090909,4,1,1,45,0,0
2281,-90.9090909090909,4,1,1,5,0,0
2367,-90.9090909090909,4,1,1,45,0,0
3652,-90.9090909090909,4,1,1,5,0,0
3738,-90.9090909090909,4,1,1,45,0,0
12652,-80,4,1,1,45,0,0
15995,-80,4,1,1,5,0,0
16081,-80,4,1,1,45,0,0
26023,-166.666666666667,4,1,1,45,0,0
26281,-166.666666666667,4,1,1,5,0,0
26366,-66.6666666666667,4,1,1,60,0,0
28766,-133.333333333333,4,1,1,60,0,0
29024,-133.333333333333,4,1,1,5,0,0
29109,-66.6666666666667,4,1,1,60,0,0
34251,-133.333333333333,4,1,1,60,0,0
34510,-133.333333333333,4,1,1,5,0,0
34594,-66.6666666666667,4,1,1,60,0,0
36994,-133.333333333333,4,1,1,60,0,0
37252,-133.333333333333,4,1,1,5,0,0
37337,-66.6666666666667,4,1,1,60,0,0
37595,-66.6666666666667,4,1,1,5,0,0
37681,-66.6666666666667,4,1,1,60,0,0
38110,-66.6666666666667,4,1,1,5,0,0
38195,-66.6666666666667,4,1,1,60,0,0
39737,-142.857142857143,4,1,1,60,0,0
39995,-142.857142857143,4,1,1,5,0,0
40080,-60.6060606060606,4,1,1,60,0,0
40338,-60.6060606060606,4,1,1,5,0,0
40424,-60.6060606060606,4,1,1,60,0,0
40852,-60.6060606060606,4,1,1,5,0,0
40938,-60.6060606060606,4,1,1,60,0,0
41710,-60.6060606060606,4,1,1,5,0,0
41795,-60.6060606060606,4,1,1,60,0,0
42224,-60.6060606060606,4,1,1,5,0,0
42310,-60.6060606060606,4,1,1,60,0,0
45223,-100,4,1,1,60,0,0
45481,-100,4,1,1,5,0,0
45566,-60.6060606060606,4,1,1,60,0,0
56537,-142.857142857143,4,1,1,25,0,0
57824,-142.857142857143,4,1,1,5,0,0
57909,-111.111111111111,4,1,1,30,0,0
59195,-111.111111111111,4,1,1,5,0,0
59280,-90.9090909090908,4,1,1,35,0,0
60567,-90.9090909090908,4,1,1,5,0,0
60651,-76.9230769230769,4,1,1,40,0,0
61938,-76.9230769230769,4,1,1,5,0,0
62023,-76.9230769230769,4,1,1,45,0,0
63394,-76.9230769230769,4,1,1,50,0,0
64766,-76.9230769230769,4,1,1,55,0,0
65451,-76.9230769230769,4,1,1,65,0,0
66480,-76.9230769230769,4,1,1,20,0,0
66651,-76.9230769230769,4,1,1,30,0,0
66823,-76.9230769230769,4,1,1,40,0,0
66994,-76.9230769230769,4,1,1,50,0,0
67166,-76.9230769230769,4,1,1,60,0,0
67337,-76.9230769230769,4,1,1,70,0,0
67510,-58.8235294117647,4,1,1,75,0,1
67767,-58.8235294117647,4,1,1,5,0,1
67852,-58.8235294117647,4,1,1,75,0,1
70510,-58.8235294117647,4,1,1,5,0,1
70595,-58.8235294117647,4,1,1,75,0,1
71881,-58.8235294117647,4,1,1,5,0,1
71967,-58.8235294117647,4,1,1,75,0,1
73252,-58.8235294117647,4,1,1,5,0,1
73338,-58.8235294117647,4,1,1,75,0,1
75995,-58.8235294117647,4,1,1,5,0,1
76081,-58.8235294117647,4,1,1,75,0,1
77367,-58.8235294117647,4,1,1,5,0,1
77452,-58.8235294117647,4,1,1,75,0,1
79852,-133.333333333333,4,1,1,50,0,0
80881,-58.8235294117647,4,1,1,75,0,1
81481,-58.8235294117647,4,1,1,5,0,1
81567,-58.8235294117647,4,1,1,75,0,1
82852,-58.8235294117647,4,1,1,5,0,1
82938,-58.8235294117647,4,1,1,75,0,1
84224,-58.8235294117647,4,1,1,5,0,1
84310,-58.8235294117647,4,1,1,75,0,1
86538,-45.4545454545455,4,1,1,75,0,1
86967,-45.4545454545455,4,1,1,5,0,1
87052,-58.8235294117647,4,1,1,75,0,1
88338,-58.8235294117647,4,1,1,5,0,1
88424,-58.8235294117647,4,1,1,75,0,0
89452,-52.6315789473684,4,1,1,85,0,1
90481,-100,4,1,1,85,0,1
90738,-100,4,1,1,5,0,1
90824,-52.6315789473684,4,1,1,85,0,1
91852,-40,4,1,1,85,0,1
92110,-66.6666666666667,4,1,1,5,0,1
92195,-52.6315789473684,4,1,1,85,0,1
93224,-100,4,1,1,85,0,1
93481,-100,4,1,1,5,0,1
93567,-52.6315789473684,4,1,1,85,0,1
94595,-40,4,1,1,85,0,1
94852,-66.6666666666667,4,1,1,5,0,1
94938,-52.6315789473684,4,1,1,85,0,1
95967,-100,4,1,1,85,0,1
96224,-100,4,1,1,5,0,1
96310,-52.6315789473684,4,1,1,85,0,1
97338,-40,4,1,1,85,0,1
97595,-66.6666666666667,4,1,1,5,0,1
97681,-52.6315789473684,4,1,1,85,0,1
98710,-100,4,1,1,85,0,1
98967,-100,4,1,1,5,0,1
99052,-30.7692307692308,4,1,1,85,0,1
100338,-52.6315789473684,4,1,1,5,0,1
100424,-52.6315789473684,4,1,1,85,0,1
100767,-50,4,1,1,85,0,1
101795,-58.8235294117647,4,1,1,85,0,1
102138,-66.6666666666667,4,1,1,85,0,1
103167,-83.3333333333333,4,1,1,85,0,1
103510,-100,4,1,1,85,0,1
103852,-125,4,1,1,85,0,1
104195,-166.666666666667,4,1,1,85,0,1
104538,-100,4,1,1,85,0,1
104881,-111.111111111111,4,1,1,85,0,1
105224,-125,4,1,1,85,0,1
105567,-333.333333333333,4,1,1,85,0,1
105910,-125,4,1,1,85,0,1
106252,-142.857142857143,4,1,1,85,0,1
106595,-166.666666666667,4,1,1,85,0,1
106938,-333.333333333333,4,1,1,85,0,1
107281,-142.857142857143,4,1,1,85,0,1
107624,-166.666666666667,4,1,1,85,0,1
107967,-200,4,1,1,85,0,1
108310,-500,4,1,1,85,0,1
108652,-200,4,1,1,85,0,1
108995,-250,4,1,1,85,0,1
109338,-333.333333333333,4,1,1,85,0,1
109681,-1000,4,1,1,85,0,1
110024,-333.333333333333,4,1,1,85,0,1
110367,-500,4,1,1,85,0,1
110710,-1000,4,1,1,85,0,1
111052,-166.666666666667,4,1,1,85,0,1
111395,-166.666666666667,4,1,1,85,0,0
116538,-83.3333333333333,4,1,1,25,0,0
116795,-83.3333333333333,4,1,1,5,0,0
116881,-111.111111111111,4,1,1,25,0,0
118167,-111.111111111111,4,1,1,5,0,0
118252,-111.111111111111,4,1,1,25,0,0
119281,-83.3333333333333,4,1,1,25,0,0
119538,-83.3333333333333,4,1,1,5,0,0
119624,-111.111111111111,4,1,1,25,0,0
120652,-83.3333333333333,4,1,1,25,0,0
120910,-83.3333333333333,4,1,1,5,0,0
120995,-90.9090909090909,4,1,1,25,0,0
121938,-90.9090909090909,4,1,1,5,0,0
122024,-83.3333333333333,4,1,1,25,0,0
122281,-83.3333333333333,4,1,1,5,0,0
122367,-100,4,1,1,25,0,0
123395,-76.9230769230769,4,1,1,25,0,0
123652,-76.9230769230769,4,1,1,5,0,0
123738,-100,4,1,1,25,0,0
126395,-100,4,1,1,5,0,0
126481,-100,4,1,1,25,0,0
127510,-83.3333333333333,4,1,1,25,0,0
127767,-83.3333333333333,4,1,1,5,0,0
127852,-76.9230769230769,4,1,1,50,0,0
133338,-71.4285714285714,4,1,1,60,0,0
140195,-58.8235294117647,4,1,1,75,0,1
140452,-58.8235294117647,4,1,1,5,0,1
140538,-58.8235294117647,4,1,1,75,0,1
143195,-58.8235294117647,4,1,1,5,0,1
143281,-58.8235294117647,4,1,1,75,0,1
144567,-58.8235294117647,4,1,1,5,0,1
144652,-58.8235294117647,4,1,1,75,0,1
145938,-58.8235294117647,4,1,1,5,0,1
146024,-58.8235294117647,4,1,1,75,0,1
148681,-58.8235294117647,4,1,1,5,0,1
148767,-58.8235294117647,4,1,1,75,0,1
150052,-58.8235294117647,4,1,1,5,0,1
150138,-58.8235294117647,4,1,1,75,0,1
152538,-133.333333333333,4,1,1,50,0,0
153567,-58.8235294117647,4,1,1,75,0,1
154167,-58.8235294117647,4,1,1,5,0,1
154252,-58.8235294117647,4,1,1,75,0,1
155538,-58.8235294117647,4,1,1,5,0,1
155624,-58.8235294117647,4,1,1,75,0,1
156910,-58.8235294117647,4,1,1,5,0,1
156995,-58.8235294117647,4,1,1,75,0,1
159224,-45.4545454545455,4,1,1,75,0,1
159652,-45.4545454545455,4,1,1,5,0,1
159738,-58.8235294117647,4,1,1,75,0,1
162138,-62.5,4,1,1,70,0,0
162395,-62.5,4,1,1,5,0,0
162481,-62.5,4,1,1,70,0,0
163767,-62.5,4,1,1,5,0,0
163852,-62.5,4,1,1,70,0,0
165138,-62.5,4,1,1,5,0,0
165224,-62.5,4,1,1,70,0,0
166510,-62.5,4,1,1,5,0,0
166595,-62.5,4,1,1,70,0,0
167881,-62.5,4,1,1,5,0,0
167967,-62.5,4,1,1,70,0,0
169252,-62.5,4,1,1,5,0,0
169338,-62.5,4,1,1,70,0,0
170624,-62.5,4,1,1,5,0,0
170710,-62.5,4,1,1,70,0,0
171995,-62.5,4,1,1,5,0,0
172081,-62.5,4,1,1,70,0,0
173367,-62.5,4,1,1,5,0,0
173452,-62.5,4,1,1,70,0,0
174738,-62.5,4,1,1,5,0,0
174824,-62.5,4,1,1,70,0,0
176110,-62.5,4,1,1,5,0,0
176195,-62.5,4,1,1,70,0,0
177481,-62.5,4,1,1,5,0,0
177567,-62.5,4,1,1,70,0,0
178595,-142.857142857143,4,1,1,30,0,0
183395,-100,4,1,1,30,0,0
183481,-100,4,1,1,5,0,0

[Colours]
Combo1 : 247,155,136
Combo2 : 227,62,107
Combo3 : 240,140,218
Combo4 : 159,87,232
Combo5 : 86,130,220
Combo6 : 34,216,225
Combo7 : 156,224,131
Combo8 : 251,210,115

[HitObjects]
231,160,310,6,0,B|256:150|256:150|280:160,1,52.5,2|0,2:1|2:1,2:1:0:0:
219,153,652,6,0,B|256:138|256:138|292:153,1,78.7500030040742,2|0,2:1|2:1,2:1:0:0:
207,147,995,6,0,B|255:127|255:127|305:147,1,105,2|0,2:1|2:1,2:1:0:0:
194,139,1338,6,0,B|256:114|256:114|318:139,1,131.25,2|0,2:1|2:1,2:1:0:0:
256,226,1681,5,2,2:1:0:0:
250,239,2024,2,0,P|230:275|141:285,1,115.50000352478,2|0,2:2|2:1,2:1:0:0:
178,218,2367,5,2,2:1:0:0:
234,366,2538,1,0,2:1:0:0:
99,323,2710,2,0,P|91:274|106:248,1,77.0000023498536,2|0,2:1|2:1,2:1:0:0:
330,223,3052,5,2,2:1:0:0:
343,214,3395,2,0,B|413:207|378:252|470:245,1,115.50000352478,2|0,2:2|2:1,2:1:0:0:
445,171,3738,6,0,L|434:92,1,77.0000023498536,2|0,2:1|2:1,2:1:0:0:
352,288,4081,2,0,L|362:364,1,77.0000023498536,2|0,2:1|2:1,2:1:0:0:
337,142,4424,5,2,2:1:0:0:
327,129,4767,2,0,P|289:101|241:103,1,77.0000023498536,2|0,2:2|2:1,2:1:0:0:
115,210,5110,5,2,2:1:0:0:
263,174,5281,1,0,2:1:0:0:
93,126,5452,1,2,2:1:0:0:
137,293,5624,1,0,2:1:0:0:
255,103,5795,5,2,2:1:0:0:
264,87,6138,2,0,P|301:93|331:118,1,77.0000023498536,2|0,2:2|2:1,2:1:0:0:
446,296,6481,5,2,2:1:0:0:
267,249,6652,1,0,2:1:0:0:
470,221,6824,1,2,2:1:0:0:
291,175,6995,1,0,2:1:0:0:
495,147,7167,5,2,2:1:0:0:
503,132,7510,2,0,P|452:128|418:146,1,77.0000023498536,2|0,2:2|2:1,2:1:0:0:
295,298,7852,5,2,2:1:0:0:
248,119,8023,1,0,2:1:0:0:
221,322,8195,1,2,2:1:0:0:
174,144,8366,1,0,2:1:0:0:
147,347,8538,5,2,2:1:0:0:
133,353,8881,2,0,P|137:305|132:260,1,77.0000023498536,2|0,2:2|2:1,2:1:0:0:
32,85,9224,5,2,2:1:0:0:
65,235,9395,1,0,2:1:0:0:
180,132,9567,1,2,2:1:0:0:
19,172,9738,1,0,2:1:0:0:
224,190,9910,5,2,2:1:0:0:
234,200,10252,2,0,L|326:210,1,77.0000023498536,2|0,2:2|2:1,2:1:0:0:
418,85,10595,5,2,2:1:0:0:
400,275,10767,1,0,2:1:0:0:
299,104,10938,1,2,2:1:0:0:
475,150,11110,1,0,2:1:0:0:
315,304,11281,5,2,2:1:0:0:
305,319,11624,2,0,L|228:310,1,77.0000023498536,2|0,2:2|2:1,2:1:0:0:
48,318,11967,5,2,2:1:0:0:
227,224,12138,1,0,2:1:0:0:
44,218,12310,1,2,2:1:0:0:
229,311,12481,1,0,2:1:0:0:
54,112,12652,5,6,0:0:0:0:
48,318,12824,1,0,0:0:0:0:
146,106,12995,2,0,L|261:100,1,87.5,8|0,3:0|0:0,0:0:0:0:
20,37,13338,5,2,0:0:0:0:
88,249,13510,1,2,0:0:0:0:
110,9,13681,1,10,3:0:0:0:
178,221,13853,1,2,0:0:0:0:
312,16,14024,5,2,0:0:0:0:
146,106,14195,1,0,0:0:0:0:
366,164,14367,1,8,3:0:0:0:
241,81,14538,5,0,0:0:0:0:
358,297,14710,1,2,0:0:0:0:
361,79,14881,1,2,0:0:0:0:
237,298,15052,1,10,3:0:0:0:
241,81,15224,1,2,0:0:0:0:
358,297,15395,6,0,P|413:292|459:281,1,87.5,2|0,0:0|0:0,0:0:0:0:
175,127,15738,2,0,B|144:140|144:140|164:166|207:177|255:159,1,131.25,8|0,3:0|0:0,0:0:0:0:
241,81,16081,5,2,0:0:0:0:
63,281,16253,1,2,0:0:0:0:
114,49,16424,1,10,3:0:0:0:
192,312,16595,1,2,0:0:0:0:
241,81,16767,5,2,0:0:0:0:
241,81,17110,2,0,B|252:100|252:100|229:116|181:100,1,87.5,8|0,3:0|0:0,0:0:0:0:
15,52,17452,5,2,0:0:0:0:
193,191,17624,1,0,0:0:0:0:
7,327,17795,1,10,3:0:0:0:
4,316,18138,5,10,1:0:0:0:
88,99,18310,1,0,0:0:0:0:
99,371,18481,2,0,L|206:358,1,87.5,8|0,3:0|0:0,0:0:0:0:
45,169,18824,5,10,1:0:0:0:
263,348,18995,1,0,0:0:0:0:
310,70,19167,1,10,3:0:0:0:
318,81,19510,5,10,1:0:0:0:
244,275,19681,1,0,0:0:0:0:
252,27,19852,2,0,P|286:3|356:9,1,87.5,8|0,3:0|0:0,0:0:0:0:
378,294,20195,5,10,1:0:0:0:
185,93,20367,1,0,0:0:0:0:
455,26,20538,1,10,3:0:0:0:
468,27,20881,5,10,1:0:0:0:
483,355,21052,1,8,1:0:0:0:
346,94,21224,5,8,3:0:0:0:
483,355,21395,1,8,0:0:0:0:
273,197,21567,5,8,1:0:0:0:
483,355,21738,1,8,1:0:0:0:
265,312,21910,5,10,3:0:0:0:
483,355,22081,1,8,1:0:0:0:
186,246,22252,5,10,1:0:0:0:
137,229,22338,1,8,1:0:0:0:
87,236,22423,1,8,1:0:0:0:
46,267,22509,1,8,1:0:0:0:
25,314,22595,1,10,3:0:0:0:
72,331,22680,1,8,1:0:0:0:
123,322,22766,1,8,1:0:0:0:
164,292,22852,1,8,1:0:0:0:
186,246,22938,6,0,L|187:206,2,21.875,10|8|8,0:0|0:0|0:0,0:0:0:0:
94,163,23110,6,0,L|95:123,2,21.875,8|8|8,0:0|0:0|0:0,0:0:0:0:
228,131,23281,6,0,L|229:91,2,21.875,10|8|8,3:0|0:0|0:0,0:0:0:0:
75,59,23452,6,0,L|76:19,2,21.875,8|8|8,0:0|0:0|0:0,0:0:0:0:
268,16,23624,5,10,0:0:0:0:
268,16,25681,5,8,0:0:0:0:
272,143,25852,2,0,L|275:205,1,43.75,8|0,0:0|0:0,0:0:0:0:
234,80,26024,2,0,L|154:76,1,62.9999980773926,8|0,3:0|2:0,0:0:0:0:
129,7,26367,6,0,P|155:68|144:125,1,105.000004005432,14|0,0:0|0:0,0:0:0:0:
55,263,26710,1,8,3:0:0:0:
231,203,26881,2,0,L|354:215,1,105.000004005432,2|0,0:0|0:0,0:0:0:0:
52,152,27224,2,0,L|0:157,1,52.5000020027161,8|0,0:0|0:0,0:0:0:0:
184,296,27395,1,10,3:0:0:0:
203,292,27738,6,0,L|326:304,1,105.000004005432,10|0,0:0|0:0,0:0:0:0:
405,102,28081,1,8,3:0:0:0:
366,104,28167,1,0,0:0:0:0:
332,124,28252,1,2,0:0:0:0:
311,157,28338,1,0,0:0:0:0:
306,196,28424,1,0,0:0:0:0:
488,120,28595,6,0,L|484:67,1,52.5000020027161,8|0,0:0|0:0,0:0:0:0:
395,189,28767,2,0,L|387:284,1,78.7500030040742,10|0,3:0|2:0,0:0:0:0:
458,315,29110,6,0,P|412:294|319:298,1,105.000004005432,10|0,0:0|0:0,0:0:0:0:
508,200,29452,1,8,3:0:0:0:
251,304,29624,2,0,P|255:251|276:204,1,105.000004005432,2|0,0:0|0:0,0:0:0:0:
438,115,29967,2,0,L|498:122,1,52.5000020027161,8|0,0:0|0:0,0:0:0:0:
264,75,30138,1,10,3:0:0:0:
250,91,30481,6,0,L|130:105,1,105.000004005432,10|0,0:0|0:0,0:0:0:0:
411,24,30824,1,8,3:0:0:0:
213,194,30995,2,0,L|333:208,1,105.000004005432,2|0,0:0|0:0,0:0:0:0:
211,15,31338,2,0,L|151:22,1,52.5000020027161,8|0,0:0|0:0,0:0:0:0:
113,146,31510,1,10,3:0:0:0:
114,162,31595,1,2,0:0:0:0:
123,175,31681,1,2,0:0:0:0:
390,257,31852,6,0,P|413:205|402:146,1,105.000004005432,10|0,0:0|0:0,0:0:0:0:
323,18,32195,1,8,3:0:0:0:
222,218,32367,2,0,P|273:222|320:200,1,105.000004005432,2|0,0:0|0:0,0:0:0:0:
428,51,32710,2,0,L|496:47,1,52.5000020027161,8|0,0:0|0:0,0:0:0:0:
255,127,32881,1,10,3:0:0:0:
242,113,33224,6,0,L|247:-9,1,105.000004005432,10|0,0:0|0:0,0:0:0:0:
298,231,33567,1,8,3:0:0:0:
131,57,33738,2,0,L|135:161,1,105.000004005432,2|0,0:0|0:0,0:0:0:0:
264,304,34081,6,0,L|261:374,1,52.5000020027161,8|0,0:0|0:0,0:0:0:0:
224,238,34252,2,0,P|275:223|303:234,1,78.7500030040742,10|0,3:0|2:0,0:0:0:0:
347,296,34595,6,0,P|377:247|358:179,1,105.000004005432,14|0,0:0|0:0,0:0:0:0:
249,116,34938,1,8,3:0:0:0:
327,371,35110,1,2,0:0:0:0:
365,378,35195,1,2,0:0:0:0:
403,369,35281,1,2,0:0:0:0:
433,344,35367,1,2,0:0:0:0:
450,309,35452,2,0,L|454:242,1,52.5000020027161,8|0,0:0|0:0,0:0:0:0:
226,314,35624,1,10,3:0:0:0:
210,320,35967,6,0,L|93:331,1,105.000004005432,10|0,0:0|0:0,0:0:0:0:
285,221,36310,1,8,3:0:0:0:
23,325,36481,2,0,P|45:272|99:247,1,105.000004005432,2|0,0:0|0:0,0:0:0:0:
302,303,36824,6,0,L|370:313,1,52.5000020027161,8|0,0:0|0:0,0:0:0:0:
192,161,36995,2,0,P|191:204|198:255,1,78.7500030040742,10|0,3:0|2:0,0:0:0:0:
285,221,37338,6,0,P|358:162|452:189,1,157.500006008148,10|0,0:0|0:0,0:0:0:0:
437,179,37681,1,8,3:0:0:0:
192,161,37852,2,0,P|115:160|59:106,1,157.500006008148,2|0,0:0|0:0,0:0:0:0:
60,85,38195,2,0,L|72:5,1,52.5000020027161,8|0,0:0|0:0,0:0:0:0:
105,305,38367,1,10,3:0:0:0:
100,318,38710,5,10,0:0:0:0:
180,310,38881,1,2,0:0:0:0:
216,305,38967,1,2,0:0:0:0:
253,301,39052,1,2,0:0:0:0:
329,291,39224,1,2,0:0:0:0:
367,285,39309,1,2,0:0:0:0:
405,280,39395,1,10,0:0:0:0:
481,269,39567,6,0,L|486:335,1,52.5000020027161,8|0,0:0|0:0,0:0:0:0:
434,208,39738,2,0,L|441:113,1,73.4999977569581,8|0,3:0|2:0,0:0:0:0:
488,65,40081,6,0,B|374:31|421:104|304:67,1,173.250001652241,14|0,0:0|0:0,0:0:0:0:
301,57,40424,1,8,3:0:0:0:
227,239,40595,2,0,B|113:273|160:200|43:237,1,173.250001652241,2|0,0:0|0:0,0:0:0:0:
39,244,40938,2,0,L|53:322,1,57.7500005507469,8|0,0:0|0:0,0:0:0:0:
180,136,41110,1,10,3:0:0:0:
164,145,41452,6,0,P|102:103|144:17,1,173.250001652241,10|0,0:0|0:0,0:0:0:0:
154,15,41795,1,8,3:0:0:0:
316,111,41967,2,0,P|315:178|299:293,1,173.250001652241,2|0,0:0|0:0,0:0:0:0:
291,301,42310,2,0,L|211:310,1,57.7500005507469,8|0,0:0|0:0,0:0:0:0:
408,243,42481,1,10,3:0:0:0:
449,247,42567,1,0,0:0:0:0:
490,252,42652,1,0,0:0:0:0:
504,265,42824,6,0,P|483:187|492:119,1,115.500001101494,10|0,0:0|0:0,0:0:0:0:
365,71,43167,5,8,3:0:0:0:
301,106,43252,1,0,0:0:0:0:
231,115,43338,1,2,0:0:0:0:
160,98,43424,1,0,0:0:0:0:
95,65,43510,2,0,P|86:31|84:-7,1,57.7500005507469,0|0,0:0|0:0,0:0:0:0:
254,195,43681,2,0,P|250:223|242:251,1,57.7500005507469,8|0,0:0|0:0,0:0:0:0:
103,337,43852,1,10,3:0:0:0:
91,321,44195,6,0,P|74:262|69:176,1,115.500001101494,10|0,0:0|0:0,0:0:0:0:
12,370,44538,1,10,3:0:0:0:
242,251,44710,2,0,P|235:308|219:363,1,115.500001101494,2|0,0:0|0:0,0:0:0:0:
169,182,45052,6,0,P|161:150|159:97,1,57.7500005507469,8|0,0:0|0:0,0:0:0:0:
332,233,45224,2,0,P|391:237|445:210,1,105,8|0,3:0|0:0,0:0:0:0:
482,158,45567,5,6,0:0:0:0:
52,21,56538,5,14,0:0:0:0:
54,27,56623,1,0,0:0:0:0:
56,34,56710,2,0,L|63:60,1,24.4999992523194,0|0,0:0|0:0,0:0:0:0:
124,108,56881,1,10,3:0:0:0:
122,114,56966,1,0,0:0:0:0:
120,121,57052,2,0,L|113:147,1,24.4999992523194,0|0,0:0|0:0,0:0:0:0:
62,196,57223,1,10,0:0:0:0:
65,203,57309,1,0,0:0:0:0:
67,211,57395,2,0,L|74:241,1,24.4999992523194,0|0,0:0|0:0,0:0:0:0:
127,287,57567,2,0,L|111:374,1,73.4999977569581,10|0,3:0|2:0,0:0:0:0:
199,359,57910,5,10,0:0:0:0:
206,355,57996,1,0,0:0:0:0:
217,353,58081,2,0,L|253:346,1,31.4999990386963,0|0,0:0|0:0,0:0:0:0:
299,288,58252,1,10,3:0:0:0:
307,291,58338,1,0,0:0:0:0:
317,293,58424,2,0,L|361:300,1,31.4999990386963,0|0,0:0|0:0,0:0:0:0:
379,368,58595,1,10,0:0:0:0:
385,366,58681,1,0,0:0:0:0:
392,365,58766,2,0,L|422:359,1,31.4999990386963,0|0,0:0|0:0,0:0:0:0:
476,304,58938,2,0,L|497:182,1,94.499997116089,10|0,3:0|2:0,0:0:0:0:
460,126,59281,5,10,0:0:0:0:
459,114,59367,1,0,0:0:0:0:
456,105,59453,2,0,P|439:88|426:83,1,38.5000011749268,0|0,0:0|0:0,0:0:0:0:
377,143,59623,1,10,3:0:0:0:
376,155,59709,1,0,0:0:0:0:
373,164,59795,2,0,P|356:181|342:187,1,38.5000011749268,0|0,0:0|0:0,0:0:0:0:
288,115,59966,1,10,0:0:0:0:
286,100,60052,1,0,0:0:0:0:
282,89,60138,2,0,P|262:67|242:59,1,38.5000011749268,0|0,0:0|0:0,0:0:0:0:
222,176,60310,2,0,P|195:204|109:213,1,115.50000352478,10|0,3:0|2:0,0:0:0:0:
2,139,60652,5,10,0:0:0:0:
3,121,60738,1,0,0:0:0:0:
7,106,60824,2,0,P|33:79|67:66,1,45.4999979171754,0|0,0:0|0:0,0:0:0:0:
83,156,60996,1,10,3:0:0:0:
84,173,61082,1,0,0:0:0:0:
88,187,61167,2,0,P|113:212|146:225,1,45.4999979171754,0|0,0:0|0:0,0:0:0:0:
175,154,61339,1,10,0:0:0:0:
177,139,61424,1,0,0:0:0:0:
181,128,61510,2,0,P|201:106|227:98,1,45.4999979171754,0|0,0:0|0:0,0:0:0:0:
259,186,61681,2,0,P|274:202|392:193,1,136.499993751526,10|0,3:0|2:0,0:0:0:0:
327,142,62024,5,14,0:0:0:0:
250,274,62195,1,8,0:0:0:0:
327,142,62367,5,10,3:0:0:0:
325,322,62538,1,8,0:0:0:0:
327,142,62710,5,10,0:0:0:0:
402,279,62881,1,8,0:0:0:0:
328,227,63052,5,10,3:0:0:0:
328,227,63224,1,8,0:0:0:0:
145,327,63395,5,10,0:0:0:0:
25,128,63567,1,8,0:0:0:0:
145,327,63738,5,10,3:0:0:0:
144,65,63910,1,8,0:0:0:0:
145,327,64081,5,10,0:0:0:0:
261,134,64252,1,8,0:0:0:0:
144,208,64424,5,10,3:0:0:0:
144,208,64595,1,8,0:0:0:0:
280,46,64767,5,14,0:0:0:0:
326,25,64852,1,8,0:0:0:0:
376,21,64938,1,10,0:0:0:0:
426,35,65024,1,8,0:0:0:0:
468,66,65110,5,10,3:0:0:0:
440,86,65195,1,8,0:0:0:0:
424,116,65281,1,10,0:0:0:0:
421,149,65367,1,8,0:0:0:0:
433,181,65452,5,10,0:0:0:0:
449,197,65538,1,8,0:0:0:0:
460,217,65624,1,10,0:0:0:0:
465,239,65710,1,8,0:0:0:0:
460,262,65795,5,10,3:0:0:0:
456,272,65881,1,8,0:0:0:0:
454,284,65967,1,10,0:0:0:0:
454,295,66052,1,8,0:0:0:0:
457,306,66138,5,10,0:0:0:0:
343,132,66481,5,2,0:0:0:0:
271,142,66652,5,2,0:0:0:0:
199,205,66824,5,2,0:0:0:0:
60,239,66995,6,0,L|-5:246,1,45.4999979171754,10|0,0:0|0:0,0:0:0:0:
188,98,67167,5,10,3:0:0:0:
381,270,67338,5,2,0:0:0:0:
104,60,67510,6,0,P|171:9|270:51,1,178.500003404617,6|0,0:0|2:0,0:0:0:0:
297,98,67852,1,8,3:0:0:0:
8,81,68024,5,0,0:0:0:0:
8,81,68110,1,0,0:0:0:0:
8,81,68195,2,0,L|-5:174,1,59.5000011348725,2|0,0:0|0:0,0:0:0:0:
182,190,68367,2,0,L|195:283,1,59.5000011348725,10|0,0:0|0:0,0:0:0:0:
58,360,68538,1,10,3:0:0:0:
44,346,68881,6,0,P|29:302|34:272,1,59.5000011348725,2|0,0:0|0:0,0:0:0:0:
274,252,69052,2,0,P|272:281|259:308,1,59.5000011348725,2|0,0:0|0:0,0:0:0:0:
103,137,69224,6,0,P|136:108|222:112,1,119.000002269745,10|0,3:0|0:0,0:0:0:0:
352,193,69567,1,2,0:0:0:0:
197,2,69738,1,10,0:0:0:0:
127,261,69910,6,0,P|124:292|129:321,1,59.5000011348725,10|0,3:0|0:0,0:0:0:0:
314,108,70081,2,0,P|317:78|312:49,1,59.5000011348725,2|0,0:0|0:0,0:0:0:0:
179,187,70252,6,0,B|287:157|256:221|353:193,1,178.500003404617,2|0,0:0|2:0,0:0:0:0:
410,149,70595,2,0,P|419:83|391:20,1,119.000002269745,10|0,3:0|0:0,0:0:0:0:
271,335,70938,1,2,0:0:0:0:
314,108,71110,1,10,0:0:0:0:
437,263,71281,6,0,P|442:301|418:340,1,59.5000011348725,10|0,3:0|0:0,0:0:0:0:
237,135,71452,2,0,P|232:97|256:58,1,59.5000011348725,2|0,0:0|0:0,0:0:0:0:
357,277,71624,6,0,P|293:232|195:255,1,178.500003404617,2|0,0:0|0:0,0:0:0:0:
141,308,71967,5,10,3:0:0:0:
384,173,72138,1,2,0:0:0:0:
123,224,72310,5,2,0:0:0:0:
441,238,72481,1,10,0:0:0:0:
63,279,72652,5,10,3:0:0:0:
469,154,72824,1,2,0:0:0:0:
58,160,72995,6,0,P|136:135|210:218,1,178.500003404617,6|0,0:0|2:0,0:0:0:0:
225,264,73338,1,8,3:0:0:0:
167,43,73510,5,0,0:0:0:0:
167,43,73595,1,0,0:0:0:0:
167,43,73681,2,0,L|258:33,1,59.5000011348725,2|0,0:0|0:0,0:0:0:0:
319,169,73852,2,0,L|410:179,1,59.5000011348725,10|0,0:0|0:0,0:0:0:0:
491,29,74024,1,10,3:0:0:0:
479,39,74367,6,0,P|473:82|501:131,1,59.5000011348725,2|0,0:0|0:0,0:0:0:0:
216,236,74538,2,0,P|222:193|194:144,1,59.5000011348725,2|0,0:0|0:0,0:0:0:0:
395,16,74710,6,0,P|385:86|430:166,1,119.000002269745,10|0,3:0|0:0,0:0:0:0:
264,311,75052,1,2,0:0:0:0:
481,184,75224,1,10,0:0:0:0:
279,86,75395,6,0,L|199:82,1,59.5000011348725,10|0,3:0|0:0,0:0:0:0:
452,267,75567,2,0,L|532:263,1,59.5000011348725,2|0,0:0|0:0,0:0:0:0:
239,174,75738,6,0,B|167:171|167:171|142:197|142:197|44:193,1,178.500003404617,2|0,0:0|2:0,0:0:0:0:
4,151,76081,5,10,3:0:0:0:
239,255,76252,1,0,0:0:0:0:
63,94,76424,5,2,0:0:0:0:
178,310,76595,1,10,0:0:0:0:
134,71,76767,6,0,L|129:11,1,59.5000011348725,10|0,3:0|0:0,0:0:0:0:
94,325,76938,2,0,L|89:385,1,59.5000011348725,2|0,0:0|0:0,0:0:0:0:
212,115,77110,6,0,B|331:99|263:171|402:150,1,178.500003404617,2|0,0:0|0:0,0:0:0:0:
354,73,77452,5,10,3:0:0:0:
149,193,77624,1,2,0:0:0:0:
455,219,77795,1,10,0:0:0:0:
461,171,77881,1,8,3:0:0:0:
467,123,77967,1,10,0:0:0:0:
118,112,78138,5,10,3:0:0:0:
343,333,78310,1,10,0:0:0:0:
443,32,78481,1,6,0:0:0:0:
428,42,78824,6,0,L|298:48,1,119.000002269745,8|0,3:0|0:0,0:0:0:0:
81,32,79167,2,0,P|102:69|102:120,1,59.5000011348725,2|0,0:0|0:0,0:0:0:0:
286,163,79338,2,0,P|265:200|265:251,1,59.5000011348725,10|0,0:0|0:0,0:0:0:0:
144,346,79510,1,10,3:0:0:0:
139,333,79852,5,2,0:0:0:0:
176,269,80024,2,0,L|202:271,1,26.2500010013581,2|0,0:0|0:0,0:0:0:0:
154,255,80195,2,0,L|101:260,1,52.5000020027161,2|0,0:0|0:0,0:0:0:0:
185,188,80538,2,0,L|237:193,1,52.5000020027161,2|0,0:0|0:0,0:0:0:0:
6,283,80881,6,0,P|3:233|20:200,1,59.5000011348725,10|0,3:0|0:0,0:0:0:0:
286,296,81052,2,0,P|289:346|272:379,1,59.5000011348725,2|0,0:0|0:0,0:0:0:0:
93,134,81224,6,0,P|140:90|273:129,1,178.500003404617,6|0,0:0|2:0,0:0:0:0:
305,155,81567,2,0,P|363:174|439:147,1,119.000002269745,10|0,3:0|0:0,0:0:0:0:
120,0,81910,1,2,0:0:0:0:
167,270,82081,1,10,0:0:0:0:
364,88,82252,6,0,L|368:25,1,59.5000011348725,10|0,3:0|0:0,0:0:0:0:
93,134,82424,2,0,L|96:193,1,59.5000011348725,2|0,0:0|0:0,0:0:0:0:
384,319,82595,6,0,P|369:277|236:299,1,178.500003404617,2|0,0:0|0:0,0:0:0:0:
307,325,82938,5,10,3:0:0:0:
446,92,83110,1,2,0:0:0:0:
229,348,83281,5,2,0:0:0:0:
285,54,83452,1,10,0:0:0:0:
466,344,83624,5,10,3:0:0:0:
370,40,83795,1,2,0:0:0:0:
153,382,83967,6,0,B|120:292|194:311|154:205,1,178.500003404617,6|0,0:0|2:0,0:0:0:0:
124,137,84310,1,8,3:0:0:0:
11,276,84481,5,0,0:0:0:0:
11,276,84567,1,0,0:0:0:0:
11,276,84652,2,0,P|45:266|94:266,1,59.5000011348725,2|0,0:0|0:0,0:0:0:0:
217,145,84824,2,0,P|251:155|300:155,1,59.5000011348725,10|0,0:0|0:0,0:0:0:0:
408,283,84995,1,10,3:0:0:0:
425,259,85338,6,0,L|432:189,1,59.5000011348725,2|0,0:0|0:0,0:0:0:0:
198,268,85510,2,0,L|203:327,1,59.5000011348725,2|0,0:0|0:0,0:0:0:0:
493,149,85681,6,0,P|432:118|373:144,1,119.000002269745,10|0,3:0|0:0,0:0:0:0:
287,340,86024,1,2,0:0:0:0:
512,236,86195,1,10,0:0:0:0:
288,115,86367,6,0,P|283:155|319:199,1,59.5000011348725,10|0,3:0|0:0,0:0:0:0:
449,352,86538,6,0,B|451:353|491:364|507:349|507:349|501:341|491:337,1,77.0000023498536,2|0,0:0|0:0,0:0:0:0:
263,26,86710,2,0,B|278:74|262:155|214:199|214:199|203:185|202:156,1,231.000007049561,6|0,0:0|2:0,0:0:0:0:
145,248,87052,6,0,L|155:375,1,119.000002269745,10|0,3:0|0:0,0:0:0:0:
184,81,87395,1,2,0:0:0:0:
322,299,87567,1,10,0:0:0:0:
273,77,87738,6,0,L|278:3,1,59.5000011348725,10|0,3:0|0:0,0:0:0:0:
234,293,87910,2,0,L|238:352,1,59.5000011348725,2|0,0:0|0:0,0:0:0:0:
410,129,88081,6,0,B|301:112|346:179|219:157,1,178.500003404617,2|0,0:0|0:0,0:0:0:0:
184,81,88424,5,10,3:0:0:0:
383,212,88595,1,2,0:0:0:0:
104,191,88767,5,2,0:0:0:0:
385,289,88938,1,10,0:0:0:0:
37,329,89110,5,10,3:0:0:0:
418,364,89281,1,2,0:0:0:0:
106,93,89452,5,6,0:0:0:0:
151,63,89537,1,2,0:0:0:0:
205,62,89623,1,2,0:0:0:0:
251,91,89709,1,2,0:0:0:0:
277,138,89796,1,2,0:0:0:0:
302,185,89881,1,2,0:0:0:0:
348,214,89967,1,2,0:0:0:0:
402,213,90053,1,2,0:0:0:0:
447,183,90138,2,0,L|458:87,1,66.4999982242585,10|2,0:0|0:0,0:0:0:0:
180,174,90310,2,0,L|188:240,1,66.4999982242585,10|0,0:0|0:0,0:0:0:0:
289,331,90481,6,0,P|326:316|412:308,1,105,10|0,3:0|2:0,0:0:0:0:
419,48,90824,5,6,0:0:0:0:
364,50,90909,1,2,0:0:0:0:
321,82,90995,1,2,0:0:0:0:
304,133,91081,1,2,0:0:0:0:
318,185,91166,1,10,3:0:0:0:
360,219,91252,1,2,0:0:0:0:
414,223,91338,1,2,0:0:0:0:
461,196,91424,1,2,0:0:0:0:
485,148,91510,2,0,L|379:137,1,66.4999982242585,10|2,0:0|0:0,0:0:0:0:
283,256,91681,2,0,L|187:266,1,66.4999982242585,10|0,0:0|0:0,0:0:0:0:
62,82,91852,6,0,B|64:23|157:15|187:101|80:223,1,262.5,10|0,3:0|2:0,0:0:0:0:
1,372,92195,5,6,0:0:0:0:
47,343,92280,1,2,0:0:0:0:
100,329,92366,1,2,0:0:0:0:
154,327,92452,1,2,0:0:0:0:
208,340,92538,1,10,3:0:0:0:
262,354,92623,1,2,0:0:0:0:
316,352,92709,1,2,0:0:0:0:
370,339,92795,1,2,0:0:0:0:
416,311,92881,2,0,P|414:285|423:229,1,66.4999982242585,8|2,0:0|0:0,0:0:0:0:
178,166,93052,2,0,P|181:189|178:240,1,66.4999982242585,10|0,0:0|0:0,0:0:0:0:
298,332,93224,6,0,P|296:281|300:220,1,105,10|0,3:0|2:0,0:0:0:0:
334,67,93567,5,6,0:0:0:0:
372,27,93652,1,2,0:0:0:0:
425,15,93738,1,2,0:0:0:0:
477,31,93824,1,2,0:0:0:0:
512,72,93910,1,10,3:0:0:0:
473,111,93995,1,2,0:0:0:0:
420,124,94081,1,2,0:0:0:0:
369,106,94167,1,2,0:0:0:0:
334,67,94252,2,0,P|273:75|243:90,1,66.4999982242585,10|0,0:0|0:0,0:0:0:0:
172,225,94424,2,0,P|117:216|90:203,1,66.4999982242585,10|0,0:0|0:0,0:0:0:0:
0,26,94595,6,0,B|124:0|72:157|209:140,1,262.5,10|0,3:0|2:0,0:0:0:0:
43,339,94938,5,6,0:0:0:0:
97,347,95023,1,2,0:0:0:0:
147,325,95109,1,2,0:0:0:0:
174,280,95195,1,2,0:0:0:0:
172,225,95280,1,10,3:0:0:0:
139,182,95366,1,2,0:0:0:0:
89,166,95452,1,2,0:0:0:0:
37,180,95538,1,2,0:0:0:0:
2,222,95624,2,0,L|-3:297,1,66.4999982242585,10|2,0:0|0:0,0:0:0:0:
245,373,95795,2,0,L|249:306,1,66.4999982242585,10|0,0:0|0:0,0:0:0:0:
139,182,95967,6,0,L|131:294,1,105,10|0,3:0|2:0,0:0:0:0:
343,56,96310,5,6,0:0:0:0:
297,25,96395,1,2,0:0:0:0:
244,25,96481,1,2,0:0:0:0:
197,54,96567,1,2,0:0:0:0:
176,104,96652,1,10,3:0:0:0:
156,153,96737,1,2,0:0:0:0:
109,183,96823,1,2,0:0:0:0:
55,183,96909,1,2,0:0:0:0:
10,152,96995,2,0,P|58:145|104:145,1,66.4999982242585,10|2,0:0|0:0,0:0:0:0:
266,110,97167,2,0,P|314:117|360:117,1,66.4999982242585,10|0,0:0|0:0,0:0:0:0:
505,59,97338,6,0,B|481:17|448:17|448:17|411:62|412:143|486:184,1,262.5,10|0,3:0|2:0,0:0:0:0:
433,330,97681,5,6,0:0:0:0:
391,364,97767,1,2,0:0:0:0:
339,376,97853,1,2,0:0:0:0:
288,356,97939,1,2,0:0:0:0:
253,313,98024,1,10,3:0:0:0:
294,277,98110,1,2,0:0:0:0:
347,268,98196,1,2,0:0:0:0:
397,285,98282,1,2,0:0:0:0:
433,330,98366,2,0,L|522:322,1,66.4999982242585,10|0,0:0|0:0,0:0:0:0:
430,142,98538,2,0,L|363:147,1,66.4999982242585,10|0,0:0|0:0,0:0:0:0:
238,247,98710,6,0,P|301:256|374:248,1,105,10|0,3:0|2:0,0:0:0:0:
96,32,99052,5,6,0:0:0:0:
76,81,99137,1,2,0:0:0:0:
92,133,99223,1,2,0:0:0:0:
136,164,99309,1,2,0:0:0:0:
190,161,99395,1,10,3:0:0:0:
237,134,99480,1,2,0:0:0:0:
290,120,99566,1,2,0:0:0:0:
344,120,99652,1,2,0:0:0:0:
398,133,99738,5,10,0:0:0:0:
424,203,99823,1,10,0:0:0:0:
499,211,99909,1,10,0:0:0:0:
476,142,99995,1,2,0:0:0:0:
476,142,100081,2,0,L|125:164,1,341.250009763241,10|0,3:0|2:0,0:0:0:0:
139,304,100424,5,6,0:0:0:0:
147,268,100510,1,2,0:0:0:0:
150,232,100596,1,2,0:0:0:0:
147,194,100682,1,2,0:0:0:0:
137,159,100767,5,10,3:0:0:0:
137,159,100853,1,2,0:0:0:0:
137,159,100938,2,0,P|91:135|68:128,1,70,2|0,0:0|0:0,0:0:0:0:
114,50,101110,5,10,0:0:0:0:
83,44,101195,1,2,0:0:0:0:
52,48,101281,1,10,0:0:0:0:
23,59,101367,1,0,0:0:0:0:
0,79,101452,1,8,3:0:0:0:
281,302,101795,5,6,0:0:0:0:
312,305,101880,1,2,0:0:0:0:
343,300,101966,1,2,0:0:0:0:
372,288,102052,1,2,0:0:0:0:
397,267,102138,5,10,3:0:0:0:
397,267,102224,1,2,0:0:0:0:
397,267,102310,2,0,L|405:330,1,52.5000020027161,2|0,0:0|0:0,0:0:0:0:
512,279,102481,5,10,0:0:0:0:
507,301,102566,1,2,0:0:0:0:
502,323,102652,1,10,0:0:0:0:
497,345,102738,1,0,0:0:0:0:
492,367,102823,1,8,3:0:0:0:
172,169,103167,5,6,0:0:0:0:
162,133,103252,1,2,0:0:0:0:
166,94,103338,2,0,P|173:58|185:28,1,41.9999987182618,2|0,0:0|0:0,0:0:0:0:
290,183,103510,5,10,3:0:0:0:
270,171,103595,1,2,0:0:0:0:
254,153,103681,2,0,P|241:134|233:116,1,35,2|0,0:0|0:0,0:0:0:0:
372,121,103852,5,10,0:0:0:0:
358,119,103937,1,0,0:0:0:0:
344,116,104023,1,10,0:0:0:0:
330,112,104109,1,0,0:0:0:0:
317,108,104194,1,10,3:0:0:0:
106,320,104538,5,6,0:0:0:0:
78,325,104624,1,0,0:0:0:0:
51,330,104710,2,0,L|-14:344,1,35,2|0,0:0|0:0,0:0:0:0:
171,272,104881,5,10,3:0:0:0:
154,260,104967,1,0,0:0:0:0:
139,250,105053,2,0,L|100:225,1,31.4999990386963,2|0,0:0|0:0,0:0:0:0:
252,274,105224,5,10,0:0:0:0:
249,260,105309,1,0,0:0:0:0:
246,246,105395,1,10,0:0:0:0:
243,232,105481,1,0,0:0:0:0:
240,219,105566,1,10,3:0:0:0:
67,9,105910,5,6,0:0:0:0:
64,29,105995,1,2,0:0:0:0:
67,46,106081,2,0,P|79:83|86:95,1,28,2|0,0:0|0:0,0:0:0:0:
161,69,106252,6,0,P|150:89|148:97,3,24.4999992523194,10|2|2|0,3:0|0:0|0:0|0:0,0:0:0:0:
231,141,106595,5,10,0:0:0:0:
220,143,106680,1,2,0:0:0:0:
210,146,106766,1,10,0:0:0:0:
200,149,106852,1,0,0:0:0:0:
191,154,106937,1,10,3:0:0:0:
388,327,107281,5,6,0:0:0:0:
369,324,107367,1,2,0:0:0:0:
351,321,107453,2,0,L|327:315,1,24.4999992523194,2|0,0:0|0:0,0:0:0:0:
364,237,107624,6,0,L|351:217,3,20.9999993591309,10|2|2|0,3:0|0:0|0:0|0:0,0:0:0:0:
424,174,107967,5,10,0:0:0:0:
425,165,108052,1,2,0:0:0:0:
427,156,108138,1,10,0:0:0:0:
429,148,108224,1,0,0:0:0:0:
431,139,108309,1,10,3:0:0:0:
84,254,108652,5,6,0:0:0:0:
90,270,108738,1,2,0:0:0:0:
98,284,108824,2,0,P|109:301|113:306,1,17.5,2|0,0:0|0:0,0:0:0:0:
169,237,108995,6,0,P|166:249|166:252,3,14,10|2|2|0,3:0|0:0|0:0|0:0,0:0:0:0:
259,244,109338,5,10,0:0:0:0:
254,246,109423,1,0,0:0:0:0:
249,248,109509,1,10,0:0:0:0:
245,252,109595,1,0,0:0:0:0:
241,255,109680,1,10,3:0:0:0:
46,76,110024,5,6,0:0:0:0:
47,65,110110,1,0,0:0:0:0:
49,55,110196,2,0,L|51:41,1,10.4999996795654,2|0,0:0|0:0,0:0:0:0:
124,97,110367,6,0,L|129:93,3,7,10|2|2|0,3:0|0:0|0:0|0:0,0:0:0:0:
150,176,110710,5,10,0:0:0:0:
153,177,110795,1,0,0:0:0:0:
156,178,110881,1,10,0:0:0:0:
159,178,110967,1,0,0:0:0:0:
162,179,111052,1,10,3:0:0:0:
386,59,111395,5,4,0:0:0:0:
288,297,116538,6,0,P|248:298|279:364,1,125.999996154785,2|0,2:1|2:1,2:1:0:0:
334,358,116881,6,0,L|470:342,1,125.999996154785,2|0,2:1|2:1,2:1:0:0:
399,180,117395,1,2,2:1:0:0:
364,250,117567,5,0,2:1:0:0:
367,259,117652,1,0,2:1:0:0:
370,268,117738,1,0,2:1:0:0:
464,129,117910,2,0,P|410:99|361:109,1,94.499997116089,2|0,2:1|2:1,2:1:0:0:
290,95,118252,6,0,P|265:124|184:154,1,125.999996154785,2|0,2:1|2:1,2:1:0:0:
1,109,118767,2,0,P|38:114|104:169,1,125.999996154785,2|0,2:1|2:1,2:1:0:0:
158,353,119281,6,0,P|144:316|158:231,1,125.999996154785,2|0,2:1|2:1,2:1:0:0:
184,154,119624,6,0,P|244:137|289:94,1,125.999996154785,2|0,2:1|2:1,2:1:0:0:
104,169,120138,2,0,P|60:124|0:109,1,125.999996154785,2|0,2:1|2:1,2:1:0:0:
158,232,120652,6,0,P|141:292|158:352,1,125.999996154785,2|0,2:1|2:1,2:1:0:0:
235,348,120995,6,0,P|270:314|360:332,1,115.50000352478,2|0,2:1|2:1,2:1:0:0:
346,321,121338,1,2,2:1:0:0:
369,337,121424,1,2,2:1:0:0:
418,342,121510,1,2,2:1:0:0:
469,303,121595,2,0,P|472:233|460:142,1,154.000004699707,2|0,2:1|2:1,2:1:0:0:
487,80,122024,6,0,B|404:65|441:114|352:98,1,125.999996154785,2|0,2:1|2:1,2:1:0:0:
287,55,122367,6,0,P|328:78|341:182,1,140,2|0,2:1|2:1,2:1:0:0:
200,247,122881,2,0,P|199:199|282:136,1,140,2|0,2:1|2:1,2:1:0:0:
407,229,123395,6,0,P|345:253|285:226,1,136.499993751526,2|0,2:1|2:1,2:1:0:0:
262,138,123738,6,0,P|208:179|200:247,1,140,2|0,2:1|2:1,2:1:0:0:
349,163,124252,2,0,P|341:95|287:55,1,140,2|0,2:1|2:1,2:1:0:0:
285,226,124767,1,2,2:1:0:0:
312,246,124852,1,0,2:1:0:0:
345,253,124938,1,0,2:1:0:0:
481,131,125110,6,0,P|403:136|339:171,1,140,2|0,2:1|2:1,2:1:0:0:
213,221,125624,2,0,P|275:250|345:253,1,140,2|0,2:1|2:1,2:1:0:0:
128,190,126138,2,0,L|14:200,1,105,2|0,2:1|2:1,2:1:0:0:
42,127,126481,6,0,L|131:119,1,70,2|0,2:1|2:1,2:1:0:0:
288,106,126824,1,2,2:1:0:0:
115,50,126995,2,0,L|128:201,1,140,2|0,2:1|2:1,2:1:0:0:
245,350,127510,6,0,B|317:329|290:381|388:346,1,125.999996154785,2|0,2:1|2:1,2:1:0:0:
332,282,127852,6,0,L|345:180,1,90.9999958343508,6|0,0:0|0:0,0:0:0:0:
151,129,128195,2,0,L|162:219,1,90.9999958343508,8|2,3:0|0:0,0:0:0:0:
294,109,128538,1,2,0:0:0:0:
298,78,128623,1,0,0:0:0:0:
302,47,128709,1,2,0:0:0:0:
110,40,128881,1,10,3:0:0:0:
234,170,129052,1,2,0:0:0:0:
390,45,129224,6,0,P|435:42|494:81,1,90.9999958343508,2|0,0:0|0:0,0:0:0:0:
261,254,129567,2,0,P|216:257|157:218,1,90.9999958343508,8|0,3:0|0:0,0:0:0:0:
224,34,129910,1,2,0:0:0:0:
333,208,130081,1,2,0:0:0:0:
133,165,130252,1,10,3:0:0:0:
302,47,130424,1,2,0:0:0:0:
242,343,130595,6,0,P|185:340|139:319,1,90.9999958343508,2|0,0:0|0:0,0:0:0:0:
374,299,130938,1,8,3:0:0:0:
65,352,131110,2,0,P|68:295|89:249,1,90.9999958343508,0|2,0:0|0:0,0:0:0:0:
264,167,131452,1,2,0:0:0:0:
325,375,131624,1,10,3:0:0:0:
165,208,131795,1,2,0:0:0:0:
449,229,131967,5,2,0:0:0:0:
239,254,132138,1,2,0:0:0:0:
244,291,132223,1,0,0:0:0:0:
249,330,132309,1,10,3:0:0:0:
446,333,132481,2,0,L|447:275,1,45.4999979171754,2|2,0:0|0:0,0:0:0:0:
297,142,132652,5,2,0:0:0:0:
446,333,132824,1,2,0:0:0:0:
249,330,132995,1,10,3:0:0:0:
396,145,133167,1,2,0:0:0:0:
130,286,133338,6,0,L|21:299,1,97.9999970092774,10|0,1:0|0:0,0:0:0:0:
347,229,133681,2,0,L|456:242,1,97.9999970092774,8|2,3:0|0:0,0:0:0:0:
118,174,134024,5,10,1:0:0:0:
321,344,134195,1,8,0:0:0:0:
293,59,134367,1,10,3:0:0:0:
281,52,134710,6,0,L|268:161,1,97.9999970092774,10|0,1:0|0:0,0:0:0:0:
184,375,135052,2,0,L|171:266,1,97.9999970092774,8|2,3:0|0:0,0:0:0:0:
147,95,135395,5,10,1:0:0:0:
286,341,135567,1,8,0:0:0:0:
363,63,135738,1,10,3:0:0:0:
370,78,136081,5,10,1:0:0:0:
134,204,136252,1,8,1:0:0:0:
386,169,136424,5,8,3:0:0:0:
128,118,136595,1,8,0:0:0:0:
453,110,136767,5,8,1:0:0:0:
57,166,136938,1,8,1:0:0:0:
472,194,137110,5,10,3:0:0:0:
47,80,137281,1,8,1:0:0:0:
403,39,137452,5,10,1:0:0:0:
372,76,137537,1,8,1:0:0:0:
366,124,137623,1,8,1:0:0:0:
386,169,137710,1,8,1:0:0:0:
426,196,137795,1,8,3:0:0:0:
466,223,137881,1,8,1:0:0:0:
486,268,137967,1,10,1:0:0:0:
480,316,138053,1,8,1:0:0:0:
450,354,138138,6,0,L|413:360,2,24.4999992523194,10|8|8,0:0|0:0|0:0,0:0:0:0:
394,276,138310,6,0,L|357:270,2,24.4999992523194,8|8|8,0:0|0:0|0:0,0:0:0:0:
290,364,138481,6,0,L|253:370,2,24.4999992523194,10|8|8,3:0|0:0|0:0,0:0:0:0:
234,238,138652,6,0,L|197:232,2,24.4999992523194,8|8|8,0:0|0:0|0:0,0:0:0:0:
126,373,138824,5,10,0:0:0:0:
126,373,139167,5,2,0:0:0:0:
85,299,139338,5,2,0:0:0:0:
103,189,139510,5,2,0:0:0:0:
238,90,139681,5,2,0:0:0:0:
33,235,139852,6,0,L|-15:240,1,48.9999985046387,10|0,0:0|0:0,0:0:0:0:
216,353,140024,5,8,0:0:0:0:
216,353,140110,1,8,0:0:0:0:
216,353,140195,6,0,B|313:307|282:391|403:336,1,178.500003404617,6|0,0:0|2:0,0:0:0:0:
336,278,140538,1,8,3:0:0:0:
100,327,140710,5,0,0:0:0:0:
100,327,140795,1,0,0:0:0:0:
100,327,140881,2,0,P|111:285|112:250,1,59.5000011348725,2|0,0:0|0:0,0:0:0:0:
281,200,141052,2,0,P|270:158|269:123,1,59.5000011348725,10|0,0:0|0:0,0:0:0:0:
153,42,141224,1,10,3:0:0:0:
145,57,141567,6,0,L|156:157,1,59.5000011348725,2|0,0:0|0:0,0:0:0:0:
363,152,141738,2,0,L|369:92,1,59.5000011348725,2|0,0:0|0:0,0:0:0:0:
66,143,141910,6,0,P|125:205|191:196,1,119.000002269745,10|0,3:0|0:0,0:0:0:0:
454,135,142252,1,2,0:0:0:0:
211,13,142424,1,10,0:0:0:0:
429,215,142595,6,0,P|429:244|419:272,1,59.5000011348725,10|0,3:0|0:0,0:0:0:0:
285,66,142767,2,0,P|284:36|294:8,1,59.5000011348725,2|0,0:0|0:0,0:0:0:0:
328,290,142938,6,0,B|230:261|262:336|129:293,1,178.500003404617,2|0,0:0|2:0,0:0:0:0:
88,258,143281,2,0,P|134:223|192:231,1,119.000002269745,10|0,3:0|0:0,0:0:0:0:
381,374,143624,1,2,0:0:0:0:
72,337,143795,1,10,0:0:0:0:
396,248,143967,6,0,P|407:299|393:332,1,59.5000011348725,10|0,3:0|0:0,0:0:0:0:
146,195,144138,2,0,P|135:144|149:111,1,59.5000011348725,2|0,0:0|0:0,0:0:0:0:
416,79,144310,2,0,P|388:165|308:113,1,178.500003404617,2|0,0:0|0:0,0:0:0:0:
339,72,144652,5,10,3:0:0:0:
312,267,144824,1,2,0:0:0:0:
206,20,144995,5,2,0:0:0:0:
220,293,145167,1,10,0:0:0:0:
49,6,145338,5,10,3:0:0:0:
133,343,145510,1,2,0:0:0:0:
339,72,145681,6,0,P|399:59|489:151,1,178.500003404617,6|0,0:0|2:0,0:0:0:0:
492,201,146024,1,8,3:0:0:0:
266,91,146195,5,0,0:0:0:0:
266,91,146281,1,0,0:0:0:0:
266,91,146367,2,0,P|224:105|184:105,1,59.5000011348725,2|0,0:0|0:0,0:0:0:0:
152,262,146538,2,0,P|110:248|70:248,1,59.5000011348725,10|0,0:0|0:0,0:0:0:0:
9,126,146710,1,10,3:0:0:0:
17,139,147052,6,0,P|24:172|17:220,1,59.5000011348725,2|0,0:0|0:0,0:0:0:0:
259,290,147224,2,0,P|252:257|259:209,1,59.5000011348725,2|0,0:0|0:0,0:0:0:0:
109,23,147395,6,0,P|123:89|109:185,1,119.000002269745,10|0,3:0|0:0,0:0:0:0:
35,342,147738,1,2,0:0:0:0:
223,137,147910,1,10,0:0:0:0:
122,363,148081,6,0,P|115:330|122:282,1,59.5000011348725,10|0,3:0|0:0,0:0:0:0:
317,118,148252,2,0,P|317:147|311:176,1,59.5000011348725,2|0,0:0|0:0,0:0:0:0:
44,264,148424,6,0,P|87:230|196:279,1,178.500003404617,2|0,0:0|2:0,0:0:0:0:
212,345,148767,5,10,3:0:0:0:
31,163,148938,1,0,0:0:0:0:
296,314,149110,5,2,0:0:0:0:
6,353,149281,1,10,0:0:0:0:
313,183,149452,6,0,L|386:193,1,59.5000011348725,10|0,3:0|0:0,0:0:0:0:
102,272,149624,2,0,L|29:262,1,59.5000011348725,2|0,0:0|0:0,0:0:0:0:
284,102,149795,2,0,P|370:125|390:220,1,178.500003404617,2|0,0:0|0:0,0:0:0:0:
336,264,150138,5,10,3:0:0:0:
121,132,150310,1,2,0:0:0:0:
246,362,150481,1,10,0:0:0:0:
245,324,150567,1,8,3:0:0:0:
244,286,150652,1,10,0:0:0:0:
0,152,150824,5,10,3:0:0:0:
246,362,150995,1,10,0:0:0:0:
188,31,151167,1,6,0:0:0:0:
175,52,151510,6,0,L|189:203,1,119.000002269745,8|0,3:0|0:0,0:0:0:0:
440,326,151852,2,0,L|446:254,1,59.5000011348725,2|0,0:0|0:0,0:0:0:0:
285,208,152024,2,0,L|278:136,1,59.5000011348725,10|0,0:0|0:0,0:0:0:0:
410,59,152195,1,10,3:0:0:0:
403,43,152538,5,2,0:0:0:0:
331,30,152710,2,0,L|327:5,1,26.2500010013581,2|0,0:0|0:0,0:0:0:0:
319,35,152881,2,0,L|267:43,1,52.5000020027161,2|0,0:0|0:0,0:0:0:0:
285,116,153224,2,0,L|336:107,1,52.5000020027161,2|0,0:0|0:0,0:0:0:0:
151,67,153567,6,0,P|147:97|157:125,1,59.5000011348725,10|0,3:0|0:0,0:0:0:0:
445,169,153738,2,0,P|453:141|451:112,1,59.5000011348725,2|0,0:0|0:0,0:0:0:0:
78,129,153910,6,0,P|114:190|224:167,1,178.500003404617,6|0,0:0|2:0,0:0:0:0:
248,115,154252,2,0,L|412:141,1,119.000002269745,10|0,3:0|0:0,0:0:0:0:
61,46,154595,1,2,0:0:0:0:
301,218,154767,1,10,0:0:0:0:
143,13,154938,6,0,L|149:73,1,59.5000011348725,10|0,3:0|0:0,0:0:0:0:
218,302,155110,2,0,L|223:242,1,59.5000011348725,2|0,0:0|0:0,0:0:0:0:
10,149,155281,6,0,B|125:129|67:190|202:165,1,178.500003404617,2|0,0:0|0:0,0:0:0:0:
223,104,155624,5,10,3:0:0:0:
43,252,155795,1,2,0:0:0:0:
304,90,155967,5,2,0:0:0:0:
162,346,156138,1,10,0:0:0:0:
388,61,156310,5,10,3:0:0:0:
350,384,156481,1,2,0:0:0:0:
148,42,156652,6,0,P|197:30|307:96,1,178.500003404617,6|0,0:0|2:0,0:0:0:0:
338,160,156995,1,8,3:0:0:0:
60,177,157167,5,0,0:0:0:0:
60,177,157252,1,0,0:0:0:0:
60,177,157338,2,0,L|138:162,1,59.5000011348725,2|0,0:0|0:0,0:0:0:0:
204,288,157510,2,0,L|282:303,1,59.5000011348725,10|0,0:0|0:0,0:0:0:0:
414,213,157681,1,10,3:0:0:0:
389,224,158024,6,0,P|385:259|401:296,1,59.5000011348725,2|0,0:0|0:0,0:0:0:0:
472,78,158195,2,0,P|476:43|460:6,1,59.5000011348725,2|0,0:0|0:0,0:0:0:0:
221,116,158367,6,0,P|284:100|358:132,1,119.000002269745,10|0,3:0|0:0,0:0:0:0:
497,318,158710,1,2,0:0:0:0:
272,205,158881,1,10,0:0:0:0:
505,163,159052,6,0,L|500:226,1,59.5000011348725,10|0,3:0|0:0,0:0:0:0:
410,352,159224,6,0,B|407:359|400:366|400:366|388:336|395:304,1,77.0000023498536,2|0,0:0|0:0,0:0:0:0:
239,82,159395,2,0,B|242:52|255:32|255:32|304:112|261:241,1,231.000007049561,6|0,0:0|2:0,0:0:0:0:
249,284,159738,6,0,P|187:256|98:280,1,119.000002269745,10|0,3:0|0:0,0:0:0:0:
392,184,160081,1,2,0:0:0:0:
177,352,160252,1,10,0:0:0:0:
169,89,160424,2,0,P|175:53|163:22,1,59.5000011348725,10|0,3:0|0:0,0:0:0:0:
338,258,160595,2,0,P|332:294|344:325,1,59.5000011348725,2|0,0:0|0:0,0:0:0:0:
99,140,160767,6,0,P|154:175|222:158,1,119.000002269745,2|0,0:0|0:0,0:0:0:0:
409,202,161110,2,0,P|354:167|286:184,1,119.000002269745,10|0,3:0|0:0,0:0:0:0:
180,248,161452,6,0,P|230:240|260:214,1,59.5000011348725,2|0,0:0|0:0,0:0:0:0:
321,92,161624,2,0,P|271:100|241:126,1,59.5000011348725,10|0,0:0|0:0,0:0:0:0:
279,297,161795,2,0,P|308:255|311:216,1,59.5000011348725,10|0,3:0|0:0,0:0:0:0:
220,44,161967,2,0,P|190:85|187:124,1,59.5000011348725,2|0,0:0|0:0,0:0:0:0:
317,374,162138,6,0,L|492:357,1,168,6|0,0:0|2:0,0:0:0:0:
483,282,162481,2,0,L|350:294,1,112,8|0,3:0|0:0,0:0:0:0:
219,365,162824,1,2,0:0:0:0:
374,209,162995,2,0,L|379:153,1,56,2|0,0:0|0:0,0:0:0:0:
300,84,163167,2,0,L|289:202,1,112,10|0,3:0|0:0,0:0:0:0:
170,242,163510,6,0,P|114:205|20:271,1,168,6|0,0:0|2:0,0:0:0:0:
4,316,163852,2,0,P|58:317|100:281,1,112,8|0,3:0|0:0,0:0:0:0:
137,112,164195,1,2,0:0:0:0:
207,379,164367,2,0,L|213:323,1,56,8|0,0:0|0:0,0:0:0:0:
170,242,164538,2,0,P|128:206|73:206,1,112,10|0,3:0|0:0,0:0:0:0:
239,144,164881,6,0,P|334:151|413:102,1,168,6|0,0:0|2:0,0:0:0:0:
443,54,165224,2,0,P|423:109|469:170,1,112,8|0,3:0|0:0,0:0:0:0:
295,61,165567,1,2,0:0:0:0:
503,249,165738,2,0,L|447:254,1,56,2|0,0:0|0:0,0:0:0:0:
366,198,165910,2,0,L|354:309,1,112,10|0,3:0|0:0,0:0:0:0:
237,250,166252,6,0,P|184:230|49:226,1,168,6|0,0:0|2:0,0:0:0:0:
9,256,166595,2,0,P|55:210|30:145,1,112,8|2,3:0|0:0,0:0:0:0:
223,140,166938,1,2,0:0:0:0:
81,314,167110,2,0,L|82:376,1,56,2|0,0:0|0:0,0:0:0:0:
113,92,167281,1,10,3:0:0:0:
163,328,167452,1,2,0:0:0:0:
195,53,167624,6,0,B|298:29|255:96|369:67,1,168,6|0,0:0|2:0,0:0:0:0:
414,20,167967,2,0,P|435:72|411:125,1,112,8|0,3:0|0:0,0:0:0:0:
223,140,168310,1,2,0:0:0:0:
414,226,168481,2,0,L|473:236,1,56,2|0,0:0|0:0,0:0:0:0:
201,218,168652,1,10,3:0:0:0:
443,154,168824,1,2,0:0:0:0:
276,339,168995,6,0,P|306:258|258:168,1,168,6|0,0:0|2:0,0:0:0:0:
223,140,169338,2,0,L|98:150,1,112,8|0,3:0|0:0,0:0:0:0:
378,300,169681,1,2,0:0:0:0:
201,218,169852,2,0,L|101:225,1,56,2|0,0:0|0:0,0:0:0:0:
385,138,170024,1,10,3:0:0:0:
188,295,170195,1,2,0:0:0:0:
460,140,170367,6,0,P|422:70|343:75,1,168,6|0,0:0|2:0,0:0:0:0:
385,138,170710,2,0,L|397:273,1,112,8|2,3:0|0:0,0:0:0:0:
267,89,171052,1,2,0:0:0:0:
477,229,171224,2,0,L|470:297,1,56,2|0,0:0|0:0,0:0:0:0:
342,75,171395,1,10,3:0:0:0:
404,330,171567,1,2,0:0:0:0:
192,94,171738,6,0,B|89:70|132:137|18:108,1,168,6|0,0:0|2:0,0:0:0:0:
0,49,172081,2,0,P|19:98|-44:181,1,112,8|2,3:0|0:0,0:0:0:0:
240,26,172424,1,2,0:0:0:0:
275,30,172509,1,8,3:0:0:0:
310,35,172595,1,2,0:0:0:0:
95,17,172767,1,10,3:0:0:0:
271,120,172938,1,10,0:0:0:0:
1,152,173110,6,0,P|37:219|35:326,1,168,6|0,0:0|2:0,0:0:0:0:
94,360,173452,2,0,P|123:320|205:319,1,112,8|0,3:0|0:0,0:0:0:0:
383,346,173795,1,2,0:0:0:0:
213,233,173967,2,0,L|149:224,1,56,2|0,0:0|0:0,0:0:0:0:
425,273,174138,1,10,3:0:0:0:
168,383,174310,1,2,0:0:0:0:
266,67,174481,6,0,P|334:94|339:194,1,168,6|0,0:0|2:0,0:0:0:0:
302,243,174824,2,0,P|232:248|181:214,1,112,8|2,3:0|0:0,0:0:0:0:
462,177,175167,1,2,0:0:0:0:
313,323,175338,2,0,L|312:383,1,56,2|0,0:0|0:0,0:0:0:0:
258,153,175510,1,10,3:0:0:0:
428,354,175681,1,2,0:0:0:0:
316,82,175852,6,0,P|232:66|169:137,1,168,6|0,0:0|2:0,0:0:0:0:
173,198,176195,2,0,L|190:326,1,112,8|0,3:0|0:0,0:0:0:0:
100,102,176538,1,2,0:0:0:0:
270,288,176710,2,0,L|259:377,1,56,2|0,0:0|0:0,0:0:0:0:
214,101,176881,1,10,3:0:0:0:
108,345,177052,1,2,0:0:0:0:
180,24,177224,6,0,B|283:0|240:67|354:38,1,168,6|0,0:0|2:0,0:0:0:0:
412,15,177567,2,0,P|370:62|377:132,1,112,8|0,3:0|0:0,0:0:0:0:
117,120,177910,2,0,P|159:167|152:237,1,112,2|2,0:0|0:0,0:0:0:0:
335,308,178252,1,10,3:0:0:0:
344,297,178595,6,0,B|277:292|277:292|268:301|268:301|187:295,2,146.999995513916,6|0|0,0:0|0:0|0:0,0:0:0:0:
228,210,179967,6,0,B|295:205|295:205|304:214|304:214|385:208,2,146.999995513916,0|0|0,0:0|0:0|0:0,0:0:0:0:
328,128,181338,5,0,0:0:0:0:
313,111,182367,6,0,L|317:60,1,48.9999985046387,2|0,0:0|0:0,0:0:0:0:
233,87,182710,2,0,L|237:36,1,48.9999985046387,2|0,0:0|0:0,0:0:0:0:
153,60,183052,2,0,L|157:9,1,48.9999985046387,2|0,0:0|0:0,0:0:0:0:
75,41,183395,6,0,L|77:6,1,35,2|0,0:0|0:0,0:0:0:0:
