osu file format v14

[General]
AudioFilename: audio.mp3
AudioLeadIn: 0
PreviewTime: 23277
Countdown: 1
SampleSet: Soft
StackLeniency: 0.7
Mode: 0
LetterboxInBreaks: 0
WidescreenStoryboard: 0

[Editor]
Bookmarks: 114820
DistanceSpacing: 0.9
BeatDivisor: 4
GridSize: 8
TimelineZoom: 1

[Metadata]
Title:MTC (Different Heaven Remix)
TitleUnicode:MTC (Different Heaven Remix)
Artist:S3RL
ArtistUnicode:S3RL
Creator:MkGuh
Version:MkHentai
Source:
Tags:Hardcore Trance Techno Dance Anime Hentai Cartoon NSFW Sex Girl
BeatmapID:1413749
BeatmapSetID:668222

[Difficulty]
HPDrainRate:6.3
CircleSize:4
OverallDifficulty:8.1
ApproachRate:9.2
SliderMultiplier:1.8
SliderTickRate:1

[Events]
//Background and Video events
0,0,"Konachan.com - 195837 blue_eyes boots choker gray_hair ia jpeg_artifacts long_hair megumoke skirt thighhighs vocaloid.jpg",0,0
//Break Periods
2,45763,53221
//Storyboard Layer 0 (Background)
//Storyboard Layer 1 (Fail)
//Storyboard Layer 2 (Pass)
//Storyboard Layer 3 (Foreground)
//Storyboard Sound Samples

[TimingPoints]
306,342.857142857143,4,2,0,20,1,0
306,-166.666666666667,4,2,0,20,0,0
648,-166.666666666667,4,2,0,40,0,0
991,-166.666666666667,4,2,0,60,0,0
12648,-125,4,2,0,60,0,0
26020,-142.857142857143,4,2,0,60,0,0
26363,-90.9090909090909,4,2,0,75,0,1
45563,-100,4,2,0,60,0,0
65791,-100,4,2,0,40,0,0
66477,-125,4,2,0,50,0,0
66991,-125,4,2,0,65,0,0
67506,-86.9565217391304,4,2,0,75,0,1
79848,-125,4,2,0,70,0,0
80877,-100,4,2,0,75,0,0
81220,-86.9565217391304,4,2,0,75,0,1
88763,-86.9565217391304,4,2,0,75,0,0
89448,-86.9565217391304,4,2,0,75,0,1
100420,-86.9565217391304,4,2,0,75,0,0
104534,-100,4,2,0,70,0,0
107277,-125,4,2,0,70,0,0
111391,-200,4,2,0,60,0,0

[HitObjects]
202,125,306,6,0,L|266:118,1,53.9999983520508
174,224,648,2,0,L|248:229,1,53.9999983520508
112,302,991,1,2,0:0:0:0:
47,228,1163,1,0,0:0:0:0:
93,140,1334,2,0,P|97:106|88:71,1,53.9999983520508,2|0,0:0|0:0,0:0:0:0:
174,224,1677,6,0,P|248:232|347:211,1,161.999995056153,2|0,0:0|0:0,0:0:0:0:
396,170,2363,2,0,P|408:207|407:239,1,53.9999983520508,2|0,0:0|0:0,0:0:0:0:
405,94,2706,2,0,P|435:106|458:124,1,53.9999983520508
364,23,3048,6,0,B|337:52|328:80|328:80|280:79|232:102,1,161.999995056153,2|0,0:0|0:0,0:0:0:0:
159,121,3734,2,0,P|157:86|167:59,1,53.9999983520508,2|0,0:0|0:0,0:0:0:0:
215,172,4077,2,0,P|217:207|207:234,1,53.9999983520508
111,323,4420,6,0,L|279:305,1,161.999995056153,2|0,0:0|0:0,0:0:0:0:
327,254,5105,1,2,0:0:0:0:
381,306,5277,1,0,0:0:0:0:
441,261,5448,2,0,P|445:221|455:185,1,53.9999983520508
407,56,5791,6,0,P|349:56|304:152,1,161.999995056153,2|0,0:0|0:0,0:0:0:0:
315,212,6477,1,2,0:0:0:0:
258,261,6648,1,0,0:0:0:0:
199,213,6820,2,0,L|147:235,1,53.9999983520508
40,57,7163,6,0,B|68:70|68:70|133:48|208:75,1,161.999995056153,2|0,0:0|0:0,0:0:0:0:
260,111,7848,2,0,P|271:77|269:49,1,53.9999983520508,2|0,0:0|0:0,0:0:0:0:
262,187,8191,2,0,P|297:179|320:159,1,53.9999983520508
157,179,8534,6,0,P|103:206|53:306,1,161.999995056153,2|0,0:0|0:0,0:0:0:0:
107,346,9220,1,2,0:0:0:0:
168,302,9391,1,0,0:0:0:0:
227,349,9563,2,0,L|297:343,1,53.9999983520508
394,299,9905,6,0,B|390:250|390:250|380:221|380:221|387:190|387:190|382:132,1,161.999995056153,2|0,0:0|0:0,0:0:0:0:
332,82,10591,2,0,L|265:85,1,53.9999983520508,2|0,0:0|0:0,0:0:0:0:
387,21,10934,2,0,L|454:18,1,53.9999983520508,2|0,0:0|0:0,0:0:0:0:
229,147,11277,6,0,P|199:85|247:4,1,161.999995056153,2|0,0:0|0:0,0:0:0:0:
327,156,11963,1,2,0:0:0:0:
352,226,12134,1,0,0:0:0:0:
297,277,12305,2,0,P|297:326|300:354,1,53.9999983520508
199,253,12648,6,0,P|137:249|107:252,1,72,4|0,0:1|0:0,0:0:0:0:
47,299,12991,2,0,P|83:219|64:145,1,144,8|2,0:0|0:0,0:0:0:0:
45,76,13505,1,0,0:0:0:0:
136,98,13677,2,0,L|236:90,1,72,8|0,0:0|0:0,0:0:0:0:
354,212,14020,6,0,P|362:152|374:123,1,72,2|0,0:0|0:0,0:0:0:0:
459,132,14363,2,0,P|468:189|461:278,1,144,8|8,0:0|0:0,0:0:0:0:
397,342,14877,1,0,0:0:0:0:
303,335,15048,2,0,L|230:327,1,72,2|0,0:0|0:0,0:0:0:0:
167,211,15391,6,0,P|120:221|119:324,1,144,2|8,0:0|0:0,0:0:0:0:
231,327,15905,1,0,0:0:0:0:
243,212,16077,2,0,P|233:172|212:149,1,72,2|0,0:0|0:0,0:0:0:0:
339,60,16420,2,0,P|324:92|321:135,1,72,8|0,0:0|0:0,0:0:0:0:
372,271,16763,6,0,B|402:299|402:299|507:288,2,144,2|8|2,0:0|0:0|0:0,0:0:0:0:
204,186,17791,1,8,0:0:0:0:
162,270,17963,1,0,0:0:0:0:
64,162,18134,6,0,P|63:85|26:25,1,144,2|8,0:0|0:0,0:0:0:0:
171,100,18648,1,0,0:0:0:0:
269,17,18820,2,0,P|330:15|374:21,1,72,8|0,0:0|0:0,0:0:0:0:
421,143,19163,2,0,P|376:115|353:88,1,72,8|0,0:0|0:0,0:0:0:0:
493,214,19506,6,0,P|489:301|457:368,1,144,8|8,0:0|0:0,0:0:0:0:
362,255,20020,1,0,0:0:0:0:
248,362,20191,2,0,L|329:354,1,72,8|0,0:0|0:0,0:0:0:0:
165,257,20534,2,0,L|87:253,1,72,8|0,0:0|0:0,0:0:0:0:
315,137,20877,5,8,0:0:0:0:
280,245,21048,1,0,0:0:0:0:
197,166,21220,1,8,0:0:0:0:
385,228,21391,1,0,0:0:0:0:
165,257,21563,1,8,0:0:0:0:
243,50,21734,1,0,0:0:0:0:
466,207,21906,1,8,0:0:0:0:
466,207,22077,1,0,0:0:0:0:
90,153,22248,5,0,1:0:0:0:
59,179,22333,1,0,1:0:0:0:
38,214,22419,1,0,1:0:0:0:
32,254,22505,1,0,1:0:0:0:
39,293,22590,1,0,1:0:0:0:
60,328,22676,1,0,1:0:0:0:
91,354,22762,1,0,1:0:0:0:
129,367,22848,1,0,1:0:0:0:
172,362,22934,2,0,L|199:354,16,18,0|0|0|0|0|0|0|0|0|0|0|0|0|0|0|0|2,1:0|1:0|1:0|1:0|1:0|1:0|1:0|1:0|1:0|1:0|1:0|1:0|1:0|1:0|1:0|1:0|2:0,1:0:0:0:
387,331,25677,5,2,0:0:0:0:
359,40,25848,1,4,0:3:0:0:
320,176,26020,6,0,P|375:190|382:247,1,94.499997116089,8|0,0:0|0:0,0:0:0:0:
228,188,26363,6,0,P|236:135|270:94,1,99.0000030212403,4|0,0:0|0:0,0:0:0:0:
320,260,26706,1,8,0:0:0:0:
129,345,26877,2,0,P|70:326|37:262,1,99.0000030212403,2|0,0:0|0:0,0:0:0:0:
138,51,27220,1,0,0:0:0:0:
127,254,27391,1,8,0:0:0:0:
0,123,27563,1,0,0:0:0:0:
295,44,27734,6,0,L|402:52,1,99.0000030212403,2|0,0:0|0:0,0:0:0:0:
479,139,28077,1,8,0:0:0:0:
446,175,28162,1,0,0:0:0:0:
431,222,28248,1,0,0:0:0:0:
436,271,28334,1,0,0:0:0:0:
457,318,28420,2,0,P|387:329|339:328,1,99.0000030212403,2|0,0:0|0:0,0:0:0:0:
162,174,28763,1,8,0:0:0:0:
309,228,28934,1,0,0:0:0:0:
29,258,29106,6,0,B|5:218|5:218|19:145,1,99.0000030212403,4|0,0:0|0:0,0:0:0:0:
137,30,29448,1,8,0:0:0:0:
225,254,29620,2,0,L|239:382,1,99.0000030212403,2|0,0:0|0:0,0:0:0:0:
399,245,29963,1,0,0:0:0:0:
162,174,30134,1,8,0:0:0:0:
324,331,30306,1,0,0:0:0:0:
178,76,30477,6,0,P|110:93|70:139,1,99.0000030212403,2|0,0:0|0:0,0:0:0:0:
105,283,30820,1,8,0:0:0:0:
253,114,30991,2,0,P|262:65|233:2,1,99.0000030212403,2|0,0:0|0:0,0:0:0:0:
162,174,31334,1,0,0:0:0:0:
371,270,31506,2,0,L|485:261,1,99.0000030212403,8|0,0:0|0:0,0:0:0:0:
245,208,31848,6,0,P|185:236|195:366,1,198.000006042481,2|8,0:0|0:0,0:0:0:0:
265,182,32363,2,0,P|254:121|125:107,1,198.000006042481,2|0,0:0|0:0,0:0:0:0:
277,217,32877,2,0,P|307:255|379:263,1,99.0000030212403,8|0,0:0|0:0,0:0:0:0:
424,26,33220,5,2,0:0:0:0:
351,190,33391,1,0,0:0:0:0:
512,172,33563,1,8,0:0:0:0:
286,111,33734,2,0,B|252:151|249:203|249:203|195:180|141:189,1,198.000006042481,2|0,0:0|0:0,0:0:0:0:
219,346,34248,1,8,0:0:0:0:
351,190,34420,1,0,0:0:0:0:
94,108,34591,6,0,P|62:174|64:233,1,99.0000030212403,4|0,0:0|0:0,0:0:0:0:
111,320,34934,1,8,0:0:0:0:
248,166,35106,2,0,P|182:171|152:188,1,99.0000030212403,2|0,0:0|0:0,0:0:0:0:
356,283,35448,1,0,0:0:0:0:
298,62,35620,1,8,0:0:0:0:
214,249,35791,1,0,0:0:0:0:
439,193,35963,6,0,P|487:118|443:27,1,198.000006042481,2|8,0:0|0:0,0:0:0:0:
331,211,36477,2,0,P|262:194|167:285,1,198.000006042481,2|0,0:0|0:0,0:0:0:0:
423,316,36991,1,8,0:0:0:0:
396,106,37163,1,0,0:0:0:0:
50,174,37334,6,0,B|86:226|91:283|91:283|205:262,1,198.000006042481,2|8,0:0|0:0,0:0:0:0:
335,167,37848,2,0,L|229:160,1,99.0000030212403,2|0,0:0|0:0,0:0:0:0:
406,300,38191,1,0,0:0:0:0:
443,99,38363,1,8,0:0:0:0:
236,160,38534,1,0,0:0:0:0:
512,141,38706,6,0,P|520:84|398:30,1,198.000006042481,2|2,0:0|0:0,0:0:0:0:
313,81,39220,1,0,0:0:0:0:
202,23,39391,2,0,P|142:29|101:80,1,99.0000030212403,2|0,0:0|0:0,0:0:0:0:
162,211,39734,2,0,P|206:180|172:97,1,148.50000453186,8|0,0:0|0:0,0:0:0:0:
30,338,40077,6,0,L|138:329,1,99.0000030212403,4|0,0:0|0:0,0:0:0:0:
256,271,40420,1,8,0:0:0:0:
482,338,40591,2,0,L|383:329,1,99.0000030212403,2|0,0:0|0:0,0:0:0:0:
319,92,40934,1,0,0:0:0:0:
470,214,41106,1,8,0:0:0:0:
256,271,41277,1,0,0:0:0:0:
321,13,41448,6,0,P|387:49|397:97,1,99.0000030212403,2|0,0:0|0:0,0:0:0:0:
354,224,41791,1,8,0:0:0:0:
162,142,41963,2,0,L|271:125,1,99.0000030212403,2|0,0:0|0:0,0:0:0:0:
36,218,42306,1,0,0:0:0:0:
79,22,42477,1,8,0:0:0:0:
259,126,42648,1,0,0:0:0:0:
98,364,42820,6,0,P|16:296|43:210,1,198.000006042481,2|8,0:0|0:0,0:0:0:0:
113,100,43334,1,0,0:0:0:0:
197,261,43506,2,0,L|87:276,1,99.0000030212403,2|0,0:0|0:0,0:0:0:0:
386,208,43848,2,0,L|277:198,1,99.0000030212403,8|0,0:0|0:0,0:0:0:0:
413,292,44191,6,0,P|461:256|430:136,1,198.000006042481,2|8,0:0|0:0,0:0:0:0:
212,107,44706,2,0,P|164:143|195:263,1,198.000006042481,2|0,0:0|0:0,0:0:0:0:
335,70,45220,1,8,0:0:0:0:
302,343,45391,1,2,0:0:0:0:
321,196,45563,1,4,0:0:0:0:
256,192,53791,12,0,56363,0:0:0:0:
114,216,56534,6,0,P|142:190|174:178,3,45,4|0|0|0,0:0|0:0|0:0|0:0,0:0:0:0:
117,117,56877,2,0,P|157:108|201:117,3,45,8|0|0|0,0:0|0:0|0:0|0:0,0:0:0:0:
216,49,57220,1,10,0:0:0:0:
260,46,57305,1,0,0:0:0:0:
304,54,57391,1,0,0:0:0:0:
346,71,57477,1,0,0:0:0:0:
383,102,57563,2,0,P|404:59|402:3,1,90,10|0,0:0|0:0,0:0:0:0:
497,196,57906,6,0,L|502:272,3,45,10|0|0|0,0:0|0:0|0:0|0:0,0:0:0:0:
416,310,58248,2,0,L|420:265,3,45,8|0|0|0,0:0|0:0|0:0|0:0,0:0:0:0:
345,155,58591,1,8,0:0:0:0:
300,147,58676,1,0,0:0:0:0:
256,153,58762,1,0,0:0:0:0:
214,170,58848,1,0,0:0:0:0:
187,207,58934,2,0,P|191:271|205:314,1,90,10|0,0:0|0:0,0:0:0:0:
61,194,59277,6,0,P|70:152|66:116,3,45,10|0|0|0,0:0|0:0|0:0|0:0,0:0:0:0:
0,70,59620,2,0,P|-3:92|-1:114,3,45,8|0|0|0,0:0|0:0|0:0|0:0,0:0:0:0:
78,28,59963,1,10,0:0:0:0:
122,29,60048,1,0,0:0:0:0:
167,31,60134,1,0,0:0:0:0:
212,33,60220,1,0,0:0:0:0:
257,35,60306,2,0,L|243:148,1,90,10|0,0:0|0:0,0:0:0:0:
284,288,60648,5,8,0:0:0:0:
240,276,60733,1,0,0:0:0:0:
196,282,60819,1,0,0:0:0:0:
153,295,60905,1,0,0:0:0:0:
109,289,60990,1,8,0:0:0:0:
73,264,61076,1,0,0:0:0:0:
47,227,61162,1,0,0:0:0:0:
34,184,61247,5,0,0:0:0:0:
36,139,61333,1,8,0:0:0:0:
54,98,61419,1,0,0:0:0:0:
85,65,61505,1,0,0:0:0:0:
123,43,61590,1,0,0:0:0:0:
166,30,61676,1,10,0:0:0:0:
227,155,61848,1,0,0:0:0:0:
227,155,61934,1,0,0:0:0:0:
227,155,62020,6,0,P|277:153|341:131,1,90,8|0,0:0|0:0,0:0:0:0:
103,126,62363,2,0,P|100:170|112:214,1,90,8|0,0:0|0:0,0:0:0:0:
266,330,62706,1,8,0:0:0:0:
194,227,62877,1,0,0:0:0:0:
127,335,63048,1,10,0:0:0:0:
266,330,63220,1,0,0:0:0:0:
150,104,63391,5,8,0:0:0:0:
127,335,63563,1,0,0:0:0:0:
297,196,63734,1,8,0:0:0:0:
16,201,63906,1,0,0:0:0:0:
255,347,64077,1,8,0:0:0:0:
289,54,64248,1,0,0:0:0:0:
255,347,64420,1,10,0:0:0:0:
129,159,64591,1,0,0:0:0:0:
465,108,64763,6,0,L|469:155,3,45,8|0|0|0,0:0|0:0|0:0|0:0,0:0:0:0:
355,77,65106,2,0,L|350:126,3,45,8|0|0|0,0:0|0:0|0:0|0:0,0:0:0:0:
259,12,65448,5,8,0:0:0:0:
250,56,65533,1,0,0:0:0:0:
242,100,65619,1,0,0:0:0:0:
233,144,65705,1,0,0:0:0:0:
224,188,65790,1,8,0:0:0:0:
217,233,65876,1,0,0:0:0:0:
208,277,65962,1,0,0:0:0:0:
200,321,66048,1,0,0:0:0:0:
191,365,66133,1,2,0:0:0:0:
70,235,66477,6,0,P|61:192|64:159,1,72,2|0,0:0|0:0,0:0:0:0:
167,115,66820,1,2,0:0:0:0:
62,340,66991,5,4,0:3:0:0:
30,35,67163,2,0,L|130:42,1,72,8|0,0:0|0:0,0:0:0:0:
317,175,67506,6,0,P|289:274|196:274,1,207.000003948212,4|8,0:0|0:0,0:0:0:0:
222,90,68020,1,0,0:0:0:0:
421,234,68191,1,2,0:0:0:0:
244,206,68363,1,0,0:0:0:0:
469,110,68534,1,8,0:0:0:0:
469,110,68706,1,0,0:0:0:0:
171,182,68877,6,0,P|171:236|206:280,1,103.500001974106,2|0,0:0|0:0,0:0:0:0:
260,87,69220,1,8,0:0:0:0:
33,110,69391,1,0,0:0:0:0:
244,206,69563,1,2,0:0:0:0:
175,6,69734,1,0,0:0:0:0:
64,223,69906,1,8,0:0:0:0:
64,223,70077,1,0,0:0:0:0:
345,243,70248,6,0,P|275:321|187:286,1,207.000003948212,2|8,0:0|0:0,0:0:0:0:
223,154,70763,1,0,0:0:0:0:
405,167,70934,2,2,P|433:210|426:270,1,103.500001974106,2|0,0:0|0:0,0:0:0:0:
321,87,71277,2,0,P|358:48|436:48,1,103.500001974106,8|0,0:0|0:0,0:0:0:0:
223,154,71620,6,0,B|169:187|118:171|118:171|70:128|13:144,1,207.000003948212,2|8,0:0|0:0,0:0:0:0:
144,297,72134,1,0,0:0:0:0:
120,47,72306,1,2,0:0:0:0:
44,229,72477,1,0,0:0:0:0:
309,182,72648,1,8,0:0:0:0:
144,297,72820,1,0,0:0:0:0:
402,89,72991,6,0,P|450:121|394:260,1,207.000003948212,2|8,0:0|0:0,0:0:0:0:
347,348,73506,1,0,0:0:0:0:
150,251,73677,2,0,L|257:240,1,103.500001974106,2|0,0:0|0:0,0:0:0:0:
402,89,74020,2,0,L|295:78,1,103.500001974106,8|0,0:0|0:0,0:0:0:0:
150,251,74363,5,2,0:0:0:0:
377,169,74534,1,0,0:0:0:0:
143,146,74706,1,8,0:0:0:0:
347,268,74877,1,0,0:0:0:0:
231,84,75048,1,2,0:0:0:0:
244,315,75220,1,0,0:0:0:0:
465,160,75391,2,0,P|442:107|397:80,1,103.500001974106,8|0,0:0|0:0,0:0:0:0:
244,315,75734,6,0,B|295:283|344:278|344:278|378:321|433:328,1,207.000003948212,2|8,0:0|0:0,0:0:0:0:
354,169,76248,1,0,0:0:0:0:
178,260,76420,2,0,P|163:314|175:370,1,103.500001974106,2|0,0:0|0:0,0:0:0:0:
47,208,76763,2,0,P|62:154|50:98,1,103.500001974106,8|0,0:0|0:0,0:0:0:0:
252,144,77106,6,0,B|305:147|305:147|352:133|352:133|397:160|397:160|487:167,1,207.000003948212,2|8,0:0|0:0,0:0:0:0:
327,269,77620,1,0,0:0:0:0:
443,71,77791,1,0,0:0:0:0:
446,117,77877,1,8,0:0:0:0:
449,164,77963,1,0,0:0:0:0:
252,144,78134,1,8,0:0:0:0:
430,257,78306,1,0,0:0:0:0:
314,68,78477,5,4,0:0:0:0:
56,133,78820,2,0,P|42:183|44:241,1,103.500001974106,8|0,0:0|0:0,0:0:0:0:
113,324,79163,2,0,P|60:348|-8:339,2,103.500001974106,2|0|8,0:0|0:0|0:0,0:0:0:0:
284,138,79848,6,0,P|343:153|373:178,1,72,2|2,0:0|0:0,0:0:0:0:
218,188,80191,2,0,P|202:137|258:60,1,144,2|2,0:0|0:0,0:0:0:0:
315,257,80706,1,0,0:0:0:0:
119,257,80877,6,0,P|64:254|55:346,1,135,8|0,0:0|0:0,0:0:0:0:
225,291,81220,6,0,L|217:187,1,103.500001974106,4|0,0:0|0:0,0:0:0:0:
441,52,81563,2,0,L|437:161,1,103.500001974106,8|0,0:0|0:0,0:0:0:0:
322,308,81906,1,2,0:0:0:0:
280,80,82077,1,0,0:0:0:0:
463,257,82248,1,8,0:0:0:0:
217,187,82420,1,0,0:0:0:0:
454,94,82591,6,0,P|405:49|268:97,1,207.000003948212,2|8,0:0|0:0,0:0:0:0:
217,187,83106,1,0,0:0:0:0:
369,118,83277,1,2,0:0:0:0:
142,118,83448,1,0,0:0:0:0:
273,296,83620,1,8,0:0:0:0:
273,296,83791,1,0,0:0:0:0:
110,31,83963,6,0,P|59:75|89:203,1,207.000003948212,2|8,0:0|0:0,0:0:0:0:
173,290,84477,1,0,0:0:0:0:
338,156,84648,2,0,L|227:163,1,103.500001974106,2|0,0:0|0:0,0:0:0:0:
325,307,84991,2,0,L|491:319,1,155.250002961159,8|0,0:0|0:0,0:0:0:0:
460,177,85334,6,0,P|452:97|467:54,1,103.500001974106,2|0,0:0|0:0,0:0:0:0:
234,162,85677,2,0,P|246:214|237:275,1,103.500001974106,8|0,0:0|0:0,0:0:0:0:
83,129,86020,1,2,0:0:0:0:
296,78,86191,1,0,0:0:0:0:
101,249,86363,1,8,0:0:0:0:
66,24,86534,1,0,0:0:0:0:
101,249,86706,6,0,L|82:362,1,103.500001974106,2|0,0:0|0:0,0:0:0:0:
280,268,87048,2,0,L|269:153,1,103.500001974106,8|0,0:0|0:0,0:0:0:0:
375,323,87391,2,0,P|317:363|261:362,1,103.500001974106,2|0,0:0|0:0,0:0:0:0:
181,117,87734,2,0,P|239:77|295:78,1,103.500001974106,8|0,0:0|0:0,0:0:0:0:
146,222,88077,6,0,B|87:186|75:128|75:128|9:132|-14:127,1,207.000003948212,2|2,0:0|0:0,0:0:0:0:
57,37,88591,2,0,P|124:42|160:77,1,103.500001974106,2|0,0:0|0:0,0:0:0:0:
273,185,88934,1,0,0:0:0:0:
316,25,89106,1,8,0:0:0:0:
150,63,89277,1,0,0:0:0:0:
439,309,89448,5,4,0:0:0:0:
446,257,89533,1,0,0:0:0:0:
441,206,89619,1,0,0:0:0:0:
426,157,89705,1,0,0:0:0:0:
384,132,89790,1,8,0:0:0:0:
342,161,89876,1,0,0:0:0:0:
293,172,89962,1,0,0:0:0:0:
245,166,90048,1,0,0:0:0:0:
198,141,90134,2,0,L|141:130,3,51.7500009870529,2|0|0|0,0:0|0:0|0:0|0:0,0:0:0:0:
92,54,90477,2,0,P|54:110|64:177,1,103.500001974106,8|0,0:0|0:0,0:0:0:0:
109,308,90820,5,2,0:0:0:0:
160,304,90905,1,0,0:0:0:0:
208,285,90991,1,0,0:0:0:0:
248,252,91077,1,0,0:0:0:0:
279,212,91162,1,8,0:0:0:0:
325,235,91248,1,0,0:0:0:0:
376,239,91334,1,0,0:0:0:0:
424,219,91420,1,0,0:0:0:0:
456,180,91506,2,0,P|459:118|471:93,3,51.7500009870529,2|0|0|0,0:0|0:0|0:0|0:0,0:0:0:0:
387,79,91848,2,0,P|431:48|495:55,1,103.500001974106,8|0,0:0|0:0,0:0:0:0:
313,139,92191,5,2,0:0:0:0:
272,171,92276,1,0,0:0:0:0:
224,187,92362,1,0,0:0:0:0:
172,186,92448,1,0,0:0:0:0:
123,168,92533,1,8,0:0:0:0:
82,197,92619,1,0,0:0:0:0:
59,245,92705,1,0,0:0:0:0:
51,295,92791,1,0,0:0:0:0:
65,343,92877,2,0,P|117:345|150:328,3,51.7500009870529,2|0|0|0,0:0|0:0|0:0|0:0,0:0:0:0:
165,271,93220,2,0,P|209:262|276:279,1,103.500001974106,8|0,0:0|0:0,0:0:0:0:
438,285,93563,5,2,0:0:0:0:
459,238,93648,1,0,0:0:0:0:
455,187,93734,1,0,0:0:0:0:
429,143,93820,1,0,0:0:0:0:
388,120,93906,1,8,0:0:0:0:
339,115,93992,1,0,0:0:0:0:
295,119,94078,1,0,0:0:0:0:
260,147,94163,1,0,0:0:0:0:
227,185,94248,2,0,L|191:258,3,51.7500009870529,2|0|0|0,0:0|0:0|0:0|0:0,0:0:0:0:
164,305,94591,2,0,B|113:307|113:307|61:281,1,103.500001974106,8|0,0:0|0:0,0:0:0:0:
69,90,94934,5,2,0:0:0:0:
118,74,95019,1,0,0:0:0:0:
169,77,95105,1,0,0:0:0:0:
217,95,95191,1,0,0:0:0:0:
263,119,95276,1,8,0:0:0:0:
314,130,95362,1,0,0:0:0:0:
365,124,95448,1,0,0:0:0:0:
410,100,95534,1,0,0:0:0:0:
448,60,95620,2,0,L|429:3,3,51.7500009870529,2|0|0|0,0:0|0:0|0:0|0:0,0:0:0:0:
431,212,95963,2,0,B|489:204|511:135,1,103.500001974106,8|0,0:0|0:0,0:0:0:0:
325,252,96306,5,2,0:0:0:0:
273,246,96391,1,0,0:0:0:0:
219,256,96477,1,0,0:0:0:0:
174,286,96563,1,0,0:0:0:0:
130,319,96648,1,8,0:0:0:0:
84,293,96734,1,0,0:0:0:0:
54,249,96820,1,0,0:0:0:0:
42,195,96906,1,0,0:0:0:0:
50,140,96991,2,0,P|6:133|-13:137,3,51.7500009870529,2|0|0|0,0:0|0:0|0:0|0:0,0:0:0:0:
144,105,97334,2,0,B|166:60|166:60|142:0,1,103.500001974106,8|0,0:0|0:0,0:0:0:0:
123,215,97677,5,2,0:0:0:0:
168,238,97762,1,0,0:0:0:0:
219,247,97848,1,0,0:0:0:0:
269,237,97934,1,0,0:0:0:0:
314,211,98019,1,8,0:0:0:0:
360,189,98105,1,0,0:0:0:0:
411,181,98191,1,0,0:0:0:0:
463,186,98277,1,0,0:0:0:0:
511,201,98363,2,0,L|503:122,3,51.7500009870529,2|0|0|0,0:0|0:0|0:0|0:0,0:0:0:0:
458,269,98706,2,0,L|446:374,1,103.500001974106,8|0,0:0|0:0,0:0:0:0:
266,169,99048,5,2,0:0:0:0:
241,124,99133,1,0,0:0:0:0:
194,105,99219,1,0,0:0:0:0:
146,126,99305,1,0,0:0:0:0:
120,171,99390,1,8,0:0:0:0:
140,216,99476,1,0,0:0:0:0:
197,240,99562,1,0,0:0:0:0:
248,218,99648,1,0,0:0:0:0:
266,169,99734,2,0,L|325:163,3,51.7500009870529,2|8|0|0,0:0|0:0|0:0|0:0,0:0:0:0:
367,253,100077,2,0,L|474:268,1,103.500001974106,8|0,0:0|0:0,0:0:0:0:
222,42,100420,5,4,0:0:0:0:
213,83,100505,1,0,0:0:0:0:
204,123,100591,1,2,0:0:0:0:
367,253,100763,1,8,0:0:0:0:
357,211,100849,1,0,0:0:0:0:
346,167,100934,1,2,0:0:0:0:
182,265,101106,2,0,L|64:277,1,103.500001974106,2|0,0:0|0:0,0:0:0:0:
301,353,101448,1,8,0:0:0:0:
90,62,101791,5,2,0:0:0:0:
90,62,101877,1,0,0:0:0:0:
90,62,101963,1,0,0:0:0:0:
235,91,102134,1,8,0:0:0:0:
235,91,102220,1,0,0:0:0:0:
235,91,102306,1,0,0:0:0:0:
102,178,102477,2,0,P|87:235|107:298,1,103.500001974106,2|0,0:0|0:0,0:0:0:0:
213,360,102820,1,8,0:0:0:0:
398,336,103163,6,0,L|462:330,2,51.7500009870529,2|0|0,0:0|0:0|0:0,0:0:0:0:
282,276,103506,2,0,L|228:272,2,51.7500009870529,8|0|2,0:0|0:0|0:0,0:0:0:0:
385,227,103848,2,0,P|400:160|380:107,1,103.500001974106,2|0,0:0|0:0,0:0:0:0:
325,43,104191,1,8,0:0:0:0:
100,200,104534,6,0,L|150:195,2,45,2|0|0,0:0|0:0|0:0,0:0:0:0:
60,114,104877,2,0,L|16:111,2,45,8|0|0,0:0|0:0|0:0,0:0:0:0:
153,116,105220,2,0,L|256:113,1,90,2|0,0:0|0:0,0:0:0:0:
324,72,105563,1,8,0:0:0:0:
384,243,105906,6,0,P|398:199|417:176,2,45,2|0|0,0:0|0:0|0:0,0:0:0:0:
299,296,106248,2,0,P|291:233|295:221,2,45,8|0|0,0:0|0:0|0:0,0:0:0:0:
191,243,106591,2,0,P|213:184|244:155,2,90,2|0|8,0:0|0:0|0:0,0:0:0:0:
264,81,107277,6,0,P|258:47|248:29,2,36,2|0|0,0:0|0:0|0:0,0:0:0:0:
340,125,107619,2,0,P|348:89|348:59,2,36,8|0|0,0:0|0:0|0:0,0:0:0:0:
435,88,107962,2,0,P|413:29|382:0,2,72,2|0|8,0:0|0:0|0:0,0:0:0:0:
256,192,108648,12,4,111391,0:0:0:0:
