osu file format v14

[General]
AudioFilename: audio.mp3
AudioLeadIn: 0
PreviewTime: 23277
Countdown: 1
SampleSet: Soft
StackLeniency: 0.7
Mode: 0
LetterboxInBreaks: 0
WidescreenStoryboard: 1

[Editor]
Bookmarks: 114820
DistanceSpacing: 1.2
BeatDivisor: 4
GridSize: 4
TimelineZoom: 1

[Metadata]
Title:MTC (Different Heaven Remix)
TitleUnicode:MTC (Different Heaven Remix)
Artist:S3RL
ArtistUnicode:S3RL
Creator:MkGuh
Version:Challenging
Source:
Tags:Hardcore Trance Techno Dance Anime Hentai Cartoon NSFW Sex Girl
BeatmapID:1414445
BeatmapSetID:668222

[Difficulty]
HPDrainRate:5
CircleSize:4
OverallDifficulty:6.5
ApproachRate:7.7
SliderMultiplier:1.4
SliderTickRate:1

[Events]
//Background and Video events
0,0,"Konachan.com - 195837 blue_eyes boots choker gray_hair ia jpeg_artifacts long_hair megumoke skirt thighhighs vocaloid.jpg",0,0
//Break Periods
2,45763,52996
//Storyboard Layer 0 (Background)
//Storyboard Layer 1 (Fail)
//Storyboard Layer 2 (Pass)
//Storyboard Layer 3 (Foreground)
//Storyboard Sound Samples

[TimingPoints]
306,342.857142857143,4,2,0,20,1,0
306,-166.666666666667,4,2,0,20,0,0
648,-125,4,2,0,40,0,0
991,-125,4,2,0,60,0,0
1677,-125,4,2,0,60,0,0
12648,-105.263157894737,4,2,0,60,0,0
26020,-142.857142857143,4,2,0,60,0,0
26363,-90.9090909090909,4,2,0,75,0,1
45563,-100,4,2,0,60,0,0
65791,-100,4,2,0,40,0,0
66477,-125,4,2,0,50,0,0
66991,-125,4,2,0,65,0,0
67506,-86.9565217391304,4,2,0,75,0,1
79848,-125,4,2,0,70,0,0
80877,-100,4,2,0,75,0,0
81220,-86.9565217391304,4,2,0,75,0,1
88763,-86.9565217391304,4,2,0,75,0,0
89448,-86.9565217391304,4,2,0,75,0,1
100420,-86.9565217391304,4,2,0,75,0,0
104534,-100,4,2,0,70,0,0
107277,-125,4,2,0,70,0,0
111391,-200,4,2,0,60,0,0

[HitObjects]
106,24,306,6,0,L|5:24,1,83.9999974365235,0|0,0:0|0:0,0:0:0:0:
72,148,991,6,0,L|145:148,1,56,2|0,0:0|0:0,0:0:0:0:
195,150,1334,1,2,0:0:0:0:
262,150,1506,1,0,0:0:0:0:
327,83,1677,6,0,P|360:136|319:227,1,167.999994873047,2|0,0:0|0:0,0:0:0:0:
258,251,2363,1,2,0:0:0:0:
194,229,2534,2,0,L|123:236,1,56,0|0,0:0|0:0,0:0:0:0:
72,218,2877,1,0,0:0:0:0:
36,163,3048,6,0,P|55:113|168:91,1,168,2|0,0:0|0:0,0:0:0:0:
216,119,3734,2,0,P|253:124|276:118,1,56,2|0,0:0|0:0,0:0:0:0:
331,90,4077,1,0,0:0:0:0:
370,144,4248,1,0,0:0:0:0:
351,208,4420,6,0,B|346:287|346:287|387:288|425:330,1,168,2|0,0:0|0:0,0:0:0:0:
478,289,5106,1,2,0:0:0:0:
481,222,5277,2,0,P|477:189|483:160,1,56,0|0,0:0|0:0,0:0:0:0:
495,100,5620,1,0,0:0:0:0:
468,38,5791,6,0,P|409:18|324:87,1,168,2|0,0:0|0:0,0:0:0:0:
285,126,6477,2,0,L|221:126,1,56,2|0,0:0|0:0,0:0:0:0:
180,79,6820,1,0,0:0:0:0:
127,120,6991,1,0,0:0:0:0:
160,178,7163,6,0,B|176:237|173:269|173:269|135:281|106:320,1,168,2|0,0:0|0:0,0:0:0:0:
149,367,7848,1,2,0:0:0:0:
209,338,8020,2,0,P|249:338|269:344,1,56,0|0,0:0|0:0,0:0:0:0:
330,355,8363,1,0,0:0:0:0:
378,309,8534,6,0,P|414:262|520:250,1,168,2|0,0:0|0:0,0:0:0:0:
499,183,9220,2,0,P|496:138|500:103,1,56,2|0,0:0|0:0,0:0:0:0:
475,63,9563,1,0,0:0:0:0:
414,91,9734,1,0,0:0:0:0:
357,53,9906,6,0,B|281:34|283:120|194:84,1,168,2|0,0:0|0:0,0:0:0:0:
136,105,10591,2,0,P|136:146|145:178,1,56,2|0,0:0|0:0,0:0:0:0:
163,223,10934,1,2,0:0:0:0:
220,258,11106,1,0,0:0:0:0:
285,242,11277,6,0,B|335:231|392:240|392:240|386:197|397:165,1,168,2|0,0:0|0:0,0:0:0:0:
440,131,11963,1,2,0:0:0:0:
400,76,12134,2,0,L|333:82,1,56,0|0,0:0|0:0,0:0:0:0:
282,109,12477,1,0,0:0:0:0:
217,62,12648,6,0,P|164:37|86:70,1,132.999996448517,4|8,0:1|0:0,0:0:0:0:
42,119,13163,1,0,0:0:0:0:
101,171,13334,2,0,P|104:213|94:248,1,66.4999982242585,2|0,0:0|0:0,0:0:0:0:
11,337,13677,2,0,P|8:295|18:260,1,66.4999982242585,8|0,0:0|0:0,0:0:0:0:
131,360,14020,6,0,L|274:347,1,132.999996448517,2|8,0:0|0:0,0:0:0:0:
295,274,14534,1,0,0:0:0:0:
369,302,14706,2,0,L|376:376,2,66.4999982242585,8|0|2,0:0|0:0|0:0,0:0:0:0:
430,251,15220,1,0,0:0:0:0:
381,187,15391,6,0,P|448:175|504:220,2,132.999996448517,2|8|2,0:0|0:0|0:0,0:0:0:0:
312,145,16248,1,0,0:0:0:0:
260,206,16420,2,0,P|217:217|178:210,1,66.4999982242585,8|0,0:0|0:0,0:0:0:0:
127,173,16763,6,0,B|114:213|122:244|122:244|89:243|45:260,1,132.999996448517,2|8,0:0|0:0,0:0:0:0:
12,316,17277,1,0,0:0:0:0:
89,333,17448,2,0,B|124:316|143:280|143:280|228:300,1,132.999996448517,2|8,0:0|0:0,0:0:0:0:
256,237,17963,1,0,0:0:0:0:
340,345,18134,6,0,L|414:340,1,66.4999982242585,2|0,0:0|0:0,0:0:0:0:
477,256,18477,2,0,L|392:261,1,66.4999982242585,8|0,0:0|0:0,0:0:0:0:
355,201,18820,2,0,P|351:163|359:129,1,66.4999982242585,8|0,0:0|0:0,0:0:0:0:
418,84,19163,1,8,0:0:0:0:
360,28,19334,1,0,0:0:0:0:
288,63,19506,6,0,B|242:51|219:74|219:75|185:89|152:72,1,132.999996448517,8|8,0:0|0:0,0:0:0:0:
81,55,20020,1,0,0:0:0:0:
104,131,20191,2,0,P|118:162|128:204,1,66.4999982242585,8|0,0:0|0:0,0:0:0:0:
108,271,20534,2,0,P|159:240|223:239,1,99.7499973363877,8|0,0:0|0:0,0:0:0:0:
237,241,20877,6,0,L|320:249,1,66.4999982242585,8|0,0:0|0:0,0:0:0:0:
393,212,21220,1,8,0:0:0:0:
359,302,21391,1,0,0:0:0:0:
296,168,21563,2,0,P|291:127|293:94,1,66.4999982242585,8|0,0:0|0:0,0:0:0:0:
353,31,21906,1,8,0:0:0:0:
387,115,22077,1,0,0:0:0:0:
206,46,22248,6,0,L|162:39,7,33.2499991121292,0|0|0|0|0|0|0|0,1:0|1:0|1:0|1:0|1:0|1:0|1:0|1:0,0:0:0:0:
141,64,22934,2,0,L|120:65,16,16.6249995560646,0|0|0|0|0|0|0|0|0|0|0|0|0|0|0|0|2,1:0|1:0|1:0|1:0|1:0|1:0|1:0|1:0|1:0|1:0|1:0|1:0|1:0|1:0|1:0|1:0|2:0,0:0:0:0:
329,271,25677,5,2,0:0:0:0:
390,190,25848,1,4,0:3:0:0:
269,223,26020,2,0,P|255:265|261:314,1,73.4999977569581,8|0,0:0|0:0,0:0:0:0:
269,337,26363,6,0,L|107:350,1,154.000004699707,4|8,0:0|0:0,0:0:0:0:
26,323,26877,2,0,B|67:311|103:327|103:327|99:285|134:240,1,154.000004699707,2|0,0:0|0:0,0:0:0:0:
160,171,27391,1,8,0:0:0:0:
217,243,27563,1,0,0:0:0:0:
87,146,27734,6,0,P|113:110|157:95,1,77.0000023498536,2|0,0:0|0:0,0:0:0:0:
232,113,28077,2,0,L|286:106,3,38.5000011749268,8|0|0|0,0:0|0:0|0:0|0:0,0:0:0:0:
315,99,28420,1,2,0:0:0:0:
399,134,28591,1,0,0:0:0:0:
343,207,28763,2,0,P|334:261|341:300,1,77.0000023498536,8|0,0:0|0:0,0:0:0:0:
416,353,29106,6,0,B|374:356|334:323|334:323|267:363,1,154.000004699707,4|8,0:0|0:0,0:0:0:0:
186,343,29620,2,0,B|222:329|268:335|268:335|246:299|253:245,1,154.000004699707,2|0,0:0|0:0,0:0:0:0:
262,174,30134,1,8,0:0:0:0:
177,212,30306,1,0,0:0:0:0:
303,96,30477,6,0,P|338:133|330:234,1,154.000004699707,2|8,0:0|0:0,0:0:0:0:
249,272,30991,1,2,0:0:0:0:
316,335,31163,2,0,L|406:332,1,77.0000023498536,0|0,0:0|0:0,0:0:0:0:
512,219,31506,2,0,L|420:224,1,77.0000023498536,8|0,0:0|0:0,0:0:0:0:
445,76,31848,6,0,B|451:129|451:129|430:168|430:168|435:231,1,154.000004699707,2|8,0:0|0:0,0:0:0:0:
347,258,32363,2,0,P|301:217|209:229,1,154.000004699707,2|0,0:0|0:0,0:0:0:0:
134,273,32877,1,8,0:0:0:0:
212,321,33048,1,0,0:0:0:0:
135,179,33220,6,0,B|103:152|103:152|136:96|124:43,1,154.000004699707,2|8,0:0|0:0,0:0:0:0:
214,24,33734,2,0,B|246:51|246:51|213:107|225:160,1,154.000004699707,2|0,0:0|0:0,0:0:0:0:
297,215,34248,1,8,0:0:0:0:
317,124,34420,1,0,0:0:0:0:
257,291,34591,6,0,B|296:308|331:295|331:295|370:279|412:297,1,154.000004699707,4|8,0:0|0:0,0:0:0:0:
486,343,35106,2,0,B|469:296|429:281|429:281|452:185,1,154.000004699707,2|0,0:0|0:0,0:0:0:0:
380,148,35620,1,8,0:0:0:0:
468,121,35791,1,0,0:0:0:0:
312,209,35963,6,0,B|286:176|291:130|291:130|208:146,1,154.000004699707,2|8,0:0|0:0,0:0:0:0:
164,70,36477,2,0,P|191:146|164:214,1,154.000004699707,2|0,0:0|0:0,0:0:0:0:
88,262,36991,2,0,L|11:253,1,77.0000023498536,8|0,0:0|0:0,0:0:0:0:
124,349,37334,6,0,B|179:342|179:342|217:359|217:359|295:349,1,154.000004699707,2|8,0:0|0:0,0:0:0:0:
331,279,37848,2,0,P|325:233|437:207,1,154.000004699707,2|0,0:0|0:0,0:0:0:0:
484,133,38363,1,8,0:0:0:0:
495,224,38534,1,0,0:0:0:0:
433,46,38706,6,0,L|530:42,1,77.0000023498536,2|0,0:0|0:0,0:0:0:0:
400,113,39048,2,0,L|312:104,1,77.0000023498536,2|0,0:0|0:0,0:0:0:0:
238,66,39391,2,0,P|230:103|247:159,1,77.0000023498536,2|0,0:0|0:0,0:0:0:0:
303,205,39734,1,8,0:0:0:0:
372,266,39906,1,0,0:0:0:0:
219,301,40077,6,0,B|177:299|142:317|142:317|112:294|62:290,1,154.000004699707,4|8,0:0|0:0,0:0:0:0:
27,210,40591,2,0,B|61:236|74:274|74:274|87:240|133:213,1,154.000004699707,2|0,0:0|0:0,0:0:0:0:
206,178,41106,1,8,0:0:0:0:
154,101,41277,1,0,0:0:0:0:
239,252,41448,6,0,P|278:215|261:120,1,154.000004699707,2|8,0:0|0:0,0:0:0:0:
307,40,41963,2,0,P|354:90|352:266,1,231.000007049561,2|8,0:0|0:0,0:0:0:0:
322,327,42648,1,0,0:0:0:0:
239,252,42820,6,0,L|80:255,1,154.000004699707,2|8,0:0|0:0,0:0:0:0:
13,195,43334,1,0,0:0:0:0:
65,118,43506,2,0,P|102:173|78:262,1,154.000004699707,2|8,0:0|0:0,0:0:0:0:
240,155,44191,2,0,P|203:100|227:11,1,154.000004699707,2|8,0:0|0:0,0:0:0:0:
291,77,44706,2,0,B|292:127|242:157|242:157|328:168|364:226,1,231.000007049561,2|8,0:0|0:0,0:0:0:0:
220,313,45563,5,4,0:0:0:0:
256,192,53791,12,0,56191,0:0:0:0:
38,246,56534,6,0,P|38:191|47:157,1,70,4|0,0:0|0:0,0:0:0:0:
101,117,56877,2,0,L|204:124,1,70,8|0,0:0|0:0,0:0:0:0:
218,191,57220,1,10,0:0:0:0:
267,123,57391,1,0,0:0:0:0:
233,45,57563,1,10,0:0:0:0:
354,160,57906,6,0,L|447:153,1,70,10|0,0:0|0:0,0:0:0:0:
489,206,58248,2,0,P|488:247|480:286,1,70,8|0,0:0|0:0,0:0:0:0:
419,331,58591,1,8,0:0:0:0:
335,341,58763,1,0,0:0:0:0:
265,294,58934,1,10,0:0:0:0:
335,141,59277,6,0,P|386:143|414:149,1,70,10|0,0:0|0:0,0:0:0:0:
243,152,59620,2,0,P|234:106|235:73,1,70,8|0,0:0|0:0,0:0:0:0:
316,233,59963,1,10,0:0:0:0:
235,255,60134,1,0,0:0:0:0:
154,278,60306,1,10,0:0:0:0:
34,160,60648,6,0,L|44:82,1,70,8|0,0:0|0:0,0:0:0:0:
125,73,60991,2,0,P|104:34|77:12,2,70,8|0|8,0:0|0:0|0:0,0:0:0:0:
207,91,61506,1,0,0:0:0:0:
171,166,61677,2,0,P|183:206|219:251,1,70,10|0,0:0|0:0,0:0:0:0:
274,265,62020,6,0,L|436:255,1,140,8|8,0:0|0:0,0:0:0:0:
468,192,62534,1,0,0:0:0:0:
412,128,62706,2,0,P|430:77|448:58,1,70,8|0,0:0|0:0,0:0:0:0:
316,118,63048,2,0,P|325:165|347:198,1,70,10|0,0:0|0:0,0:0:0:0:
226,68,63391,6,0,P|169:51|97:89,1,140,8|8,0:0|0:0,0:0:0:0:
68,163,63906,1,0,0:0:0:0:
144,197,64077,2,0,P|168:166|168:117,1,70,8|0,0:0|0:0,0:0:0:0:
85,260,64420,2,0,P|129:284|171:277,1,70,10|0,0:0|0:0,0:0:0:0:
226,253,64763,5,8,0:0:0:0:
287,310,64934,1,0,0:0:0:0:
351,255,65106,1,8,0:0:0:0:
410,313,65277,1,0,0:0:0:0:
477,263,65448,2,0,L|491:175,1,70,8|0,0:0|0:0,0:0:0:0:
501,110,65791,1,8,0:0:0:0:
333,97,66134,6,0,P|289:70|204:105,1,140,2|2,0:0|0:0,0:0:0:0:
179,131,66648,5,0,0:0:0:0:
163,212,66820,1,2,0:0:0:0:
217,292,66991,1,4,0:3:0:0:
367,283,67163,2,0,L|445:279,1,56,8|0,0:0|0:0,0:0:0:0:
285,170,67506,6,0,P|227:205|220:299,1,161.000003070831,4|8,0:0|0:0,0:0:0:0:
151,363,68020,1,0,0:0:0:0:
91,287,68191,2,0,P|86:209|22:165,1,161.000003070831,2|8,0:0|0:0,0:0:0:0:
169,38,68877,6,0,P|206:64|228:103,1,80.5000015354157,2|0,0:0|0:0,0:0:0:0:
184,181,69220,2,0,B|213:154|230:116|230:116|267:139|309:146,1,161.000003070831,8|2,0:0|0:0,0:0:0:0:
389,86,69734,1,0,0:0:0:0:
419,178,69906,2,0,P|409:212|412:276,1,80.5000015354157,8|0,0:0|0:0,0:0:0:0:
452,342,70248,6,0,P|384:295|306:315,1,161.000003070831,2|8,0:0|0:0,0:0:0:0:
256,230,70763,1,0,0:0:0:0:
201,309,70934,2,0,P|158:306|110:327,1,80.5000015354157,2|0,0:0|0:0,0:0:0:0:
38,271,71277,1,8,0:0:0:0:
76,177,71448,1,0,0:0:0:0:
155,121,71620,6,0,B|197:88|247:85|247:85|235:53|242:12,1,161.000003070831,2|8,0:0|0:0,0:0:0:0:
334,2,72134,1,0,0:0:0:0:
374,90,72306,2,0,L|364:179,1,80.5000015354157,2|0,0:0|0:0,0:0:0:0:
456,298,72648,2,0,L|448:218,1,80.5000015354157,8|0,0:0|0:0,0:0:0:0:
299,307,72991,6,0,B|357:298|357:298|397:310|397:310|464:296,1,161.000003070831,2|8,0:0|0:0,0:0:0:0:
275,223,73506,1,0,0:0:0:0:
275,223,73677,2,0,P|225:267|241:370,1,161.000003070831,2|8,0:0|0:0,0:0:0:0:
65,251,74363,6,0,P|58:189|45:165,1,80.5000015354157,2|0,0:0|0:0,0:0:0:0:
21,80,74706,2,0,L|107:63,1,80.5000015354157,8|0,0:0|0:0,0:0:0:0:
194,47,75048,1,2,0:0:0:0:
194,47,75220,1,0,0:0:0:0:
255,124,75391,1,8,0:0:0:0:
255,124,75563,1,0,0:0:0:0:
178,182,75734,6,0,P|156:236|198:336,1,161.000003070831,2|8,0:0|0:0,0:0:0:0:
285,341,76248,1,0,0:0:0:0:
345,265,76420,2,0,P|371:299|383:344,1,80.5000015354157,2|0,0:0|0:0,0:0:0:0:
253,241,76763,2,0,P|273:203|311:180,1,80.5000015354157,8|0,0:0|0:0,0:0:0:0:
400,190,77106,6,0,B|355:167|309:175|309:175|320:133|322:76,1,161.000003070831,2|8,0:0|0:0,0:0:0:0:
252,38,77620,1,0,0:0:0:0:
163,75,77791,1,0,0:0:0:0:
163,75,77877,1,8,0:0:0:0:
163,75,77963,1,0,0:0:0:0:
207,160,78134,2,0,P|212:223|205:250,1,80.5000015354157,8|0,0:0|0:0,0:0:0:0:
118,204,78477,5,4,0:0:0:0:
481,72,79163,1,2,0:0:0:0:
481,72,79848,5,2,0:0:0:0:
39,314,80877,6,0,P|49:275|66:242,1,70,8|0,0:0|0:0,0:0:0:0:
156,268,81220,2,0,P|159:210|107:121,1,161.000003070831,4|8,0:0|0:0,0:0:0:0:
158,39,81734,1,0,0:0:0:0:
247,77,81906,2,0,L|348:81,1,80.5000015354157,2|0,0:0|0:0,0:0:0:0:
439,173,82248,2,0,L|359:170,1,80.5000015354157,8|0,0:0|0:0,0:0:0:0:
480,91,82591,6,0,B|483:140|451:173|451:173|522:232,1,161.000003070831,2|8,0:0|0:0,0:0:0:0:
482,313,83106,1,0,0:0:0:0:
387,295,83277,2,0,L|296:289,1,80.5000015354157,2|0,0:0|0:0,0:0:0:0:
227,233,83620,1,8,0:0:0:0:
218,329,83791,1,0,0:0:0:0:
248,149,83963,6,0,P|198:151|140:254,1,161.000003070831,2|8,0:0|0:0,0:0:0:0:
326,193,84648,2,0,P|338:151|323:106,2,80.5000015354157,2|0|8,0:0|0:0|0:0,0:0:0:0:
209,72,85334,5,2,0:0:0:0:
290,28,85506,1,0,0:0:0:0:
329,116,85677,2,0,L|419:108,1,80.5000015354157,8|0,0:0|0:0,0:0:0:0:
482,171,86020,2,0,P|489:218|475:260,1,80.5000015354157,2|0,0:0|0:0,0:0:0:0:
418,324,86363,1,8,0:0:0:0:
341,265,86534,1,0,0:0:0:0:
257,314,86706,6,0,P|189:287|110:319,1,161.000003070831,2|8,0:0|0:0,0:0:0:0:
16,149,87391,2,0,P|25:106|10:58,1,80.5000015354157,2|0,0:0|0:0,0:0:0:0:
94,12,87734,2,0,L|189:22,1,80.5000015354157,8|0,0:0|0:0,0:0:0:0:
156,115,88077,6,0,B|185:87|191:45|191:45|288:55,1,161.000003070831,2|2,0:0|0:0,0:0:0:0:
320,137,88591,1,2,0:0:0:0:
403,88,88763,2,0,L|414:-11,1,80.5000015354157,0|0,0:0|0:0,0:0:0:0:
500,170,89106,1,8,0:0:0:0:
391,209,89277,1,0,0:0:0:0:
221,97,89448,6,0,P|210:140|224:189,1,80.5000015354157,4|0,0:0|0:0,0:0:0:0:
282,245,89791,2,0,P|291:287|275:333,1,80.5000015354157,8|0,0:0|0:0,0:0:0:0:
195,277,90134,1,2,0:0:0:0:
108,321,90306,1,0,0:0:0:0:
26,269,90477,2,0,L|20:180,1,80.5000015354157,8|0,0:0|0:0,0:0:0:0:
21,91,90820,6,0,P|62:81|109:95,1,80.5000015354157,2|0,0:0|0:0,0:0:0:0:
139,176,91163,2,0,P|178:184|216:174,1,80.5000015354157,8|0,0:0|0:0,0:0:0:0:
275,97,91506,1,2,0:0:0:0:
328,177,91677,1,0,0:0:0:0:
398,111,91848,2,0,L|484:120,1,80.5000015354157,8|0,0:0|0:0,0:0:0:0:
487,215,92191,6,0,B|469:270|476:319|476:319|419:353,1,161.000003070831,2|8,0:0|0:0,0:0:0:0:
331,337,92706,1,0,0:0:0:0:
255,276,92877,2,0,P|223:250|109:291,1,161.000003070831,2|8,0:0|0:0,0:0:0:0:
73,89,93563,6,0,B|144:61|144:61|249:79,1,161.000003070831,2|8,0:0|0:0,0:0:0:0:
286,152,94077,1,0,0:0:0:0:
190,162,94248,2,0,P|226:83|327:69,1,161.000003070831,2|8,0:0|0:0,0:0:0:0:
409,215,94934,6,0,P|418:261|402:305,1,80.5000015354157,2|0,0:0|0:0,0:0:0:0:
320,254,95277,2,0,P|311:208|327:164,1,80.5000015354157,8|0,0:0|0:0,0:0:0:0:
382,102,95620,1,2,0:0:0:0:
300,50,95791,1,0,0:0:0:0:
212,91,95963,2,0,L|126:88,1,80.5000015354157,8|0,0:0|0:0,0:0:0:0:
61,154,96306,6,0,P|49:192|50:235,1,80.5000015354157,2|0,0:0|0:0,0:0:0:0:
105,310,96648,2,0,P|148:307|191:330,1,80.5000015354157,8|0,0:0|0:0,0:0:0:0:
258,262,96991,1,2,0:0:0:0:
310,343,97163,1,0,0:0:0:0:
386,284,97334,2,0,L|479:275,1,80.5000015354157,8|0,0:0|0:0,0:0:0:0:
414,194,97677,6,0,P|405:135|460:53,1,161.000003070831,2|8,0:0|0:0,0:0:0:0:
376,2,98191,1,0,0:0:0:0:
279,8,98363,2,0,P|288:67|233:149,1,161.000003070831,2|8,0:0|0:0,0:0:0:0:
49,202,99048,6,0,B|59:245|50:288|50:288|86:278|145:293,1,161.000003070831,2|8,0:0|0:0,0:0:0:0:
210,244,99563,1,0,0:0:0:0:
267,321,99734,2,0,P|307:332|345:323,2,80.5000015354157,2|0|8,0:0|0:0|0:0,0:0:0:0:
306,232,100248,1,0,0:0:0:0:
400,255,100420,6,0,L|438:337,1,80.5000015354157,4|2,0:0|0:0,0:0:0:0:
462,183,100763,2,0,L|424:101,1,80.5000015354157,8|2,0:0|0:0,0:0:0:0:
371,31,101106,1,2,0:0:0:0:
320,112,101277,1,0,0:0:0:0:
268,30,101448,1,8,0:0:0:0:
111,144,101791,6,0,P|109:186|133:238,1,80.5000015354157,2|0,0:0|0:0,0:0:0:0:
220,281,102134,2,0,P|219:229|201:192,1,80.5000015354157,8|0,0:0|0:0,0:0:0:0:
255,118,102477,1,2,0:0:0:0:
255,118,102648,1,0,0:0:0:0:
338,167,102820,1,8,0:0:0:0:
247,337,103163,6,0,L|149:329,2,80.5000015354157,2|0|8,0:0|0:0|0:0,0:0:0:0:
343,330,103677,1,2,0:0:0:0:
402,254,103848,2,0,L|500:246,2,80.5000015354157,2|0|8,0:0|0:0|0:0,0:0:0:0:
238,214,104534,6,0,P|222:138|260:66,1,140,2|8,0:0|0:0,0:0:0:0:
321,47,105048,1,0,0:0:0:0:
389,95,105220,2,0,P|405:171|367:243,1,140,2|8,0:0|0:0,0:0:0:0:
243,322,105906,6,0,L|82:335,1,140,2|8,0:0|0:0,0:0:0:0:
48,268,106420,1,0,0:0:0:0:
121,228,106591,2,0,P|131:159|90:92,1,140,2|8,0:0|0:0,0:0:0:0:
220,41,107277,6,0,P|223:88|245:152,1,112,2|8,0:0|0:0,0:0:0:0:
358,219,107963,2,0,P|376:166|381:110,1,112,2|8,0:0|0:0,0:0:0:0:
256,192,108648,12,4,111391,0:0:0:0:
