osu file format v14

[General]
AudioFilename: S3RL - MTC (Different Heaven Remix).mp3
AudioLeadIn: 0
PreviewTime: 139118
Countdown: 0
SampleSet: Soft
StackLeniency: 0.5
Mode: 0
LetterboxInBreaks: 0
WidescreenStoryboard: 1

[Editor]
Bookmarks: 29614,68185,100757,101785,173100
DistanceSpacing: 1
BeatDivisor: 2
GridSize: 4
TimelineZoom: 1.6

[Metadata]
Title:MTC (Different Heaven Remix)
TitleUnicode:MTC (Different Heaven Remix)
Artist:S3RL
ArtistUnicode:S3RL
Creator:-Genesis
Version:Normal
Source:
Tags:electro dnb dj s3rl Jole Hughes different heaven remix rickput sumaru100 [te][amo] keada [ AeonLust ] lazer
BeatmapID:675796
BeatmapSetID:288162

[Difficulty]
HPDrainRate:4
CircleSize:3.5
OverallDifficulty:4.5
ApproachRate:6
SliderMultiplier:1
SliderTickRate:1

[Events]
//Background and Video events
0,0,"Konachan.com - 195837 blue_eyes boots choker gray_hair ia jpeg_artifacts long_hair megumoke skirt thighhighs vocaloid.jpg",0,0
//Break Periods
2,45757,55478
2,111585,125421
//Storyboard Layer 0 (Background)
//Storyboard Layer 1 (Fail)
//Storyboard Layer 2 (Pass)
//Storyboard Layer 3 (Foreground)
//Storyboard Sound Samples

[TimingPoints]
300,342.857142857143,4,2,1,40,1,0
26357,-100,4,2,1,80,0,1
45557,-100,4,2,1,60,0,0
67500,-100,4,2,1,80,0,1
89442,-100,4,2,1,80,0,0
140185,-100,4,2,1,80,0,1
162128,-100,4,2,1,80,0,0

[Colours]
Combo1 : 128,0,255
Combo2 : 0,255,172
Combo3 : 255,0,128
Combo4 : 0,128,255

[HitObjects]
173,146,300,5,2,0:0:0:0:
257,231,642,1,2,0:0:0:0:
344,146,985,1,2,0:0:0:0:
419,231,1328,2,0,L|419:317,1,50,2|0,0:0|0:0,0:0:0:0:
416,332,1671,6,0,P|356:346|313:315,1,100,2|8,0:0|0:0,0:0:0:0:
260,256,2357,1,8,0:0:0:0:
348,208,2700,1,0,0:0:0:0:
400,124,3042,2,2,P|348:107|297:125,1,100,2|10,0:0|0:0,0:0:0:0:
224,176,3728,5,8,0:0:0:0:
136,140,4071,1,2,0:0:0:0:
80,56,4414,2,2,P|132:39|183:57,1,100,2|10,0:0|0:0,0:0:0:0:
216,76,4928,2,0,L|288:76,2,50,8|0|8,0:0|0:0|0:0,0:0:0:0:
232,124,5442,2,2,L|332:182,1,100
372,260,6128,6,0,P|417:220|414:172,2,100,8|8|2,0:0|0:0|0:0,0:0:0:0:
276,228,7157,1,2,0:0:0:0:
268,128,7500,2,0,P|209:140|192:172,2,100,8|8|2,0:0|0:0|0:0,0:0:0:0:
308,220,8528,2,0,L|424:220,1,100,2|0,0:0|0:0,0:0:0:0:
452,308,9214,6,0,L|380:308,1,50,2|0,0:0|0:0,0:0:0:0:
352,308,9557,2,0,L|302:308,1,50,2|0,0:0|0:0,0:0:0:0:
252,308,9900,1,2,0:0:0:0:
152,292,10242,2,0,P|108:256|108:204,2,100,8|8|2,0:0|0:0|0:0,0:0:0:0:
256,192,11271,12,0,12642,0:0:0:0:
257,60,14014,6,0,L|369:60,1,100,2|0,0:0|0:0,0:0:0:0:
384,156,14700,2,0,L|267:157,1,100,2|0,0:0|0:0,0:0:0:0:
240,184,15214,1,0,0:0:0:0:
192,200,15385,2,0,P|156:176|132:108,1,100,2|8,0:0|0:0,0:0:0:0:
260,68,16071,6,0,L|260:-20,2,50,2|0|2,0:0|0:0|0:0,0:0:0:0:
296,104,16585,1,2,0:0:0:0:
332,140,16757,2,0,P|337:194|315:244,1,100,2|8,0:0|0:0,0:0:0:0:
224,220,17442,2,0,P|219:166|241:116,1,100,8|0,0:0|0:0,0:0:0:0:
332,140,18128,6,0,P|404:212|316:268,1,200,2|0,0:0|0:0,0:0:0:0:
272,208,19157,1,2,0:0:0:0:
172,196,19500,6,0,P|99:130|171:64,1,200,2|0,0:0|0:0,0:0:0:0:
228,128,20528,2,0,P|244:96|244:28,1,100,2|4,0:0|0:0,0:0:0:0:
256,192,21042,12,0,22242,0:0:0:0:
224,272,23271,6,0,L|120:272,2,100,2|2|0,0:0|0:0|0:0,0:0:0:0:
276,272,24128,2,0,P|324:252|324:196,1,100,8|0,0:0|0:0,0:0:0:0:
296,172,24642,2,0,L|192:172,2,100,2|2|0,0:0|0:0|0:0,0:0:0:0:
348,172,25500,2,0,P|396:152|396:96,1,100,8|8,0:0|0:0,0:0:0:0:
376,68,26014,1,8,0:0:0:0:
296,172,26357,6,0,P|244:184|184:160,1,100,2|0,0:0|0:0,0:0:0:0:
152,84,27042,2,0,P|204:72|264:96,1,100
320,208,27728,2,0,P|366:182|397:141,1,100,2|0,0:0|0:0,0:0:0:0:
444,68,28414,2,0,L|384:68,1,50
344,68,28757,6,0,B|292:68|292:68|292:152,2,100,2|8|0,0:0|0:0|0:0,0:0:0:0:
352,116,29614,2,0,L|352:252,1,100
360,264,30128,2,0,B|412:264|412:264|412:180,2,100,2|8|2,0:0|0:0|0:0,0:0:0:0:
320,160,31157,1,2,0:0:0:0:
352,64,31500,6,0,B|314:36|262:96|261:64,1,100,8|8,0:0|0:0,0:0:0:0:
164,40,32185,2,8,B|132:84|192:136|132:154,1,100,8|0,0:0|0:0,0:0:0:0:
236,200,32871,2,0,P|160:244|128:232,1,100,2|2,0:0|0:0,0:0:0:0:
60,276,33557,2,0,P|62:188|90:167,1,100,2|0,0:0|0:0,0:0:0:0:
132,108,34242,6,0,P|170:77|219:79,1,100,8|8,0:0|0:0,0:0:0:0:
212,180,34928,2,0,L|256:228,2,50
280,104,35614,2,8,P|318:73|367:75,1,100
360,175,36300,2,0,L|393:211,2,50
460,172,36985,2,8,P|469:220|448:265,1,100
352,292,37671,6,0,L|228:291,1,100,2|0,0:0|0:0,0:0:0:0:
152,288,38357,2,0,P|142:239|163:194,2,100,8|8|0,0:0|0:0|0:0,0:0:0:0:
240,244,39385,1,0,0:0:0:0:
240,144,39728,1,8,0:0:0:0:
324,200,40071,6,0,L|324:68,1,100,8|0,0:0|0:0,0:0:0:0:
360,68,40585,2,0,L|360:168,1,100
396,204,41100,1,8,0:0:0:0:
340,284,41442,6,0,L|472:284,1,100,8|0,0:0|0:0,0:0:0:0:
472,320,41957,2,0,L|368:320,1,100
336,356,42471,2,0,L|280:356,2,50,8|0|8,0:0|0:0|0:0,0:0:0:0:
316,256,43157,2,0,L|315:206,1,50,2|0,0:0|0:0,0:0:0:0:
316,156,43500,1,2,0:0:0:0:
216,148,43842,2,0,L|216:198,1,50,2|0,0:0|0:0,0:0:0:0:
216,248,44185,6,0,B|197:294|121:226|73:266,1,150,2|0,0:0|0:0,0:0:0:0:
40,300,44871,1,2,0:0:0:0:
128,344,45214,1,8,0:0:0:0:
228,344,45557,1,2,0:0:0:0:
436,324,56528,6,0,L|436:248,1,50
392,248,56871,2,0,L|392:298,1,50
348,276,57214,2,0,L|348:196,1,50
348,176,57557,1,4,0:0:0:0:
252,196,57900,6,0,L|252:146,1,50
208,120,58243,2,0,L|208:170,1,50
164,148,58586,2,0,L|164:98,1,50
164,48,58929,1,4,0:0:0:0:
264,52,59271,6,0,L|316:52,1,50
364,52,59614,2,0,L|364:104,1,50
364,152,59957,2,0,L|304:152,1,50
264,152,60300,1,4,0:0:0:0:
208,236,60642,6,0,L|210:172,2,50
236,280,61157,2,0,L|292:222,2,50
196,312,61671,1,4,0:0:0:0:
128,236,62014,6,2,L|128:168,3,50
128,136,62700,2,0,L|128:72,3,50
172,108,63385,6,2,L|228:108,3,50
272,108,64071,2,0,L|332:108,3,50
344,64,64757,2,0,L|296:64,16,25,0|0|0|0|0|0|0|0|0|0|0|0|2|2|2|2|2,0:0|0:0|0:0|0:0|0:0|0:0|0:0|0:0|0:0|0:0|0:0|0:0|0:0|0:0|0:0|0:0|0:0,0:0:0:0:
244,80,66471,1,0,0:0:0:0:
144,80,66814,1,0,0:0:0:0:
194,166,67157,1,10,0:0:0:0:
288,196,67500,6,0,P|247:252|200:259,1,100,2|0,0:0|0:0,0:0:0:0:
126,229,68185,2,0,P|167:173|214:166,1,100
220,259,68871,2,0,L|284:259,1,50,2|0,0:0|0:0,0:0:0:0:
316,284,69214,1,2,0:0:0:0:
396,228,69557,2,0,L|346:228,1,50,2|0,0:0|0:0,0:0:0:0:
296,228,69900,2,0,P|251:210|237:163,1,100,8|8,0:0|0:0,0:0:0:0:
332,132,70585,6,0,P|318:85|273:67,1,100,8|8,0:0|0:0,0:0:0:0:
129,64,71271,2,0,P|157:122|200:128,1,100,8|8,0:0|0:0,0:0:0:0:
284,148,71957,2,0,L|284:198,2,50,2|0|0,0:0|0:0|0:0,0:0:0:0:
384,132,72642,2,0,L|384:82,2,50,2|0|0,0:0|0:0|0:0,0:0:0:0:
484,112,73328,6,0,P|485:172|458:209,1,100,2|0,0:0|0:0,0:0:0:0:
400,280,74014,1,2,0:0:0:0:
352,192,74357,2,0,L|352:112,1,50,2|0,0:0|0:0,0:0:0:0:
352,92,74700,2,0,L|352:12,2,50,2|0|0,0:0|0:0|0:0,0:0:0:0:
160,108,75385,2,0,P|144:32|160:8,1,100,2|2,0:0|0:0,0:0:0:0:
240,68,76071,6,0,L|240:180,1,100
328,216,76757,2,0,L|328:124,1,50,2|0,0:0|0:0,0:0:0:0:
288,136,77100,6,0,P|363:126|390:155,1,100,2|0,0:0|0:0,0:0:0:0:
444,212,77785,2,0,P|420:228|384:224,2,50,8|0|8,0:0|0:0|0:0,0:0:0:0:
416,308,78471,6,0,P|388:264|304:252,1,100,2|0,0:0|0:0,0:0:0:0:
328,292,78985,2,0,P|277:273|260:224,1,100,2|0,0:0|0:0,0:0:0:0:
256,184,79500,1,2,0:0:0:0:
256,192,79842,12,0,80871,0:0:0:0:
208,232,81557,6,0,P|260:252|304:240,2,100,2|0|2,0:0|0:0|0:0,0:0:0:0:
172,140,82585,2,0,P|220:124|268:148,1,100,2|0,0:0|0:0,0:0:0:0:
328,220,83271,2,0,P|352:216|384:224,1,50,0|0,0:3|0:0,0:0:0:0:
404,264,83614,2,0,P|428:268|452:264,1,50,0|0,0:3|0:0,0:0:0:0:
496,244,83957,6,0,P|424:232|393:248,1,100,2|0,0:0|0:0,0:0:0:0:
308,272,84642,2,0,L|308:152,1,100,2|0,0:0|0:0,0:0:0:0:
220,128,85328,2,0,L|172:176,1,50,2|0,0:0|0:0,0:0:0:0:
152,200,85671,2,0,P|184:264|244:268,2,100,2|0|2,0:0|0:0|0:0,0:0:0:0:
252,180,86700,6,0,P|220:116|160:112,1,100,2|0,0:0|0:0,0:0:0:0:
96,108,87385,2,0,P|128:172|188:176,2,100,0|2|2,0:0|0:0|0:0,0:0:0:0:
180,52,88414,1,0,0:0:0:0:
276,80,88757,1,0,0:0:0:0:
368,120,89100,1,0,0:0:0:0:
392,216,89442,6,0,B|356:232|320:200|292:220,1,100,4|0,0:0|0:0,0:0:0:0:
268,264,89957,2,0,B|304:248|340:280|376:256,1,100,4|0,0:0|0:0,0:0:0:0:
392,216,90471,2,0,P|382:190|364:172,1,50,4|0,0:0|0:0,0:0:0:0:
328,144,90814,6,0,B|292:128|256:160|224:140,1,100,4|0,0:0|0:0,0:0:0:0:
196,108,91328,2,0,B|232:124|268:92|300:116,1,100,4|0,0:0|0:0,0:0:0:0:
328,144,91842,2,0,P|318:169|304:188,1,50,4|0,0:0|0:0,0:0:0:0:
256,188,92185,6,0,P|288:256|336:264,1,100,4|0,0:0|0:0,0:0:0:0:
300,312,92700,2,0,P|346:286|364:236,1,100,4|0,0:0|0:0,0:0:0:0:
368,192,93214,2,0,L|376:132,1,50,4|0,0:0|0:0,0:0:0:0:
404,104,93557,6,0,L|404:216,1,100,4|0,0:0|0:0,0:0:0:0:
440,236,94071,2,0,L|440:116,1,100,4|0,0:0|0:0,0:0:0:0:
468,92,94585,2,0,P|444:74|416:72,1,50,4|0,0:0|0:0,0:0:0:0:
376,64,94928,6,0,L|276:64,1,100,4|0,0:0|0:0,0:0:0:0:
240,100,95442,2,0,L|140:100,1,100,4|0,0:0|0:0,0:0:0:0:
100,132,95957,2,0,P|75:135|51:128,1,50,4|0,0:0|0:0,0:0:0:0:
48,180,96300,6,0,L|113:255,1,100,4|0,0:0|0:0,0:0:0:0:
164,260,96814,2,0,L|226:337,1,100,4|0,0:0|0:0,0:0:0:0:
272,360,97329,2,0,P|296:357|316:343,1,50,4|0,0:0|0:0,0:0:0:0:
356,304,97671,6,0,L|248:304,1,100,4|0,0:0|0:0,0:0:0:0:
216,272,98185,2,0,L|328:272,1,100,4|0,0:0|0:0,0:0:0:0:
364,260,98700,2,0,P|390:265|416:256,1,50,4|0,0:0|0:0,0:0:0:0:
448,224,99042,2,0,P|364:184|316:188,1,100,4|0,0:0|0:0,0:0:0:0:
308,192,99557,6,0,P|254:183|212:152,1,100,4|0,0:0|0:0,0:0:0:0:
220,108,100071,2,0,P|184:104|148:128,1,50,4|0,0:0|0:0,0:0:0:0:
120,136,100414,6,0,B|88:216|156:264|156:264|136:356|204:400,1,300,4|0,0:0|0:0,0:0:0:0:
248,312,101785,2,0,B|304:288|352:212|352:212|268:172|204:184,1,300,4|0,0:0|0:0,0:0:0:0:
172,92,103157,6,0,B|250:57|301:123|301:123|392:100|438:166,1,300,4|0,0:0|0:0,0:0:0:0:
351,211,104528,2,0,B|328:267|254:318|254:318|211:235|221:171,1,300,4|0,0:0|0:0,0:0:0:0:
256,192,105900,12,0,111385,0:0:0:0:
256,192,126471,12,0,127500,0:0:0:0:
104,248,127842,6,0,L|104:112,1,100,2|0,0:0|0:0,0:0:0:0:
204,152,128528,2,0,L|204:252,1,100
304,251,129214,2,0,L|304:115,1,100,2|0,0:0|0:0,0:0:0:0:
312,24,129900,6,0,L|208:24,1,100
212,124,130585,2,0,L|316:124,1,100,2|0,0:0|0:0,0:0:0:0:
312,224,131271,2,0,L|204:224,1,100
112,236,131957,2,0,P|164:312|272:308,1,200,2|0,0:0|0:0,0:0:0:0:
364,296,132985,5,0,0:0:0:0:
364,296,133328,2,0,L|364:168,1,100,2|0,0:0|0:0,0:0:0:0:
272,156,134014,2,0,L|272:300,1,100
184,304,134700,2,0,L|184:160,1,100,2|0,0:0|0:0,0:0:0:0:
264,144,135385,2,0,L|384:144,1,100
304,224,136071,6,0,L|224:224,3,50,2|2|2|2,0:0|0:0|0:0|0:0,0:0:0:0:
268,272,136757,6,8,L|348:272,3,50
292,316,137442,6,0,L|292:364,8,25
256,120,138814,5,4,0:0:0:0:
268,220,139157,6,0,P|204:216|180:200,1,50
172,204,139500,1,2,0:0:0:0:
120,116,139842,2,0,P|184:120|208:136,1,50
216,132,140185,2,0,P|272:148|320:132,1,100,2|0,0:0|0:0,0:0:0:0:
404,104,140871,2,0,L|445:162,2,50,0|0|2,0:0|0:0|0:0,0:0:0:0:
311,137,141557,2,0,P|360:202|406:204,1,100,2|0,0:0|0:0,0:0:0:0:
384,284,142242,2,0,P|433:262|448:212,2,100,0|2|2,0:0|0:0|0:0,0:0:0:0:
320,208,143271,6,0,P|336:148|328:108,1,100
240,156,143957,2,0,P|192:144|153:172,2,100,2|2|0,0:0|0:0|0:0,0:0:0:0:
320,208,144985,2,0,P|284:239|248:232,2,50,0|0|2,0:0|0:0|0:0,0:0:0:0:
408,256,145671,6,0,P|413:206|403:157,1,100,2|0,0:0|0:0,0:0:0:0:
320,208,146357,2,0,P|304:255|310:304,1,100,0|2,0:0|0:0,0:0:0:0:
232,96,147042,2,0,P|232:48|258:6,2,50,2|0|0,0:0|0:0|0:0,0:0:0:0:
188,184,147728,2,0,P|257:202|286:176,1,100,2|2,0:0|0:0,0:0:0:0:
368,148,148414,6,0,P|382:214|350:249,1,100,2|0,0:0|0:0,0:0:0:0:
288,300,149100,1,0,0:0:0:0:
200,252,149442,1,2,0:0:0:0:
123,187,149785,2,0,P|122:139|154:102,1,100,2|0,0:0|0:0,0:0:0:0:
228,172,150471,2,0,P|276:163|324:175,1,100,0|2,0:0|0:0,0:0:0:0:
276,264,151157,6,0,P|337:275|404:248,1,100,2|0,0:0|0:0,0:0:0:0:
412,236,151671,1,0,0:0:0:0:
428,188,151842,2,0,L|428:116,2,50,0|0|2,0:0|0:0|0:0,0:0:0:0:
256,192,152528,12,2,153557,0:0:0:0:
256,192,154242,5,0,0:0:0:0:
352,160,154585,2,0,P|328:104|260:100,2,100,0|2|2,0:0|0:0|0:0,0:0:0:0:
352,260,155614,2,0,P|297:262|248:252,1,100
176,188,156300,2,2,P|212:176|292:176,1,100
368,208,156985,1,0,0:0:0:0:
436,280,157328,6,0,L|328:320,1,100,0|2,0:0|0:0,0:0:0:0:
244,324,158014,1,2,0:0:0:0:
342,314,158357,2,0,P|350:238|338:194,1,100
296,208,158871,1,0,0:0:0:0:
248,192,159042,2,0,P|240:116|256:72,2,100,2|2|0,0:0|0:0|0:0,0:0:0:0:
320,264,160071,6,0,P|248:252|236:240,1,50
224,248,160414,2,0,P|196:180|196:160,1,50,2|0,0:0|0:0,0:0:0:0:
200,156,160757,2,0,P|220:112|254:168,1,100,2|0,0:0|0:0,0:0:0:0:
340,188,161442,2,2,P|319:231|288:180,1,100
216,284,162128,6,0,B|176:140|176:140|136:300,1,300,4|0,0:0|0:0,0:0:0:0:
96,196,163500,2,0,P|173:94|256:208,1,300
176,144,164871,6,0,P|296:199|282:88,1,300,4|0,0:0|0:0,0:0:0:0:
264,188,166242,2,0,B|294:189|355:183|388:132|388:132|435:181|490:258,1,300
416,328,167614,6,0,B|357:254|357:254|291:290|196:280|184:200,1,300,4|0,0:0|0:0,0:0:0:0:
104,268,168985,2,0,B|63:198|60:87|169:31|211:35,1,300
260,120,170357,6,0,P|185:220|316:235,1,300,4|0,0:0|0:0,0:0:0:0:
220,196,171728,2,0,B|73:215|73:215|108:311|205:264|217:268,1,300
296,260,173100,6,0,B|443:241|443:241|408:145|311:192|299:188,1,300,4|0,0:0|0:0,0:0:0:0:
232,136,174471,2,0,P|333:226|314:130,1,300
432,200,175842,2,0,P|400:293|189:303,1,300,4|0,0:0|0:0,0:0:0:0:
144,260,177214,1,2,0:0:0:0:
256,192,177557,12,6,178585,0:0:0:0:
